  0
SECTION
  2
HEADER
  9
$ACADVER
  1
AC1018
  9
$ACADMAINTVER
 70
     0
  9
$DWGCODEPAGE
  3
ANSI_1252
  9
$INSBASE
 10
0.0
 20
0.0
 30
0.0
  9
$EXTMIN
 10
0.0
 20
0.0
 30
0.0
  9
$EXTMAX
 10
2100.0
 20
2970.0
 30
0.0
  9
$LIMMIN
 10
0.0
 20
0.0
  9
$LIMMAX
 10
2100.0
 20
2970.0
  9
$ORTHOMODE
 70
     0
  9
$REGENMODE
 70
     1
  9
$FILLMODE
 70
     1
  9
$QTEXTMODE
 70
     0
  9
$MIRRTEXT
 70
     1
  9
$LTSCALE
 40
10.0
  9
$ATTMODE
 70
     1
  9
$TEXTSIZE
 40
2.5
  9
$TRACEWID
 40
1.0
  9
$TEXTSTYLE
  7
Standard
  9
$CLAYER
  8
0
  9
$CELTYPE
  6
ByLayer
  9
$CECOLOR
 62
     7
  9
$CELTSCALE
 40
1.0
  9
$DISPSILH
 70
     0
  9
$DIMSCALE
 40
10.0
  9
$DIMASZ
 40
3.5
  9
$DIMEXO
 40
0.625
  9
$DIMDLI
 40
3.75
  9
$DIMRND
 40
0.0
  9
$DIMDLE
 40
0.0
  9
$DIMEXE
 40
1.25
  9
$DIMTP
 40
0.0
  9
$DIMTM
 40
0.0
  9
$DIMTXT
 40
3.5
  9
$DIMCEN
 40
2.5
  9
$DIMTSZ
 40
0.0
  9
$DIMTOL
 70
     0
  9
$DIMLIM
 70
     0
  9
$DIMTIH
 70
     0
  9
$DIMTOH
 70
     0
  9
$DIMSE1
 70
     0
  9
$DIMSE2
 70
     0
  9
$DIMTAD
 70
     1
  9
$DIMZIN
 70
     8
  9
$DIMBLK
  1

  9
$DIMASO
 70
     1
  9
$DIMSHO
 70
     1
  9
$DIMPOST
  1

  9
$DIMAPOST
  1

  9
$DIMALT
 70
     0
  9
$DIMALTD
 70
     3
  9
$DIMALTF
 40
0.03937
  9
$DIMLFAC
 40
1.0
  9
$DIMTOFL
 70
     1
  9
$DIMTVP
 40
0.0
  9
$DIMTIX
 70
     0
  9
$DIMSOXD
 70
     0
  9
$DIMSAH
 70
     0
  9
$DIMBLK1
  1

  9
$DIMBLK2
  1

  9
$DIMSTYLE
  2
ISO-25
  9
$DIMCLRD
 70
     0
  9
$DIMCLRE
 70
     0
  9
$DIMCLRT
 70
     0
  9
$DIMTFAC
 40
1.0
  9
$DIMGAP
 40
0.625
  9
$DIMJUST
 70
     0
  9
$DIMSD1
 70
     0
  9
$DIMSD2
 70
     0
  9
$DIMTOLJ
 70
     0
  9
$DIMTZIN
 70
     8
  9
$DIMALTZ
 70
     0
  9
$DIMALTTZ
 70
     0
  9
$DIMUPT
 70
     0
  9
$DIMDEC
 70
     2
  9
$DIMTDEC
 70
     2
  9
$DIMALTU
 70
     2
  9
$DIMALTTD
 70
     3
  9
$DIMTXSTY
  7
Standard
  9
$DIMAUNIT
 70
     0
  9
$DIMADEC
 70
     0
  9
$DIMALTRND
 40
0.0
  9
$DIMAZIN
 70
     0
  9
$DIMDSEP
 70
    44
  9
$DIMATFIT
 70
     3
  9
$DIMFRAC
 70
     0
  9
$DIMLDRBLK
  1

  9
$DIMLUNIT
 70
     2
  9
$DIMLWD
 70
    -2
  9
$DIMLWE
 70
    -2
  9
$DIMTMOVE
 70
     0
  9
$LUNITS
 70
     2
  9
$LUPREC
 70
     4
  9
$SKETCHINC
 40
1.0
  9
$FILLETRAD
 40
10.0
  9
$AUNITS
 70
     0
  9
$AUPREC
 70
     0
  9
$MENU
  1
.
  9
$ELEVATION
 40
0.0
  9
$PELEVATION
 40
0.0
  9
$THICKNESS
 40
0.0
  9
$LIMCHECK
 70
     0
  9
$CHAMFERA
 40
10.0
  9
$CHAMFERB
 40
10.0
  9
$CHAMFERC
 40
20.0
  9
$CHAMFERD
 40
0.0
  9
$SKPOLY
 70
     0
  9
$TDCREATE
 40
2456729.630370683
  9
$TDUCREATE
 40
2456729.588704016
  9
$TDUPDATE
 40
2456729.630370694
  9
$TDUUPDATE
 40
2456729.588704028
  9
$TDINDWG
 40
0.0000000116
  9
$TDUSRTIMER
 40
0.0000000116
  9
$USRTIMER
 70
     1
  9
$ANGBASE
 50
0.0
  9
$ANGDIR
 70
     0
  9
$PDMODE
 70
     0
  9
$PDSIZE
 40
0.0
  9
$PLINEWID
 40
0.0
  9
$SPLFRAME
 70
     0
  9
$SPLINETYPE
 70
     6
  9
$SPLINESEGS
 70
     8
  9
$HANDSEED
  5
33E
  9
$SURFTAB1
 70
     6
  9
$SURFTAB2
 70
     6
  9
$SURFTYPE
 70
     6
  9
$SURFU
 70
     6
  9
$SURFV
 70
     6
  9
$UCSBASE
  2

  9
$UCSNAME
  2

  9
$UCSORG
 10
0.0
 20
0.0
 30
0.0
  9
$UCSXDIR
 10
1.0
 20
0.0
 30
0.0
  9
$UCSYDIR
 10
0.0
 20
1.0
 30
0.0
  9
$UCSORTHOREF
  2

  9
$UCSORTHOVIEW
 70
     0
  9
$UCSORGTOP
 10
0.0
 20
0.0
 30
0.0
  9
$UCSORGBOTTOM
 10
0.0
 20
0.0
 30
0.0
  9
$UCSORGLEFT
 10
0.0
 20
0.0
 30
0.0
  9
$UCSORGRIGHT
 10
0.0
 20
0.0
 30
0.0
  9
$UCSORGFRONT
 10
0.0
 20
0.0
 30
0.0
  9
$UCSORGBACK
 10
0.0
 20
0.0
 30
0.0
  9
$PUCSBASE
  2

  9
$PUCSNAME
  2

  9
$PUCSORG
 10
0.0
 20
0.0
 30
0.0
  9
$PUCSXDIR
 10
1.0
 20
0.0
 30
0.0
  9
$PUCSYDIR
 10
0.0
 20
1.0
 30
0.0
  9
$PUCSORTHOREF
  2

  9
$PUCSORTHOVIEW
 70
     0
  9
$PUCSORGTOP
 10
0.0
 20
0.0
 30
0.0
  9
$PUCSORGBOTTOM
 10
0.0
 20
0.0
 30
0.0
  9
$PUCSORGLEFT
 10
0.0
 20
0.0
 30
0.0
  9
$PUCSORGRIGHT
 10
0.0
 20
0.0
 30
0.0
  9
$PUCSORGFRONT
 10
0.0
 20
0.0
 30
0.0
  9
$PUCSORGBACK
 10
0.0
 20
0.0
 30
0.0
  9
$USERI1
 70
     0
  9
$USERI2
 70
     0
  9
$USERI3
 70
     0
  9
$USERI4
 70
     0
  9
$USERI5
 70
     0
  9
$USERR1
 40
0.0
  9
$USERR2
 40
0.0
  9
$USERR3
 40
0.0
  9
$USERR4
 40
0.0
  9
$USERR5
 40
0.0
  9
$WORLDVIEW
 70
     1
  9
$SHADEDGE
 70
     3
  9
$SHADEDIF
 70
    70
  9
$TILEMODE
 70
     1
  9
$MAXACTVP
 70
    64
  9
$PINSBASE
 10
0.0
 20
0.0
 30
0.0
  9
$PLIMCHECK
 70
     0
  9
$PEXTMIN
 10
0.0
 20
0.0
 30
0.0
  9
$PEXTMAX
 10
2100.0
 20
2970.0
 30
0.0
  9
$PLIMMIN
 10
0.0
 20
0.0
  9
$PLIMMAX
 10
2100.0
 20
2970.0
  9
$UNITMODE
 70
     0
  9
$VISRETAIN
 70
     1
  9
$PLINEGEN
 70
     0
  9
$PSLTSCALE
 70
     1
  9
$TREEDEPTH
 70
  3020
  9
$CMLSTYLE
  2
Standard
  9
$CMLJUST
 70
     0
  9
$CMLSCALE
 40
20.0
  9
$PROXYGRAPHICS
 70
     1
  9
$MEASUREMENT
 70
     1
  9
$CELWEIGHT
370
    -1
  9
$ENDCAPS
280
     0
  9
$JOINSTYLE
280
     0
  9
$LWDISPLAY
290
     0
  9
$INSUNITS
 70
     4
  9
$HYPERLINKBASE
  1

  9
$STYLESHEET
  1

  9
$XEDIT
290
     1
  9
$CEPSNTYPE
380
     0
  9
$PSTYLEMODE
290
     1
  9
$FINGERPRINTGUID
  2
{FAEB1C30-E019-11D5-929B-00C0DF256EC4}
  9
$VERSIONGUID
  2
{FAEB1C32-E019-11D5-929B-00C0DF256EC4}
  9
$EXTNAMES
290
     1
  9
$PSVPSCALE
 40
0.0
  9
$OLESTARTUP
290
     0
  9
$SORTENTS
280
   127
  9
$INDEXCTL
280
     0
  9
$HIDETEXT
280
     1
  9
$XCLIPFRAME
290
     0
  9
$HALOGAP
280
     0
  9
$OBSCOLOR
 70
   257
  9
$OBSLTYPE
280
     0
  9
$INTERSECTIONDISPLAY
280
     0
  9
$INTERSECTIONCOLOR
 70
   257
  9
$DIMASSOC
280
     2
  9
$PROJECTNAME
  1

  0
ENDSEC
  0
SECTION
  2
CLASSES
  0
CLASS
  1
ACDBDICTIONARYWDFLT
  2
AcDbDictionaryWithDefault
  3
ObjectDBX Classes
 90
        0
 91
        1
280
     0
281
     0
  0
ENDSEC
  0
SECTION
  2
TABLES
  0
TABLE
  2
VPORT
  5
8
330
0
100
AcDbSymbolTable
 70
     2
  0
VPORT
  5
29
330
8
100
AcDbSymbolTableRecord
100
AcDbViewportTableRecord
  2
*ACTIVE
 70
     0
 10
0.0
 20
0.0
 11
1.0
 21
1.0
 12
1050.0
 22
1485.0
 13
0.0
 23
0.0
 14
1.0
 24
1.0
 15
0.0
 25
0.0
 16
0.0
 26
0.0
 36
1.0
 17
0.0
 27
0.0
 37
0.0
 40
2970.0
 41
0.707071
 42
50.0
 43
0.0
 44
0.0
 50
0.0
 51
0.0
 71
    16
 72
   100
 73
     1
 74
     0
 75
     0
 76
     0
 77
     0
 78
     0
281
     0
 65
     0
110
0.0
120
0.0
130
0.0
111
1.0
121
0.0
131
0.0
112
0.0
122
1.0
132
0.0
 79
     0
146
0.0
  0
ENDTAB
  0
TABLE
  2
LTYPE
  5
5
330
0
100
AcDbSymbolTable
 70
     3
  0
LTYPE
  5
14
330
5
100
AcDbSymbolTableRecord
100
AcDbLinetypeTableRecord
  2
ByBlock
 70
     0
  3

 72
    65
 73
     0
 40
0.0
  0
LTYPE
  5
15
330
5
100
AcDbSymbolTableRecord
100
AcDbLinetypeTableRecord
  2
ByLayer
 70
     0
  3

 72
    65
 73
     0
 40
0.0
  0
LTYPE
  5
16
330
5
100
AcDbSymbolTableRecord
100
AcDbLinetypeTableRecord
  2
Continuous
 70
     0
  3
Solid line
 72
    65
 73
     0
 40
0.0
  0
LTYPE
  5
2A
330
5
100
AcDbSymbolTableRecord
100
AcDbLinetypeTableRecord
  2
DASHED
 70
     0
  3
__ __ __ __ __
 72
    65
 73
     2
 40
6.25
 49
5.0
 74
     4
 75
     0
340
0
 46
1.0
 50
0.0
 44
0.0
 45
0.0
 49
-1.25
 74
     4
 75
     0
340
0
 46
1.0
 50
0.0
 44
0.0
 45
0.0
  0
LTYPE
  5
2FE
330
5
100
AcDbSymbolTableRecord
100
AcDbLinetypeTableRecord
  2
DASHDOT
 70
     0
  3
__ . __ . __ . __ . __
 72
    65
 73
     4
 40
7.5
 49
5.0
 74
     4
 75
     0
340
0
 46
1.0
 50
0.0
 44
0.0
 45
0.0
 49
-1.25
 74
     4
 75
     0
340
0
 46
1.0
 50
0.0
 44
0.0
 45
0.0
 49
0.0
 74
     4
 75
     0
340
0
 46
1.0
 50
0.0
 44
0.0
 45
0.0
 49
-1.25
 74
     4
 75
     0
340
0
 46
1.0
 50
0.0
 44
0.0
 45
0.0
  0
ENDTAB
  0
TABLE
  2
LAYER
  5
2
330
0
100
AcDbSymbolTable
 70
    14
  0
LAYER
  5
10
330
2
100
AcDbSymbolTableRecord
100
AcDbLayerTableRecord
  2
0
 70
     0
 62
     7
  6
Continuous
370
    -3
390
F
  0
LAYER
  5
2B
330
2
100
AcDbSymbolTableRecord
100
AcDbLayerTableRecord
  2
LC-INFO-1-10-mm-A4H-0
 70
     1
 62
     7
  6
ByBlock
370
    -3
390
F
  0
LAYER
  5
2C
330
2
100
AcDbSymbolTableRecord
100
AcDbLayerTableRecord
  2
LC-CUT-HIDDEN
 70
     0
 62
     7
  6
DASHED
370
    -3
390
F
  0
LAYER
  5
2D
330
2
100
AcDbSymbolTableRecord
100
AcDbLayerTableRecord
  2
LC-VIEWPORT
 70
     0
 62
     7
  6
ByBlock
370
    -3
390
F
  0
LAYER
  5
2E
330
2
100
AcDbSymbolTableRecord
100
AcDbLayerTableRecord
  2
LC-3D-HIDDEN
 70
     0
 62
     9
  6
DASHED
370
    -3
390
F
  0
LAYER
  5
33
330
2
100
AcDbSymbolTableRecord
100
AcDbLayerTableRecord
  2
LC-001-111-----0
 70
     0
 62
   253
  6
ByBlock
370
    -3
390
F
  0
LAYER
  5
A2
330
2
100
AcDbSymbolTableRecord
100
AcDbLayerTableRecord
  2
LC-002-002-----0
 70
     0
 62
     1
  6
ByBlock
370
    -3
390
F
  0
LAYER
  5
104
330
2
100
AcDbSymbolTableRecord
100
AcDbLayerTableRecord
  2
LC-003-230-ZVN-0
 70
     0
 62
     1
  6
ByBlock
370
    -3
390
F
  0
LAYER
  5
106
330
2
100
AcDbSymbolTableRecord
100
AcDbLayerTableRecord
  2
LC-004-002-RND-0
 70
     0
 62
     1
  6
ByBlock
370
    -3
390
F
  0
LAYER
  5
112
330
2
100
AcDbSymbolTableRecord
100
AcDbLayerTableRecord
  2
LC-005-003-----0
 70
     0
 62
     2
  6
ByBlock
370
    -3
390
F
  0
LAYER
  5
114
330
2
100
AcDbSymbolTableRecord
100
AcDbLayerTableRecord
  2
Defpoints
 70
     0
 62
     7
  6
Continuous
290
     0
370
    -3
390
F
  0
LAYER
  5
1D5
330
2
100
AcDbSymbolTableRecord
100
AcDbLayerTableRecord
  2
LC-006-005-----0
 70
     0
 62
     2
  6
ByBlock
370
    -3
390
F
  0
LAYER
  5
20A
330
2
100
AcDbSymbolTableRecord
100
AcDbLayerTableRecord
  2
LC-007-004-----0
 70
     0
 62
     7
  6
ByBlock
370
    -3
390
F
  0
LAYER
  5
2E6
330
2
100
AcDbSymbolTableRecord
100
AcDbLayerTableRecord
  2
LC-008-003-MTG-0
 70
     0
 62
     2
  6
ByBlock
370
    -3
390
F
  0
ENDTAB
  0
TABLE
  2
STYLE
  5
3
330
0
100
AcDbSymbolTable
 70
     2
  0
STYLE
  5
11
330
3
100
AcDbSymbolTableRecord
100
AcDbTextStyleTableRecord
  2
Standard
 70
     0
 40
0.0
 41
1.0
 50
0.0
 71
     0
 42
2.5
  3
txt
  4

  0
STYLE
  5
2F
330
3
100
AcDbSymbolTableRecord
100
AcDbTextStyleTableRecord
  2
LCTX0-400-0-0pDIN-Schrift
 70
     0
 40
0.0
 41
0.7
 50
0.0
 71
     0
 42
3.5
  3
TXT
  4

  0
ENDTAB
  0
TABLE
  2
VIEW
  5
6
330
0
100
AcDbSymbolTable
 70
     0
  0
ENDTAB
  0
TABLE
  2
UCS
  5
7
330
0
100
AcDbSymbolTable
 70
     0
  0
ENDTAB
  0
TABLE
  2
APPID
  5
9
330
0
100
AcDbSymbolTable
 70
     1
  0
APPID
  5
12
330
9
100
AcDbSymbolTableRecord
100
AcDbRegAppTableRecord
  2
ACAD
 70
     0
  0
ENDTAB
  0
TABLE
  2
DIMSTYLE
  5
A
330
0
100
AcDbSymbolTable
 70
     7
100
AcDbDimStyleTable
  0
DIMSTYLE
105
27
330
A
100
AcDbSymbolTableRecord
100
AcDbDimStyleTableRecord
  2
ISO-25
 70
     0
 41
2.5
 42
0.625
 43
3.75
 44
1.25
 73
     0
 74
     0
 77
     1
 78
     8
140
2.5
141
2.5
143
0.03937
147
0.625
171
     3
172
     1
271
     2
272
     2
274
     3
278
    44
283
     0
284
     8
340
11
  0
DIMSTYLE
105
111
102
{ACAD_REACTORS
330
113
330
121
330
12F
330
13C
330
161
330
16E
330
17B
330
188
330
1A5
330
1B4
330
1C3
330
2C3
102
}
330
A
100
AcDbSymbolTableRecord
100
AcDbDimStyleTableRecord
  2
LC-DIM-L-0025-02-02
 70
     0
 40
10.0
 41
2.5
 42
0.0
 43
7.5
 44
1.8
 73
     0
 74
     0
 77
     1
 78
     8
 79
     2
140
2.5
141
0.0
146
0.71
147
1.5
172
     1
176
     2
177
     2
178
     2
179
     2
271
     2
278
    44
289
     1
340
2F
  0
DIMSTYLE
105
14A
102
{ACAD_REACTORS
330
14B
330
156
102
}
330
A
100
AcDbSymbolTableRecord
100
AcDbDimStyleTableRecord
  2
LC-DIM-L-0025-02-32
 70
     0
 40
10.0
 41
2.5
 42
0.0
 43
7.5
 44
1.8
 73
     0
 74
     0
 75
     1
 76
     1
 77
     1
 78
     8
 79
     2
140
2.5
141
0.0
146
0.71
147
1.5
172
     1
176
     2
177
     2
178
     2
179
     2
271
     2
278
    44
289
     1
340
2F
  0
DIMSTYLE
105
197
102
{ACAD_REACTORS
330
198
102
}
330
A
100
AcDbSymbolTableRecord
100
AcDbDimStyleTableRecord
  2
LC-DIM-L-0025-00-02
 70
     0
 40
10.0
 41
2.5
 42
0.0
 43
7.5
 44
1.8
 73
     0
 74
     0
 77
     1
 78
     8
140
2.5
141
0.0
146
0.71
147
1.5
172
     1
176
     2
177
     2
178
     2
271
     0
278
    44
289
     1
340
2F
  0
DIMSTYLE
105
20E
102
{ACAD_REACTORS
330
20F
102
}
330
A
100
AcDbSymbolTableRecord
100
AcDbDimStyleTableRecord
  2
LC-DIM-L-0025-02-22
 70
     0
 40
10.0
 41
2.5
 42
0.0
 43
7.5
 44
1.8
 73
     0
 74
     0
 75
     1
 77
     1
 78
     8
 79
     2
140
2.5
141
0.0
146
0.71
147
1.5
172
     1
176
     2
177
     2
178
     2
179
     2
271
     2
278
    44
289
     1
340
2F
  0
DIMSTYLE
105
2A9
102
{ACAD_REACTORS
330
2AA
102
}
330
A
100
AcDbSymbolTableRecord
100
AcDbDimStyleTableRecord
  2
LC-DIM-L-0025-01-02
 70
     0
 40
10.0
 41
2.5
 42
0.0
 43
7.5
 44
1.8
 73
     0
 74
     0
 77
     1
 78
     8
 79
     2
140
2.5
141
0.0
146
0.71
147
1.5
172
     1
176
     2
177
     2
178
     2
179
     1
271
     1
278
    44
289
     1
340
2F
  0
DIMSTYLE
105
2D1
102
{ACAD_REACTORS
330
2D2
330
2DC
330
311
102
}
330
A
100
AcDbSymbolTableRecord
100
AcDbDimStyleTableRecord
  2
LC-DIM-R-0025-02-02
 70
     0
 40
10.0
 41
2.5
 42
0.0
 43
7.5
 44
1.8
 73
     0
 77
     1
 78
     8
 79
     2
140
2.5
141
0.0
146
0.71
147
1.5
176
     2
177
     2
178
     2
179
     2
271
     2
278
    44
289
     1
340
2F
  0
ENDTAB
  0
TABLE
  2
BLOCK_RECORD
  5
1
330
0
100
AcDbSymbolTable
 70
    25
  0
BLOCK_RECORD
  5
1F
330
1
100
AcDbSymbolTableRecord
100
AcDbBlockTableRecord
  2
*Model_Space
340
22
  0
BLOCK_RECORD
  5
1B
330
1
100
AcDbSymbolTableRecord
100
AcDbBlockTableRecord
  2
*Paper_Space
340
1E
  0
BLOCK_RECORD
  5
23
330
1
100
AcDbSymbolTableRecord
100
AcDbBlockTableRecord
  2
*Paper_Space0
340
26
  0
BLOCK_RECORD
  5
30
330
1
100
AcDbSymbolTableRecord
100
AcDbBlockTableRecord
  2
SYM1
340
0
102
{BLKREFS
331
105
102
}
  0
BLOCK_RECORD
  5
115
330
1
100
AcDbSymbolTableRecord
100
AcDbBlockTableRecord
  2
*D2
340
0
  0
BLOCK_RECORD
  5
122
330
1
100
AcDbSymbolTableRecord
100
AcDbBlockTableRecord
  2
*D3
340
0
  0
BLOCK_RECORD
  5
130
330
1
100
AcDbSymbolTableRecord
100
AcDbBlockTableRecord
  2
*D4
340
0
  0
BLOCK_RECORD
  5
13D
330
1
100
AcDbSymbolTableRecord
100
AcDbBlockTableRecord
  2
*D5
340
0
  0
BLOCK_RECORD
  5
14C
330
1
100
AcDbSymbolTableRecord
100
AcDbBlockTableRecord
  2
*D6
340
0
  0
BLOCK_RECORD
  5
157
330
1
100
AcDbSymbolTableRecord
100
AcDbBlockTableRecord
  2
*D7
340
0
  0
BLOCK_RECORD
  5
162
330
1
100
AcDbSymbolTableRecord
100
AcDbBlockTableRecord
  2
*D8
340
0
  0
BLOCK_RECORD
  5
16F
330
1
100
AcDbSymbolTableRecord
100
AcDbBlockTableRecord
  2
*D9
340
0
  0
BLOCK_RECORD
  5
17C
330
1
100
AcDbSymbolTableRecord
100
AcDbBlockTableRecord
  2
*D10
340
0
  0
BLOCK_RECORD
  5
189
330
1
100
AcDbSymbolTableRecord
100
AcDbBlockTableRecord
  2
*D11
340
0
  0
BLOCK_RECORD
  5
199
330
1
100
AcDbSymbolTableRecord
100
AcDbBlockTableRecord
  2
*D12
340
0
  0
BLOCK_RECORD
  5
1A6
330
1
100
AcDbSymbolTableRecord
100
AcDbBlockTableRecord
  2
*D13
340
0
  0
BLOCK_RECORD
  5
1B5
330
1
100
AcDbSymbolTableRecord
100
AcDbBlockTableRecord
  2
*D14
340
0
  0
BLOCK_RECORD
  5
1C4
330
1
100
AcDbSymbolTableRecord
100
AcDbBlockTableRecord
  2
*D15
340
0
  0
BLOCK_RECORD
  5
1D2
330
1
100
AcDbSymbolTableRecord
100
AcDbBlockTableRecord
  2
*X116
340
0
102
{BLKREFS
331
209
102
}
  0
BLOCK_RECORD
  5
210
330
1
100
AcDbSymbolTableRecord
100
AcDbBlockTableRecord
  2
*D17
340
0
  0
BLOCK_RECORD
  5
2AB
330
1
100
AcDbSymbolTableRecord
100
AcDbBlockTableRecord
  2
*D18
340
0
  0
BLOCK_RECORD
  5
2C4
330
1
100
AcDbSymbolTableRecord
100
AcDbBlockTableRecord
  2
*D19
340
0
  0
BLOCK_RECORD
  5
2D3
330
1
100
AcDbSymbolTableRecord
100
AcDbBlockTableRecord
  2
*D20
340
0
  0
BLOCK_RECORD
  5
2DD
330
1
100
AcDbSymbolTableRecord
100
AcDbBlockTableRecord
  2
*D21
340
0
  0
BLOCK_RECORD
  5
305
330
1
100
AcDbSymbolTableRecord
100
AcDbBlockTableRecord
  2
*X222
340
0
102
{BLKREFS
331
30F
102
}
  0
BLOCK_RECORD
  5
312
330
1
100
AcDbSymbolTableRecord
100
AcDbBlockTableRecord
  2
*D23
340
0
  0
BLOCK_RECORD
  5
325
330
1
100
AcDbSymbolTableRecord
100
AcDbBlockTableRecord
  2
*X324
340
0
102
{BLKREFS
331
335
102
}
  0
ENDTAB
  0
ENDSEC
  0
SECTION
  2
BLOCKS
  0
BLOCK
  5
20
330
1F
100
AcDbEntity
  8
0
100
AcDbBlockBegin
  2
*Model_Space
 70
     0
 71
     0
 10
0.0
 20
0.0
 30
0.0
  3
*Model_Space
  1

  0
ENDBLK
  5
21
330
1F
100
AcDbEntity
  8
0
100
AcDbBlockEnd
  0
BLOCK
  5
1C
330
1B
100
AcDbEntity
 67
     1
  8
0
100
AcDbBlockBegin
  2
*Paper_Space
 70
     0
 71
     0
 10
0.0
 20
0.0
 30
0.0
  3
*Paper_Space
  1

  0
ENDBLK
  5
1D
330
1B
100
AcDbEntity
 67
     1
  8
0
100
AcDbBlockEnd
  0
BLOCK
  5
24
330
23
100
AcDbEntity
  8
0
100
AcDbBlockBegin
  2
*Paper_Space0
 70
     0
 71
     0
 10
0.0
 20
0.0
 30
0.0
  3
*Paper_Space0
  1

  0
ENDBLK
  5
25
330
23
100
AcDbEntity
  8
0
100
AcDbBlockEnd
  0
BLOCK
  5
31
330
30
100
AcDbEntity
  8
0
100
AcDbBlockBegin
  2
SYM1
 70
     0
 71
     0
 10
0.0
 20
0.0
 30
0.0
  3
SYM1
  1

  4
SYM1
  0
LINE
  5
34
330
30
100
AcDbEntity
  8
LC-001-111-----0
 62
   253
370
    50
100
AcDbLine
 10
2050.0
 20
50.0
 30
0.0
 11
2050.0
 21
2920.0
 31
0.0
  0
LINE
  5
35
330
30
100
AcDbEntity
  8
LC-001-111-----0
 62
   253
370
    25
100
AcDbLine
 10
178.0
 20
220.0
 30
0.0
 11
724.0
 21
220.0
 31
0.0
  0
LINE
  5
36
330
30
100
AcDbEntity
  8
LC-001-111-----0
 62
   253
370
    35
100
AcDbLine
 10
724.0
 20
220.0
 30
0.0
 11
2050.0
 21
220.0
 31
0.0
  0
LINE
  5
37
330
30
100
AcDbEntity
  8
LC-001-111-----0
 62
   253
370
    50
100
AcDbLine
 10
178.0
 20
602.5
 30
0.0
 11
2050.0
 21
602.5
 31
0.0
  0
LINE
  5
38
330
30
100
AcDbEntity
  8
LC-001-111-----0
 62
   253
370
    25
100
AcDbLine
 10
178.0
 20
92.5
 30
0.0
 11
2050.0
 21
92.5
 31
0.0
  0
LINE
  5
39
330
30
100
AcDbEntity
  8
LC-001-111-----0
 62
   253
370
    25
100
AcDbLine
 10
178.0
 20
135.0
 30
0.0
 11
724.0
 21
135.0
 31
0.0
  0
LINE
  5
3A
330
30
100
AcDbEntity
  8
LC-001-111-----0
 62
   253
370
    25
100
AcDbLine
 10
178.0
 20
177.5
 30
0.0
 11
724.0
 21
177.5
 31
0.0
  0
LINE
  5
3B
330
30
100
AcDbEntity
  8
LC-001-111-----0
 62
   253
370
    25
100
AcDbLine
 10
178.0
 20
262.5
 30
0.0
 11
1166.0
 21
262.5
 31
0.0
  0
LINE
  5
3C
330
30
100
AcDbEntity
  8
LC-001-111-----0
 62
   253
370
    25
100
AcDbLine
 10
178.0
 20
305.0
 30
0.0
 11
1166.0
 21
305.0
 31
0.0
  0
LINE
  5
3D
330
30
100
AcDbEntity
  8
LC-001-111-----0
 62
   253
370
    25
100
AcDbLine
 10
178.0
 20
347.5
 30
0.0
 11
1166.0
 21
347.5
 31
0.0
  0
LINE
  5
3E
330
30
100
AcDbEntity
  8
LC-001-111-----0
 62
   253
370
    25
100
AcDbLine
 10
178.0
 20
390.0
 30
0.0
 11
1166.0
 21
390.0
 31
0.0
  0
LINE
  5
3F
330
30
100
AcDbEntity
  8
LC-001-111-----0
 62
   253
370
    35
100
AcDbLine
 10
178.0
 20
432.5
 30
0.0
 11
2050.0
 21
432.5
 31
0.0
  0
LINE
  5
40
330
30
100
AcDbEntity
  8
LC-001-111-----0
 62
   253
370
    25
100
AcDbLine
 10
828.0
 20
262.5
 30
0.0
 11
828.0
 21
432.5
 31
0.0
  0
LINE
  5
41
330
30
100
AcDbEntity
  8
LC-001-111-----0
 62
   253
370
    35
100
AcDbLine
 10
1920.0
 20
92.5
 30
0.0
 11
1920.0
 21
220.0
 31
0.0
  0
LINE
  5
42
330
30
100
AcDbEntity
  8
LC-001-111-----0
 62
   253
370
    25
100
AcDbLine
 10
1166.0
 20
538.75
 30
0.0
 11
2050.0
 21
538.75
 31
0.0
  0
LINE
  5
43
330
30
100
AcDbEntity
  8
LC-001-111-----0
 62
   253
370
    25
100
AcDbLine
 10
256.0
 20
50.0
 30
0.0
 11
256.0
 21
432.5
 31
0.0
  0
LINE
  5
44
330
30
100
AcDbEntity
  8
LC-001-111-----0
 62
   253
370
    25
100
AcDbLine
 10
516.0
 20
50.0
 30
0.0
 11
516.0
 21
432.5
 31
0.0
  0
LINE
  5
45
330
30
100
AcDbEntity
  8
LC-001-111-----0
 62
   253
370
    25
100
AcDbLine
 10
646.0
 20
50.0
 30
0.0
 11
646.0
 21
432.5
 31
0.0
  0
LINE
  5
46
330
30
100
AcDbEntity
  8
LC-001-111-----0
 62
   253
370
    35
100
AcDbLine
 10
724.0
 20
50.0
 30
0.0
 11
724.0
 21
602.5
 31
0.0
  0
LINE
  5
47
330
30
100
AcDbEntity
  8
LC-001-111-----0
 62
   253
370
    35
100
AcDbLine
 10
1166.0
 20
50.0
 30
0.0
 11
1166.0
 21
602.5
 31
0.0
  0
LINE
  5
48
330
30
100
AcDbEntity
  8
LC-001-111-----0
 62
   253
370
    25
100
AcDbLine
 10
1920.0
 20
135.0
 30
0.0
 11
2050.0
 21
135.0
 31
0.0
  0
LINE
  5
49
330
30
100
AcDbEntity
  8
LC-001-111-----0
 62
   253
370
    25
100
AcDbLine
 10
984.0
 20
220.0
 30
0.0
 11
984.0
 21
602.5
 31
0.0
  0
LINE
  5
4A
330
30
100
AcDbEntity
  8
LC-001-111-----0
 62
   253
370
    25
100
AcDbLine
 10
1686.0
 20
538.75
 30
0.0
 11
1686.0
 21
602.5
 31
0.0
  0
LINE
  5
4B
330
30
100
AcDbEntity
  8
LC-001-111-----0
 62
   253
370
    25
100
AcDbLine
 10
1608.0
 20
50.0
 30
0.0
 11
1608.0
 21
92.5
 31
0.0
  0
LINE
  5
4C
330
30
100
AcDbEntity
  8
LC-001-111-----0
 62
   253
370
    50
100
AcDbLine
 10
178.0
 20
50.0
 30
0.0
 11
178.0
 21
2920.0
 31
0.0
  0
LINE
  5
4D
330
30
100
AcDbEntity
  8
LC-001-111-----0
 62
   253
370
    50
100
AcDbLine
 10
178.0
 20
2920.0
 30
0.0
 11
2050.0
 21
2920.0
 31
0.0
  0
TEXT
  5
4E
330
30
100
AcDbEntity
  8
LC-001-111-----0
 62
     7
370
    25
100
AcDbText
 10
1414.9
 20
558.125
 30
0.0
 40
25.0
  1
1:10  -  mm
 41
0.75
  7
LCTX0-400-0-0pDIN-Schrift
 72
     1
 11
1504.0
 21
558.125
 31
0.0
100
AcDbText
  0
TEXT
  5
4F
330
30
100
AcDbEntity
  8
LC-001-111-----0
 62
     7
370
    25
100
AcDbText
 10
1948.821875
 20
101.25
 30
0.0
 40
25.0
  1
1
 41
0.75
  7
LCTX0-400-0-0pDIN-Schrift
 72
     1
 11
1955.0
 21
101.25
 31
0.0
100
AcDbText
  0
TEXT
  5
50
330
30
100
AcDbEntity
  8
LC-001-111-----0
 62
     7
370
    25
100
AcDbText
 10
743.178125
 20
398.75
 30
0.0
 40
25.0
  1
2013
 41
0.75
  7
LCTX0-400-0-0pDIN-Schrift
 72
     1
 11
776.0
 21
398.75
 31
0.0
100
AcDbText
  0
TEXT
  5
51
330
30
100
AcDbEntity
  8
LC-001-111-----0
 62
     7
370
    25
100
AcDbText
 10
870.01875
 20
356.25
 30
0.0
 40
25.0
  1
10.12.
 41
0.75
  7
LCTX0-400-0-0pDIN-Schrift
 72
     1
 11
906.0
 21
356.25
 31
0.0
100
AcDbText
  0
TEXT
  5
52
330
30
100
AcDbEntity
  8
LC-001-111-----0
 62
     7
370
    25
100
AcDbText
 10
1056.25
 20
356.25
 30
0.0
 40
25.0
  1
KM
 41
0.75
  7
LCTX0-400-0-0pDIN-Schrift
 72
     1
 11
1075.0
 21
356.25
 31
0.0
100
AcDbText
  0
TEXT
  5
53
330
30
100
AcDbEntity
  8
LC-001-111-----0
 62
   253
370
    20
100
AcDbText
 10
1183.923077
 20
560.625
 30
0.0
 40
20.0
  1
Maßstab
 41
0.75
  7
LCTX0-400-0-0pDIN-Schrift
100
AcDbText
  0
TEXT
  5
54
330
30
100
AcDbEntity
  8
LC-001-111-----0
 62
   253
370
    20
100
AcDbText
 10
868.4175
 20
401.25
 30
0.0
 40
20.0
  1
Datum
 41
0.75
  7
LCTX0-400-0-0pDIN-Schrift
 72
     1
 11
906.0
 21
401.25
 31
0.0
100
AcDbText
  0
TEXT
  5
55
330
30
100
AcDbEntity
  8
LC-001-111-----0
 62
   253
370
    20
100
AcDbText
 10
1044.9625
 20
401.25
 30
0.0
 40
20.0
  1
Name
 41
0.75
  7
LCTX0-400-0-0pDIN-Schrift
 72
     1
 11
1075.0
 21
401.25
 31
0.0
100
AcDbText
  0
TEXT
  5
56
330
30
100
AcDbEntity
  8
LC-001-111-----0
 62
   253
370
    20
100
AcDbText
 10
741.923077
 20
358.75
 30
0.0
 40
20.0
  1
Bearb.
 41
0.75
  7
LCTX0-400-0-0pDIN-Schrift
100
AcDbText
  0
TEXT
  5
57
330
30
100
AcDbEntity
  8
LC-001-111-----0
 62
   253
370
    20
100
AcDbText
 10
741.923077
 20
316.25
 30
0.0
 40
20.0
  1
Gepr.
 41
0.75
  7
LCTX0-400-0-0pDIN-Schrift
100
AcDbText
  0
TEXT
  5
58
330
30
100
AcDbEntity
  8
LC-001-111-----0
 62
   253
370
    20
100
AcDbText
 10
741.923077
 20
273.75
 30
0.0
 40
20.0
  1
Norm
 41
0.75
  7
LCTX0-400-0-0pDIN-Schrift
100
AcDbText
  0
TEXT
  5
59
330
30
100
AcDbEntity
  8
LC-001-111-----0
 62
   253
370
    20
100
AcDbText
 10
1937.923077
 20
188.75
 30
0.0
 40
20.0
  1
Blatt
 41
0.75
  7
LCTX0-400-0-0pDIN-Schrift
100
AcDbText
  0
TEXT
  5
5A
330
30
100
AcDbEntity
  8
LC-001-111-----0
 62
   253
370
    20
100
AcDbText
 10
2011.906923
 20
103.75
 30
0.0
 40
20.0
  1
Bl.
 41
0.75
  7
LCTX0-400-0-0pDIN-Schrift
 72
     2
 11
2037.076923
 21
103.75
 31
0.0
100
AcDbText
  0
TEXT
  5
5B
330
30
100
AcDbEntity
  8
LC-001-111-----0
 62
   253
370
    20
100
AcDbText
 10
196.056
 20
61.25
 30
0.0
 40
20.0
  1
Zust.
 41
0.6
  7
LCTX0-400-0-0pDIN-Schrift
 72
     1
 11
222.0
 21
61.25
 31
0.0
100
AcDbText
  0
TEXT
  5
5C
330
30
100
AcDbEntity
  8
LC-001-111-----0
 62
   253
370
    20
100
AcDbText
 10
326.0
 20
61.25
 30
0.0
 40
20.0
  1
Änderung
 41
0.75
  7
LCTX0-400-0-0pDIN-Schrift
 72
     1
 11
386.0
 21
61.25
 31
0.0
100
AcDbText
  0
TEXT
  5
5D
330
30
100
AcDbEntity
  8
LC-001-111-----0
 62
   253
370
    20
100
AcDbText
 10
543.4175
 20
61.25
 30
0.0
 40
20.0
  1
Datum
 41
0.75
  7
LCTX0-400-0-0pDIN-Schrift
 72
     1
 11
581.0
 21
61.25
 31
0.0
100
AcDbText
  0
TEXT
  5
5E
330
30
100
AcDbEntity
  8
LC-001-111-----0
 62
   253
370
    20
100
AcDbText
 10
654.9625
 20
61.25
 30
0.0
 40
20.0
  1
Name
 41
0.75
  7
LCTX0-400-0-0pDIN-Schrift
 72
     1
 11
685.0
 21
61.25
 31
0.0
100
AcDbText
  0
TEXT
  5
5F
330
30
100
AcDbEntity
  8
LC-001-111-----0
 62
     7
370
    50
100
AcDbText
 10
1464.225
 20
343.75
 30
0.0
 40
50.0
  1
Edo-N200
 41
0.75
  7
LCTX0-400-0-0pDIN-Schrift
 72
     1
 11
1608.0
 21
343.75
 31
0.0
100
AcDbText
  0
TEXT
  5
60
330
30
100
AcDbEntity
  8
LC-001-111-----0
 62
     7
370
    35
100
AcDbText
 10
1485.731148
 20
266.25
 30
0.0
 40
35.0
  1
- Unterbau -
 41
0.75
  7
LCTX0-400-0-0pDIN-Schrift
100
AcDbText
  0
TEXT
  5
61
330
30
100
AcDbEntity
  8
LC-001-111-----0
 62
     7
370
    50
100
AcDbText
 10
1349.66875
 20
131.25
 30
0.0
 40
50.0
  1
4.13.826.04.01
 41
0.75
  7
LCTX0-400-0-0pDIN-Schrift
 72
     1
 11
1543.0
 21
131.25
 31
0.0
100
AcDbText
  0
ARC
  5
62
330
30
100
AcDbEntity
  8
LC-001-111-----0
 62
   253
370
    25
100
AcDbCircle
 10
758.903191
 20
174.567744
 30
0.0
 40
20.81533311668208
100
AcDbArc
 50
62.408264
 51
94.48185
  0
LINE
  5
63
330
30
100
AcDbEntity
  8
LC-001-111-----0
 62
   253
370
    50
100
AcDbLine
 10
178.0
 20
50.0
 30
0.0
 11
2050.0
 21
50.0
 31
0.0
  0
LINE
  5
64
330
30
100
AcDbEntity
  8
LC-001-111-----0
 62
   253
370
    25
100
AcDbLine
 10
50.0
 20
1485.0
 30
0.0
 11
0.0
 21
1485.0
 31
0.0
  0
LINE
  5
65
330
30
100
AcDbEntity
  8
LC-001-111-----0
 62
   253
370
    25
100
AcDbLine
 10
1063.835603
 20
195.169147
 30
0.0
 11
1063.835603
 21
157.149147
 31
0.0
  0
LINE
  5
66
330
30
100
AcDbEntity
  8
LC-001-111-----0
 62
   253
370
    25
100
AcDbLine
 10
2100.0
 20
2970.0
 30
0.0
 11
2100.0
 21
0.0
 31
0.0
  0
LINE
  5
67
330
30
100
AcDbEntity
  8
LC-001-111-----0
 62
   253
370
    25
100
AcDbLine
 10
2100.0
 20
0.0
 30
0.0
 11
0.0
 21
0.0
 31
0.0
  0
LINE
  5
68
330
30
100
AcDbEntity
  8
LC-001-111-----0
 62
   253
370
    25
100
AcDbLine
 10
0.0
 20
0.0
 30
0.0
 11
0.0
 21
2970.0
 31
0.0
  0
LINE
  5
69
330
30
100
AcDbEntity
  8
LC-001-111-----0
 62
   253
370
    25
100
AcDbLine
 10
2100.0
 20
2970.0
 30
0.0
 11
0.0
 21
2970.0
 31
0.0
  0
TEXT
  5
6A
330
30
100
AcDbEntity
  8
LC-001-111-----0
 62
   253
370
    20
100
AcDbText
 10
729.2325
 20
111.159147
 30
0.0
 40
20.0
  1
Hofbauerstraße 1  ·  D-94209 REGEN
 41
0.65
  7
LCTX0-400-0-0pDIN-Schrift
 72
     1
 11
945.0
 21
111.159147
 31
0.0
100
AcDbText
  0
ARC
  5
6B
330
30
100
AcDbEntity
  8
LC-001-111-----0
 62
   253
370
    25
100
AcDbCircle
 10
758.032826
 20
185.671748
 30
0.0
 40
9.677270814709853
100
AcDbArc
 50
94.48185
 51
252.731329
  0
ARC
  5
6C
330
30
100
AcDbEntity
  8
LC-001-111-----0
 62
   253
370
    25
100
AcDbCircle
 10
823.845603
 20
176.159147
 30
0.0
 40
19.01000000000008
100
AcDbArc
 50
74.719456
 51
285.280544
  0
LINE
  5
6D
330
30
100
AcDbEntity
  8
LC-001-111-----0
 62
   253
370
    25
100
AcDbLine
 10
828.855603
 20
157.821208
 30
0.0
 11
828.855603
 21
163.204148
 31
0.0
  0
ARC
  5
6E
330
30
100
AcDbEntity
  8
LC-001-111-----0
 62
   253
370
    25
100
AcDbCircle
 10
823.845603
 20
176.159147
 30
0.0
 40
13.88999999999995
100
AcDbArc
 50
68.857352
 51
291.142648
  0
ARC
  5
6F
330
30
100
AcDbEntity
  8
LC-001-111-----0
 62
   253
370
    25
100
AcDbCircle
 10
823.845603
 20
176.159147
 30
0.0
 40
12.39000000000002
100
AcDbArc
 50
58.303227
 51
301.696773
  0
ARC
  5
70
330
30
100
AcDbEntity
  8
LC-001-111-----0
 62
   253
370
    25
100
AcDbCircle
 10
1019.845603
 20
176.159147
 30
0.0
 40
19.01000000000008
100
AcDbArc
 50
74.719456
 51
285.280544
  0
LINE
  5
71
330
30
100
AcDbEntity
  8
LC-001-111-----0
 62
   253
370
    25
100
AcDbLine
 10
830.355603
 20
165.617231
 30
0.0
 11
830.355603
 21
156.709726
 31
0.0
  0
LINE
  5
72
330
30
100
AcDbEntity
  8
LC-001-111-----0
 62
   253
370
    25
100
AcDbLine
 10
755.160101
 20
176.430697
 30
0.0
 11
762.683613
 21
174.091896
 31
0.0
  0
ARC
  5
73
330
30
100
AcDbEntity
  8
LC-001-111-----0
 62
   253
370
    25
100
AcDbCircle
 10
823.845603
 20
176.159147
 30
0.0
 40
20.51000000000012
100
AcDbArc
 50
71.493868
 51
288.506132
  0
LINE
  5
74
330
30
100
AcDbEntity
  8
LC-001-111-----0
 62
   253
370
    25
100
AcDbLine
 10
1024.855603
 20
157.821208
 30
0.0
 11
1024.855603
 21
163.204148
 31
0.0
  0
LINE
  5
75
330
30
100
AcDbEntity
  8
LC-001-111-----0
 62
   253
370
    25
100
AcDbLine
 10
830.355603
 20
195.608569
 30
0.0
 11
830.355603
 21
186.701063
 31
0.0
  0
ARC
  5
76
330
30
100
AcDbEntity
  8
LC-001-111-----0
 62
   253
370
    25
100
AcDbCircle
 10
1019.845603
 20
176.159147
 30
0.0
 40
13.88999999999995
100
AcDbArc
 50
68.857352
 51
291.142648
  0
LINE
  5
77
330
30
100
AcDbEntity
  8
LC-001-111-----0
 62
   253
370
    25
100
AcDbLine
 10
862.835603
 20
155.649147
 30
0.0
 11
862.835603
 21
196.669147
 31
0.0
  0
LINE
  5
78
330
30
100
AcDbEntity
  8
LC-001-111-----0
 62
   253
370
    25
100
AcDbLine
 10
862.835603
 20
196.669147
 30
0.0
 11
872.355603
 21
196.669147
 31
0.0
  0
LINE
  5
79
330
30
100
AcDbEntity
  8
LC-001-111-----0
 62
   253
370
    25
100
AcDbLine
 10
872.355603
 20
196.669147
 30
0.0
 11
872.355603
 21
179.519147
 31
0.0
  0
LINE
  5
7A
330
30
100
AcDbEntity
  8
LC-001-111-----0
 62
   253
370
    25
100
AcDbLine
 10
872.355603
 20
179.519147
 30
0.0
 11
887.335603
 21
179.519147
 31
0.0
  0
LINE
  5
7B
330
30
100
AcDbEntity
  8
LC-001-111-----0
 62
   253
370
    25
100
AcDbLine
 10
887.335603
 20
179.519147
 30
0.0
 11
887.335603
 21
196.669147
 31
0.0
  0
LINE
  5
7C
330
30
100
AcDbEntity
  8
LC-001-111-----0
 62
   253
370
    25
100
AcDbLine
 10
887.335603
 20
196.669147
 30
0.0
 11
896.855603
 21
196.669147
 31
0.0
  0
LINE
  5
7D
330
30
100
AcDbEntity
  8
LC-001-111-----0
 62
   253
370
    25
100
AcDbLine
 10
896.855603
 20
196.669147
 30
0.0
 11
896.855603
 21
155.649147
 31
0.0
  0
LINE
  5
7E
330
30
100
AcDbEntity
  8
LC-001-111-----0
 62
   253
370
    25
100
AcDbLine
 10
896.855603
 20
155.649147
 30
0.0
 11
887.335603
 21
155.649147
 31
0.0
  0
LINE
  5
7F
330
30
100
AcDbEntity
  8
LC-001-111-----0
 62
   253
370
    25
100
AcDbLine
 10
887.335603
 20
155.649147
 30
0.0
 11
887.335603
 21
172.799147
 31
0.0
  0
LINE
  5
80
330
30
100
AcDbEntity
  8
LC-001-111-----0
 62
   253
370
    25
100
AcDbLine
 10
887.335603
 20
172.799147
 30
0.0
 11
872.355603
 21
172.799147
 31
0.0
  0
LINE
  5
81
330
30
100
AcDbEntity
  8
LC-001-111-----0
 62
   253
370
    25
100
AcDbLine
 10
872.355603
 20
172.799147
 30
0.0
 11
872.355603
 21
155.649147
 31
0.0
  0
LINE
  5
82
330
30
100
AcDbEntity
  8
LC-001-111-----0
 62
   253
370
    25
100
AcDbLine
 10
872.355603
 20
155.649147
 30
0.0
 11
862.835603
 21
155.649147
 31
0.0
  0
CIRCLE
  5
83
330
30
100
AcDbEntity
  8
LC-001-111-----0
 62
   253
370
    25
100
AcDbCircle
 10
946.345603
 20
176.159147
 30
0.0
 40
12.39000000000044
  0
CIRCLE
  5
84
330
30
100
AcDbEntity
  8
LC-001-111-----0
 62
   253
370
    25
100
AcDbCircle
 10
946.345603
 20
176.159147
 30
0.0
 40
20.51000000000049
  0
ARC
  5
85
330
30
100
AcDbEntity
  8
LC-001-111-----0
 62
   253
370
    25
100
AcDbCircle
 10
1019.845603
 20
176.159147
 30
0.0
 40
12.39000000000002
100
AcDbArc
 50
58.303227
 51
301.696773
  0
LINE
  5
86
330
30
100
AcDbEntity
  8
LC-001-111-----0
 62
   253
370
    25
100
AcDbLine
 10
864.335603
 20
195.169147
 30
0.0
 11
864.335603
 21
157.149147
 31
0.0
  0
LINE
  5
87
330
30
100
AcDbEntity
  8
LC-001-111-----0
 62
   253
370
    25
100
AcDbLine
 10
1026.355603
 20
165.617231
 30
0.0
 11
1026.355603
 21
156.709726
 31
0.0
  0
LINE
  5
88
330
30
100
AcDbEntity
  8
LC-001-111-----0
 62
   253
370
    25
100
AcDbLine
 10
864.335603
 20
157.149147
 30
0.0
 11
870.855603
 21
157.149147
 31
0.0
  0
LINE
  5
89
330
30
100
AcDbEntity
  8
LC-001-111-----0
 62
   253
370
    25
100
AcDbLine
 10
870.855603
 20
157.149147
 30
0.0
 11
870.855603
 21
174.299147
 31
0.0
  0
LINE
  5
8A
330
30
100
AcDbEntity
  8
LC-001-111-----0
 62
   253
370
    25
100
AcDbLine
 10
870.855603
 20
174.299147
 30
0.0
 11
888.835603
 21
174.299147
 31
0.0
  0
LINE
  5
8B
330
30
100
AcDbEntity
  8
LC-001-111-----0
 62
   253
370
    25
100
AcDbLine
 10
888.835603
 20
174.299147
 30
0.0
 11
888.835603
 21
157.149147
 31
0.0
  0
LINE
  5
8C
330
30
100
AcDbEntity
  8
LC-001-111-----0
 62
   253
370
    25
100
AcDbLine
 10
888.835603
 20
157.149147
 30
0.0
 11
895.355603
 21
157.149147
 31
0.0
  0
LINE
  5
8D
330
30
100
AcDbEntity
  8
LC-001-111-----0
 62
   253
370
    25
100
AcDbLine
 10
895.355603
 20
157.149147
 30
0.0
 11
895.355603
 21
195.169147
 31
0.0
  0
LINE
  5
8E
330
30
100
AcDbEntity
  8
LC-001-111-----0
 62
   253
370
    25
100
AcDbLine
 10
895.355603
 20
195.169147
 30
0.0
 11
888.835603
 21
195.169147
 31
0.0
  0
LINE
  5
8F
330
30
100
AcDbEntity
  8
LC-001-111-----0
 62
   253
370
    25
100
AcDbLine
 10
888.835603
 20
195.169147
 30
0.0
 11
888.835603
 21
178.019147
 31
0.0
  0
LINE
  5
90
330
30
100
AcDbEntity
  8
LC-001-111-----0
 62
   253
370
    25
100
AcDbLine
 10
888.835603
 20
178.019147
 30
0.0
 11
870.855603
 21
178.019147
 31
0.0
  0
LINE
  5
91
330
30
100
AcDbEntity
  8
LC-001-111-----0
 62
   253
370
    25
100
AcDbLine
 10
870.855603
 20
178.019147
 30
0.0
 11
870.855603
 21
195.169147
 31
0.0
  0
CIRCLE
  5
92
330
30
100
AcDbEntity
  8
LC-001-111-----0
 62
   253
370
    25
100
AcDbCircle
 10
946.345603
 20
176.159147
 30
0.0
 40
19.01000000000055
  0
ARC
  5
93
330
30
100
AcDbEntity
  8
LC-001-111-----0
 62
   253
370
    25
100
AcDbCircle
 10
760.836588
 20
168.15034
 30
0.0
 40
6.222024781007809
100
AcDbArc
 50
268.246912
 51
72.731329
  0
ARC
  5
94
330
30
100
AcDbEntity
  8
LC-001-111-----0
 62
   253
370
    25
100
AcDbCircle
 10
761.412387
 20
186.963179
 30
0.0
 40
25.04367341134793
100
AcDbArc
 50
239.19233
 51
268.246912
  0
LINE
  5
95
330
30
100
AcDbEntity
  8
LC-001-111-----0
 62
   253
370
    25
100
AcDbLine
 10
748.586073
 20
165.453385
 30
0.0
 11
748.586073
 21
160.350534
 31
0.0
  0
ARC
  5
96
330
30
100
AcDbEntity
  8
LC-001-111-----0
 62
   253
370
    25
100
AcDbCircle
 10
760.81067
 20
180.45076
 30
0.0
 40
23.52572762426598
100
AcDbArc
 50
238.692783
 51
274.343327
  0
ARC
  5
97
330
30
100
AcDbEntity
  8
LC-001-111-----0
 62
   253
370
    25
100
AcDbCircle
 10
1019.845603
 20
176.159147
 30
0.0
 40
20.51000000000012
100
AcDbArc
 50
71.493868
 51
288.506132
  0
ARC
  5
98
330
30
100
AcDbEntity
  8
LC-001-111-----0
 62
   253
370
    25
100
AcDbCircle
 10
761.779647
 20
167.692822
 30
0.0
 40
10.73104525444839
100
AcDbArc
 50
274.343327
 51
74.255463
  0
LINE
  5
99
330
30
100
AcDbEntity
  8
LC-001-111-----0
 62
   253
370
    25
100
AcDbLine
 10
1026.355603
 20
195.608569
 30
0.0
 11
1026.355603
 21
186.701063
 31
0.0
  0
LINE
  5
9A
330
30
100
AcDbEntity
  8
LC-001-111-----0
 62
   253
370
    25
100
AcDbLine
 10
764.691502
 20
178.02125
 30
0.0
 11
757.135251
 21
180.151556
 31
0.0
  0
LINE
  5
9B
330
30
100
AcDbEntity
  8
LC-001-111-----0
 62
   253
370
    25
100
AcDbLine
 10
1024.855603
 20
189.114146
 30
0.0
 11
1024.855603
 21
194.497086
 31
0.0
  0
ARC
  5
9C
330
30
100
AcDbEntity
  8
LC-001-111-----0
 62
   253
370
    25
100
AcDbCircle
 10
758.632108
 20
185.460948
 30
0.0
 40
5.51636013010035
100
AcDbArc
 50
90.951212
 51
254.255463
  0
ARC
  5
9D
330
30
100
AcDbEntity
  8
LC-001-111-----0
 62
   253
370
    25
100
AcDbCircle
 10
758.906662
 20
168.924866
 30
0.0
 40
22.05472179307849
100
AcDbArc
 50
64.088485
 51
90.951212
  0
LINE
  5
9E
330
30
100
AcDbEntity
  8
LC-001-111-----0
 62
   253
370
    25
100
AcDbLine
 10
768.544191
 20
188.762426
 30
0.0
 11
768.544191
 21
193.015758
 31
0.0
  0
LINE
  5
9F
330
30
100
AcDbEntity
  8
LC-001-111-----0
 62
   253
370
    25
100
AcDbLine
 10
1071.855603
 20
177.513832
 30
0.0
 11
1087.818366
 21
196.669147
 31
0.0
  0
LINE
  5
A0
330
30
100
AcDbEntity
  8
LC-001-111-----0
 62
   253
370
    25
100
AcDbLine
 10
1087.818366
 20
196.669147
 30
0.0
 11
1099.299433
 21
196.669147
 31
0.0
  0
LINE
  5
A1
330
30
100
AcDbEntity
  8
LC-001-111-----0
 62
   253
370
    25
100
AcDbLine
 10
1099.299433
 20
196.669147
 30
0.0
 11
1082.207766
 21
176.159147
 31
0.0
  0
LINE
  5
A3
330
30
100
AcDbEntity
  8
LC-002-002-----0
 62
     1
370
    25
100
AcDbLine
 10
1143.855603
 20
159.963432
 30
0.0
 11
1143.855603
 21
192.354862
 31
0.0
  0
LINE
  5
A4
330
30
100
AcDbEntity
  8
LC-002-002-----0
 62
     1
370
    25
100
AcDbLine
 10
1143.855603
 20
192.354862
 30
0.0
 11
1127.659888
 21
176.159147
 31
0.0
  0
LINE
  5
A5
330
30
100
AcDbEntity
  8
LC-002-002-----0
 62
     1
370
    25
100
AcDbLine
 10
1127.659888
 20
176.159147
 30
0.0
 11
1143.855603
 21
159.963432
 31
0.0
  0
LINE
  5
A6
330
30
100
AcDbEntity
  8
LC-002-002-----0
 62
     1
370
    25
100
AcDbLine
 10
1142.355603
 20
163.584752
 30
0.0
 11
1142.355603
 21
188.733542
 31
0.0
  0
LINE
  5
A7
330
30
100
AcDbEntity
  8
LC-001-111-----0
 62
   253
370
    25
100
AcDbLine
 10
1082.207766
 20
176.159147
 30
0.0
 11
1099.299433
 21
155.649147
 31
0.0
  0
LINE
  5
A8
330
30
100
AcDbEntity
  8
LC-001-111-----0
 62
   253
370
    25
100
AcDbLine
 10
1099.299433
 20
155.649147
 30
0.0
 11
1087.818366
 21
155.649147
 31
0.0
  0
LINE
  5
A9
330
30
100
AcDbEntity
  8
LC-001-111-----0
 62
   253
370
    25
100
AcDbLine
 10
1087.818366
 20
155.649147
 30
0.0
 11
1071.855603
 21
174.804462
 31
0.0
  0
LINE
  5
AA
330
30
100
AcDbEntity
  8
LC-001-111-----0
 62
   253
370
    25
100
AcDbLine
 10
1062.335603
 20
155.649147
 30
0.0
 11
1062.335603
 21
196.669147
 31
0.0
  0
LINE
  5
AB
330
30
100
AcDbEntity
  8
LC-001-111-----0
 62
   253
370
    25
100
AcDbLine
 10
828.855603
 20
189.114146
 30
0.0
 11
828.855603
 21
194.497086
 31
0.0
  0
ARC
  5
AC
330
30
100
AcDbEntity
  8
LC-001-111-----0
 62
   253
370
    25
100
AcDbCircle
 10
758.903191
 20
174.567744
 30
0.0
 40
19.31533311668209
100
AcDbArc
 50
65.072024
 51
94.48185
  0
LINE
  5
AD
330
30
100
AcDbEntity
  8
LC-001-111-----0
 62
   253
370
    25
100
AcDbLine
 10
1063.835603
 20
157.149147
 30
0.0
 11
1070.355603
 21
157.149147
 31
0.0
  0
LINE
  5
AE
330
30
100
AcDbEntity
  8
LC-001-111-----0
 62
   253
370
    25
100
AcDbLine
 10
1070.355603
 20
157.149147
 30
0.0
 11
1070.355603
 21
195.169147
 31
0.0
  0
LINE
  5
AF
330
30
100
AcDbEntity
  8
LC-001-111-----0
 62
   253
370
    25
100
AcDbLine
 10
1070.355603
 20
195.169147
 30
0.0
 11
1063.835603
 21
195.169147
 31
0.0
  0
LINE
  5
B0
330
30
100
AcDbEntity
  8
LC-001-111-----0
 62
   253
370
    25
100
AcDbLine
 10
1065.335603
 20
193.669147
 30
0.0
 11
1065.335603
 21
158.649147
 31
0.0
  0
LINE
  5
B1
330
30
100
AcDbEntity
  8
LC-002-002-----0
 62
     1
370
    25
100
AcDbLine
 10
1142.355603
 20
188.733542
 30
0.0
 11
1129.781208
 21
176.159147
 31
0.0
  0
LINE
  5
B2
330
30
100
AcDbEntity
  8
LC-002-002-----0
 62
     1
370
    25
100
AcDbLine
 10
1129.781208
 20
176.159147
 30
0.0
 11
1142.355603
 21
163.584752
 31
0.0
  0
LINE
  5
B3
330
30
100
AcDbEntity
  8
LC-001-111-----0
 62
   253
370
    25
100
AcDbLine
 10
1062.335603
 20
196.669147
 30
0.0
 11
1071.855603
 21
196.669147
 31
0.0
  0
LINE
  5
B4
330
30
100
AcDbEntity
  8
LC-001-111-----0
 62
   253
370
    25
100
AcDbLine
 10
1071.855603
 20
196.669147
 30
0.0
 11
1071.855603
 21
155.649147
 31
0.0
  0
LINE
  5
B5
330
30
100
AcDbEntity
  8
LC-001-111-----0
 62
   253
370
    25
100
AcDbLine
 10
1071.855603
 20
155.649147
 30
0.0
 11
1062.335603
 21
155.649147
 31
0.0
  0
ARC
  5
B6
330
30
100
AcDbEntity
  8
LC-001-111-----0
 62
   253
370
    25
100
AcDbCircle
 10
758.032826
 20
185.671748
 30
0.0
 40
8.177270814709827
100
AcDbArc
 50
94.48185
 51
252.731329
  0
LINE
  5
B7
330
30
100
AcDbEntity
  8
LC-001-111-----0
 62
   253
370
    25
100
AcDbLine
 10
755.60538
 20
177.863082
 30
0.0
 11
763.128892
 21
175.524281
 31
0.0
  0
ARC
  5
B8
330
30
100
AcDbEntity
  8
LC-001-111-----0
 62
   253
370
    25
100
AcDbCircle
 10
760.836588
 20
168.15034
 30
0.0
 40
7.72202478100773
100
AcDbArc
 50
268.246912
 51
72.731329
  0
LINE
  5
B9
330
30
100
AcDbEntity
  8
LC-001-111-----0
 62
   253
370
    25
100
AcDbLine
 10
827.355603
 20
191.143539
 30
0.0
 11
827.355603
 21
193.313738
 31
0.0
  0
ARC
  5
BA
330
30
100
AcDbEntity
  8
LC-001-111-----0
 62
   253
370
    25
100
AcDbCircle
 10
823.845603
 20
176.159147
 30
0.0
 40
17.50999999999996
100
AcDbArc
 50
78.436322
 51
281.563678
  0
LINE
  5
BB
330
30
100
AcDbEntity
  8
LC-001-111-----0
 62
   253
370
    25
100
AcDbLine
 10
827.355603
 20
159.004556
 30
0.0
 11
827.355603
 21
161.174755
 31
0.0
  0
LINE
  5
BC
330
30
100
AcDbEntity
  8
LC-002-002-----0
 62
     1
370
    25
100
AcDbLine
 10
1145.355603
 20
195.976182
 30
0.0
 11
1145.355603
 21
156.342112
 31
0.0
  0
LINE
  5
BD
330
30
100
AcDbEntity
  8
LC-002-002-----0
 62
     1
370
    25
100
AcDbLine
 10
1145.355603
 20
156.342112
 30
0.0
 11
1125.538568
 21
176.159147
 31
0.0
  0
LINE
  5
BE
330
30
100
AcDbEntity
  8
LC-002-002-----0
 62
     1
370
    25
100
AcDbLine
 10
1125.538568
 20
176.159147
 30
0.0
 11
1145.355603
 21
195.976182
 31
0.0
  0
LINE
  5
BF
330
30
100
AcDbEntity
  8
LC-001-111-----0
 62
   253
370
    25
100
AcDbLine
 10
1065.335603
 20
158.649147
 30
0.0
 11
1068.855603
 21
158.649147
 31
0.0
  0
LINE
  5
C0
330
30
100
AcDbEntity
  8
LC-001-111-----0
 62
   253
370
    25
100
AcDbLine
 10
1068.855603
 20
158.649147
 30
0.0
 11
1068.855603
 21
193.669147
 31
0.0
  0
LINE
  5
C1
330
30
100
AcDbEntity
  8
LC-001-111-----0
 62
   253
370
    25
100
AcDbLine
 10
1068.855603
 20
193.669147
 30
0.0
 11
1065.335603
 21
193.669147
 31
0.0
  0
LINE
  5
C2
330
30
100
AcDbEntity
  8
LC-001-111-----0
 62
   253
370
    25
100
AcDbLine
 10
1067.095603
 20
192.169147
 30
0.0
 11
1067.095603
 21
160.149147
 31
0.0
  0
ARC
  5
C3
330
30
100
AcDbEntity
  8
LC-001-111-----0
 62
   253
370
    25
100
AcDbCircle
 10
823.845603
 20
176.159147
 30
0.0
 40
15.38999999999992
100
AcDbArc
 50
76.816519
 51
283.183481
  0
LINE
  5
C4
330
30
100
AcDbEntity
  8
LC-001-111-----0
 62
   253
370
    25
100
AcDbLine
 10
870.855603
 20
195.169147
 30
0.0
 11
864.335603
 21
195.169147
 31
0.0
  0
LINE
  5
C5
330
30
100
AcDbEntity
  8
LC-001-111-----0
 62
   253
370
    25
100
AcDbLine
 10
1096.09687
 20
195.169147
 30
0.0
 11
1088.520928
 21
195.169147
 31
0.0
  0
LINE
  5
C6
330
30
100
AcDbEntity
  8
LC-001-111-----0
 62
   253
370
    25
100
AcDbLine
 10
865.835603
 20
158.649147
 30
0.0
 11
869.355603
 21
158.649147
 31
0.0
  0
LINE
  5
C7
330
30
100
AcDbEntity
  8
LC-001-111-----0
 62
   253
370
    25
100
AcDbLine
 10
1023.355603
 20
191.143539
 30
0.0
 11
1023.355603
 21
193.313738
 31
0.0
  0
LINE
  5
C8
330
30
100
AcDbEntity
  8
LC-001-111-----0
 62
   253
370
    25
100
AcDbLine
 10
892.095603
 20
192.169147
 30
0.0
 11
892.095603
 21
160.149147
 31
0.0
  0
TEXT
  5
C9
330
30
100
AcDbEntity
  8
LC-001-111-----0
 62
     1
370
    15
100
AcDbText
 10
1094.7425
 20
21.25
 30
0.0
 40
15.0
  1
Edo-N200UM_mm
 41
0.75
  7
LCTX0-400-0-0pDIN-Schrift
 72
     1
 11
1166.0
 21
21.25
 31
0.0
100
AcDbText
  0
CIRCLE
  5
CA
330
30
100
AcDbEntity
  8
LC-001-111-----0
 62
   253
370
    25
100
AcDbCircle
 10
946.345603
 20
176.159147
 30
0.0
 40
17.51000000000047
  0
LINE
  5
CB
330
30
100
AcDbEntity
  8
LC-001-111-----0
 62
   253
370
    25
100
AcDbLine
 10
1088.520928
 20
195.169147
 30
0.0
 11
1072.679261
 21
176.159147
 31
0.0
  0
ARC
  5
CC
330
30
100
AcDbEntity
  8
LC-001-111-----0
 62
   253
370
    25
100
AcDbCircle
 10
1019.845603
 20
176.159147
 30
0.0
 40
17.50999999999996
100
AcDbArc
 50
78.436322
 51
281.563678
  0
ARC
  5
CD
330
30
100
AcDbEntity
  8
LC-001-111-----0
 62
   253
370
    25
100
AcDbCircle
 10
761.412387
 20
186.963179
 30
0.0
 40
26.54367341134783
100
AcDbArc
 50
244.741378
 51
268.246912
  0
LINE
  5
CE
330
30
100
AcDbEntity
  8
LC-001-111-----0
 62
   253
370
    25
100
AcDbLine
 10
1023.355603
 20
159.004556
 30
0.0
 11
1023.355603
 21
161.174755
 31
0.0
  0
LINE
  5
CF
330
30
100
AcDbEntity
  8
LC-002-002-----0
 62
     1
370
    25
100
AcDbLine
 10
1140.855603
 20
167.206073
 30
0.0
 11
1140.855603
 21
185.112221
 31
0.0
  0
LINE
  5
D0
330
30
100
AcDbEntity
  8
LC-002-002-----0
 62
     1
370
    25
100
AcDbLine
 10
1140.855603
 20
185.112221
 30
0.0
 11
1131.902529
 21
176.159147
 31
0.0
  0
LINE
  5
D1
330
30
100
AcDbEntity
  8
LC-002-002-----0
 62
     1
370
    25
100
AcDbLine
 10
1131.902529
 20
176.159147
 30
0.0
 11
1140.855603
 21
167.206073
 31
0.0
  0
CIRCLE
  5
D2
330
30
100
AcDbEntity
  8
LC-001-111-----0
 62
   253
370
    25
100
AcDbCircle
 10
946.345603
 20
176.159147
 30
0.0
 40
13.89000000000002
  0
LINE
  5
D3
330
30
100
AcDbEntity
  8
LC-001-111-----0
 62
   253
370
    25
100
AcDbLine
 10
890.335603
 20
158.649147
 30
0.0
 11
893.855603
 21
158.649147
 31
0.0
  0
LINE
  5
D4
330
30
100
AcDbEntity
  8
LC-001-111-----0
 62
   253
370
    25
100
AcDbLine
 10
893.855603
 20
158.649147
 30
0.0
 11
893.855603
 21
193.669147
 31
0.0
  0
ARC
  5
D5
330
30
100
AcDbEntity
  8
LC-001-111-----0
 62
   253
370
    25
100
AcDbCircle
 10
758.906662
 20
168.924866
 30
0.0
 40
20.55472179307891
100
AcDbArc
 50
57.190491
 51
90.951212
  0
ARC
  5
D6
330
30
100
AcDbEntity
  8
LC-001-111-----0
 62
   253
370
    25
100
AcDbCircle
 10
761.779647
 20
167.692822
 30
0.0
 40
12.23104525444841
100
AcDbArc
 50
274.343327
 51
74.255463
  0
LINE
  5
D7
330
30
100
AcDbEntity
  8
LC-001-111-----0
 62
   253
370
    25
100
AcDbLine
 10
893.855603
 20
193.669147
 30
0.0
 11
890.335603
 21
193.669147
 31
0.0
  0
LINE
  5
D8
330
30
100
AcDbEntity
  8
LC-001-111-----0
 62
   253
370
    25
100
AcDbLine
 10
890.335603
 20
193.669147
 30
0.0
 11
890.335603
 21
158.649147
 31
0.0
  0
LINE
  5
D9
330
30
100
AcDbEntity
  8
LC-001-111-----0
 62
   253
370
    25
100
AcDbLine
 10
890.335603
 20
176.159147
 30
0.0
 11
869.355603
 21
176.159147
 31
0.0
  0
TEXT
  5
DA
330
30
100
AcDbEntity
  8
LC-001-111-----0
 62
     7
370
    25
100
AcDbText
 10
1978.821875
 20
143.75
 30
0.0
 40
25.0
  1
1
 41
0.75
  7
LCTX0-400-0-0pDIN-Schrift
 72
     1
 11
1985.0
 21
143.75
 31
0.0
100
AcDbText
  0
LINE
  5
DB
330
30
100
AcDbEntity
  8
LC-001-111-----0
 62
   253
370
    25
100
AcDbLine
 10
869.355603
 20
158.649147
 30
0.0
 11
869.355603
 21
193.669147
 31
0.0
  0
LINE
  5
DC
330
30
100
AcDbEntity
  8
LC-001-111-----0
 62
   253
370
    25
100
AcDbLine
 10
869.355603
 20
193.669147
 30
0.0
 11
865.835603
 21
193.669147
 31
0.0
  0
LINE
  5
DD
330
30
100
AcDbEntity
  8
LC-001-111-----0
 62
   253
370
    25
100
AcDbLine
 10
865.835603
 20
193.669147
 30
0.0
 11
865.835603
 21
158.649147
 31
0.0
  0
LINE
  5
DE
330
30
100
AcDbEntity
  8
LC-001-111-----0
 62
   253
370
    25
100
AcDbLine
 10
867.595603
 20
192.169147
 30
0.0
 11
867.595603
 21
160.149147
 31
0.0
  0
CIRCLE
  5
DF
330
30
100
AcDbEntity
  8
LC-001-111-----0
 62
   253
370
    25
100
AcDbCircle
 10
946.345603
 20
176.159147
 30
0.0
 40
15.38999999999984
  0
LINE
  5
E0
330
30
100
AcDbEntity
  8
LC-001-111-----0
 62
   253
370
    25
100
AcDbLine
 10
1072.679261
 20
176.159147
 30
0.0
 11
1088.520928
 21
157.149147
 31
0.0
  0
LINE
  5
E1
330
30
100
AcDbEntity
  8
LC-001-111-----0
 62
   253
370
    25
100
AcDbLine
 10
1088.520928
 20
157.149147
 30
0.0
 11
1096.09687
 21
157.149147
 31
0.0
  0
LINE
  5
E2
330
30
100
AcDbEntity
  8
LC-001-111-----0
 62
   253
370
    25
100
AcDbLine
 10
1096.09687
 20
157.149147
 30
0.0
 11
1080.255204
 21
176.159147
 31
0.0
  0
LINE
  5
E3
330
30
100
AcDbEntity
  8
LC-001-111-----0
 62
   253
370
    25
100
AcDbLine
 10
770.044191
 20
186.20063
 30
0.0
 11
770.044191
 21
193.903002
 31
0.0
  0
ARC
  5
E4
330
30
100
AcDbEntity
  8
LC-001-111-----0
 62
   253
370
    25
100
AcDbCircle
 10
761.412387
 20
186.963179
 30
0.0
 40
23.54367341134796
100
AcDbArc
 50
232.518913
 51
268.246912
  0
ARC
  5
E5
330
30
100
AcDbEntity
  8
LC-001-111-----0
 62
   253
370
    25
100
AcDbCircle
 10
760.836588
 20
168.15034
 30
0.0
 40
4.722024781007908
100
AcDbArc
 50
268.246912
 51
72.731329
  0
LINE
  5
E6
330
30
100
AcDbEntity
  8
LC-001-111-----0
 62
   253
370
    25
100
AcDbLine
 10
757.542274
 20
181.595277
 30
0.0
 11
765.098525
 21
179.464972
 31
0.0
  0
ARC
  5
E7
330
30
100
AcDbEntity
  8
LC-001-111-----0
 62
   253
370
    25
100
AcDbCircle
 10
758.632108
 20
185.460948
 30
0.0
 40
4.016360130100384
100
AcDbArc
 50
90.951212
 51
254.255463
  0
ARC
  5
E8
330
30
100
AcDbEntity
  8
LC-001-111-----0
 62
   253
370
    25
100
AcDbCircle
 10
758.032826
 20
185.671748
 30
0.0
 40
11.17727081470983
100
AcDbArc
 50
94.48185
 51
252.731329
  0
LINE
  5
E9
330
30
100
AcDbEntity
  8
LC-001-111-----0
 62
   253
370
    25
100
AcDbLine
 10
762.238334
 20
172.659511
 30
0.0
 11
754.714822
 21
174.998312
 31
0.0
  0
LINE
  5
EA
330
30
100
AcDbEntity
  8
LC-001-111-----0
 62
   253
370
    25
100
AcDbLine
 10
747.086073
 20
168.279997
 30
0.0
 11
747.086073
 21
159.524163
 31
0.0
  0
ARC
  5
EB
330
30
100
AcDbEntity
  8
LC-001-111-----0
 62
   253
370
    25
100
AcDbCircle
 10
758.903191
 20
174.567744
 30
0.0
 40
22.31533311668187
100
AcDbArc
 50
60.049399
 51
94.48185
  0
ARC
  5
EC
330
30
100
AcDbEntity
  8
LC-001-111-----0
 62
   253
370
    25
100
AcDbCircle
 10
760.81067
 20
180.45076
 30
0.0
 40
25.02572762426604
100
AcDbArc
 50
236.741348
 51
274.343327
  0
LINE
  5
ED
330
30
100
AcDbEntity
  8
LC-001-111-----0
 62
   253
370
    25
100
AcDbLine
 10
1080.255204
 20
176.159147
 30
0.0
 11
1096.09687
 21
195.169147
 31
0.0
  0
LINE
  5
EE
330
30
100
AcDbEntity
  8
LC-001-111-----0
 62
   253
370
    25
100
AcDbLine
 10
750.086073
 20
162.957321
 30
0.0
 11
750.086073
 21
161.212369
 31
0.0
  0
LINE
  5
EF
330
30
100
AcDbEntity
  8
LC-001-111-----0
 62
   253
370
    25
100
AcDbLine
 10
1078.302641
 20
176.159147
 30
0.0
 11
1092.894308
 21
193.669147
 31
0.0
  0
LINE
  5
F0
330
30
100
AcDbEntity
  8
LC-002-002-----0
 62
     1
370
    25
100
AcDbLine
 10
1139.355603
 20
170.827393
 30
0.0
 11
1139.355603
 21
181.490901
 31
0.0
  0
LINE
  5
F1
330
30
100
AcDbEntity
  8
LC-002-002-----0
 62
     1
370
    25
100
AcDbLine
 10
1139.355603
 20
181.490901
 30
0.0
 11
1134.023849
 21
176.159147
 31
0.0
  0
LINE
  5
F2
330
30
100
AcDbEntity
  8
LC-002-002-----0
 62
     1
370
    25
100
AcDbLine
 10
1134.023849
 20
176.159147
 30
0.0
 11
1139.355603
 21
170.827393
 31
0.0
  0
LINE
  5
F3
330
30
100
AcDbEntity
  8
LC-002-002-----0
 62
     1
370
    25
100
AcDbLine
 10
1137.855603
 20
174.448713
 30
0.0
 11
1137.855603
 21
177.869581
 31
0.0
  0
LINE
  5
F4
330
30
100
AcDbEntity
  8
LC-002-002-----0
 62
     1
370
    25
100
AcDbLine
 10
1137.855603
 20
177.869581
 30
0.0
 11
1136.145169
 21
176.159147
 31
0.0
  0
LINE
  5
F5
330
30
100
AcDbEntity
  8
LC-002-002-----0
 62
     1
370
    25
100
AcDbLine
 10
1136.145169
 20
176.159147
 30
0.0
 11
1137.855603
 21
174.448713
 31
0.0
  0
LINE
  5
F6
330
30
100
AcDbEntity
  8
LC-001-111-----0
 62
   253
370
    25
100
AcDbLine
 10
1092.894308
 20
193.669147
 30
0.0
 11
1089.22349
 21
193.669147
 31
0.0
  0
LINE
  5
F7
330
30
100
AcDbEntity
  8
LC-001-111-----0
 62
   253
370
    25
100
AcDbLine
 10
1089.22349
 20
193.669147
 30
0.0
 11
1074.631824
 21
176.159147
 31
0.0
  0
ARC
  5
F8
330
30
100
AcDbEntity
  8
LC-001-111-----0
 62
   253
370
    25
100
AcDbCircle
 10
1019.845603
 20
176.159147
 30
0.0
 40
15.38999999999992
100
AcDbArc
 50
76.816519
 51
283.183481
  0
LINE
  5
F9
330
30
100
AcDbEntity
  8
LC-001-111-----0
 62
   253
370
    25
100
AcDbLine
 10
1074.631824
 20
176.159147
 30
0.0
 11
1089.22349
 21
158.649147
 31
0.0
  0
LINE
  5
FA
330
30
100
AcDbEntity
  8
LC-001-111-----0
 62
   253
370
    25
100
AcDbLine
 10
1089.22349
 20
158.649147
 30
0.0
 11
1092.894308
 21
158.649147
 31
0.0
  0
LINE
  5
FB
330
30
100
AcDbEntity
  8
LC-001-111-----0
 62
   253
370
    25
100
AcDbLine
 10
1092.894308
 20
158.649147
 30
0.0
 11
1078.302641
 21
176.159147
 31
0.0
  0
LINE
  5
FC
330
30
100
AcDbEntity
  8
LC-001-111-----0
 62
   253
370
    25
100
AcDbLine
 10
1076.467232
 20
176.159147
 30
0.0
 11
1090.098623
 21
192.516815
 31
0.0
  0
LINE
  5
FD
330
30
100
AcDbEntity
  8
LC-001-111-----0
 62
   253
370
    25
100
AcDbLine
 10
1076.467232
 20
176.159147
 30
0.0
 11
1090.098623
 21
159.801479
 31
0.0
  0
ARC
  5
FE
330
30
100
AcDbEntity
  8
LC-001-111-----0
 62
   253
370
    25
100
AcDbCircle
 10
760.81067
 20
180.45076
 30
0.0
 40
22.02572762426587
100
AcDbArc
 50
240.862164
 51
274.343327
  0
ARC
  5
FF
330
30
100
AcDbEntity
  8
LC-001-111-----0
 62
   253
370
    25
100
AcDbCircle
 10
761.779647
 20
167.692822
 30
0.0
 40
9.231045254448425
100
AcDbArc
 50
274.343327
 51
74.255463
  0
LINE
  5
100
330
30
100
AcDbEntity
  8
LC-001-111-----0
 62
   253
370
    25
100
AcDbLine
 10
764.284479
 20
176.577529
 30
0.0
 11
756.728228
 21
178.707834
 31
0.0
  0
ARC
  5
101
330
30
100
AcDbEntity
  8
LC-001-111-----0
 62
   253
370
    25
100
AcDbCircle
 10
758.632108
 20
185.460948
 30
0.0
 40
7.016360130100396
100
AcDbArc
 50
90.951212
 51
254.255463
  0
ARC
  5
102
330
30
100
AcDbEntity
  8
LC-001-111-----0
 62
   253
370
    25
100
AcDbCircle
 10
758.906662
 20
168.924866
 30
0.0
 40
23.55472179307856
100
AcDbArc
 50
69.789306
 51
90.951212
  0
LINE
  5
103
330
30
100
AcDbEntity
  8
LC-001-111-----0
 62
   253
370
    25
100
AcDbLine
 10
767.044191
 20
191.029289
 30
0.0
 11
767.044191
 21
192.083629
 31
0.0
  0
ENDBLK
  5
32
330
30
100
AcDbEntity
  8
0
100
AcDbBlockEnd
  0
BLOCK
  5
11F
330
115
100
AcDbEntity
  8
0
100
AcDbBlockBegin
  2
*D2
 70
     1
 71
     0
 10
0.0
 20
0.0
 30
0.0
  3
*D2
  1

  0
LINE
  5
116
330
115
100
AcDbEntity
  8
LC-005-003-----0
 62
     2
370
    -2
100
AcDbLine
 10
608.791302
 20
821.033614
 30
0.0
 11
608.791302
 21
732.0
 31
0.0
  0
LINE
  5
117
330
115
100
AcDbEntity
  8
LC-005-003-----0
 62
     2
370
    -2
100
AcDbLine
 10
994.091302
 20
821.033614
 30
0.0
 11
994.091302
 21
732.0
 31
0.0
  0
LINE
  5
118
330
115
100
AcDbEntity
  8
LC-005-003-----0
 62
     2
370
    -2
100
AcDbLine
 10
633.791302
 20
750.0
 30
0.0
 11
969.091302
 21
750.0
 31
0.0
  0
SOLID
  5
119
330
115
100
AcDbEntity
  8
LC-005-003-----0
 62
     2
100
AcDbTrace
 10
633.791302
 20
754.166667
 30
0.0
 11
633.791302
 21
745.833333
 31
0.0
 12
608.791302
 22
750.0
 32
0.0
 13
608.791302
 23
750.0
 33
0.0
  0
SOLID
  5
11A
330
115
100
AcDbEntity
  8
LC-005-003-----0
 62
     2
100
AcDbTrace
 10
969.091302
 20
745.833333
 30
0.0
 11
969.091302
 21
754.166667
 31
0.0
 12
994.091302
 22
750.0
 32
0.0
 13
994.091302
 23
750.0
 33
0.0
  0
MTEXT
  5
11B
330
115
100
AcDbEntity
  8
LC-005-003-----0
 62
     2
100
AcDbMText
 10
801.441302
 20
780.0
 30
0.0
 40
25.0
 41
0.0
 71
     5
 72
     1
  1
\A1;770,6
  7
LCTX0-400-0-0pDIN-Schrift
 73
     1
 44
1.0
  0
POINT
  5
11C
330
115
100
AcDbEntity
  8
Defpoints
 62
     0
100
AcDbPoint
 10
608.791302
 20
821.033614
 30
0.0
  0
POINT
  5
11D
330
115
100
AcDbEntity
  8
Defpoints
 62
     0
100
AcDbPoint
 10
994.091302
 20
821.033614
 30
0.0
  0
POINT
  5
11E
330
115
100
AcDbEntity
  8
Defpoints
 62
     0
100
AcDbPoint
 10
994.091302
 20
750.0
 30
0.0
  0
ENDBLK
  5
120
330
115
100
AcDbEntity
  8
0
100
AcDbBlockEnd
  0
BLOCK
  5
12D
330
122
100
AcDbEntity
  8
0
100
AcDbBlockBegin
  2
*D3
 70
     1
 71
     0
 10
0.0
 20
0.0
 30
0.0
  3
*D3
  1

  0
LINE
  5
123
330
122
100
AcDbEntity
  8
LC-005-003-----0
 62
     2
370
    -2
100
AcDbLine
 10
546.441302
 20
1097.518614
 30
0.0
 11
482.0
 21
1097.518614
 31
0.0
  0
LINE
  5
124
330
122
100
AcDbEntity
  8
LC-005-003-----0
 62
     2
370
    -2
100
AcDbLine
 10
546.441302
 20
884.548614
 30
0.0
 11
482.0
 21
884.548614
 31
0.0
  0
LINE
  5
125
330
122
100
AcDbEntity
  8
LC-005-003-----0
 62
     2
370
    -2
100
AcDbLine
 10
500.0
 20
1072.518614
 30
0.0
 11
500.0
 21
1051.437363
 31
0.0
  0
LINE
  5
126
330
122
100
AcDbEntity
  8
LC-005-003-----0
 62
     2
370
    -2
100
AcDbLine
 10
500.0
 20
909.548614
 30
0.0
 11
500.0
 21
930.629865
 31
0.0
  0
SOLID
  5
127
330
122
100
AcDbEntity
  8
LC-005-003-----0
 62
     2
100
AcDbTrace
 10
504.166667
 20
1072.518614
 30
0.0
 11
495.833333
 21
1072.518614
 31
0.0
 12
500.0
 22
1097.518614
 32
0.0
 13
500.0
 23
1097.518614
 33
0.0
  0
SOLID
  5
128
330
122
100
AcDbEntity
  8
LC-005-003-----0
 62
     2
100
AcDbTrace
 10
495.833333
 20
909.548614
 30
0.0
 11
504.166667
 21
909.548614
 31
0.0
 12
500.0
 22
884.548614
 32
0.0
 13
500.0
 23
884.548614
 33
0.0
  0
MTEXT
  5
129
330
122
100
AcDbEntity
  8
LC-005-003-----0
 62
     2
100
AcDbMText
 10
470.0
 20
991.033614
 30
0.0
 40
25.0
 41
0.0
 71
     5
 72
     1
  1
\A1;425,94
  7
LCTX0-400-0-0pDIN-Schrift
 11
6.123031769111886E-17
 21
1.0
 31
0.0
 73
     1
 44
1.0
  0
POINT
  5
12A
330
122
100
AcDbEntity
  8
Defpoints
 62
     0
100
AcDbPoint
 10
546.441302
 20
1097.518614
 30
0.0
  0
POINT
  5
12B
330
122
100
AcDbEntity
  8
Defpoints
 62
     0
100
AcDbPoint
 10
546.441302
 20
884.548614
 30
0.0
  0
POINT
  5
12C
330
122
100
AcDbEntity
  8
Defpoints
 62
     0
100
AcDbPoint
 10
500.0
 20
884.548614
 30
0.0
  0
ENDBLK
  5
12E
330
122
100
AcDbEntity
  8
0
100
AcDbBlockEnd
  0
BLOCK
  5
13A
330
130
100
AcDbEntity
  8
0
100
AcDbBlockBegin
  2
*D4
 70
     1
 71
     0
 10
0.0
 20
0.0
 30
0.0
  3
*D4
  1

  0
LINE
  5
131
330
130
100
AcDbEntity
  8
LC-005-003-----0
 62
     2
370
    -2
100
AcDbLine
 10
463.759738
 20
1577.34
 30
0.0
 11
463.759738
 21
1432.0
 31
0.0
  0
LINE
  5
132
330
130
100
AcDbEntity
  8
LC-005-003-----0
 62
     2
370
    -2
100
AcDbLine
 10
1301.959738
 20
1577.34
 30
0.0
 11
1301.959738
 21
1432.0
 31
0.0
  0
LINE
  5
133
330
130
100
AcDbEntity
  8
LC-005-003-----0
 62
     2
370
    -2
100
AcDbLine
 10
488.759738
 20
1450.0
 30
0.0
 11
1276.959738
 21
1450.0
 31
0.0
  0
SOLID
  5
134
330
130
100
AcDbEntity
  8
LC-005-003-----0
 62
     2
100
AcDbTrace
 10
488.759738
 20
1454.166667
 30
0.0
 11
488.759738
 21
1445.833333
 31
0.0
 12
463.759738
 22
1450.0
 32
0.0
 13
463.759738
 23
1450.0
 33
0.0
  0
SOLID
  5
135
330
130
100
AcDbEntity
  8
LC-005-003-----0
 62
     2
100
AcDbTrace
 10
1276.959738
 20
1445.833333
 30
0.0
 11
1276.959738
 21
1454.166667
 31
0.0
 12
1301.959738
 22
1450.0
 32
0.0
 13
1301.959738
 23
1450.0
 33
0.0
  0
MTEXT
  5
136
330
130
100
AcDbEntity
  8
LC-005-003-----0
 62
     2
100
AcDbMText
 10
882.859738
 20
1480.0
 30
0.0
 40
25.0
 41
0.0
 71
     5
 72
     1
  1
\A1;838,2
  7
LCTX0-400-0-0pDIN-Schrift
 73
     1
 44
1.0
  0
POINT
  5
137
330
130
100
AcDbEntity
  8
Defpoints
 62
     0
100
AcDbPoint
 10
463.759738
 20
1577.34
 30
0.0
  0
POINT
  5
138
330
130
100
AcDbEntity
  8
Defpoints
 62
     0
100
AcDbPoint
 10
1301.959738
 20
1577.34
 30
0.0
  0
POINT
  5
139
330
130
100
AcDbEntity
  8
Defpoints
 62
     0
100
AcDbPoint
 10
1301.959738
 20
1450.0
 30
0.0
  0
ENDBLK
  5
13B
330
130
100
AcDbEntity
  8
0
100
AcDbBlockEnd
  0
BLOCK
  5
148
330
13D
100
AcDbEntity
  8
0
100
AcDbBlockBegin
  2
*D5
 70
     1
 71
     0
 10
0.0
 20
0.0
 30
0.0
  3
*D5
  1

  0
LINE
  5
13E
330
13D
100
AcDbEntity
  8
LC-005-003-----0
 62
     2
370
    -2
100
AcDbLine
 10
453.759738
 20
2069.94
 30
0.0
 11
332.0
 21
2069.94
 31
0.0
  0
LINE
  5
13F
330
13D
100
AcDbEntity
  8
LC-005-003-----0
 62
     2
370
    -2
100
AcDbLine
 10
453.759738
 20
1587.34
 30
0.0
 11
332.0
 21
1587.34
 31
0.0
  0
LINE
  5
140
330
13D
100
AcDbEntity
  8
LC-005-003-----0
 62
     2
370
    -2
100
AcDbLine
 10
350.0
 20
2044.94
 30
0.0
 11
350.0
 21
1880.389999
 31
0.0
  0
LINE
  5
141
330
13D
100
AcDbEntity
  8
LC-005-003-----0
 62
     2
370
    -2
100
AcDbLine
 10
350.0
 20
1612.34
 30
0.0
 11
350.0
 21
1776.890001
 31
0.0
  0
SOLID
  5
142
330
13D
100
AcDbEntity
  8
LC-005-003-----0
 62
     2
100
AcDbTrace
 10
354.166667
 20
2044.94
 30
0.0
 11
345.833333
 21
2044.94
 31
0.0
 12
350.0
 22
2069.94
 32
0.0
 13
350.0
 23
2069.94
 33
0.0
  0
SOLID
  5
143
330
13D
100
AcDbEntity
  8
LC-005-003-----0
 62
     2
100
AcDbTrace
 10
345.833333
 20
1612.34
 30
0.0
 11
354.166667
 21
1612.34
 31
0.0
 12
350.0
 22
1587.34
 32
0.0
 13
350.0
 23
1587.34
 33
0.0
  0
MTEXT
  5
144
330
13D
100
AcDbEntity
  8
LC-005-003-----0
 62
     2
100
AcDbMText
 10
320.0
 20
1828.64
 30
0.0
 40
25.0
 41
0.0
 71
     5
 72
     1
  1
\A1;482,6
  7
LCTX0-400-0-0pDIN-Schrift
 11
6.123031769111886E-17
 21
1.0
 31
0.0
 73
     1
 44
1.0
  0
POINT
  5
145
330
13D
100
AcDbEntity
  8
Defpoints
 62
     0
100
AcDbPoint
 10
453.759738
 20
2069.94
 30
0.0
  0
POINT
  5
146
330
13D
100
AcDbEntity
  8
Defpoints
 62
     0
100
AcDbPoint
 10
453.759738
 20
1587.34
 30
0.0
  0
POINT
  5
147
330
13D
100
AcDbEntity
  8
Defpoints
 62
     0
100
AcDbPoint
 10
350.0
 20
1587.34
 30
0.0
  0
ENDBLK
  5
149
330
13D
100
AcDbEntity
  8
0
100
AcDbBlockEnd
  0
BLOCK
  5
154
330
14C
100
AcDbEntity
  8
0
100
AcDbBlockBegin
  2
*D6
 70
     1
 71
     0
 10
0.0
 20
0.0
 30
0.0
  3
*D6
  1

  0
LINE
  5
14D
330
14C
100
AcDbEntity
  8
LC-005-003-----0
 62
     2
370
    -2
100
AcDbLine
 10
700.0
 20
2624.24
 30
0.0
 11
700.0
 21
2420.24
 31
0.0
  0
SOLID
  5
14E
330
14C
100
AcDbEntity
  8
LC-005-003-----0
 62
     2
100
AcDbTrace
 10
704.166667
 20
2624.24
 30
0.0
 11
695.833333
 21
2624.24
 31
0.0
 12
700.0
 22
2649.24
 32
0.0
 13
700.0
 23
2649.24
 33
0.0
  0
SOLID
  5
14F
330
14C
100
AcDbEntity
  8
LC-005-003-----0
 62
     2
100
AcDbTrace
 10
695.833333
 20
2420.24
 30
0.0
 11
704.166667
 21
2420.24
 31
0.0
 12
700.0
 22
2395.24
 32
0.0
 13
700.0
 23
2395.24
 33
0.0
  0
MTEXT
  5
150
330
14C
100
AcDbEntity
  8
LC-005-003-----0
 62
     2
100
AcDbMText
 10
670.0
 20
2522.24
 30
0.0
 40
25.0
 41
0.0
 71
     5
 72
     1
  1
\A1;254
  7
LCTX0-400-0-0pDIN-Schrift
 11
6.123031769111886E-17
 21
1.0
 31
0.0
 73
     1
 44
1.0
  0
POINT
  5
151
330
14C
100
AcDbEntity
  8
Defpoints
 62
     0
100
AcDbPoint
 10
882.859738
 20
2649.24
 30
0.0
  0
POINT
  5
152
330
14C
100
AcDbEntity
  8
Defpoints
 62
     0
100
AcDbPoint
 10
715.999738
 20
2395.24
 30
0.0
  0
POINT
  5
153
330
14C
100
AcDbEntity
  8
Defpoints
 62
     0
100
AcDbPoint
 10
700.0
 20
2395.24
 30
0.0
  0
ENDBLK
  5
155
330
14C
100
AcDbEntity
  8
0
100
AcDbBlockEnd
  0
BLOCK
  5
15F
330
157
100
AcDbEntity
  8
0
100
AcDbBlockBegin
  2
*D7
 70
     1
 71
     0
 10
0.0
 20
0.0
 30
0.0
  3
*D7
  1

  0
LINE
  5
158
330
157
100
AcDbEntity
  8
LC-005-003-----0
 62
     2
370
    -2
100
AcDbLine
 10
1100.0
 20
2624.24
 30
0.0
 11
1100.0
 21
2420.24
 31
0.0
  0
SOLID
  5
159
330
157
100
AcDbEntity
  8
LC-005-003-----0
 62
     2
100
AcDbTrace
 10
1104.166667
 20
2624.24
 30
0.0
 11
1095.833333
 21
2624.24
 31
0.0
 12
1100.0
 22
2649.24
 32
0.0
 13
1100.0
 23
2649.24
 33
0.0
  0
SOLID
  5
15A
330
157
100
AcDbEntity
  8
LC-005-003-----0
 62
     2
100
AcDbTrace
 10
1095.833333
 20
2420.24
 30
0.0
 11
1104.166667
 21
2420.24
 31
0.0
 12
1100.0
 22
2395.24
 32
0.0
 13
1100.0
 23
2395.24
 33
0.0
  0
MTEXT
  5
15B
330
157
100
AcDbEntity
  8
LC-005-003-----0
 62
     2
100
AcDbMText
 10
1070.0
 20
2522.24
 30
0.0
 40
25.0
 41
0.0
 71
     5
 72
     1
  1
\A1;254
  7
LCTX0-400-0-0pDIN-Schrift
 11
6.123031769111886E-17
 21
1.0
 31
0.0
 73
     1
 44
1.0
  0
POINT
  5
15C
330
157
100
AcDbEntity
  8
Defpoints
 62
     0
100
AcDbPoint
 10
882.859738
 20
2649.24
 30
0.0
  0
POINT
  5
15D
330
157
100
AcDbEntity
  8
Defpoints
 62
     0
100
AcDbPoint
 10
1101.659738
 20
2395.24
 30
0.0
  0
POINT
  5
15E
330
157
100
AcDbEntity
  8
Defpoints
 62
     0
100
AcDbPoint
 10
1100.0
 20
2395.24
 30
0.0
  0
ENDBLK
  5
160
330
157
100
AcDbEntity
  8
0
100
AcDbBlockEnd
  0
BLOCK
  5
16C
330
162
100
AcDbEntity
  8
0
100
AcDbBlockBegin
  2
*D8
 70
     1
 71
     0
 10
0.0
 20
0.0
 30
0.0
  3
*D8
  1

  0
LINE
  5
163
330
162
100
AcDbEntity
  8
LC-005-003-----0
 62
     2
370
    -2
100
AcDbLine
 10
497.559738
 20
2659.24
 30
0.0
 11
497.559738
 21
2818.0
 31
0.0
  0
LINE
  5
164
330
162
100
AcDbEntity
  8
LC-005-003-----0
 62
     2
370
    -2
100
AcDbLine
 10
1268.159738
 20
2659.24
 30
0.0
 11
1268.159738
 21
2818.0
 31
0.0
  0
LINE
  5
165
330
162
100
AcDbEntity
  8
LC-005-003-----0
 62
     2
370
    -2
100
AcDbLine
 10
522.559738
 20
2800.0
 30
0.0
 11
1243.159738
 21
2800.0
 31
0.0
  0
SOLID
  5
166
330
162
100
AcDbEntity
  8
LC-005-003-----0
 62
     2
100
AcDbTrace
 10
522.559738
 20
2804.166667
 30
0.0
 11
522.559738
 21
2795.833333
 31
0.0
 12
497.559738
 22
2800.0
 32
0.0
 13
497.559738
 23
2800.0
 33
0.0
  0
SOLID
  5
167
330
162
100
AcDbEntity
  8
LC-005-003-----0
 62
     2
100
AcDbTrace
 10
1243.159738
 20
2795.833333
 30
0.0
 11
1243.159738
 21
2804.166667
 31
0.0
 12
1268.159738
 22
2800.0
 32
0.0
 13
1268.159738
 23
2800.0
 33
0.0
  0
MTEXT
  5
168
330
162
100
AcDbEntity
  8
LC-005-003-----0
 62
     2
100
AcDbMText
 10
882.859738
 20
2830.0
 30
0.0
 40
25.0
 41
0.0
 71
     5
 72
     1
  1
\A1;770,6
  7
LCTX0-400-0-0pDIN-Schrift
 73
     1
 44
1.0
  0
POINT
  5
169
330
162
100
AcDbEntity
  8
Defpoints
 62
     0
100
AcDbPoint
 10
497.559738
 20
2659.24
 30
0.0
  0
POINT
  5
16A
330
162
100
AcDbEntity
  8
Defpoints
 62
     0
100
AcDbPoint
 10
1268.159738
 20
2659.24
 30
0.0
  0
POINT
  5
16B
330
162
100
AcDbEntity
  8
Defpoints
 62
     0
100
AcDbPoint
 10
1268.159738
 20
2800.0
 30
0.0
  0
ENDBLK
  5
16D
330
162
100
AcDbEntity
  8
0
100
AcDbBlockEnd
  0
BLOCK
  5
179
330
16F
100
AcDbEntity
  8
0
100
AcDbBlockBegin
  2
*D9
 70
     1
 71
     0
 10
0.0
 20
0.0
 30
0.0
  3
*D9
  1

  0
LINE
  5
170
330
16F
100
AcDbEntity
  8
LC-005-003-----0
 62
     2
370
    -2
100
AcDbLine
 10
867.859738
 20
2659.24
 30
0.0
 11
867.859738
 21
2768.0
 31
0.0
  0
LINE
  5
171
330
16F
100
AcDbEntity
  8
LC-005-003-----0
 62
     2
370
    -2
100
AcDbLine
 10
497.559738
 20
2659.24
 30
0.0
 11
497.559738
 21
2768.0
 31
0.0
  0
LINE
  5
172
330
16F
100
AcDbEntity
  8
LC-005-003-----0
 62
     2
370
    -2
100
AcDbLine
 10
842.859738
 20
2750.0
 30
0.0
 11
522.559738
 21
2750.0
 31
0.0
  0
SOLID
  5
173
330
16F
100
AcDbEntity
  8
LC-005-003-----0
 62
     2
100
AcDbTrace
 10
842.859738
 20
2745.833333
 30
0.0
 11
842.859738
 21
2754.166667
 31
0.0
 12
867.859738
 22
2750.0
 32
0.0
 13
867.859738
 23
2750.0
 33
0.0
  0
SOLID
  5
174
330
16F
100
AcDbEntity
  8
LC-005-003-----0
 62
     2
100
AcDbTrace
 10
522.559738
 20
2754.166667
 30
0.0
 11
522.559738
 21
2745.833333
 31
0.0
 12
497.559738
 22
2750.0
 32
0.0
 13
497.559738
 23
2750.0
 33
0.0
  0
MTEXT
  5
175
330
16F
100
AcDbEntity
  8
LC-005-003-----0
 62
     2
100
AcDbMText
 10
682.709738
 20
2780.0
 30
0.0
 40
25.0
 41
0.0
 71
     5
 72
     1
  1
\A1;370,3
  7
LCTX0-400-0-0pDIN-Schrift
 73
     1
 44
1.0
  0
POINT
  5
176
330
16F
100
AcDbEntity
  8
Defpoints
 62
     0
100
AcDbPoint
 10
867.859738
 20
2659.24
 30
0.0
  0
POINT
  5
177
330
16F
100
AcDbEntity
  8
Defpoints
 62
     0
100
AcDbPoint
 10
497.559738
 20
2659.24
 30
0.0
  0
POINT
  5
178
330
16F
100
AcDbEntity
  8
Defpoints
 62
     0
100
AcDbPoint
 10
497.559738
 20
2750.0
 30
0.0
  0
ENDBLK
  5
17A
330
16F
100
AcDbEntity
  8
0
100
AcDbBlockEnd
  0
BLOCK
  5
186
330
17C
100
AcDbEntity
  8
0
100
AcDbBlockBegin
  2
*D10
 70
     1
 71
     0
 10
0.0
 20
0.0
 30
0.0
  3
*D10
  1

  0
LINE
  5
17D
330
17C
100
AcDbEntity
  8
LC-005-003-----0
 62
     2
370
    -2
100
AcDbLine
 10
897.859738
 20
2659.24
 30
0.0
 11
897.859738
 21
2768.0
 31
0.0
  0
LINE
  5
17E
330
17C
100
AcDbEntity
  8
LC-005-003-----0
 62
     2
370
    -2
100
AcDbLine
 10
1268.159738
 20
2659.24
 30
0.0
 11
1268.159738
 21
2768.0
 31
0.0
  0
LINE
  5
17F
330
17C
100
AcDbEntity
  8
LC-005-003-----0
 62
     2
370
    -2
100
AcDbLine
 10
922.859738
 20
2750.0
 30
0.0
 11
1243.159738
 21
2750.0
 31
0.0
  0
SOLID
  5
180
330
17C
100
AcDbEntity
  8
LC-005-003-----0
 62
     2
100
AcDbTrace
 10
922.859738
 20
2754.166667
 30
0.0
 11
922.859738
 21
2745.833333
 31
0.0
 12
897.859738
 22
2750.0
 32
0.0
 13
897.859738
 23
2750.0
 33
0.0
  0
SOLID
  5
181
330
17C
100
AcDbEntity
  8
LC-005-003-----0
 62
     2
100
AcDbTrace
 10
1243.159738
 20
2745.833333
 30
0.0
 11
1243.159738
 21
2754.166667
 31
0.0
 12
1268.159738
 22
2750.0
 32
0.0
 13
1268.159738
 23
2750.0
 33
0.0
  0
MTEXT
  5
182
330
17C
100
AcDbEntity
  8
LC-005-003-----0
 62
     2
100
AcDbMText
 10
1083.009738
 20
2780.0
 30
0.0
 40
25.0
 41
0.0
 71
     5
 72
     1
  1
\A1;370,3
  7
LCTX0-400-0-0pDIN-Schrift
 73
     1
 44
1.0
  0
POINT
  5
183
330
17C
100
AcDbEntity
  8
Defpoints
 62
     0
100
AcDbPoint
 10
897.859738
 20
2659.24
 30
0.0
  0
POINT
  5
184
330
17C
100
AcDbEntity
  8
Defpoints
 62
     0
100
AcDbPoint
 10
1268.159738
 20
2659.24
 30
0.0
  0
POINT
  5
185
330
17C
100
AcDbEntity
  8
Defpoints
 62
     0
100
AcDbPoint
 10
1268.159738
 20
2750.0
 30
0.0
  0
ENDBLK
  5
187
330
17C
100
AcDbEntity
  8
0
100
AcDbBlockEnd
  0
BLOCK
  5
195
330
189
100
AcDbEntity
  8
0
100
AcDbBlockBegin
  2
*D11
 70
     1
 71
     0
 10
0.0
 20
0.0
 30
0.0
  3
*D11
  1

  0
LINE
  5
18A
330
189
100
AcDbEntity
  8
LC-005-003-----0
 62
     2
370
    -2
100
AcDbLine
 10
867.859738
 20
2659.24
 30
0.0
 11
867.859738
 21
2718.0
 31
0.0
  0
LINE
  5
18B
330
189
100
AcDbEntity
  8
LC-005-003-----0
 62
     2
370
    -2
100
AcDbLine
 10
897.859738
 20
2659.24
 30
0.0
 11
897.859738
 21
2718.0
 31
0.0
  0
LINE
  5
18C
330
189
100
AcDbEntity
  8
LC-005-003-----0
 62
     2
370
    -2
100
AcDbLine
 10
922.859738
 20
2700.0
 30
0.0
 11
947.859738
 21
2700.0
 31
0.0
  0
LINE
  5
18D
330
189
100
AcDbEntity
  8
LC-005-003-----0
 62
     2
370
    -2
100
AcDbLine
 10
842.859738
 20
2700.0
 30
0.0
 11
827.714284
 21
2700.0
 31
0.0
  0
LINE
  5
18E
330
189
100
AcDbEntity
  8
LC-005-003-----0
 62
     2
370
    -2
100
AcDbLine
 10
867.859738
 20
2700.0
 30
0.0
 11
897.859738
 21
2700.0
 31
0.0
  0
SOLID
  5
18F
330
189
100
AcDbEntity
  8
LC-005-003-----0
 62
     2
100
AcDbTrace
 10
842.859738
 20
2695.833333
 30
0.0
 11
842.859738
 21
2704.166667
 31
0.0
 12
867.859738
 22
2700.0
 32
0.0
 13
867.859738
 23
2700.0
 33
0.0
  0
SOLID
  5
190
330
189
100
AcDbEntity
  8
LC-005-003-----0
 62
     2
100
AcDbTrace
 10
922.859738
 20
2704.166667
 30
0.0
 11
922.859738
 21
2695.833333
 31
0.0
 12
897.859738
 22
2700.0
 32
0.0
 13
897.859738
 23
2700.0
 33
0.0
  0
MTEXT
  5
191
330
189
100
AcDbEntity
  8
LC-005-003-----0
 62
     2
100
AcDbMText
 10
856.005533
 20
2730.0
 30
0.0
 40
25.0
 41
0.0
 71
     5
 72
     1
  1
\A1;30
  7
LCTX0-400-0-0pDIN-Schrift
 73
     1
 44
1.0
  0
POINT
  5
192
330
189
100
AcDbEntity
  8
Defpoints
 62
     0
100
AcDbPoint
 10
867.859738
 20
2659.24
 30
0.0
  0
POINT
  5
193
330
189
100
AcDbEntity
  8
Defpoints
 62
     0
100
AcDbPoint
 10
897.859738
 20
2659.24
 30
0.0
  0
POINT
  5
194
330
189
100
AcDbEntity
  8
Defpoints
 62
     0
100
AcDbPoint
 10
897.859738
 20
2700.0
 30
0.0
  0
ENDBLK
  5
196
330
189
100
AcDbEntity
  8
0
100
AcDbBlockEnd
  0
BLOCK
  5
1A3
330
199
100
AcDbEntity
  8
0
100
AcDbBlockBegin
  2
*D12
 70
     1
 71
     0
 10
0.0
 20
0.0
 30
0.0
  3
*D12
  1

  0
LINE
  5
19A
330
199
100
AcDbEntity
  8
LC-005-003-----0
 62
     2
370
    -2
100
AcDbLine
 10
1814.007392
 20
2047.08
 30
0.0
 11
1968.0
 21
2047.08
 31
0.0
  0
LINE
  5
19B
330
199
100
AcDbEntity
  8
LC-005-003-----0
 62
     2
370
    -2
100
AcDbLine
 10
1814.007392
 20
1621.14
 30
0.0
 11
1968.0
 21
1621.14
 31
0.0
  0
LINE
  5
19C
330
199
100
AcDbEntity
  8
LC-005-003-----0
 62
     2
370
    -2
100
AcDbLine
 10
1950.0
 20
2022.08
 30
0.0
 11
1950.0
 21
1646.14
 31
0.0
  0
SOLID
  5
19D
330
199
100
AcDbEntity
  8
LC-005-003-----0
 62
     2
100
AcDbTrace
 10
1954.166667
 20
2022.08
 30
0.0
 11
1945.833333
 21
2022.08
 31
0.0
 12
1950.0
 22
2047.08
 32
0.0
 13
1950.0
 23
2047.08
 33
0.0
  0
SOLID
  5
19E
330
199
100
AcDbEntity
  8
LC-005-003-----0
 62
     2
100
AcDbTrace
 10
1945.833333
 20
1646.14
 30
0.0
 11
1954.166667
 21
1646.14
 31
0.0
 12
1950.0
 22
1621.14
 32
0.0
 13
1950.0
 23
1621.14
 33
0.0
  0
MTEXT
  5
19F
330
199
100
AcDbEntity
  8
LC-005-003-----0
 62
     2
100
AcDbMText
 10
1920.0
 20
1842.599927
 30
0.0
 40
25.0
 41
0.0
 71
     5
 72
     1
  1
\A1;426
  7
LCTX0-400-0-0pDIN-Schrift
 11
6.123031769111886E-17
 21
1.0
 31
0.0
 73
     1
 44
1.0
  0
POINT
  5
1A0
330
199
100
AcDbEntity
  8
Defpoints
 62
     0
100
AcDbPoint
 10
1814.007392
 20
2047.08
 30
0.0
  0
POINT
  5
1A1
330
199
100
AcDbEntity
  8
Defpoints
 62
     0
100
AcDbPoint
 10
1814.007392
 20
1621.14
 30
0.0
  0
POINT
  5
1A2
330
199
100
AcDbEntity
  8
Defpoints
 62
     0
100
AcDbPoint
 10
1950.0
 20
1621.14
 30
0.0
  0
ENDBLK
  5
1A4
330
199
100
AcDbEntity
  8
0
100
AcDbBlockEnd
  0
BLOCK
  5
1B2
330
1A6
100
AcDbEntity
  8
0
100
AcDbBlockBegin
  2
*D13
 70
     1
 71
     0
 10
0.0
 20
0.0
 30
0.0
  3
*D13
  1

  0
LINE
  5
1A7
330
1A6
100
AcDbEntity
  8
LC-005-003-----0
 62
     2
370
    -2
100
AcDbLine
 10
463.759738
 20
1577.34
 30
0.0
 11
463.759738
 21
1482.0
 31
0.0
  0
LINE
  5
1A8
330
1A6
100
AcDbEntity
  8
LC-005-003-----0
 62
     2
370
    -2
100
AcDbLine
 10
497.559738
 20
1577.34
 30
0.0
 11
497.559738
 21
1482.0
 31
0.0
  0
LINE
  5
1A9
330
1A6
100
AcDbEntity
  8
LC-005-003-----0
 62
     2
370
    -2
100
AcDbLine
 10
438.759738
 20
1500.0
 30
0.0
 11
413.759738
 21
1500.0
 31
0.0
  0
LINE
  5
1AA
330
1A6
100
AcDbEntity
  8
LC-005-003-----0
 62
     2
370
    -2
100
AcDbLine
 10
522.559738
 20
1500.0
 30
0.0
 11
547.559738
 21
1500.0
 31
0.0
  0
LINE
  5
1AB
330
1A6
100
AcDbEntity
  8
LC-005-003-----0
 62
     2
370
    -2
100
AcDbLine
 10
463.759738
 20
1500.0
 30
0.0
 11
497.559738
 21
1500.0
 31
0.0
  0
SOLID
  5
1AC
330
1A6
100
AcDbEntity
  8
LC-005-003-----0
 62
     2
100
AcDbTrace
 10
438.759738
 20
1495.833333
 30
0.0
 11
438.759738
 21
1504.166667
 31
0.0
 12
463.759738
 22
1500.0
 32
0.0
 13
463.759738
 23
1500.0
 33
0.0
  0
SOLID
  5
1AD
330
1A6
100
AcDbEntity
  8
LC-005-003-----0
 62
     2
100
AcDbTrace
 10
522.559738
 20
1504.166667
 30
0.0
 11
522.559738
 21
1495.833333
 31
0.0
 12
497.559738
 22
1500.0
 32
0.0
 13
497.559738
 23
1500.0
 33
0.0
  0
MTEXT
  5
1AE
330
1A6
100
AcDbEntity
  8
LC-005-003-----0
 62
     2
100
AcDbMText
 10
480.659738
 20
1530.0
 30
0.0
 40
25.0
 41
0.0
 71
     5
 72
     1
  1
\A1;33,8
  7
LCTX0-400-0-0pDIN-Schrift
 73
     1
 44
1.0
  0
POINT
  5
1AF
330
1A6
100
AcDbEntity
  8
Defpoints
 62
     0
100
AcDbPoint
 10
463.759738
 20
1577.34
 30
0.0
  0
POINT
  5
1B0
330
1A6
100
AcDbEntity
  8
Defpoints
 62
     0
100
AcDbPoint
 10
497.559738
 20
1577.34
 30
0.0
  0
POINT
  5
1B1
330
1A6
100
AcDbEntity
  8
Defpoints
 62
     0
100
AcDbPoint
 10
497.559738
 20
1500.0
 30
0.0
  0
ENDBLK
  5
1B3
330
1A6
100
AcDbEntity
  8
0
100
AcDbBlockEnd
  0
BLOCK
  5
1C1
330
1B5
100
AcDbEntity
  8
0
100
AcDbBlockBegin
  2
*D14
 70
     1
 71
     0
 10
0.0
 20
0.0
 30
0.0
  3
*D14
  1

  0
LINE
  5
1B6
330
1B5
100
AcDbEntity
  8
LC-005-003-----0
 62
     2
370
    -2
100
AcDbLine
 10
1301.959738
 20
1577.34
 30
0.0
 11
1301.959738
 21
1482.0
 31
0.0
  0
LINE
  5
1B7
330
1B5
100
AcDbEntity
  8
LC-005-003-----0
 62
     2
370
    -2
100
AcDbLine
 10
1268.159738
 20
1577.34
 30
0.0
 11
1268.159738
 21
1482.0
 31
0.0
  0
LINE
  5
1B8
330
1B5
100
AcDbEntity
  8
LC-005-003-----0
 62
     2
370
    -2
100
AcDbLine
 10
1326.959738
 20
1500.0
 30
0.0
 11
1351.959738
 21
1500.0
 31
0.0
  0
LINE
  5
1B9
330
1B5
100
AcDbEntity
  8
LC-005-003-----0
 62
     2
370
    -2
100
AcDbLine
 10
1243.159738
 20
1500.0
 30
0.0
 11
1197.765921
 21
1500.0
 31
0.0
  0
LINE
  5
1BA
330
1B5
100
AcDbEntity
  8
LC-005-003-----0
 62
     2
370
    -2
100
AcDbLine
 10
1301.959738
 20
1500.0
 30
0.0
 11
1268.159738
 21
1500.0
 31
0.0
  0
SOLID
  5
1BB
330
1B5
100
AcDbEntity
  8
LC-005-003-----0
 62
     2
100
AcDbTrace
 10
1326.959738
 20
1504.166667
 30
0.0
 11
1326.959738
 21
1495.833333
 31
0.0
 12
1301.959738
 22
1500.0
 32
0.0
 13
1301.959738
 23
1500.0
 33
0.0
  0
SOLID
  5
1BC
330
1B5
100
AcDbEntity
  8
LC-005-003-----0
 62
     2
100
AcDbTrace
 10
1243.159738
 20
1495.833333
 30
0.0
 11
1243.159738
 21
1504.166667
 31
0.0
 12
1268.159738
 22
1500.0
 32
0.0
 13
1268.159738
 23
1500.0
 33
0.0
  0
MTEXT
  5
1BD
330
1B5
100
AcDbEntity
  8
LC-005-003-----0
 62
     2
100
AcDbMText
 10
1240.63467
 20
1530.0
 30
0.0
 40
25.0
 41
0.0
 71
     5
 72
     1
  1
\A1;33,8
  7
LCTX0-400-0-0pDIN-Schrift
 73
     1
 44
1.0
  0
POINT
  5
1BE
330
1B5
100
AcDbEntity
  8
Defpoints
 62
     0
100
AcDbPoint
 10
1301.959738
 20
1577.34
 30
0.0
  0
POINT
  5
1BF
330
1B5
100
AcDbEntity
  8
Defpoints
 62
     0
100
AcDbPoint
 10
1268.159738
 20
1577.34
 30
0.0
  0
POINT
  5
1C0
330
1B5
100
AcDbEntity
  8
Defpoints
 62
     0
100
AcDbPoint
 10
1268.159738
 20
1500.0
 30
0.0
  0
ENDBLK
  5
1C2
330
1B5
100
AcDbEntity
  8
0
100
AcDbBlockEnd
  0
BLOCK
  5
1D0
330
1C4
100
AcDbEntity
  8
0
100
AcDbBlockBegin
  2
*D15
 70
     1
 71
     0
 10
0.0
 20
0.0
 30
0.0
  3
*D15
  1

  0
LINE
  5
1C5
330
1C4
100
AcDbEntity
  8
LC-005-003-----0
 62
     2
370
    -2
100
AcDbLine
 10
453.759738
 20
1587.34
 30
0.0
 11
382.0
 21
1587.34
 31
0.0
  0
LINE
  5
1C6
330
1C4
100
AcDbEntity
  8
LC-005-003-----0
 62
     2
370
    -2
100
AcDbLine
 10
453.759738
 20
1621.14
 30
0.0
 11
382.0
 21
1621.14
 31
0.0
  0
LINE
  5
1C7
330
1C4
100
AcDbEntity
  8
LC-005-003-----0
 62
     2
370
    -2
100
AcDbLine
 10
400.0
 20
1562.34
 30
0.0
 11
400.0
 21
1537.34
 31
0.0
  0
LINE
  5
1C8
330
1C4
100
AcDbEntity
  8
LC-005-003-----0
 62
     2
370
    -2
100
AcDbLine
 10
400.0
 20
1646.14
 30
0.0
 11
400.0
 21
1671.14
 31
0.0
  0
LINE
  5
1C9
330
1C4
100
AcDbEntity
  8
LC-005-003-----0
 62
     2
370
    -2
100
AcDbLine
 10
400.0
 20
1587.34
 30
0.0
 11
400.0
 21
1621.14
 31
0.0
  0
SOLID
  5
1CA
330
1C4
100
AcDbEntity
  8
LC-005-003-----0
 62
     2
100
AcDbTrace
 10
404.166667
 20
1562.34
 30
0.0
 11
395.833333
 21
1562.34
 31
0.0
 12
400.0
 22
1587.34
 32
0.0
 13
400.0
 23
1587.34
 33
0.0
  0
SOLID
  5
1CB
330
1C4
100
AcDbEntity
  8
LC-005-003-----0
 62
     2
100
AcDbTrace
 10
395.833333
 20
1646.14
 30
0.0
 11
404.166667
 21
1646.14
 31
0.0
 12
400.0
 22
1621.14
 32
0.0
 13
400.0
 23
1621.14
 33
0.0
  0
MTEXT
  5
1CC
330
1C4
100
AcDbEntity
  8
LC-005-003-----0
 62
     2
100
AcDbMText
 10
370.0
 20
1604.24
 30
0.0
 40
25.0
 41
0.0
 71
     5
 72
     1
  1
\A1;33,8
  7
LCTX0-400-0-0pDIN-Schrift
 11
6.123031769111886E-17
 21
1.0
 31
0.0
 73
     1
 44
1.0
  0
POINT
  5
1CD
330
1C4
100
AcDbEntity
  8
Defpoints
 62
     0
100
AcDbPoint
 10
453.759738
 20
1587.34
 30
0.0
  0
POINT
  5
1CE
330
1C4
100
AcDbEntity
  8
Defpoints
 62
     0
100
AcDbPoint
 10
453.759738
 20
1621.14
 30
0.0
  0
POINT
  5
1CF
330
1C4
100
AcDbEntity
  8
Defpoints
 62
     0
100
AcDbPoint
 10
400.0
 20
1621.14
 30
0.0
  0
ENDBLK
  5
1D1
330
1C4
100
AcDbEntity
  8
0
100
AcDbBlockEnd
  0
BLOCK
  5
1D3
330
1D2
100
AcDbEntity
  8
0
100
AcDbBlockBegin
  2
*X116
 70
     1
 71
     0
 10
0.0
 20
0.0
 30
0.0
  3
*X116
  1

  4
*X1
  0
LINE
  5
1D6
330
1D2
100
AcDbEntity
  8
LC-006-005-----0
 62
     7
370
    25
100
AcDbLine
 10
1051.441302
 20
1154.731855
 30
0.0
 11
1050.139543
 21
1156.033614
 31
0.0
  0
LINE
  5
1D7
330
1D2
100
AcDbEntity
  8
LC-006-005-----0
 62
     7
370
    25
100
AcDbLine
 10
1051.441302
 20
1126.447584
 30
0.0
 11
1021.855272
 21
1156.033614
 31
0.0
  0
LINE
  5
1D8
330
1D2
100
AcDbEntity
  8
LC-006-005-----0
 62
     7
370
    25
100
AcDbLine
 10
1051.441302
 20
1098.163313
 30
0.0
 11
993.571001
 21
1156.033614
 31
0.0
  0
LINE
  5
1D9
330
1D2
100
AcDbEntity
  8
LC-006-005-----0
 62
     7
370
    25
100
AcDbLine
 10
1051.441302
 20
1069.879041
 30
0.0
 11
965.28673
 21
1156.033614
 31
0.0
  0
LINE
  5
1DA
330
1D2
100
AcDbEntity
  8
LC-006-005-----0
 62
     7
370
    25
100
AcDbLine
 10
1051.441302
 20
1041.59477
 30
0.0
 11
937.002458
 21
1156.033614
 31
0.0
  0
LINE
  5
1DB
330
1D2
100
AcDbEntity
  8
LC-006-005-----0
 62
     7
370
    25
100
AcDbLine
 10
1051.441302
 20
1013.310499
 30
0.0
 11
994.091302
 21
1070.660499
 31
0.0
  0
LINE
  5
1DC
330
1D2
100
AcDbEntity
  8
LC-006-005-----0
 62
     7
370
    25
100
AcDbLine
 10
970.805805
 20
1093.945996
 30
0.0
 11
908.718187
 21
1156.033614
 31
0.0
  0
LINE
  5
1DD
330
1D2
100
AcDbEntity
  8
LC-006-005-----0
 62
     7
370
    25
100
AcDbLine
 10
1051.441302
 20
985.026228
 30
0.0
 11
994.091302
 21
1042.376228
 31
0.0
  0
LINE
  5
1DE
330
1D2
100
AcDbEntity
  8
LC-006-005-----0
 62
     7
370
    25
100
AcDbLine
 10
940.151124
 20
1096.316406
 30
0.0
 11
880.433916
 21
1156.033614
 31
0.0
  0
LINE
  5
1DF
330
1D2
100
AcDbEntity
  8
LC-006-005-----0
 62
     7
370
    25
100
AcDbLine
 10
1051.441302
 20
956.741956
 30
0.0
 11
994.091302
 21
1014.091956
 31
0.0
  0
LINE
  5
1E0
330
1D2
100
AcDbEntity
  8
LC-006-005-----0
 62
     7
370
    25
100
AcDbLine
 10
910.778396
 20
1097.404862
 30
0.0
 11
852.149645
 21
1156.033614
 31
0.0
  0
LINE
  5
1E1
330
1D2
100
AcDbEntity
  8
LC-006-005-----0
 62
     7
370
    25
100
AcDbLine
 10
1051.441302
 20
928.457685
 30
0.0
 11
994.091302
 21
985.807685
 31
0.0
  0
LINE
  5
1E2
330
1D2
100
AcDbEntity
  8
LC-006-005-----0
 62
     7
370
    25
100
AcDbLine
 10
882.534321
 20
1097.364666
 30
0.0
 11
823.865373
 21
1156.033614
 31
0.0
  0
LINE
  5
1E3
330
1D2
100
AcDbEntity
  8
LC-006-005-----0
 62
     7
370
    25
100
AcDbLine
 10
1051.441302
 20
900.173414
 30
0.0
 11
994.091302
 21
957.523414
 31
0.0
  0
LINE
  5
1E4
330
1D2
100
AcDbEntity
  8
LC-006-005-----0
 62
     7
370
    25
100
AcDbLine
 10
855.298078
 20
1096.316638
 30
0.0
 11
795.581102
 21
1156.033614
 31
0.0
  0
LINE
  5
1E5
330
1D2
100
AcDbEntity
  8
LC-006-005-----0
 62
     7
370
    25
100
AcDbLine
 10
1051.441302
 20
871.889143
 30
0.0
 11
994.091302
 21
929.239143
 31
0.0
  0
LINE
  5
1E6
330
1D2
100
AcDbEntity
  8
LC-006-005-----0
 62
     7
370
    25
100
AcDbLine
 10
828.972488
 20
1094.357957
 30
0.0
 11
767.296831
 21
1156.033614
 31
0.0
  0
LINE
  5
1E7
330
1D2
100
AcDbEntity
  8
LC-006-005-----0
 62
     7
370
    25
100
AcDbLine
 10
1051.441302
 20
843.604871
 30
0.0
 11
994.091302
 21
900.954871
 31
0.0
  0
LINE
  5
1E8
330
1D2
100
AcDbEntity
  8
LC-006-005-----0
 62
     7
370
    25
100
AcDbLine
 10
803.118047
 20
1091.928127
 30
0.0
 11
739.01256
 21
1156.033614
 31
0.0
  0
LINE
  5
1E9
330
1D2
100
AcDbEntity
  8
LC-006-005-----0
 62
     7
370
    25
100
AcDbLine
 10
1040.728288
 20
826.033614
 30
0.0
 11
982.213288
 21
884.548614
 31
0.0
  0
LINE
  5
1EA
330
1D2
100
AcDbEntity
  8
LC-006-005-----0
 62
     7
370
    25
100
AcDbLine
 10
772.253124
 20
1094.508778
 30
0.0
 11
710.728288
 21
1156.033614
 31
0.0
  0
LINE
  5
1EB
330
1D2
100
AcDbEntity
  8
LC-006-005-----0
 62
     7
370
    25
100
AcDbLine
 10
1012.444017
 20
826.033614
 30
0.0
 11
953.929017
 21
884.548614
 31
0.0
  0
LINE
  5
1EC
330
1D2
100
AcDbEntity
  8
LC-006-005-----0
 62
     7
370
    25
100
AcDbLine
 10
741.858233
 20
1096.619398
 30
0.0
 11
682.444017
 21
1156.033614
 31
0.0
  0
LINE
  5
1ED
330
1D2
100
AcDbEntity
  8
LC-006-005-----0
 62
     7
370
    25
100
AcDbLine
 10
984.159746
 20
826.033614
 30
0.0
 11
925.644746
 21
884.548614
 31
0.0
  0
LINE
  5
1EE
330
1D2
100
AcDbEntity
  8
LC-006-005-----0
 62
     7
370
    25
100
AcDbLine
 10
712.712812
 20
1097.480548
 30
0.0
 11
654.159746
 21
1156.033614
 31
0.0
  0
LINE
  5
1EF
330
1D2
100
AcDbEntity
  8
LC-006-005-----0
 62
     7
370
    25
100
AcDbLine
 10
955.875475
 20
826.033614
 30
0.0
 11
897.360475
 21
884.548614
 31
0.0
  0
LINE
  5
1F0
330
1D2
100
AcDbEntity
  8
LC-006-005-----0
 62
     7
370
    25
100
AcDbLine
 10
684.670665
 20
1097.238423
 30
0.0
 11
625.875475
 21
1156.033614
 31
0.0
  0
LINE
  5
1F1
330
1D2
100
AcDbEntity
  8
LC-006-005-----0
 62
     7
370
    25
100
AcDbLine
 10
927.591203
 20
826.033614
 30
0.0
 11
869.076203
 21
884.548614
 31
0.0
  0
LINE
  5
1F2
330
1D2
100
AcDbEntity
  8
LC-006-005-----0
 62
     7
370
    25
100
AcDbLine
 10
657.616085
 20
1096.008732
 30
0.0
 11
597.591203
 21
1156.033614
 31
0.0
  0
LINE
  5
1F3
330
1D2
100
AcDbEntity
  8
LC-006-005-----0
 62
     7
370
    25
100
AcDbLine
 10
899.306932
 20
826.033614
 30
0.0
 11
840.791932
 21
884.548614
 31
0.0
  0
LINE
  5
1F4
330
1D2
100
AcDbEntity
  8
LC-006-005-----0
 62
     7
370
    25
100
AcDbLine
 10
631.455683
 20
1093.884864
 30
0.0
 11
569.306932
 21
1156.033614
 31
0.0
  0
LINE
  5
1F5
330
1D2
100
AcDbEntity
  8
LC-006-005-----0
 62
     7
370
    25
100
AcDbLine
 10
871.022661
 20
826.033614
 30
0.0
 11
812.507661
 21
884.548614
 31
0.0
  0
LINE
  5
1F6
330
1D2
100
AcDbEntity
  8
LC-006-005-----0
 62
     7
370
    25
100
AcDbLine
 10
609.56254
 20
1087.493735
 30
0.0
 11
551.441302
 21
1145.614973
 31
0.0
  0
LINE
  5
1F7
330
1D2
100
AcDbEntity
  8
LC-006-005-----0
 62
     7
370
    25
100
AcDbLine
 10
842.73839
 20
826.033614
 30
0.0
 11
784.22339
 21
884.548614
 31
0.0
  0
LINE
  5
1F8
330
1D2
100
AcDbEntity
  8
LC-006-005-----0
 62
     7
370
    25
100
AcDbLine
 10
608.791302
 20
1059.980701
 30
0.0
 11
551.441302
 21
1117.330701
 31
0.0
  0
LINE
  5
1F9
330
1D2
100
AcDbEntity
  8
LC-006-005-----0
 62
     7
370
    25
100
AcDbLine
 10
814.454118
 20
826.033614
 30
0.0
 11
755.939118
 21
884.548614
 31
0.0
  0
LINE
  5
1FA
330
1D2
100
AcDbEntity
  8
LC-006-005-----0
 62
     7
370
    25
100
AcDbLine
 10
608.791302
 20
1031.69643
 30
0.0
 11
551.441302
 21
1089.04643
 31
0.0
  0
LINE
  5
1FB
330
1D2
100
AcDbEntity
  8
LC-006-005-----0
 62
     7
370
    25
100
AcDbLine
 10
786.169847
 20
826.033614
 30
0.0
 11
727.654847
 21
884.548614
 31
0.0
  0
LINE
  5
1FC
330
1D2
100
AcDbEntity
  8
LC-006-005-----0
 62
     7
370
    25
100
AcDbLine
 10
608.791302
 20
1003.412159
 30
0.0
 11
551.441302
 21
1060.762159
 31
0.0
  0
LINE
  5
1FD
330
1D2
100
AcDbEntity
  8
LC-006-005-----0
 62
     7
370
    25
100
AcDbLine
 10
757.885576
 20
826.033614
 30
0.0
 11
699.370576
 21
884.548614
 31
0.0
  0
LINE
  5
1FE
330
1D2
100
AcDbEntity
  8
LC-006-005-----0
 62
     7
370
    25
100
AcDbLine
 10
608.791302
 20
975.127888
 30
0.0
 11
551.441302
 21
1032.477888
 31
0.0
  0
LINE
  5
1FF
330
1D2
100
AcDbEntity
  8
LC-006-005-----0
 62
     7
370
    25
100
AcDbLine
 10
729.601305
 20
826.033614
 30
0.0
 11
671.086305
 21
884.548614
 31
0.0
  0
LINE
  5
200
330
1D2
100
AcDbEntity
  8
LC-006-005-----0
 62
     7
370
    25
100
AcDbLine
 10
608.791302
 20
946.843617
 30
0.0
 11
551.441302
 21
1004.193617
 31
0.0
  0
LINE
  5
201
330
1D2
100
AcDbEntity
  8
LC-006-005-----0
 62
     7
370
    25
100
AcDbLine
 10
701.317033
 20
826.033614
 30
0.0
 11
642.802033
 21
884.548614
 31
0.0
  0
LINE
  5
202
330
1D2
100
AcDbEntity
  8
LC-006-005-----0
 62
     7
370
    25
100
AcDbLine
 10
608.791302
 20
918.559345
 30
0.0
 11
551.441302
 21
975.909345
 31
0.0
  0
LINE
  5
203
330
1D2
100
AcDbEntity
  8
LC-006-005-----0
 62
     7
370
    25
100
AcDbLine
 10
673.032762
 20
826.033614
 30
0.0
 11
613.893719
 21
885.172657
 31
0.0
  0
LINE
  5
204
330
1D2
100
AcDbEntity
  8
LC-006-005-----0
 62
     7
370
    25
100
AcDbLine
 10
609.415345
 20
889.651031
 30
0.0
 11
551.441302
 21
947.625074
 31
0.0
  0
LINE
  5
205
330
1D2
100
AcDbEntity
  8
LC-006-005-----0
 62
     7
370
    25
100
AcDbLine
 10
644.748491
 20
826.033614
 30
0.0
 11
551.441302
 21
919.340803
 31
0.0
  0
LINE
  5
206
330
1D2
100
AcDbEntity
  8
LC-006-005-----0
 62
     7
370
    25
100
AcDbLine
 10
616.46422
 20
826.033614
 30
0.0
 11
551.441302
 21
891.056532
 31
0.0
  0
LINE
  5
207
330
1D2
100
AcDbEntity
  8
LC-006-005-----0
 62
     7
370
    25
100
AcDbLine
 10
588.179948
 20
826.033614
 30
0.0
 11
551.441302
 21
862.77226
 31
0.0
  0
LINE
  5
208
330
1D2
100
AcDbEntity
  8
LC-006-005-----0
 62
     7
370
    25
100
AcDbLine
 10
559.895677
 20
826.033614
 30
0.0
 11
551.441302
 21
834.487989
 31
0.0
  0
ENDBLK
  5
1D4
330
1D2
100
AcDbEntity
  8
0
100
AcDbBlockEnd
  0
BLOCK
  5
219
330
210
100
AcDbEntity
  8
0
100
AcDbBlockBegin
  2
*D17
 70
     1
 71
     0
 10
0.0
 20
0.0
 30
0.0
  3
*D17
  1

  0
LINE
  5
211
330
210
100
AcDbEntity
  8
LC-005-003-----0
 62
     2
370
    -2
100
AcDbLine
 10
862.859738
 20
2522.239853
 30
0.0
 11
782.0
 21
2522.239853
 31
0.0
  0
LINE
  5
212
330
210
100
AcDbEntity
  8
LC-005-003-----0
 62
     2
370
    -2
100
AcDbLine
 10
800.0
 20
2624.239853
 30
0.0
 11
800.0
 21
2547.239853
 31
0.0
  0
SOLID
  5
213
330
210
100
AcDbEntity
  8
LC-005-003-----0
 62
     2
100
AcDbTrace
 10
804.166667
 20
2624.239853
 30
0.0
 11
795.833333
 21
2624.239853
 31
0.0
 12
800.0
 22
2649.239853
 32
0.0
 13
800.0
 23
2649.239853
 33
0.0
  0
SOLID
  5
214
330
210
100
AcDbEntity
  8
LC-005-003-----0
 62
     2
100
AcDbTrace
 10
795.833333
 20
2547.239853
 30
0.0
 11
804.166667
 21
2547.239853
 31
0.0
 12
800.0
 22
2522.239853
 32
0.0
 13
800.0
 23
2522.239853
 33
0.0
  0
MTEXT
  5
215
330
210
100
AcDbEntity
  8
LC-005-003-----0
 62
     2
100
AcDbMText
 10
770.0
 20
2585.739853
 30
0.0
 40
25.0
 41
0.0
 71
     5
 72
     1
  1
\A1;127
  7
LCTX0-400-0-0pDIN-Schrift
 11
6.123031769111886E-17
 21
1.0
 31
0.0
 73
     1
 44
1.0
  0
POINT
  5
216
330
210
100
AcDbEntity
  8
Defpoints
 62
     0
100
AcDbPoint
 10
810.859738
 20
2649.239853
 30
0.0
  0
POINT
  5
217
330
210
100
AcDbEntity
  8
Defpoints
 62
     0
100
AcDbPoint
 10
862.859738
 20
2522.239853
 30
0.0
  0
POINT
  5
218
330
210
100
AcDbEntity
  8
Defpoints
 62
     0
100
AcDbPoint
 10
800.0
 20
2522.239853
 30
0.0
  0
ENDBLK
  5
21A
330
210
100
AcDbEntity
  8
0
100
AcDbBlockEnd
  0
BLOCK
  5
2B7
330
2AB
100
AcDbEntity
  8
0
100
AcDbBlockBegin
  2
*D18
 70
     1
 71
     0
 10
0.0
 20
0.0
 30
0.0
  3
*D18
  1

  0
LINE
  5
2AC
330
2AB
100
AcDbEntity
  8
LC-005-003-----0
 62
     2
370
    -2
100
AcDbLine
 10
453.759738
 20
2047.08
 30
0.0
 11
382.0
 21
2047.08
 31
0.0
  0
LINE
  5
2AD
330
2AB
100
AcDbEntity
  8
LC-005-003-----0
 62
     2
370
    -2
100
AcDbLine
 10
453.759738
 20
2069.94
 30
0.0
 11
382.0
 21
2069.94
 31
0.0
  0
LINE
  5
2AE
330
2AB
100
AcDbEntity
  8
LC-005-003-----0
 62
     2
370
    -2
100
AcDbLine
 10
400.0
 20
2094.94
 30
0.0
 11
400.0
 21
2119.94
 31
0.0
  0
LINE
  5
2AF
330
2AB
100
AcDbEntity
  8
LC-005-003-----0
 62
     2
370
    -2
100
AcDbLine
 10
400.0
 20
2022.08
 30
0.0
 11
400.0
 21
1988.963226
 31
0.0
  0
LINE
  5
2B0
330
2AB
100
AcDbEntity
  8
LC-005-003-----0
 62
     2
370
    -2
100
AcDbLine
 10
400.0
 20
2047.08
 30
0.0
 11
400.0
 21
2069.94
 31
0.0
  0
SOLID
  5
2B1
330
2AB
100
AcDbEntity
  8
LC-005-003-----0
 62
     2
100
AcDbTrace
 10
404.166667
 20
2022.08
 30
0.0
 11
395.833333
 21
2022.08
 31
0.0
 12
400.0
 22
2047.08
 32
0.0
 13
400.0
 23
2047.08
 33
0.0
  0
SOLID
  5
2B2
330
2AB
100
AcDbEntity
  8
LC-005-003-----0
 62
     2
100
AcDbTrace
 10
395.833333
 20
2094.94
 30
0.0
 11
404.166667
 21
2094.94
 31
0.0
 12
400.0
 22
2069.94
 32
0.0
 13
400.0
 23
2069.94
 33
0.0
  0
MTEXT
  5
2B3
330
2AB
100
AcDbEntity
  8
LC-005-003-----0
 62
     2
100
AcDbMText
 10
370.0
 20
2031.858225
 30
0.0
 40
25.0
 41
0.0
 71
     5
 72
     1
  1
\A1;22,9
  7
LCTX0-400-0-0pDIN-Schrift
 11
6.123031769111886E-17
 21
1.0
 31
0.0
 73
     1
 44
1.0
  0
POINT
  5
2B4
330
2AB
100
AcDbEntity
  8
Defpoints
 62
     0
100
AcDbPoint
 10
453.759738
 20
2047.08
 30
0.0
  0
POINT
  5
2B5
330
2AB
100
AcDbEntity
  8
Defpoints
 62
     0
100
AcDbPoint
 10
453.759738
 20
2069.94
 30
0.0
  0
POINT
  5
2B6
330
2AB
100
AcDbEntity
  8
Defpoints
 62
     0
100
AcDbPoint
 10
400.0
 20
2069.94
 30
0.0
  0
ENDBLK
  5
2B8
330
2AB
100
AcDbEntity
  8
0
100
AcDbBlockEnd
  0
BLOCK
  5
2CF
330
2C4
100
AcDbEntity
  8
0
100
AcDbBlockBegin
  2
*D19
 70
     1
 71
     0
 10
0.0
 20
0.0
 30
0.0
  3
*D19
  1

  0
LINE
  5
2C5
330
2C4
100
AcDbEntity
  8
LC-005-003-----0
 62
     2
370
    -2
100
AcDbLine
 10
836.441302
 20
1091.910553
 30
0.0
 11
918.0
 21
1091.910553
 31
0.0
  0
LINE
  5
2C6
330
2C4
100
AcDbEntity
  8
LC-005-003-----0
 62
     2
370
    -2
100
AcDbLine
 10
836.441302
 20
884.548614
 30
0.0
 11
918.0
 21
884.548614
 31
0.0
  0
LINE
  5
2C7
330
2C4
100
AcDbEntity
  8
LC-005-003-----0
 62
     2
370
    -2
100
AcDbLine
 10
900.0
 20
1066.910553
 30
0.0
 11
900.0
 21
1045.815833
 31
0.0
  0
LINE
  5
2C8
330
2C4
100
AcDbEntity
  8
LC-005-003-----0
 62
     2
370
    -2
100
AcDbLine
 10
900.0
 20
909.548614
 30
0.0
 11
900.0
 21
930.643335
 31
0.0
  0
SOLID
  5
2C9
330
2C4
100
AcDbEntity
  8
LC-005-003-----0
 62
     2
100
AcDbTrace
 10
904.166667
 20
1066.910553
 30
0.0
 11
895.833333
 21
1066.910553
 31
0.0
 12
900.0
 22
1091.910553
 32
0.0
 13
900.0
 23
1091.910553
 33
0.0
  0
SOLID
  5
2CA
330
2C4
100
AcDbEntity
  8
LC-005-003-----0
 62
     2
100
AcDbTrace
 10
895.833333
 20
909.548614
 30
0.0
 11
904.166667
 21
909.548614
 31
0.0
 12
900.0
 22
884.548614
 32
0.0
 13
900.0
 23
884.548614
 33
0.0
  0
MTEXT
  5
2CB
330
2C4
100
AcDbEntity
  8
LC-005-003-----0
 62
     2
100
AcDbMText
 10
870.0
 20
988.229584
 30
0.0
 40
25.0
 41
0.0
 71
     5
 72
     1
  1
\A1;414,72
  7
LCTX0-400-0-0pDIN-Schrift
 11
6.123031769111886E-17
 21
1.0
 31
0.0
 73
     1
 44
1.0
  0
POINT
  5
2CC
330
2C4
100
AcDbEntity
  8
Defpoints
 62
     0
100
AcDbPoint
 10
836.441302
 20
1091.910553
 30
0.0
  0
POINT
  5
2CD
330
2C4
100
AcDbEntity
  8
Defpoints
 62
     0
100
AcDbPoint
 10
836.441302
 20
884.548614
 30
0.0
  0
POINT
  5
2CE
330
2C4
100
AcDbEntity
  8
Defpoints
 62
     0
100
AcDbPoint
 10
900.0
 20
884.548614
 30
0.0
  0
ENDBLK
  5
2D0
330
2C4
100
AcDbEntity
  8
0
100
AcDbBlockEnd
  0
BLOCK
  5
2DA
330
2D3
100
AcDbEntity
  8
0
100
AcDbBlockBegin
  2
*D20
 70
     1
 71
     0
 10
0.0
 20
0.0
 30
0.0
  3
*D20
  1

  0
LINE
  5
2D4
330
2D3
100
AcDbEntity
  8
LC-005-003-----0
 62
     2
370
    -2
100
AcDbLine
 10
755.451241
 20
1031.157853
 30
0.0
 11
797.749849
 21
1031.157853
 31
0.0
  0
LINE
  5
2D5
330
2D3
100
AcDbEntity
  8
LC-005-003-----0
 62
     2
370
    -2
100
AcDbLine
 10
797.749849
 20
1031.157853
 30
0.0
 11
798.688464
 21
1066.946646
 31
0.0
  0
MTEXT
  5
2D6
330
2D3
100
AcDbEntity
  8
LC-005-003-----0
 62
     2
100
AcDbMText
 10
769.100545
 20
1058.920353
 30
0.0
 40
25.0
 41
0.0
 71
     5
 72
     1
  1
\A1;R160
  7
LCTX0-400-0-0pDIN-Schrift
 73
     1
 44
1.0
  0
SOLID
  5
2D7
330
2D3
100
AcDbEntity
  8
LC-005-003-----0
 62
     2
100
AcDbTrace
 10
802.853699
 20
1066.837406
 30
0.0
 11
794.52323
 21
1067.055885
 31
0.0
 12
799.343902
 22
1091.938052
 32
0.0
 13
799.343902
 23
1091.938052
 33
0.0
  0
POINT
  5
2D8
330
2D3
100
AcDbEntity
  8
Defpoints
 62
     0
100
AcDbPoint
 10
799.343902
 20
1091.938052
 30
0.0
  0
POINT
  5
2D9
330
2D3
100
AcDbEntity
  8
Defpoints
 62
     0
100
AcDbPoint
 10
801.441302
 20
1171.910553
 30
0.0
  0
ENDBLK
  5
2DB
330
2D3
100
AcDbEntity
  8
0
100
AcDbBlockEnd
  0
BLOCK
  5
2E4
330
2DD
100
AcDbEntity
  8
0
100
AcDbBlockBegin
  2
*D21
 70
     1
 71
     0
 10
0.0
 20
0.0
 30
0.0
  3
*D21
  1

  0
LINE
  5
2DE
330
2DD
100
AcDbEntity
  8
LC-005-003-----0
 62
     2
370
    -2
100
AcDbLine
 10
672.47095
 20
967.840969
 30
0.0
 11
692.416437
 21
967.840969
 31
0.0
  0
LINE
  5
2DF
330
2DD
100
AcDbEntity
  8
LC-005-003-----0
 62
     2
370
    -2
100
AcDbLine
 10
692.416437
 20
967.840969
 30
0.0
 11
690.266709
 21
1072.365476
 31
0.0
  0
MTEXT
  5
2E0
330
2DD
100
AcDbEntity
  8
LC-005-003-----0
 62
     2
100
AcDbMText
 10
739.943694
 20
997.928469
 30
0.0
 40
25.0
 41
0.0
 71
     5
 72
     1
  1
\A1;R1498,6
  7
LCTX0-400-0-0pDIN-Schrift
 73
     1
 44
1.0
  0
SOLID
  5
2E1
330
2DD
100
AcDbEntity
  8
LC-005-003-----0
 62
     2
100
AcDbTrace
 10
694.432494
 20
1072.451153
 30
0.0
 11
686.100923
 21
1072.2798
 31
0.0
 12
689.752649
 22
1097.360191
 32
0.0
 13
689.752649
 23
1097.360191
 33
0.0
  0
POINT
  5
2E2
330
2DD
100
AcDbEntity
  8
Defpoints
 62
     0
100
AcDbPoint
 10
689.752649
 20
1097.360191
 30
0.0
  0
POINT
  5
2E3
330
2DD
100
AcDbEntity
  8
Defpoints
 62
     0
100
AcDbPoint
 10
705.160052
 20
348.218614
 30
0.0
  0
ENDBLK
  5
2E5
330
2DD
100
AcDbEntity
  8
0
100
AcDbBlockEnd
  0
BLOCK
  5
306
330
305
100
AcDbEntity
  8
0
100
AcDbBlockBegin
  2
*X222
 70
     1
 71
     0
 10
0.0
 20
0.0
 30
0.0
  3
*X222
  1

  4
*X2
  0
LINE
  5
308
330
305
100
AcDbEntity
  8
LC-006-005-----0
 62
     7
370
    25
100
AcDbLine
 10
1546.501557
 20
1112.21994
 30
0.0
 11
1499.803718
 21
1158.917779
 31
0.0
  0
LINE
  5
309
330
305
100
AcDbEntity
  8
LC-006-005-----0
 62
     7
370
    25
100
AcDbLine
 10
1546.501557
 20
1055.651398
 30
0.0
 11
1443.235176
 21
1158.917779
 31
0.0
  0
LINE
  5
30A
330
305
100
AcDbEntity
  8
LC-006-005-----0
 62
     7
370
    25
100
AcDbLine
 10
1526.666633
 20
1018.917779
 30
0.0
 11
1386.666633
 21
1158.917779
 31
0.0
  0
LINE
  5
30B
330
305
100
AcDbEntity
  8
LC-006-005-----0
 62
     7
370
    25
100
AcDbLine
 10
1470.098091
 20
1018.917779
 30
0.0
 11
1330.098091
 21
1158.917779
 31
0.0
  0
LINE
  5
30C
330
305
100
AcDbEntity
  8
LC-006-005-----0
 62
     7
370
    25
100
AcDbLine
 10
1413.529549
 20
1018.917779
 30
0.0
 11
1273.529549
 21
1158.917779
 31
0.0
  0
LINE
  5
30D
330
305
100
AcDbEntity
  8
LC-006-005-----0
 62
     7
370
    25
100
AcDbLine
 10
1356.961006
 20
1018.917779
 30
0.0
 11
1246.867058
 21
1129.011727
 31
0.0
  0
LINE
  5
30E
330
305
100
AcDbEntity
  8
LC-006-005-----0
 62
     7
370
    25
100
AcDbLine
 10
1300.392464
 20
1018.917779
 30
0.0
 11
1246.867058
 21
1072.443184
 31
0.0
  0
ENDBLK
  5
307
330
305
100
AcDbEntity
  8
0
100
AcDbBlockEnd
  0
BLOCK
  5
319
330
312
100
AcDbEntity
  8
0
100
AcDbBlockBegin
  2
*D23
 70
     1
 71
     0
 10
0.0
 20
0.0
 30
0.0
  3
*D23
  1

  0
LINE
  5
313
330
312
100
AcDbEntity
  8
LC-005-003-----0
 62
     2
370
    -2
100
AcDbLine
 10
1198.051794
 20
1026.131931
 30
0.0
 11
1216.374023
 21
1026.131931
 31
0.0
  0
LINE
  5
314
330
312
100
AcDbEntity
  8
LC-005-003-----0
 62
     2
370
    -2
100
AcDbLine
 10
1216.374023
 20
1026.131931
 30
0.0
 11
1225.630846
 21
1020.937894
 31
0.0
  0
MTEXT
  5
315
330
312
100
AcDbEntity
  8
LC-005-003-----0
 62
     2
100
AcDbMText
 10
1199.712909
 20
1054.131931
 30
0.0
 40
25.0
 41
0.0
 71
     5
 72
     1
  1
\A1;R4
  7
LCTX0-400-0-0pDIN-Schrift
 73
     1
 44
1.0
  0
SOLID
  5
316
330
312
100
AcDbEntity
  8
LC-005-003-----0
 62
     2
100
AcDbTrace
 10
1223.591946
 20
1017.304164
 30
0.0
 11
1227.669746
 21
1024.571625
 31
0.0
 12
1247.433231
 22
1008.704497
 32
0.0
 13
1247.433231
 23
1008.704497
 33
0.0
  0
POINT
  5
317
330
312
100
AcDbEntity
  8
Defpoints
 62
     0
100
AcDbPoint
 10
1247.433231
 20
1008.704497
 30
0.0
  0
POINT
  5
318
330
312
100
AcDbEntity
  8
Defpoints
 62
     0
100
AcDbPoint
 10
1264.875139
 20
998.917779
 30
0.0
  0
ENDBLK
  5
31A
330
312
100
AcDbEntity
  8
0
100
AcDbBlockEnd
  0
BLOCK
  5
326
330
325
100
AcDbEntity
  8
0
100
AcDbBlockBegin
  2
*X324
 70
     1
 71
     0
 10
0.0
 20
0.0
 30
0.0
  3
*X324
  1

  4
*X3
  0
LINE
  5
328
330
325
100
AcDbEntity
  8
LC-006-005-----0
 62
     7
370
    25
100
AcDbLine
 10
1415.537885
 20
988.625171
 30
0.0
 11
1385.245277
 21
1018.917779
 31
0.0
  0
LINE
  5
329
330
325
100
AcDbEntity
  8
LC-006-005-----0
 62
     7
370
    25
100
AcDbLine
 10
1391.961006
 20
983.917779
 30
0.0
 11
1356.961006
 21
1018.917779
 31
0.0
  0
LINE
  5
32A
330
325
100
AcDbEntity
  8
LC-006-005-----0
 62
     7
370
    25
100
AcDbLine
 10
1363.676735
 20
983.917779
 30
0.0
 11
1328.676735
 21
1018.917779
 31
0.0
  0
LINE
  5
32B
330
325
100
AcDbEntity
  8
LC-006-005-----0
 62
     7
370
    25
100
AcDbLine
 10
1345.392464
 20
973.917779
 30
0.0
 11
1300.392464
 21
1018.917779
 31
0.0
  0
LINE
  5
32C
330
325
100
AcDbEntity
  8
LC-006-005-----0
 62
     7
370
    25
100
AcDbLine
 10
1317.108192
 20
973.917779
 30
0.0
 11
1272.108192
 21
1018.917779
 31
0.0
  0
LINE
  5
32D
330
325
100
AcDbEntity
  8
LC-006-005-----0
 62
     7
370
    25
100
AcDbLine
 10
1292.244779
 20
970.496921
 30
0.0
 11
1250.217165
 21
1012.524535
 31
0.0
  0
LINE
  5
32E
330
325
100
AcDbEntity
  8
LC-006-005-----0
 62
     7
370
    25
100
AcDbLine
 10
1280.401507
 20
954.055922
 30
0.0
 11
1243.887571
 21
990.569857
 31
0.0
  0
LINE
  5
32F
330
325
100
AcDbEntity
  8
LC-006-005-----0
 62
     7
370
    25
100
AcDbLine
 10
1277.592568
 20
928.580589
 30
0.0
 11
1241.197511
 21
964.975646
 31
0.0
  0
LINE
  5
330
330
325
100
AcDbEntity
  8
LC-006-005-----0
 62
     7
370
    25
100
AcDbLine
 10
1274.902508
 20
902.986378
 30
0.0
 11
1238.507451
 21
939.381435
 31
0.0
  0
LINE
  5
331
330
325
100
AcDbEntity
  8
LC-006-005-----0
 62
     7
370
    25
100
AcDbLine
 10
1272.212448
 20
877.392167
 30
0.0
 11
1235.817391
 21
913.787224
 31
0.0
  0
LINE
  5
332
330
325
100
AcDbEntity
  8
LC-006-005-----0
 62
     7
370
    25
100
AcDbLine
 10
1269.522388
 20
851.797956
 30
0.0
 11
1233.127331
 21
888.193012
 31
0.0
  0
LINE
  5
333
330
325
100
AcDbEntity
  8
LC-006-005-----0
 62
     7
370
    25
100
AcDbLine
 10
1266.832328
 20
826.203744
 30
0.0
 11
1230.437271
 21
862.598801
 31
0.0
  0
LINE
  5
334
330
325
100
AcDbEntity
  8
LC-006-005-----0
 62
     7
370
    25
100
AcDbLine
 10
1239.146893
 20
825.604908
 30
0.0
 11
1227.747211
 21
837.00459
 31
0.0
  0
ENDBLK
  5
327
330
325
100
AcDbEntity
  8
0
100
AcDbBlockEnd
  0
ENDSEC
  0
SECTION
  2
ENTITIES
  0
INSERT
  5
105
330
1F
100
AcDbEntity
  8
LC-003-230-ZVN-0
 62
     7
370
    50
100
AcDbBlockReference
  2
SYM1
 10
0.0
 20
0.0
 30
0.0
  0
ARC
  5
107
102
{ACAD_REACTORS
330
339
102
}
330
1F
100
AcDbEntity
  8
LC-004-002-RND-0
 62
     7
370
    50
100
AcDbCircle
 10
541.588075
 20
2421.673797
 30
0.0
 40
20.00000000000007
100
AcDbArc
 50
186.0
 51
266.0
  0
ARC
  5
108
102
{ACAD_REACTORS
330
339
102
}
330
1F
100
AcDbEntity
  8
LC-004-002-RND-0
 62
     7
370
    50
100
AcDbCircle
 10
534.439719
 20
2413.151681
 30
0.0
 40
19.99999999999998
100
AcDbArc
 50
186.0
 51
266.0
  0
ARC
  5
109
102
{ACAD_REACTORS
330
339
102
}
330
1F
100
AcDbEntity
  8
LC-004-002-RND-0
 62
     7
370
    50
100
AcDbCircle
 10
838.596167
 20
2421.64511
 30
0.0
 40
20.00000000000008
100
AcDbArc
 50
274.0
 51
354.0
  0
ARC
  5
10A
102
{ACAD_REACTORS
330
339
102
}
330
1F
100
AcDbEntity
  8
LC-004-002-RND-0
 62
     7
370
    50
100
AcDbCircle
 10
845.744523
 20
2413.122995
 30
0.0
 40
20.00000000000019
100
AcDbArc
 50
274.0
 51
354.0
  0
ARC
  5
10B
102
{ACAD_REACTORS
330
339
102
}
330
1F
100
AcDbEntity
  8
LC-004-002-RND-0
 62
     7
370
    50
100
AcDbCircle
 10
927.123308
 20
2421.64511
 30
0.0
 40
19.99999999999999
100
AcDbArc
 50
186.0
 51
266.0
  0
ARC
  5
10C
102
{ACAD_REACTORS
330
339
102
}
330
1F
100
AcDbEntity
  8
LC-004-002-RND-0
 62
     7
370
    50
100
AcDbCircle
 10
919.974952
 20
2413.122995
 30
0.0
 40
20.00000000000006
100
AcDbArc
 50
186.0
 51
266.0
  0
ARC
  5
10D
102
{ACAD_REACTORS
330
339
102
}
330
1F
100
AcDbEntity
  8
LC-004-002-RND-0
 62
     7
370
    50
100
AcDbCircle
 10
1224.1314
 20
2421.673797
 30
0.0
 40
19.99999999999986
100
AcDbArc
 50
274.0
 51
354.0
  0
ARC
  5
10E
102
{ACAD_REACTORS
330
339
102
}
330
1F
100
AcDbEntity
  8
LC-004-002-RND-0
 62
     7
370
    50
100
AcDbCircle
 10
1231.279756
 20
2413.151681
 30
0.0
 40
20.00000000000006
100
AcDbArc
 50
274.0
 51
354.0
  0
LINE
  5
10F
102
{ACAD_REACTORS
330
338
102
}
330
1F
100
AcDbEntity
  8
LC-002-002-----0
 62
     7
370
    50
100
AcDbLine
 10
1795.007392
 20
2069.94
 30
0.0
 11
1804.007392
 21
2069.94
 31
0.0
  0
LINE
  5
110
102
{ACAD_REACTORS
330
337
102
}
330
1F
100
AcDbEntity
  8
LC-002-002-----0
 62
     7
370
    50
100
AcDbLine
 10
463.759738
 20
2069.94
 30
0.0
 11
1301.959738
 21
2069.94
 31
0.0
  0
DIMENSION
  5
113
330
1F
100
AcDbEntity
  8
LC-005-003-----0
 62
     7
370
    25
100
AcDbDimension
  2
*D2
 10
994.091302
 20
750.0
 30
0.0
 11
801.441302
 21
780.0
 31
0.0
 70
   160
 71
     5
 42
770.6
  3
LC-DIM-L-0025-02-02
100
AcDbAlignedDimension
 13
608.791302
 23
821.033614
 33
0.0
 14
994.091302
 24
821.033614
 34
0.0
100
AcDbRotatedDimension
1001
ACAD
1000
DSTYLE
1002
{
1070
   144
1040
2.0
1002
}
  0
DIMENSION
  5
121
330
1F
100
AcDbEntity
  8
LC-005-003-----0
 62
     7
370
    25
100
AcDbDimension
  2
*D3
 10
500.0
 20
884.548614
 30
0.0
 11
470.0
 21
991.033614
 31
0.0
 70
   160
 71
     5
 42
425.94
 53
90.0
  3
LC-DIM-L-0025-02-02
100
AcDbAlignedDimension
 13
546.441302
 23
1097.518614
 33
0.0
 14
546.441302
 24
884.548614
 34
0.0
 50
90.0
100
AcDbRotatedDimension
1001
ACAD
1000
DSTYLE
1002
{
1070
   144
1040
2.0
1002
}
  0
DIMENSION
  5
12F
330
1F
100
AcDbEntity
  8
LC-005-003-----0
 62
     7
370
    25
100
AcDbDimension
  2
*D4
 10
1301.959738
 20
1450.0
 30
0.0
 11
882.859738
 21
1480.0
 31
0.0
 70
   160
 71
     5
 42
838.2
  3
LC-DIM-L-0025-02-02
100
AcDbAlignedDimension
 13
463.759738
 23
1577.34
 33
0.0
 14
1301.959738
 24
1577.34
 34
0.0
100
AcDbRotatedDimension
  0
DIMENSION
  5
13C
330
1F
100
AcDbEntity
  8
LC-005-003-----0
 62
     7
370
    25
100
AcDbDimension
  2
*D5
 10
350.0
 20
1587.34
 30
0.0
 11
320.0
 21
1828.64
 31
0.0
 70
   160
 71
     5
 42
482.6
 53
90.0
  3
LC-DIM-L-0025-02-02
100
AcDbAlignedDimension
 13
453.759738
 23
2069.94
 33
0.0
 14
453.759738
 24
1587.34
 34
0.0
 50
90.0
100
AcDbRotatedDimension
  0
DIMENSION
  5
14B
330
1F
100
AcDbEntity
  8
LC-005-003-----0
 62
     7
370
    25
100
AcDbDimension
  2
*D6
 10
700.0
 20
2395.24
 30
0.0
 11
670.0
 21
2522.24
 31
0.0
 70
   160
 71
     5
 42
254.0
 53
90.0
  3
LC-DIM-L-0025-02-32
100
AcDbAlignedDimension
 13
882.859738
 23
2649.24
 33
0.0
 14
715.999738
 24
2395.24
 34
0.0
 50
90.0
100
AcDbRotatedDimension
  0
DIMENSION
  5
156
330
1F
100
AcDbEntity
  8
LC-005-003-----0
 62
     7
370
    25
100
AcDbDimension
  2
*D7
 10
1100.0
 20
2395.24
 30
0.0
 11
1070.0
 21
2522.24
 31
0.0
 70
   160
 71
     5
 42
254.0
 53
90.0
  3
LC-DIM-L-0025-02-32
100
AcDbAlignedDimension
 13
882.859738
 23
2649.24
 33
0.0
 14
1101.659738
 24
2395.24
 34
0.0
 50
90.0
100
AcDbRotatedDimension
  0
DIMENSION
  5
161
330
1F
100
AcDbEntity
  8
LC-005-003-----0
 62
     7
370
    25
100
AcDbDimension
  2
*D8
 10
1268.159738
 20
2800.0
 30
0.0
 11
882.859738
 21
2830.0
 31
0.0
 70
   160
 71
     5
 42
770.6
  3
LC-DIM-L-0025-02-02
100
AcDbAlignedDimension
 13
497.559738
 23
2659.24
 33
0.0
 14
1268.159738
 24
2659.24
 34
0.0
100
AcDbRotatedDimension
  0
DIMENSION
  5
16E
330
1F
100
AcDbEntity
  8
LC-005-003-----0
 62
     7
370
    25
100
AcDbDimension
  2
*D9
 10
497.559738
 20
2750.0
 30
0.0
 11
682.709738
 21
2780.0
 31
0.0
 70
   160
 71
     5
 42
370.3
  3
LC-DIM-L-0025-02-02
100
AcDbAlignedDimension
 13
867.859738
 23
2659.24
 33
0.0
 14
497.559738
 24
2659.24
 34
0.0
100
AcDbRotatedDimension
  0
DIMENSION
  5
17B
330
1F
100
AcDbEntity
  8
LC-005-003-----0
 62
     7
370
    25
100
AcDbDimension
  2
*D10
 10
1268.159738
 20
2750.0
 30
0.0
 11
1083.009738
 21
2780.0
 31
0.0
 70
   160
 71
     5
 42
370.3
  3
LC-DIM-L-0025-02-02
100
AcDbAlignedDimension
 13
897.859738
 23
2659.24
 33
0.0
 14
1268.159738
 24
2659.24
 34
0.0
100
AcDbRotatedDimension
  0
DIMENSION
  5
188
330
1F
100
AcDbEntity
  8
LC-005-003-----0
 62
     7
370
    25
100
AcDbDimension
  2
*D11
 10
897.859738
 20
2700.0
 30
0.0
 11
856.005533
 21
2730.0
 31
0.0
 70
   160
 71
     5
 42
30.0
  3
LC-DIM-L-0025-02-02
100
AcDbAlignedDimension
 13
867.859738
 23
2659.24
 33
0.0
 14
897.859738
 24
2659.24
 34
0.0
100
AcDbRotatedDimension
  0
DIMENSION
  5
198
330
1F
100
AcDbEntity
  8
LC-005-003-----0
 62
     7
370
    25
100
AcDbDimension
  2
*D12
 10
1950.0
 20
1621.14
 30
0.0
 11
1920.0
 21
1842.599927
 31
0.0
 70
   160
 71
     5
 42
425.94
 53
90.0
  3
LC-DIM-L-0025-00-02
100
AcDbAlignedDimension
 13
1814.007392
 23
2047.08
 33
0.0
 14
1814.007392
 24
1621.14
 34
0.0
 50
90.0
100
AcDbRotatedDimension
  0
DIMENSION
  5
1A5
330
1F
100
AcDbEntity
  8
LC-005-003-----0
 62
     7
370
    25
100
AcDbDimension
  2
*D13
 10
497.559738
 20
1500.0
 30
0.0
 11
480.659738
 21
1530.0
 31
0.0
 70
   160
 71
     5
 42
33.8
  3
LC-DIM-L-0025-02-02
100
AcDbAlignedDimension
 13
463.759738
 23
1577.34
 33
0.0
 14
497.559738
 24
1577.34
 34
0.0
100
AcDbRotatedDimension
  0
DIMENSION
  5
1B4
330
1F
100
AcDbEntity
  8
LC-005-003-----0
 62
     7
370
    25
100
AcDbDimension
  2
*D14
 10
1268.159738
 20
1500.0
 30
0.0
 11
1240.63467
 21
1530.0
 31
0.0
 70
   160
 71
     5
 42
33.8
  3
LC-DIM-L-0025-02-02
100
AcDbAlignedDimension
 13
1301.959738
 23
1577.34
 33
0.0
 14
1268.159738
 24
1577.34
 34
0.0
100
AcDbRotatedDimension
  0
DIMENSION
  5
1C3
330
1F
100
AcDbEntity
  8
LC-005-003-----0
 62
     7
370
    25
100
AcDbDimension
  2
*D15
 10
400.0
 20
1621.14
 30
0.0
 11
370.0
 21
1604.24
 31
0.0
 70
   160
 71
     5
 42
33.8
 53
90.0
  3
LC-DIM-L-0025-02-02
100
AcDbAlignedDimension
 13
453.759738
 23
1587.34
 33
0.0
 14
453.759738
 24
1621.14
 34
0.0
 50
90.0
100
AcDbRotatedDimension
  0
INSERT
  5
209
330
1F
100
AcDbEntity
  8
LC-006-005-----0
 62
     7
370
    25
100
AcDbBlockReference
  2
*X116
 10
0.0
 20
0.0
 30
0.0
  0
TEXT
  5
20B
330
1F
100
AcDbEntity
  8
LC-007-004-----0
 62
     7
370
    18
100
AcDbText
 10
1705.120817
 20
561.221442
 30
0.0
 40
17.5
  1
Material: 
 41
0.8
  7
LCTX0-400-0-0pDIN-Schrift
100
AcDbText
  0
TEXT
  5
20C
330
1F
100
AcDbEntity
  8
LC-007-004-----0
 62
     7
370
    25
100
AcDbText
 10
1801.335838
 20
557.471443
 30
0.0
 40
25.0
  1
Cristalite
 41
0.8
  7
LCTX0-400-0-0pDIN-Schrift
100
AcDbText
  0
TEXT
  5
20D
330
1F
100
AcDbEntity
  8
LC-007-004-----0
 62
     7
370
    25
100
AcDbText
 10
1257.518666
 20
477.939631
 30
0.0
 40
25.0
  1
Art. Nr.  848
 41
0.8
  7
LCTX0-400-0-0pDIN-Schrift
100
AcDbText
  0
DIMENSION
  5
20F
330
1F
100
AcDbEntity
  8
LC-005-003-----0
 62
     7
370
    25
100
AcDbDimension
  2
*D17
 10
800.0
 20
2522.239853
 30
0.0
 11
770.0
 21
2585.739853
 31
0.0
 70
   160
 71
     5
 42
127.0
 53
90.0
  3
LC-DIM-L-0025-02-22
100
AcDbAlignedDimension
 13
810.859738
 23
2649.239853
 33
0.0
 14
862.859738
 24
2522.239853
 34
0.0
 50
90.0
100
AcDbRotatedDimension
  0
ARC
  5
21B
102
{ACAD_REACTORS
330
338
102
}
330
1F
100
AcDbEntity
  8
LC-004-002-RND-0
 62
     7
370
    50
100
AcDbCircle
 10
1562.348846
 20
2009.614564
 30
0.0
 40
19.99999999999993
100
AcDbArc
 50
96.0
 51
176.0
  0
ARC
  5
21C
102
{ACAD_REACTORS
330
337
102
}
330
1F
100
AcDbEntity
  8
LC-004-002-RND-0
 62
     7
370
    50
100
AcDbCircle
 10
514.059738
 20
1637.64
 30
0.0
 40
16.5
100
AcDbArc
 50
180.0
 51
270.0
  0
ARC
  5
21D
102
{ACAD_REACTORS
330
337
102
}
330
1F
100
AcDbEntity
  8
LC-004-002-RND-0
 62
     7
370
    50
100
AcDbCircle
 10
1251.659738
 20
1637.64
 30
0.0
 40
16.5
100
AcDbArc
 50
270.0
 51
0.0
  0
LINE
  5
21E
102
{ACAD_REACTORS
330
339
102
}
330
1F
100
AcDbEntity
  8
LC-002-002-----0
 62
     7
370
    25
100
AcDbLine
 10
632.897238
 20
2395.24
 30
0.0
 11
747.697238
 21
2395.24
 31
0.0
  0
ARC
  5
21F
102
{ACAD_REACTORS
330
338
102
}
330
1F
100
AcDbEntity
  8
LC-004-002-RND-0
 62
     7
370
    50
100
AcDbCircle
 10
1570.870961
 20
2002.466208
 30
0.0
 40
20.00000000000038
100
AcDbArc
 50
96.0
 51
176.0
  0
ARC
  5
220
102
{ACAD_REACTORS
330
337
102
}
330
1F
100
AcDbEntity
  8
LC-002-002-----0
 62
     7
370
    50
100
AcDbCircle
 10
855.687735
 20
1648.079785
 30
0.0
 40
12.1720029373721
100
AcDbArc
 50
270.0
 51
360.0
  0
LINE
  5
221
102
{ACAD_REACTORS
330
338
102
}
330
1F
100
AcDbEntity
  8
LC-002-002-----0
 62
     7
370
    25
100
AcDbLine
 10
1550.007392
 20
1990.815
 30
0.0
 11
1550.007392
 21
1876.015
 31
0.0
  0
ARC
  5
222
102
{ACAD_REACTORS
330
338
102
}
330
1F
100
AcDbEntity
  8
LC-004-002-RND-0
 62
     7
370
    50
100
AcDbCircle
 10
1584.861954
 20
1664.283279
 30
0.0
 40
20.00000000000015
100
AcDbArc
 50
184.0
 51
264.0
  0
ARC
  5
223
102
{ACAD_REACTORS
330
338
102
}
330
1F
100
AcDbEntity
  8
LC-004-002-RND-0
 62
     7
370
    50
100
AcDbCircle
 10
1576.339839
 20
1657.134923
 30
0.0
 40
20.00000000000019
100
AcDbArc
 50
184.0
 51
264.0
  0
LINE
  5
224
102
{ACAD_REACTORS
330
339
102
}
330
1F
100
AcDbEntity
  8
LC-002-002-----0
 62
     7
370
    50
100
AcDbLine
 10
644.297238
 20
2391.260726
 30
0.0
 11
736.297238
 21
2391.260726
 31
0.0
  0
LINE
  5
225
102
{ACAD_REACTORS
330
339
102
}
330
1F
100
AcDbEntity
  8
LC-002-002-----0
 62
     7
370
    50
100
AcDbLine
 10
1121.422238
 20
2382.084399
 30
0.0
 11
1121.422238
 21
2391.260726
 31
0.0
  0
LINE
  5
226
102
{ACAD_REACTORS
330
339
102
}
330
1F
100
AcDbEntity
  8
LC-002-002-----0
 62
     7
370
    50
100
AcDbLine
 10
1029.422238
 20
2391.260726
 30
0.0
 11
1121.422238
 21
2391.260726
 31
0.0
  0
LINE
  5
227
102
{ACAD_REACTORS
330
339
102
}
330
1F
100
AcDbEntity
  8
LC-002-002-----0
 62
     7
370
    50
100
AcDbLine
 10
1029.422238
 20
2382.084399
 30
0.0
 11
1029.422238
 21
2391.260726
 31
0.0
  0
LINE
  5
228
102
{ACAD_REACTORS
330
338
102
}
330
1F
100
AcDbEntity
  8
LC-002-002-----0
 62
     7
370
    50
100
AcDbLine
 10
1546.028117
 20
1979.415
 30
0.0
 11
1546.028117
 21
1887.415
 31
0.0
  0
LINE
  5
229
102
{ACAD_REACTORS
330
339
102
}
330
1F
100
AcDbEntity
  8
LC-002-002-----0
 62
     7
370
    50
100
AcDbLine
 10
463.759738
 20
2642.24
 30
0.0
 11
476.259738
 21
2642.24
 31
0.0
  0
LINE
  5
22A
102
{ACAD_REACTORS
330
339
102
}
330
1F
100
AcDbEntity
  8
LC-002-002-----0
 62
     7
370
    50
100
AcDbLine
 10
476.259738
 20
2642.24
 30
0.0
 11
476.259738
 21
2640.24
 31
0.0
  0
LINE
  5
22B
102
{ACAD_REACTORS
330
339
102
}
330
1F
100
AcDbEntity
  8
LC-002-002-----0
 62
     7
370
    50
100
AcDbLine
 10
1279.759886
 20
2640.24
 30
0.0
 11
1289.459738
 21
2640.24
 31
0.0
  0
LINE
  5
22C
102
{ACAD_REACTORS
330
337
102
}
330
1F
100
AcDbEntity
  8
LC-002-002-----0
 62
     7
370
    50
100
AcDbLine
 10
463.759738
 20
1600.04
 30
0.0
 11
463.759738
 21
2069.94
 31
0.0
  0
LINE
  5
22D
102
{ACAD_REACTORS
330
337
102
}
330
1F
100
AcDbEntity
  8
LC-002-002-----0
 62
     7
370
    50
100
AcDbLine
 10
497.559738
 20
2020.064436
 30
0.0
 11
497.559738
 21
1637.64
 31
0.0
  0
LINE
  5
22E
102
{ACAD_REACTORS
330
337
102
}
330
1F
100
AcDbEntity
  8
LC-002-002-----0
 62
     7
370
    50
100
AcDbLine
 10
1289.259738
 20
1587.34
 30
0.0
 11
476.459738
 21
1587.34
 31
0.0
  0
LINE
  5
22F
102
{ACAD_REACTORS
330
337
102
}
330
1F
100
AcDbEntity
  8
LC-002-002-----0
 62
     7
370
    50
100
AcDbLine
 10
514.059738
 20
1621.14
 30
0.0
 11
1251.659738
 21
1621.14
 31
0.0
  0
LINE
  5
230
102
{ACAD_REACTORS
330
337
102
}
330
1F
100
AcDbEntity
  8
LC-002-002-----0
 62
     7
370
    50
100
AcDbLine
 10
867.859738
 20
2010.940095
 30
0.0
 11
867.859738
 21
1648.079785
 31
0.0
  0
LINE
  5
231
102
{ACAD_REACTORS
330
337
102
}
330
1F
100
AcDbEntity
  8
LC-002-002-----0
 62
     7
370
    50
100
AcDbLine
 10
897.859738
 20
2010.940095
 30
0.0
 11
897.859738
 21
1648.079785
 31
0.0
  0
LINE
  5
232
102
{ACAD_REACTORS
330
337
102
}
330
1F
100
AcDbEntity
  8
LC-002-002-----0
 62
     7
370
    50
100
AcDbLine
 10
1268.159738
 20
1637.64
 30
0.0
 11
1268.159738
 21
2020.064436
 31
0.0
  0
LINE
  5
233
102
{ACAD_REACTORS
330
337
102
}
330
1F
100
AcDbEntity
  8
LC-002-002-----0
 62
     7
370
    50
100
AcDbLine
 10
1301.959738
 20
2069.94
 30
0.0
 11
1301.959738
 21
1600.04
 31
0.0
  0
LINE
  5
234
102
{ACAD_REACTORS
330
338
102
}
330
1F
100
AcDbEntity
  8
LC-002-002-----0
 62
     7
370
    50
100
AcDbLine
 10
1797.007392
 20
1587.34
 30
0.0
 11
1801.216661
 21
1587.634341
 31
0.0
  0
LINE
  5
235
102
{ACAD_REACTORS
330
338
102
}
330
1F
100
AcDbEntity
  8
LC-002-002-----0
 62
     7
370
    50
100
AcDbLine
 10
1574.249269
 20
1637.244486
 30
0.0
 11
1790.530034
 21
1614.512461
 31
0.0
  0
LINE
  5
236
102
{ACAD_REACTORS
330
338
102
}
330
1F
100
AcDbEntity
  8
LC-002-002-----0
 62
     7
370
    50
100
AcDbLine
 10
1582.771385
 20
1644.392841
 30
0.0
 11
1800.425506
 21
1621.516471
 31
0.0
  0
LINE
  5
237
102
{ACAD_REACTORS
330
338
102
}
330
1F
100
AcDbEntity
  8
LC-002-002-----0
 62
     7
370
    50
100
AcDbLine
 10
1804.007392
 20
1590.627033
 30
0.0
 11
1804.007392
 21
2069.94
 31
0.0
  0
LINE
  5
238
102
{ACAD_REACTORS
330
338
102
}
330
1F
100
AcDbEntity
  8
LC-002-002-----0
 62
     7
370
    50
100
AcDbLine
 10
1795.007392
 20
1599.84
 30
0.0
 11
1795.007392
 21
1609.539852
 31
0.0
  0
LINE
  5
239
102
{ACAD_REACTORS
330
338
102
}
330
1F
100
AcDbEntity
  8
LC-002-002-----0
 62
     7
370
    50
100
AcDbLine
 10
1795.007392
 20
2058.680148
 30
0.0
 11
1795.007392
 21
2069.94
 31
0.0
  0
LINE
  5
23A
102
{ACAD_REACTORS
330
338
102
}
330
1F
100
AcDbEntity
  8
LC-002-002-----0
 62
     7
370
    50
100
AcDbLine
 10
1548.986395
 20
1876.104326
 30
0.0
 11
1548.771799
 21
1876.1231
 31
0.0
  0
LINE
  5
23B
102
{ACAD_REACTORS
330
338
102
}
330
1F
100
AcDbEntity
  8
LC-002-002-----0
 62
     7
370
    50
100
AcDbLine
 10
1538.326397
 20
1869.727379
 30
0.0
 11
1538.006554
 21
1869.876525
 31
0.0
  0
LINE
  5
23C
102
{ACAD_REACTORS
330
338
102
}
330
1F
100
AcDbEntity
  8
LC-002-002-----0
 62
     7
370
    50
100
AcDbLine
 10
1564.910673
 20
1662.88815
 30
0.0
 11
1550.078885
 21
1874.9926
 31
0.0
  0
LINE
  5
23D
102
{ACAD_REACTORS
330
338
102
}
330
1F
100
AcDbEntity
  8
LC-002-002-----0
 62
     7
370
    50
100
AcDbLine
 10
1547.874147
 20
1876.945647
 30
0.0
 11
1546.028117
 21
1887.415
 31
0.0
  0
LINE
  5
23E
102
{ACAD_REACTORS
330
338
102
}
330
1F
100
AcDbEntity
  8
LC-002-002-----0
 62
     7
370
    50
100
AcDbLine
 10
1550.91968
 20
2003.861338
 30
0.0
 11
1550.078885
 21
1991.8374
 31
0.0
  0
LINE
  5
23F
102
{ACAD_REACTORS
330
338
102
}
330
1F
100
AcDbEntity
  8
LC-002-002-----0
 62
     7
370
    50
100
AcDbLine
 10
1542.397565
 20
2011.009693
 30
0.0
 11
1541.776072
 21
2002.121928
 31
0.0
  0
LINE
  5
240
102
{ACAD_REACTORS
330
338
102
}
330
1F
100
AcDbEntity
  8
LC-002-002-----0
 62
     7
370
    50
100
AcDbLine
 10
1536.85179
 20
1871.689141
 30
0.0
 11
1536.85179
 21
1995.140859
 31
0.0
  0
LINE
  5
241
102
{ACAD_REACTORS
330
338
102
}
330
1F
100
AcDbEntity
  8
LC-002-002-----0
 62
     7
370
    50
100
AcDbLine
 10
1556.388558
 20
1655.739794
 30
0.0
 11
1541.776072
 21
1864.708072
 31
0.0
  0
LINE
  5
242
102
{ACAD_REACTORS
330
338
102
}
330
1F
100
AcDbEntity
  8
LC-002-002-----0
 62
     7
370
    50
100
AcDbLine
 10
1548.986395
 20
1990.725674
 30
0.0
 11
1548.771799
 21
1990.7069
 31
0.0
  0
LINE
  5
243
102
{ACAD_REACTORS
330
338
102
}
330
1F
100
AcDbEntity
  8
LC-002-002-----0
 62
     7
370
    50
100
AcDbLine
 10
1547.874147
 20
1989.884353
 30
0.0
 11
1546.028117
 21
1979.415
 31
0.0
  0
LINE
  5
244
102
{ACAD_REACTORS
330
338
102
}
330
1F
100
AcDbEntity
  8
LC-002-002-----0
 62
     7
370
    50
100
AcDbLine
 10
1568.780392
 20
2022.356646
 30
0.0
 11
1800.425506
 21
2046.703529
 31
0.0
  0
LINE
  5
245
102
{ACAD_REACTORS
330
338
102
}
330
1F
100
AcDbEntity
  8
LC-002-002-----0
 62
     7
370
    50
100
AcDbLine
 10
1560.258277
 20
2029.505002
 30
0.0
 11
1790.530034
 21
2053.707539
 31
0.0
  0
LINE
  5
246
102
{ACAD_REACTORS
330
338
102
}
330
1F
100
AcDbEntity
  8
LC-002-002-----0
 62
     7
370
    50
100
AcDbLine
 10
1538.326397
 20
1997.102621
 30
0.0
 11
1538.006554
 21
1996.953475
 31
0.0
  0
LINE
  5
247
102
{ACAD_REACTORS
330
339
102
}
330
1F
100
AcDbEntity
  8
LC-002-002-----0
 62
     7
370
    50
100
AcDbLine
 10
463.759738
 20
2642.24
 30
0.0
 11
464.054078
 21
2646.449269
 31
0.0
  0
LINE
  5
248
102
{ACAD_REACTORS
330
339
102
}
330
1F
100
AcDbEntity
  8
LC-002-002-----0
 62
     7
370
    50
100
AcDbLine
 10
514.549281
 20
2411.061112
 30
0.0
 11
490.932199
 21
2635.762642
 31
0.0
  0
LINE
  5
249
102
{ACAD_REACTORS
330
339
102
}
330
1F
100
AcDbEntity
  8
LC-002-002-----0
 62
     7
370
    50
100
AcDbLine
 10
521.697637
 20
2419.583227
 30
0.0
 11
497.936209
 21
2645.658114
 31
0.0
  0
LINE
  5
24A
102
{ACAD_REACTORS
330
339
102
}
330
1F
100
AcDbEntity
  8
LC-002-002-----0
 62
     7
370
    50
100
AcDbLine
 10
626.609617
 20
2383.559006
 30
0.0
 11
626.758763
 21
2383.239162
 31
0.0
  0
LINE
  5
24B
102
{ACAD_REACTORS
330
339
102
}
330
1F
100
AcDbEntity
  8
LC-002-002-----0
 62
     7
370
    50
100
AcDbLine
 10
632.986563
 20
2394.219003
 30
0.0
 11
633.005338
 21
2394.004407
 31
0.0
  0
LINE
  5
24C
102
{ACAD_REACTORS
330
339
102
}
330
1F
100
AcDbEntity
  8
LC-002-002-----0
 62
     7
370
    50
100
AcDbLine
 10
1121.422238
 20
2391.260726
 30
0.0
 11
1131.891591
 21
2393.106755
 31
0.0
  0
LINE
  5
24D
102
{ACAD_REACTORS
330
339
102
}
330
1F
100
AcDbEntity
  8
LC-002-002-----0
 62
     7
370
    50
100
AcDbLine
 10
1144.129166
 20
2387.00868
 30
0.0
 11
1232.674886
 21
2393.2004
 31
0.0
  0
LINE
  5
24E
102
{ACAD_REACTORS
330
339
102
}
330
1F
100
AcDbEntity
  8
LC-002-002-----0
 62
     7
370
    50
100
AcDbLine
 10
533.04459
 20
2393.2004
 30
0.0
 11
621.590309
 21
2387.00868
 31
0.0
  0
LINE
  5
24F
102
{ACAD_REACTORS
330
339
102
}
330
1F
100
AcDbEntity
  8
LC-002-002-----0
 62
     7
370
    50
100
AcDbLine
 10
633.827885
 20
2393.106755
 30
0.0
 11
644.297238
 21
2391.260726
 31
0.0
  0
LINE
  5
250
102
{ACAD_REACTORS
330
339
102
}
330
1F
100
AcDbEntity
  8
LC-002-002-----0
 62
     7
370
    50
100
AcDbLine
 10
747.607912
 20
2394.219003
 30
0.0
 11
747.589137
 21
2394.004407
 31
0.0
  0
LINE
  5
251
102
{ACAD_REACTORS
330
339
102
}
330
1F
100
AcDbEntity
  8
LC-002-002-----0
 62
     7
370
    50
100
AcDbLine
 10
1133.844638
 20
2395.311493
 30
0.0
 11
1225.52653
 21
2401.722516
 31
0.0
  0
LINE
  5
252
102
{ACAD_REACTORS
330
339
102
}
330
1F
100
AcDbEntity
  8
LC-002-002-----0
 62
     7
370
    50
100
AcDbLine
 10
847.139653
 20
2393.171714
 30
0.0
 11
759.004166
 21
2387.00868
 31
0.0
  0
LINE
  5
253
102
{ACAD_REACTORS
330
339
102
}
330
1F
100
AcDbEntity
  8
LC-002-002-----0
 62
     7
370
    50
100
AcDbLine
 10
752.023097
 20
2382.084399
 30
0.0
 11
628.571378
 21
2382.084399
 31
0.0
  0
LINE
  5
254
102
{ACAD_REACTORS
330
339
102
}
330
1F
100
AcDbEntity
  8
LC-002-002-----0
 62
     7
370
    50
100
AcDbLine
 10
1013.696378
 20
2382.084399
 30
0.0
 11
1137.148097
 21
2382.084399
 31
0.0
  0
LINE
  5
255
102
{ACAD_REACTORS
330
339
102
}
330
1F
100
AcDbEntity
  8
LC-002-002-----0
 62
     7
370
    50
100
AcDbLine
 10
540.192946
 20
2401.722516
 30
0.0
 11
631.874837
 21
2395.311493
 31
0.0
  0
LINE
  5
256
102
{ACAD_REACTORS
330
339
102
}
330
1F
100
AcDbEntity
  8
LC-002-002-----0
 62
     7
370
    50
100
AcDbLine
 10
1006.715309
 20
2387.00868
 30
0.0
 11
918.579823
 21
2393.171714
 31
0.0
  0
LINE
  5
257
102
{ACAD_REACTORS
330
339
102
}
330
1F
100
AcDbEntity
  8
LC-002-002-----0
 62
     7
370
    50
100
AcDbLine
 10
746.766591
 20
2393.106755
 30
0.0
 11
736.297238
 21
2391.260726
 31
0.0
  0
LINE
  5
258
102
{ACAD_REACTORS
330
339
102
}
330
1F
100
AcDbEntity
  8
LC-002-002-----0
 62
     7
370
    50
100
AcDbLine
 10
839.991297
 20
2401.693829
 30
0.0
 11
748.719638
 21
2395.311493
 31
0.0
  0
LINE
  5
259
102
{ACAD_REACTORS
330
339
102
}
330
1F
100
AcDbEntity
  8
LC-002-002-----0
 62
     7
370
    50
100
AcDbLine
 10
1016.999837
 20
2395.311493
 30
0.0
 11
925.728179
 21
2401.693829
 31
0.0
  0
LINE
  5
25A
102
{ACAD_REACTORS
330
339
102
}
330
1F
100
AcDbEntity
  8
LC-002-002-----0
 62
     7
370
    50
100
AcDbLine
 10
1029.422238
 20
2391.260726
 30
0.0
 11
1018.952885
 21
2393.106755
 31
0.0
  0
LINE
  5
25B
102
{ACAD_REACTORS
330
339
102
}
330
1F
100
AcDbEntity
  8
LC-002-002-----0
 62
     7
370
    50
100
AcDbLine
 10
753.984858
 20
2383.559006
 30
0.0
 11
753.835713
 21
2383.239162
 31
0.0
  0
LINE
  5
25C
102
{ACAD_REACTORS
330
339
102
}
330
1F
100
AcDbEntity
  8
LC-002-002-----0
 62
     7
370
    50
100
AcDbLine
 10
867.859738
 20
2508.733939
 30
0.0
 11
858.486605
 21
2419.554541
 31
0.0
  0
LINE
  5
25D
102
{ACAD_REACTORS
330
339
102
}
330
1F
100
AcDbEntity
  8
LC-002-002-----0
 62
     7
370
    50
100
AcDbLine
 10
875.815913
 20
2507.897712
 30
0.0
 11
865.634961
 21
2411.032426
 31
0.0
  0
LINE
  5
25E
102
{ACAD_REACTORS
330
339
102
}
330
1F
100
AcDbEntity
  8
LC-002-002-----0
 62
     7
370
    50
100
AcDbLine
 10
900.084514
 20
2411.032426
 30
0.0
 11
889.903562
 21
2507.897712
 31
0.0
  0
LINE
  5
25F
102
{ACAD_REACTORS
330
339
102
}
330
1F
100
AcDbEntity
  8
LC-002-002-----0
 62
     7
370
    50
100
AcDbLine
 10
907.23287
 20
2419.554541
 30
0.0
 11
897.859738
 21
2508.733939
 31
0.0
  0
LINE
  5
260
102
{ACAD_REACTORS
330
339
102
}
330
1F
100
AcDbEntity
  8
LC-002-002-----0
 62
     7
370
    50
100
AcDbLine
 10
1011.883763
 20
2383.239162
 30
0.0
 11
1011.734617
 21
2383.559006
 31
0.0
  0
LINE
  5
261
102
{ACAD_REACTORS
330
339
102
}
330
1F
100
AcDbEntity
  8
LC-002-002-----0
 62
     7
370
    50
100
AcDbLine
 10
1018.130338
 20
2394.004407
 30
0.0
 11
1018.111563
 21
2394.219003
 31
0.0
  0
LINE
  5
262
102
{ACAD_REACTORS
330
339
102
}
330
1F
100
AcDbEntity
  8
LC-002-002-----0
 62
     7
370
    50
100
AcDbLine
 10
476.259738
 20
2640.24
 30
0.0
 11
485.959589
 21
2640.24
 31
0.0
  0
LINE
  5
263
102
{ACAD_REACTORS
330
339
102
}
330
1F
100
AcDbEntity
  8
LC-002-002-----0
 62
     7
370
    50
100
AcDbLine
 10
467.046771
 20
2649.24
 30
0.0
 11
1298.672705
 21
2649.24
 31
0.0
  0
LINE
  5
264
102
{ACAD_REACTORS
330
339
102
}
330
1F
100
AcDbEntity
  8
LC-002-002-----0
 62
     7
370
    50
100
AcDbLine
 10
1132.714137
 20
2394.004407
 30
0.0
 11
1132.732912
 21
2394.219003
 31
0.0
  0
LINE
  5
265
102
{ACAD_REACTORS
330
339
102
}
330
1F
100
AcDbEntity
  8
LC-002-002-----0
 62
     7
370
    50
100
AcDbLine
 10
1138.960713
 20
2383.239162
 30
0.0
 11
1139.109858
 21
2383.559006
 31
0.0
  0
LINE
  5
266
102
{ACAD_REACTORS
330
339
102
}
330
1F
100
AcDbEntity
  8
LC-002-002-----0
 62
     7
370
    50
100
AcDbLine
 10
1244.021838
 20
2419.583227
 30
0.0
 11
1267.783266
 21
2645.658114
 31
0.0
  0
LINE
  5
267
102
{ACAD_REACTORS
330
339
102
}
330
1F
100
AcDbEntity
  8
LC-002-002-----0
 62
     7
370
    50
100
AcDbLine
 10
1251.170194
 20
2411.061112
 30
0.0
 11
1274.787276
 21
2635.762642
 31
0.0
  0
LINE
  5
268
102
{ACAD_REACTORS
330
339
102
}
330
1F
100
AcDbEntity
  8
LC-002-002-----0
 62
     7
370
    50
100
AcDbLine
 10
1301.959738
 20
2642.24
 30
0.0
 11
1301.665397
 21
2646.449269
 31
0.0
  0
ARC
  5
269
102
{ACAD_REACTORS
330
337
102
}
330
1F
100
AcDbEntity
  8
LC-002-002-----0
 62
     7
370
    50
100
AcDbCircle
 10
476.459738
 20
1600.04
 30
0.0
 40
12.69999999999982
100
AcDbArc
 50
180.0
 51
270.0
  0
ARC
  5
26A
102
{ACAD_REACTORS
330
337
102
}
330
1F
100
AcDbEntity
  8
LC-002-002-----0
 62
     7
370
    50
100
AcDbCircle
 10
1289.259738
 20
1600.04
 30
0.0
 40
12.69999999999982
100
AcDbArc
 50
270.0
 51
0.0
  0
ARC
  5
26B
102
{ACAD_REACTORS
330
338
102
}
330
1F
100
AcDbEntity
  8
LC-002-002-----0
 62
     7
370
    50
100
AcDbCircle
 10
1535.790688
 20
1864.289533
 30
0.0
 40
5.999999999999981
100
AcDbArc
 50
4.0
 51
65.0
  0
ARC
  5
26C
102
{ACAD_REACTORS
330
338
102
}
330
1F
100
AcDbEntity
  8
LC-002-002-----0
 62
     7
370
    50
100
AcDbCircle
 10
1535.790688
 20
2002.540467
 30
0.0
 40
5.999999999999985
100
AcDbArc
 50
295.0
 51
356.0
  0
ARC
  5
26D
102
{ACAD_REACTORS
330
338
102
}
330
1F
100
AcDbEntity
  8
LC-002-002-----0
 62
     7
370
    50
100
AcDbCircle
 10
1790.007392
 20
1609.539852
 30
0.0
 40
5.000000000000455
100
AcDbArc
 50
0.0
 51
84.0
  0
ARC
  5
26E
102
{ACAD_REACTORS
330
338
102
}
330
1F
100
AcDbEntity
  8
LC-002-002-----0
 62
     7
370
    50
100
AcDbCircle
 10
1790.007392
 20
2058.680148
 30
0.0
 40
4.999999999999833
100
AcDbArc
 50
276.0
 51
0.0
  0
ARC
  5
26F
102
{ACAD_REACTORS
330
338
102
}
330
1F
100
AcDbEntity
  8
LC-002-002-----0
 62
     7
370
    50
100
AcDbCircle
 10
1800.007392
 20
2050.681616
 30
0.0
 40
3.999999999999812
100
AcDbArc
 50
276.0
 51
0.0
  0
ARC
  5
270
102
{ACAD_REACTORS
330
338
102
}
330
1F
100
AcDbEntity
  8
LC-002-002-----0
 62
     7
370
    50
100
AcDbCircle
 10
1800.007392
 20
1617.538384
 30
0.0
 40
4.0
100
AcDbArc
 50
0.0
 51
84.0
  0
ARC
  5
271
102
{ACAD_REACTORS
330
338
102
}
330
1F
100
AcDbEntity
  8
LC-002-002-----0
 62
     7
370
    50
100
AcDbCircle
 10
1801.007392
 20
1590.627033
 30
0.0
 40
3.000000000000006
100
AcDbArc
 50
274.0
 51
0.0
  0
ARC
  5
272
102
{ACAD_REACTORS
330
338
102
}
330
1F
100
AcDbEntity
  8
LC-002-002-----0
 62
     7
370
    50
100
AcDbCircle
 10
1538.85179
 20
1871.689141
 30
0.0
 40
2.0
100
AcDbArc
 50
180.0
 51
245.0
  0
ARC
  5
273
102
{ACAD_REACTORS
330
338
102
}
330
1F
100
AcDbEntity
  8
LC-002-002-----0
 62
     7
370
    50
100
AcDbCircle
 10
1538.85179
 20
1995.140859
 30
0.0
 40
1.999999999999931
100
AcDbArc
 50
115.0
 51
180.0
  0
ARC
  5
274
102
{ACAD_REACTORS
330
338
102
}
330
1F
100
AcDbEntity
  8
LC-002-002-----0
 62
     7
370
    50
100
AcDbCircle
 10
1548.881808
 20
1991.921108
 30
0.0
 40
1.200000000000155
100
AcDbArc
 50
275.0
 51
356.0
  0
ARC
  5
275
102
{ACAD_REACTORS
330
338
102
}
330
1F
100
AcDbEntity
  8
LC-002-002-----0
 62
     7
370
    50
100
AcDbCircle
 10
1548.881808
 20
1874.908892
 30
0.0
 40
1.200000000000112
100
AcDbArc
 50
4.0
 51
85.0
  0
ARC
  5
276
102
{ACAD_REACTORS
330
338
102
}
330
1F
100
AcDbEntity
  8
LC-002-002-----0
 62
     7
370
    50
100
AcDbCircle
 10
1548.858955
 20
1989.710705
 30
0.0
 40
1.000000000000293
100
AcDbArc
 50
95.0
 51
170.0
  0
ARC
  5
277
102
{ACAD_REACTORS
330
338
102
}
330
1F
100
AcDbEntity
  8
LC-002-002-----0
 62
     7
370
    50
100
AcDbCircle
 10
1548.858955
 20
1877.119295
 30
0.0
 40
1.000000000000125
100
AcDbArc
 50
190.0
 51
265.0
  0
ARC
  5
278
102
{ACAD_REACTORS
330
339
102
}
330
1F
100
AcDbEntity
  8
LC-002-002-----0
 62
     7
370
    50
100
AcDbCircle
 10
621.17177
 20
2381.023296
 30
0.0
 40
6.000000000000177
100
AcDbArc
 50
25.0
 51
86.0
  0
ARC
  5
279
102
{ACAD_REACTORS
330
339
102
}
330
1F
100
AcDbEntity
  8
LC-002-002-----0
 62
     7
370
    50
100
AcDbCircle
 10
759.422705
 20
2381.023296
 30
0.0
 40
6.000000000000012
100
AcDbArc
 50
94.0
 51
155.0
  0
ARC
  5
27A
102
{ACAD_REACTORS
330
339
102
}
330
1F
100
AcDbEntity
  8
LC-002-002-----0
 62
     7
370
    50
100
AcDbCircle
 10
628.571378
 20
2384.084399
 30
0.0
 40
1.999999999999931
100
AcDbArc
 50
205.0
 51
270.0
  0
ARC
  5
27B
102
{ACAD_REACTORS
330
339
102
}
330
1F
100
AcDbEntity
  8
LC-002-002-----0
 62
     7
370
    50
100
AcDbCircle
 10
752.023097
 20
2384.084399
 30
0.0
 40
2.0
100
AcDbArc
 50
270.0
 51
335.0
  0
ARC
  5
27C
102
{ACAD_REACTORS
330
339
102
}
330
1F
100
AcDbEntity
  8
LC-002-002-----0
 62
     7
370
    50
100
AcDbCircle
 10
748.803346
 20
2394.114416
 30
0.0
 40
1.200000000000112
100
AcDbArc
 50
94.0
 51
175.0
  0
ARC
  5
27D
102
{ACAD_REACTORS
330
339
102
}
330
1F
100
AcDbEntity
  8
LC-002-002-----0
 62
     7
370
    50
100
AcDbCircle
 10
631.79113
 20
2394.114416
 30
0.0
 40
1.200000000000195
100
AcDbArc
 50
5.0
 51
86.0
  0
ARC
  5
27E
102
{ACAD_REACTORS
330
339
102
}
330
1F
100
AcDbEntity
  8
LC-002-002-----0
 62
     7
370
    50
100
AcDbCircle
 10
746.592943
 20
2394.091563
 30
0.0
 40
1.000000000000046
100
AcDbArc
 50
280.0
 51
355.0
  0
ARC
  5
27F
102
{ACAD_REACTORS
330
339
102
}
330
1F
100
AcDbEntity
  8
LC-002-002-----0
 62
     7
370
    50
100
AcDbCircle
 10
634.001533
 20
2394.091563
 30
0.0
 40
0.9999999999998402
100
AcDbArc
 50
185.0
 51
260.0
  0
ARC
  5
280
102
{ACAD_REACTORS
330
339
102
}
330
1F
100
AcDbEntity
  8
LC-002-002-----0
 62
     7
370
    50
100
AcDbCircle
 10
485.959589
 20
2635.24
 30
0.0
 40
4.999999999999833
100
AcDbArc
 50
6.0
 51
90.0
  0
ARC
  5
281
102
{ACAD_REACTORS
330
339
102
}
330
1F
100
AcDbEntity
  8
LC-002-002-----0
 62
     7
370
    50
100
AcDbCircle
 10
493.958121
 20
2645.24
 30
0.0
 40
4.000000000000038
100
AcDbArc
 50
6.0
 51
90.0
  0
ARC
  5
282
102
{ACAD_REACTORS
330
339
102
}
330
1F
100
AcDbEntity
  8
LC-002-002-----0
 62
     7
370
    50
100
AcDbCircle
 10
467.046771
 20
2646.24
 30
0.0
 40
3.0
100
AcDbArc
 50
90.0
 51
176.0
  0
ARC
  5
283
102
{ACAD_REACTORS
330
339
102
}
330
1F
100
AcDbEntity
  8
LC-002-002-----0
 62
     7
370
    50
100
AcDbCircle
 10
882.859738
 20
2507.140697
 30
0.0
 40
15.09915538469967
100
AcDbArc
 50
82.388361
 51
97.611639
  0
ARC
  5
284
102
{ACAD_REACTORS
330
339
102
}
330
1F
100
AcDbEntity
  8
LC-002-002-----0
 62
     7
370
    50
100
AcDbCircle
 10
882.859738
 20
2507.157376
 30
0.0
 40
15.08262419349988
100
AcDbArc
 50
6.0
 51
82.379969
  0
ARC
  5
285
102
{ACAD_REACTORS
330
339
102
}
330
1F
100
AcDbEntity
  8
LC-002-002-----0
 62
     7
370
    50
100
AcDbCircle
 10
882.859738
 20
2507.157376
 30
0.0
 40
15.08262419349969
100
AcDbArc
 50
97.620031
 51
174.0
  0
ARC
  5
286
102
{ACAD_REACTORS
330
339
102
}
330
1F
100
AcDbEntity
  8
LC-002-002-----0
 62
     7
370
    50
100
AcDbCircle
 10
882.859738
 20
2507.125965
 30
0.0
 40
7.113758584699879
100
AcDbArc
 50
82.413516
 51
97.586484
  0
ARC
  5
287
102
{ACAD_REACTORS
330
339
102
}
330
1F
100
AcDbEntity
  8
LC-002-002-----0
 62
     7
370
    50
100
AcDbCircle
 10
882.859738
 20
2507.157376
 30
0.0
 40
7.082624193500252
100
AcDbArc
 50
6.0
 51
82.379969
  0
ARC
  5
288
102
{ACAD_REACTORS
330
339
102
}
330
1F
100
AcDbEntity
  8
LC-002-002-----0
 62
     7
370
    50
100
AcDbCircle
 10
882.859738
 20
2507.157376
 30
0.0
 40
7.082624193499752
100
AcDbArc
 50
97.620031
 51
174.0
  0
ARC
  5
289
102
{ACAD_REACTORS
330
339
102
}
330
1F
100
AcDbEntity
  8
LC-002-002-----0
 62
     7
370
    50
100
AcDbCircle
 10
1144.547705
 20
2381.023296
 30
0.0
 40
5.999999999999997
100
AcDbArc
 50
94.0
 51
155.0
  0
ARC
  5
28A
102
{ACAD_REACTORS
330
339
102
}
330
1F
100
AcDbEntity
  8
LC-002-002-----0
 62
     7
370
    50
100
AcDbCircle
 10
1006.29677
 20
2381.023296
 30
0.0
 40
6.000000000000177
100
AcDbArc
 50
25.0
 51
86.0
  0
ARC
  5
28B
102
{ACAD_REACTORS
330
339
102
}
330
1F
100
AcDbEntity
  8
LC-002-002-----0
 62
     7
370
    50
100
AcDbCircle
 10
1013.696378
 20
2384.084399
 30
0.0
 40
2.000000000000343
100
AcDbArc
 50
205.0
 51
270.0
  0
ARC
  5
28C
102
{ACAD_REACTORS
330
339
102
}
330
1F
100
AcDbEntity
  8
LC-002-002-----0
 62
     7
370
    50
100
AcDbCircle
 10
1137.148097
 20
2384.084399
 30
0.0
 40
2.0
100
AcDbArc
 50
270.0
 51
335.0
  0
ARC
  5
28D
102
{ACAD_REACTORS
330
339
102
}
330
1F
100
AcDbEntity
  8
LC-002-002-----0
 62
     7
370
    50
100
AcDbCircle
 10
1016.91613
 20
2394.114416
 30
0.0
 40
1.199999999999742
100
AcDbArc
 50
5.0
 51
86.0
  0
ARC
  5
28E
102
{ACAD_REACTORS
330
339
102
}
330
1F
100
AcDbEntity
  8
LC-002-002-----0
 62
     7
370
    50
100
AcDbCircle
 10
1133.928346
 20
2394.114416
 30
0.0
 40
1.200000000000112
100
AcDbArc
 50
94.0
 51
175.0
  0
ARC
  5
28F
102
{ACAD_REACTORS
330
339
102
}
330
1F
100
AcDbEntity
  8
LC-002-002-----0
 62
     7
370
    50
100
AcDbCircle
 10
1019.126533
 20
2394.091563
 30
0.0
 40
0.9999999999998402
100
AcDbArc
 50
185.0
 51
260.0
  0
ARC
  5
290
102
{ACAD_REACTORS
330
339
102
}
330
1F
100
AcDbEntity
  8
LC-002-002-----0
 62
     7
370
    50
100
AcDbCircle
 10
1131.717943
 20
2394.091563
 30
0.0
 40
1.000000000000046
100
AcDbArc
 50
280.0
 51
355.0
  0
ARC
  5
291
102
{ACAD_REACTORS
330
339
102
}
330
1F
100
AcDbEntity
  8
LC-002-002-----0
 62
     7
370
    50
100
AcDbCircle
 10
1279.759886
 20
2635.24
 30
0.0
 40
5.0
100
AcDbArc
 50
90.0
 51
174.0
  0
ARC
  5
292
102
{ACAD_REACTORS
330
339
102
}
330
1F
100
AcDbEntity
  8
LC-002-002-----0
 62
     7
370
    50
100
AcDbCircle
 10
1271.761354
 20
2645.24
 30
0.0
 40
4.0
100
AcDbArc
 50
90.0
 51
174.0
  0
ARC
  5
293
102
{ACAD_REACTORS
330
339
102
}
330
1F
100
AcDbEntity
  8
LC-002-002-----0
 62
     7
370
    50
100
AcDbCircle
 10
1298.672705
 20
2646.24
 30
0.0
 40
3.000000000000006
100
AcDbArc
 50
4.0
 51
90.0
  0
LINE
  5
294
102
{ACAD_REACTORS
330
339
102
}
330
1F
100
AcDbEntity
  8
LC-002-002-----0
 62
     7
370
    25
100
AcDbLine
 10
1132.822238
 20
2395.24
 30
0.0
 11
1018.022238
 21
2395.24
 31
0.0
  0
ARC
  5
295
102
{ACAD_REACTORS
330
337
102
}
330
1F
100
AcDbEntity
  8
LC-002-002-----0
 62
     7
370
    50
100
AcDbCircle
 10
910.031741
 20
1648.079785
 30
0.0
 40
12.17200293737187
100
AcDbArc
 50
180.0
 51
270.0
  0
LINE
  5
296
102
{ACAD_REACTORS
330
339
102
}
330
1F
100
AcDbEntity
  8
LC-002-002-----0
 62
     7
370
    50
100
AcDbLine
 10
644.297238
 20
2382.084399
 30
0.0
 11
644.297238
 21
2391.260726
 31
0.0
  0
LINE
  5
297
102
{ACAD_REACTORS
330
339
102
}
330
1F
100
AcDbEntity
  8
LC-002-002-----0
 62
     7
370
    50
100
AcDbLine
 10
736.297238
 20
2382.084399
 30
0.0
 11
736.297238
 21
2391.260726
 31
0.0
  0
LINE
  5
298
102
{ACAD_REACTORS
330
338
102
}
330
1F
100
AcDbEntity
  8
LC-002-002-----0
 62
     7
370
    50
100
AcDbLine
 10
1536.85179
 20
1887.415
 30
0.0
 11
1546.028117
 21
1887.415
 31
0.0
  0
LINE
  5
299
102
{ACAD_REACTORS
330
338
102
}
330
1F
100
AcDbEntity
  8
LC-002-002-----0
 62
     7
370
    50
100
AcDbLine
 10
1536.85179
 20
1979.415
 30
0.0
 11
1546.028117
 21
1979.415
 31
0.0
  0
LINE
  5
29A
102
{ACAD_REACTORS
330
339
102
}
330
1F
100
AcDbEntity
  8
LC-002-002-----0
 62
     7
370
    50
100
AcDbLine
 10
1301.959738
 20
2642.24
 30
0.0
 11
1289.459738
 21
2642.24
 31
0.0
  0
LINE
  5
29B
102
{ACAD_REACTORS
330
339
102
}
330
1F
100
AcDbEntity
  8
LC-002-002-----0
 62
     7
370
    50
100
AcDbLine
 10
1289.459738
 20
2642.24
 30
0.0
 11
1289.459738
 21
2640.24
 31
0.0
  0
LINE
  5
29C
102
{ACAD_REACTORS
330
338
102
}
330
1F
100
AcDbEntity
  8
LC-002-002-----0
 62
     7
370
    50
100
AcDbLine
 10
1797.007392
 20
1587.34
 30
0.0
 11
1797.007392
 21
1599.84
 31
0.0
  0
LINE
  5
29D
102
{ACAD_REACTORS
330
338
102
}
330
1F
100
AcDbEntity
  8
LC-002-002-----0
 62
     7
370
    50
100
AcDbLine
 10
1797.007392
 20
1599.84
 30
0.0
 11
1795.007392
 21
1599.84
 31
0.0
  0
ARC
  5
29E
102
{ACAD_REACTORS
330
337
102
}
330
1F
100
AcDbEntity
  8
LC-004-002-RND-0
 62
     7
370
    50
100
AcDbCircle
 10
514.059738
 20
2020.064436
 30
0.0
 40
16.49999999999979
100
AcDbArc
 50
96.829238
 51
180.0
  0
ARC
  5
29F
102
{ACAD_REACTORS
330
337
102
}
330
1F
100
AcDbEntity
  8
LC-004-002-RND-0
 62
     7
370
    50
100
AcDbCircle
 10
1251.659738
 20
2020.064436
 30
0.0
 40
16.5
100
AcDbArc
 50
0.0
 51
83.170762
  0
ARC
  5
2A0
102
{ACAD_REACTORS
330
337
102
}
330
1F
100
AcDbEntity
  8
LC-004-002-RND-0
 62
     7
370
    50
100
AcDbCircle
 10
882.859738
 20
2195.863879
 30
0.0
 40
159.9999999999995
100
AcDbArc
 50
263.332958
 51
276.667042
  0
ARC
  5
2A1
102
{ACAD_REACTORS
330
337
102
}
330
1F
100
AcDbEntity
  8
LC-002-002-----0
 62
     7
370
    50
100
AcDbCircle
 10
909.965255
 20
2010.940013
 30
0.0
 40
12.10551767191063
100
AcDbArc
 50
96.433402
 51
179.999614
  0
ARC
  5
2A2
102
{ACAD_REACTORS
330
337
102
}
330
1F
100
AcDbEntity
  8
LC-002-002-----0
 62
     7
370
    50
100
AcDbCircle
 10
690.297238
 20
548.48
 30
0.0
 40
1498.6
100
AcDbArc
 50
83.332958
 51
96.829238
  0
ARC
  5
2A3
102
{ACAD_REACTORS
330
337
102
}
330
1F
100
AcDbEntity
  8
LC-002-002-----0
 62
     7
370
    50
100
AcDbCircle
 10
855.75422
 20
2010.940013
 30
0.0
 40
12.10551767191009
100
AcDbArc
 50
0.000386
 51
83.566598
  0
ARC
  5
2A4
102
{ACAD_REACTORS
330
337
102
}
330
1F
100
AcDbEntity
  8
LC-002-002-----0
 62
     7
370
    50
100
AcDbCircle
 10
1075.422238
 20
548.48
 30
0.0
 40
1498.6
100
AcDbArc
 50
83.170762
 51
96.667042
  0
CIRCLE
  5
2A5
102
{ACAD_REACTORS
330
337
102
}
330
1F
100
AcDbEntity
  8
LC-002-002-----0
 62
     7
370
    50
100
AcDbCircle
 10
690.297238
 20
1933.415
 30
0.0
 40
46.0
  0
CIRCLE
  5
2A6
102
{ACAD_REACTORS
330
337
102
}
330
1F
100
AcDbEntity
  8
LC-002-002-----0
 62
     7
370
    50
100
AcDbCircle
 10
690.297238
 20
1933.415
 30
0.0
 40
57.40000000000009
  0
CIRCLE
  5
2A7
102
{ACAD_REACTORS
330
337
102
}
330
1F
100
AcDbEntity
  8
LC-002-002-----0
 62
     7
370
    50
100
AcDbCircle
 10
1075.422238
 20
1933.415
 30
0.0
 40
46.0
  0
CIRCLE
  5
2A8
102
{ACAD_REACTORS
330
337
102
}
330
1F
100
AcDbEntity
  8
LC-002-002-----0
 62
     7
370
    50
100
AcDbCircle
 10
1075.422238
 20
1933.415
 30
0.0
 40
57.40000000000009
  0
DIMENSION
  5
2AA
330
1F
100
AcDbEntity
  8
LC-005-003-----0
 62
     7
370
    25
100
AcDbDimension
  2
*D18
 10
400.0
 20
2069.94
 30
0.0
 11
370.0
 21
2031.858225
 31
0.0
 70
   160
 71
     5
 42
22.86
 53
90.0
  3
LC-DIM-L-0025-01-02
100
AcDbAlignedDimension
 13
453.759738
 23
2047.08
 33
0.0
 14
453.759738
 24
2069.94
 34
0.0
 50
90.0
100
AcDbRotatedDimension
  0
ARC
  5
2B9
102
{ACAD_REACTORS
330
33A
102
}
330
1F
100
AcDbEntity
  8
LC-004-002-RND-0
 62
     7
370
    50
100
AcDbCircle
 10
617.041302
 20
892.798614
 30
0.0
 40
8.25
100
AcDbArc
 50
180.0
 51
270.0
  0
ARC
  5
2BA
102
{ACAD_REACTORS
330
33A
102
}
330
1F
100
AcDbEntity
  8
LC-004-002-RND-0
 62
     7
370
    50
100
AcDbCircle
 10
985.841302
 20
892.798614
 30
0.0
 40
8.25
100
AcDbArc
 50
270.0
 51
0.0
  0
LINE
  5
2BB
102
{ACAD_REACTORS
330
33A
102
}
330
1F
100
AcDbEntity
  8
LC-002-002-----0
 62
     7
370
    50
100
AcDbLine
 10
608.791302
 20
1084.010832
 30
0.0
 11
608.791302
 21
892.798614
 31
0.0
  0
LINE
  5
2BC
102
{ACAD_REACTORS
330
33A
102
}
330
1F
100
AcDbEntity
  8
LC-002-002-----0
 62
     7
370
    50
100
AcDbLine
 10
617.041302
 20
884.548614
 30
0.0
 11
985.841302
 21
884.548614
 31
0.0
  0
LINE
  5
2BD
102
{ACAD_REACTORS
330
33A
102
}
330
1F
100
AcDbEntity
  8
LC-002-002-----0
 62
     7
370
    50
100
AcDbLine
 10
994.091302
 20
892.798614
 30
0.0
 11
994.091302
 21
1084.010832
 31
0.0
  0
ARC
  5
2BE
102
{ACAD_REACTORS
330
33A
102
}
330
1F
100
AcDbEntity
  8
LC-004-002-RND-0
 62
     7
370
    50
100
AcDbCircle
 10
617.041302
 20
1084.010832
 30
0.0
 40
8.24999999999967
100
AcDbArc
 50
96.829238
 51
180.0
  0
ARC
  5
2BF
102
{ACAD_REACTORS
330
33A
102
}
330
1F
100
AcDbEntity
  8
LC-004-002-RND-0
 62
     7
370
    50
100
AcDbCircle
 10
985.841302
 20
1084.010832
 30
0.0
 40
8.25
100
AcDbArc
 50
0.0
 51
83.170762
  0
ARC
  5
2C0
102
{ACAD_REACTORS
330
33A
102
}
330
1F
100
AcDbEntity
  8
LC-004-002-RND-0
 62
     7
370
    50
100
AcDbCircle
 10
801.441302
 20
1171.910553
 30
0.0
 40
80.00000000000007
100
AcDbArc
 50
263.332958
 51
276.667042
  0
ARC
  5
2C1
102
{ACAD_REACTORS
330
33A
102
}
330
1F
100
AcDbEntity
  8
LC-002-002-----0
 62
     7
370
    50
100
AcDbCircle
 10
705.160052
 20
348.218614
 30
0.0
 40
749.2999999999995
100
AcDbArc
 50
83.332958
 51
96.829238
  0
ARC
  5
2C2
102
{ACAD_REACTORS
330
33A
102
}
330
1F
100
AcDbEntity
  8
LC-002-002-----0
 62
     7
370
    50
100
AcDbCircle
 10
897.722552
 20
348.218614
 30
0.0
 40
749.2999999999997
100
AcDbArc
 50
83.170762
 51
96.667042
  0
DIMENSION
  5
2C3
330
1F
100
AcDbEntity
  8
LC-005-003-----0
 62
     7
370
    25
100
AcDbDimension
  2
*D19
 10
900.0
 20
884.548614
 30
0.0
 11
870.0
 21
988.229584
 31
0.0
 70
   160
 71
     5
 42
414.723879
 53
90.0
  3
LC-DIM-L-0025-02-02
100
AcDbAlignedDimension
 13
836.441302
 23
1091.910553
 33
0.0
 14
836.441302
 24
884.548614
 34
0.0
 50
90.0
100
AcDbRotatedDimension
1001
ACAD
1000
DSTYLE
1002
{
1070
   144
1040
2.0
1002
}
  0
DIMENSION
  5
2D2
330
1F
100
AcDbEntity
  8
LC-005-003-----0
 62
     7
370
    25
100
AcDbDimension
  2
*D20
 10
801.441302
 20
1171.910553
 30
0.0
 11
769.100545
 21
1031.157853
 31
0.0
 70
   164
 71
     5
 42
160.0
  3
LC-DIM-R-0025-02-02
100
AcDbRadialDimension
 15
799.343902
 25
1091.938052
 35
0.0
 40
1.0
1001
ACAD
1000
DSTYLE
1002
{
1070
   144
1040
2.0
1002
}
  0
DIMENSION
  5
2DC
330
1F
100
AcDbEntity
  8
LC-005-003-----0
 62
     7
370
    25
100
AcDbDimension
  2
*D21
 10
705.160052
 20
348.218614
 30
0.0
 11
739.943694
 21
967.840969
 31
0.0
 70
   164
 71
     5
 42
1498.6
  3
LC-DIM-R-0025-02-02
100
AcDbRadialDimension
 15
689.752649
 25
1097.360191
 35
0.0
 40
1.0
1001
ACAD
1000
DSTYLE
1002
{
1070
   144
1040
2.0
1070
    73
1070
     1
1002
}
  0
LINE
  5
2E7
102
{ACAD_REACTORS
330
33B
102
}
330
1F
100
AcDbEntity
  8
LC-008-003-MTG-0
 62
     7
370
    25
100
AcDbLine
 10
963.688364
 20
1061.857895
 30
0.0
 11
991.674933
 21
1089.844463
 31
0.0
  0
LINE
  5
2E8
102
{ACAD_REACTORS
330
33B
102
}
330
1F
100
AcDbEntity
  8
LC-005-003-----0
 62
     7
370
    25
100
AcDbLine
 10
971.8411
 20
1074.625427
 30
0.0
 11
991.674933
 21
1089.844463
 31
0.0
  0
LINE
  5
2E9
102
{ACAD_REACTORS
330
33B
102
}
330
1F
100
AcDbEntity
  8
LC-005-003-----0
 62
     7
370
    25
100
AcDbLine
 10
991.674933
 20
1089.844463
 30
0.0
 11
976.455897
 21
1070.01063
 31
0.0
  0
LINE
  5
2EA
102
{ACAD_REACTORS
330
33B
102
}
330
1F
100
AcDbEntity
  8
LC-005-003-----0
 62
     7
370
    25
100
AcDbLine
 10
976.455897
 20
1070.01063
 30
0.0
 11
971.8411
 21
1074.625427
 31
0.0
  0
LINE
  5
2EB
102
{ACAD_REACTORS
330
33B
102
}
330
1F
100
AcDbEntity
  8
LC-005-003-----0
 62
     7
370
    25
100
AcDbLine
 10
972.401702
 20
1073.986183
 30
0.0
 11
987.078739
 21
1085.248269
 31
0.0
  0
LINE
  5
2EC
102
{ACAD_REACTORS
330
33B
102
}
330
1F
100
AcDbEntity
  8
LC-005-003-----0
 62
     7
370
    25
100
AcDbLine
 10
987.078739
 20
1085.248269
 30
0.0
 11
975.816653
 21
1070.571232
 31
0.0
  0
LINE
  5
2ED
102
{ACAD_REACTORS
330
33B
102
}
330
1F
100
AcDbEntity
  8
LC-005-003-----0
 62
     7
370
    25
100
AcDbLine
 10
972.962305
 20
1073.346938
 30
0.0
 11
982.482545
 21
1080.652075
 31
0.0
  0
LINE
  5
2EE
102
{ACAD_REACTORS
330
33B
102
}
330
1F
100
AcDbEntity
  8
LC-005-003-----0
 62
     7
370
    25
100
AcDbLine
 10
982.482545
 20
1080.652075
 30
0.0
 11
975.177408
 21
1071.131835
 31
0.0
  0
LINE
  5
2EF
102
{ACAD_REACTORS
330
33B
102
}
330
1F
100
AcDbEntity
  8
LC-005-003-----0
 62
     7
370
    25
100
AcDbLine
 10
973.522907
 20
1072.707693
 30
0.0
 11
977.886351
 21
1076.055881
 31
0.0
  0
LINE
  5
2F0
102
{ACAD_REACTORS
330
33B
102
}
330
1F
100
AcDbEntity
  8
LC-005-003-----0
 62
     7
370
    25
100
AcDbLine
 10
977.886351
 20
1076.055881
 30
0.0
 11
974.538163
 21
1071.692437
 31
0.0
  0
LINE
  5
2F1
102
{ACAD_REACTORS
330
33B
102
}
330
1F
100
AcDbEntity
  8
LC-008-003-MTG-0
 62
     7
370
    25
100
AcDbLine
 10
963.688364
 20
1061.857895
 30
0.0
 11
963.688364
 21
1026.857895
 31
0.0
  0
LINE
  5
2F2
102
{ACAD_REACTORS
330
33B
102
}
330
1F
100
AcDbEntity
  8
LC-008-003-MTG-0
 62
     7
370
    25
100
AcDbLine
 10
963.688364
 20
914.951552
 30
0.0
 11
991.674933
 21
886.964983
 31
0.0
  0
LINE
  5
2F3
102
{ACAD_REACTORS
330
33B
102
}
330
1F
100
AcDbEntity
  8
LC-005-003-----0
 62
     7
370
    25
100
AcDbLine
 10
971.8411
 20
902.184019
 30
0.0
 11
991.674933
 21
886.964983
 31
0.0
  0
LINE
  5
2F4
102
{ACAD_REACTORS
330
33B
102
}
330
1F
100
AcDbEntity
  8
LC-005-003-----0
 62
     7
370
    25
100
AcDbLine
 10
991.674933
 20
886.964983
 30
0.0
 11
976.455897
 21
906.798816
 31
0.0
  0
LINE
  5
2F5
102
{ACAD_REACTORS
330
33B
102
}
330
1F
100
AcDbEntity
  8
LC-005-003-----0
 62
     7
370
    25
100
AcDbLine
 10
976.455897
 20
906.798816
 30
0.0
 11
971.8411
 21
902.184019
 31
0.0
  0
LINE
  5
2F6
102
{ACAD_REACTORS
330
33B
102
}
330
1F
100
AcDbEntity
  8
LC-005-003-----0
 62
     7
370
    25
100
AcDbLine
 10
972.401702
 20
902.823263
 30
0.0
 11
987.078739
 21
891.561177
 31
0.0
  0
LINE
  5
2F7
102
{ACAD_REACTORS
330
33B
102
}
330
1F
100
AcDbEntity
  8
LC-005-003-----0
 62
     7
370
    25
100
AcDbLine
 10
987.078739
 20
891.561177
 30
0.0
 11
975.816653
 21
906.238214
 31
0.0
  0
LINE
  5
2F8
102
{ACAD_REACTORS
330
33B
102
}
330
1F
100
AcDbEntity
  8
LC-005-003-----0
 62
     7
370
    25
100
AcDbLine
 10
972.962305
 20
903.462508
 30
0.0
 11
982.482545
 21
896.157371
 31
0.0
  0
LINE
  5
2F9
102
{ACAD_REACTORS
330
33B
102
}
330
1F
100
AcDbEntity
  8
LC-005-003-----0
 62
     7
370
    25
100
AcDbLine
 10
982.482545
 20
896.157371
 30
0.0
 11
975.177408
 21
905.677611
 31
0.0
  0
LINE
  5
2FA
102
{ACAD_REACTORS
330
33B
102
}
330
1F
100
AcDbEntity
  8
LC-005-003-----0
 62
     7
370
    25
100
AcDbLine
 10
973.522907
 20
904.101753
 30
0.0
 11
977.886351
 21
900.753565
 31
0.0
  0
LINE
  5
2FB
102
{ACAD_REACTORS
330
33B
102
}
330
1F
100
AcDbEntity
  8
LC-005-003-----0
 62
     7
370
    25
100
AcDbLine
 10
977.886351
 20
900.753565
 30
0.0
 11
974.538163
 21
905.117009
 31
0.0
  0
LINE
  5
2FC
102
{ACAD_REACTORS
330
33B
102
}
330
1F
100
AcDbEntity
  8
LC-008-003-MTG-0
 62
     7
370
    25
100
AcDbLine
 10
963.688364
 20
914.951552
 30
0.0
 11
963.688364
 21
949.951552
 31
0.0
  0
TEXT
  5
2FD
102
{ACAD_REACTORS
330
33B
102
}
330
1F
100
AcDbEntity
  8
LC-005-003-----0
 62
     7
370
    25
100
AcDbText
 10
976.188364
 20
951.943473
 30
0.0
 40
25.0
  1
R16,5
 50
90.0
 41
0.7
  7
LCTX0-400-0-0pDIN-Schrift
 72
     1
 11
976.188364
 21
988.404723
 31
0.0
100
AcDbText
  0
LINE
  5
2FF
330
1F
100
AcDbEntity
  8
LC-002-002-----0
  6
DASHDOT
 62
     7
370
    35
100
AcDbLine
 10
417.742016
 20
1252.929191
 30
0.0
 11
1583.700327
 21
1252.929191
 31
0.0
  0
LINE
  5
300
330
1F
100
AcDbEntity
  8
LC-002-002-----0
  6
DASHDOT
 62
     7
370
    35
100
AcDbLine
 10
417.742016
 20
696.433141
 30
0.0
 11
417.742016
 21
1252.929191
 31
0.0
  0
LINE
  5
301
330
1F
100
AcDbEntity
  8
LC-002-002-----0
  6
DASHDOT
 62
     7
370
    35
100
AcDbLine
 10
1583.700327
 20
696.433141
 30
0.0
 11
417.742016
 21
696.433141
 31
0.0
  0
LINE
  5
302
330
1F
100
AcDbEntity
  8
LC-002-002-----0
  6
DASHDOT
 62
     7
370
    35
100
AcDbLine
 10
1583.700327
 20
1252.929191
 30
0.0
 11
1583.700327
 21
696.433141
 31
0.0
  0
LINE
  5
303
102
{ACAD_REACTORS
330
33C
102
}
330
1F
100
AcDbEntity
  8
LC-002-002-----0
 62
     7
370
    50
100
AcDbLine
 10
1246.867058
 20
1158.917779
 30
0.0
 11
1246.867058
 21
1018.917779
 31
0.0
  0
LINE
  5
304
102
{ACAD_REACTORS
330
33C
102
}
330
1F
100
AcDbEntity
  8
LC-002-002-----0
 62
     7
370
    50
100
AcDbLine
 10
1246.867058
 20
1158.917779
 30
0.0
 11
1546.501557
 21
1158.917779
 31
0.0
  0
INSERT
  5
30F
330
1F
100
AcDbEntity
  8
LC-006-005-----0
 62
     7
370
    25
100
AcDbBlockReference
  2
*X222
 10
0.0
 20
0.0
 30
0.0
  0
LINE
  5
310
330
1F
100
AcDbEntity
  8
LC-002-002-----0
 62
     7
370
    50
100
AcDbLine
 10
1246.867058
 20
1018.917779
 30
0.0
 11
1546.501557
 21
1018.917779
 31
0.0
  0
DIMENSION
  5
311
330
1F
100
AcDbEntity
  8
LC-005-003-----0
 62
     7
370
    25
100
AcDbDimension
  2
*D23
 10
1264.875139
 20
998.917779
 30
0.0
 11
1199.712909
 21
1026.131931
 31
0.0
 70
   164
 71
     5
 42
4.0
  3
LC-DIM-R-0025-02-02
100
AcDbRadialDimension
 15
1247.433231
 25
1008.704497
 35
0.0
 40
1.0
1001
ACAD
1000
DSTYLE
1002
{
1070
   144
1040
0.2
1002
}
  0
LINE
  5
31B
102
{ACAD_REACTORS
330
33D
102
}
330
1F
100
AcDbEntity
  8
LC-002-002-----0
 62
     7
370
    50
100
AcDbLine
 10
1280.004752
 20
951.53099
 30
0.0
 11
1266.769388
 21
825.604908
 31
0.0
  0
LINE
  5
31C
102
{ACAD_REACTORS
330
33D
102
}
330
1F
100
AcDbEntity
  8
LC-002-002-----0
 62
     7
370
    50
100
AcDbLine
 10
1353.367058
 20
973.917779
 30
0.0
 11
1304.8678
 21
973.917779
 31
0.0
  0
LINE
  5
31D
102
{ACAD_REACTORS
330
33D
102
}
330
1F
100
AcDbEntity
  8
LC-002-002-----0
 62
     7
370
    50
100
AcDbLine
 10
1415.867058
 20
983.917779
 30
0.0
 11
1353.367058
 21
983.917779
 31
0.0
  0
LINE
  5
31E
102
{ACAD_REACTORS
330
33D
102
}
330
1F
100
AcDbEntity
  8
LC-002-002-----0
 62
     7
370
    50
100
AcDbLine
 10
1353.367058
 20
983.917779
 30
0.0
 11
1353.367058
 21
973.917779
 31
0.0
  0
ARC
  5
31F
102
{ACAD_REACTORS
330
33D
102
}
330
1F
100
AcDbEntity
  8
LC-004-002-RND-0
 62
     7
370
    50
100
AcDbCircle
 10
1304.8678
 20
948.917779
 30
0.0
 40
25.0
100
AcDbArc
 50
90.0
 51
174.0
  0
LINE
  5
320
102
{ACAD_REACTORS
330
33D
102
}
330
1F
100
AcDbEntity
  8
LC-002-002-----0
 62
     7
370
    50
100
AcDbLine
 10
1244.984701
 20
1001.008348
 30
0.0
 11
1226.549056
 21
825.604908
 31
0.0
  0
LINE
  5
321
102
{ACAD_REACTORS
330
33D
102
}
330
1F
100
AcDbEntity
  8
LC-002-002-----0
 62
     7
370
    50
100
AcDbLine
 10
1415.867058
 20
983.917779
 30
0.0
 11
1414.395354
 21
1004.964126
 31
0.0
  0
LINE
  5
322
102
{ACAD_REACTORS
330
33D
102
}
330
1F
100
AcDbEntity
  8
LC-002-002-----0
 62
     7
370
    50
100
AcDbLine
 10
1399.431893
 20
1018.917779
 30
0.0
 11
1264.875139
 21
1018.917779
 31
0.0
  0
ARC
  5
323
102
{ACAD_REACTORS
330
33D
102
}
330
1F
100
AcDbEntity
  8
LC-002-002-----0
 62
     7
370
    50
100
AcDbCircle
 10
1264.875139
 20
998.917779
 30
0.0
 40
20.0
100
AcDbArc
 50
90.0
 51
174.0
  0
ARC
  5
324
102
{ACAD_REACTORS
330
33D
102
}
330
1F
100
AcDbEntity
  8
LC-002-002-----0
 62
     7
370
    50
100
AcDbCircle
 10
1399.431893
 20
1003.917779
 30
0.0
 40
15.00000000000009
100
AcDbArc
 50
4.0
 51
90.0
  0
INSERT
  5
335
102
{ACAD_REACTORS
330
33D
102
}
330
1F
100
AcDbEntity
  8
LC-006-005-----0
 62
     7
370
    25
100
AcDbBlockReference
  2
*X324
 10
0.0
 20
0.0
 30
0.0
  0
TEXT
  5
336
330
1F
100
AcDbEntity
  8
LC-007-004-----0
 62
     7
370
    35
100
AcDbText
 10
529.895552
 20
1189.183614
 30
0.0
 40
35.0
  1
Ausschnitt Unterbau 1:20
 41
0.7
  7
LCTX0-400-0-0pDIN-Schrift
 72
     1
 11
801.441302
 21
1189.183614
 31
0.0
100
AcDbText
  0
ENDSEC
  0
SECTION
  2
OBJECTS
  0
DICTIONARY
  5
C
330
0
100
AcDbDictionary
281
     1
  3
ACAD_GROUP
350
D
  3
ACAD_LAYOUT
350
1A
  3
ACAD_MLINESTYLE
350
17
  3
ACAD_PLOTSETTINGS
350
19
  3
ACAD_PLOTSTYLENAME
350
E
  0
DICTIONARY
  5
D
102
{ACAD_REACTORS
330
C
102
}
330
C
100
AcDbDictionary
281
     1
  3
LCGROUP2455
350
339
  3
LCGROUP2456
350
338
  3
LCGROUP2457
350
337
  3
LCGROUP2748
350
33A
  3
LCGROUP2845
350
33B
  3
LCGROUP2863
350
33C
  3
LCGROUP2869
350
33D
  0
DICTIONARY
  5
1A
102
{ACAD_REACTORS
330
C
102
}
330
C
100
AcDbDictionary
281
     1
  3
Layout1
350
1E
  3
Layout2
350
26
  3
Model
350
22
  0
DICTIONARY
  5
17
102
{ACAD_REACTORS
330
C
102
}
330
C
100
AcDbDictionary
281
     1
  3
Standard
350
18
  0
DICTIONARY
  5
19
102
{ACAD_REACTORS
330
C
102
}
330
C
100
AcDbDictionary
281
     1
  0
ACDBDICTIONARYWDFLT
  5
E
102
{ACAD_REACTORS
330
C
102
}
330
C
100
AcDbDictionary
281
     1
  3
Normal
350
F
100
AcDbDictionaryWithDefault
340
F
  0
GROUP
  5
339
102
{ACAD_REACTORS
330
D
102
}
330
D
100
AcDbGroup
300
GRP2455
 70
     1
 71
     1
340
107
340
108
340
109
340
10A
340
10B
340
10C
340
10D
340
10E
340
21E
340
224
340
225
340
226
340
227
340
229
340
22A
340
22B
340
247
340
248
340
249
340
24A
340
24B
340
24C
340
24D
340
24E
340
24F
340
250
340
251
340
252
340
253
340
254
340
255
340
256
340
257
340
258
340
259
340
25A
340
25B
340
25C
340
25D
340
25E
340
25F
340
260
340
261
340
262
340
263
340
264
340
265
340
266
340
267
340
268
340
278
340
279
340
27A
340
27B
340
27C
340
27D
340
27E
340
27F
340
280
340
281
340
282
340
283
340
284
340
285
340
286
340
287
340
288
340
289
340
28A
340
28B
340
28C
340
28D
340
28E
340
28F
340
290
340
291
340
292
340
293
340
294
340
296
340
297
340
29A
340
29B
  0
GROUP
  5
338
102
{ACAD_REACTORS
330
D
102
}
330
D
100
AcDbGroup
300
GRP2456
 70
     1
 71
     1
340
10F
340
21B
340
21F
340
221
340
222
340
223
340
228
340
234
340
235
340
236
340
237
340
238
340
239
340
23A
340
23B
340
23C
340
23D
340
23E
340
23F
340
240
340
241
340
242
340
243
340
244
340
245
340
246
340
26B
340
26C
340
26D
340
26E
340
26F
340
270
340
271
340
272
340
273
340
274
340
275
340
276
340
277
340
298
340
299
340
29C
340
29D
  0
GROUP
  5
337
102
{ACAD_REACTORS
330
D
102
}
330
D
100
AcDbGroup
300
GRP2457
 70
     1
 71
     1
340
110
340
21C
340
21D
340
220
340
22C
340
22D
340
22E
340
22F
340
230
340
231
340
232
340
233
340
269
340
26A
340
295
340
29E
340
29F
340
2A0
340
2A1
340
2A2
340
2A3
340
2A4
340
2A5
340
2A6
340
2A7
340
2A8
  0
GROUP
  5
33A
102
{ACAD_REACTORS
330
D
102
}
330
D
100
AcDbGroup
300
GRP2748
 70
     1
 71
     1
340
2B9
340
2BA
340
2BB
340
2BC
340
2BD
340
2BE
340
2BF
340
2C0
340
2C1
340
2C2
  0
GROUP
  5
33B
102
{ACAD_REACTORS
330
D
102
}
330
D
100
AcDbGroup
300
Gruppe 2845
 70
     1
 71
     1
340
2E7
340
2E8
340
2E9
340
2EA
340
2EB
340
2EC
340
2ED
340
2EE
340
2EF
340
2F0
340
2F1
340
2F2
340
2F3
340
2F4
340
2F5
340
2F6
340
2F7
340
2F8
340
2F9
340
2FA
340
2FB
340
2FC
340
2FD
  0
GROUP
  5
33C
102
{ACAD_REACTORS
330
D
102
}
330
D
100
AcDbGroup
300
Gruppe 3208
 70
     1
 71
     1
340
303
340
304
  0
GROUP
  5
33D
102
{ACAD_REACTORS
330
D
102
}
330
D
100
AcDbGroup
300
Gruppe 2869
 70
     1
 71
     1
340
31B
340
31C
340
31D
340
31E
340
31F
340
320
340
321
340
322
340
323
340
324
340
335
  0
LAYOUT
  5
1E
102
{ACAD_REACTORS
330
1A
102
}
330
1A
100
AcDbPlotSettings
  1

  2

  4

  6

 40
0.0
 41
0.0
 42
0.0
 43
0.0
 44
0.0
 45
0.0
 46
0.0
 47
0.0
 48
0.0
 49
0.0
140
0.0
141
0.0
142
1.0
143
1.0
 70
   688
 72
     0
 73
     0
 74
     5
  7

 75
    16
 76
     0
 77
     2
 78
   300
147
1.0
148
0.0
149
0.0
100
AcDbLayout
  1
Layout1
 70
     1
 71
     1
 10
0.0
 20
0.0
 11
2100.0
 21
2970.0
 12
0.0
 22
0.0
 32
0.0
 14
0.0
 24
0.0
 34
0.0
 15
2100.0
 25
2970.0
 35
0.0
146
0.0
 13
0.0
 23
0.0
 33
0.0
 16
1.0
 26
0.0
 36
0.0
 17
0.0
 27
1.0
 37
0.0
 76
     0
330
1B
  0
LAYOUT
  5
26
102
{ACAD_REACTORS
330
1A
102
}
330
1A
100
AcDbPlotSettings
  1

  2

  4

  6

 40
0.0
 41
0.0
 42
0.0
 43
0.0
 44
0.0
 45
0.0
 46
0.0
 47
0.0
 48
0.0
 49
0.0
140
0.0
141
0.0
142
1.0
143
1.0
 70
   688
 72
     0
 73
     0
 74
     5
  7

 75
    16
 76
     0
 77
     2
 78
   300
147
1.0
148
0.0
149
0.0
100
AcDbLayout
  1
Layout2
 70
     1
 71
     2
 10
0.0
 20
0.0
 11
0.0
 21
0.0
 12
0.0
 22
0.0
 32
0.0
 14
0.0
 24
0.0
 34
0.0
 15
0.0
 25
0.0
 35
0.0
146
0.0
 13
0.0
 23
0.0
 33
0.0
 16
1.0
 26
0.0
 36
0.0
 17
0.0
 27
1.0
 37
0.0
 76
     0
330
23
  0
LAYOUT
  5
22
102
{ACAD_REACTORS
330
1A
102
}
330
1A
100
AcDbPlotSettings
  1

  2

  4

  6

 40
0.0
 41
0.0
 42
0.0
 43
0.0
 44
0.0
 45
0.0
 46
0.0
 47
0.0
 48
0.0
 49
0.0
140
0.0
141
0.0
142
1.0
143
1.0
 70
  1776
 72
     0
 73
     0
 74
     0
  7

 75
     0
 76
     0
 77
     2
 78
   300
147
1.0
148
0.0
149
0.0
100
AcDbLayout
  1
Model
 70
     1
 71
     0
 10
0.0
 20
0.0
 11
2100.0
 21
2970.0
 12
0.0
 22
0.0
 32
0.0
 14
0.0
 24
0.0
 34
0.0
 15
2100.0
 25
2970.0
 35
0.0
146
0.0
 13
0.0
 23
0.0
 33
0.0
 16
1.0
 26
0.0
 36
0.0
 17
0.0
 27
1.0
 37
0.0
 76
     0
330
1F
  0
MLINESTYLE
  5
18
102
{ACAD_REACTORS
330
17
102
}
330
17
100
AcDbMlineStyle
  2
Standard
 70
     0
  3

 62
   256
 51
90.0
 52
90.0
 71
     2
 49
0.5
 62
   256
  6
BYLAYER
 49
-0.5
 62
   256
  6
BYLAYER
  0
ACDBPLACEHOLDER
  5
F
102
{ACAD_REACTORS
330
E
102
}
330
E
  0
ENDSEC
  0
EOF
