  0
SECTION
  2
HEADER
  9
$ACADVER
  1
AC1018
  9
$ACADMAINTVER
 70
     0
  9
$DWGCODEPAGE
  3
ANSI_1252
  9
$INSBASE
 10
0.0
 20
0.0
 30
0.0
  9
$EXTMIN
 10
0.0
 20
0.0
 30
0.0
  9
$EXTMAX
 10
2100.0
 20
2970.0
 30
0.0
  9
$LIMMIN
 10
0.0
 20
0.0
  9
$LIMMAX
 10
2100.0
 20
2970.0
  9
$ORTHOMODE
 70
     0
  9
$REGENMODE
 70
     1
  9
$FILLMODE
 70
     1
  9
$QTEXTMODE
 70
     0
  9
$MIRRTEXT
 70
     1
  9
$LTSCALE
 40
10.0
  9
$ATTMODE
 70
     1
  9
$TEXTSIZE
 40
2.5
  9
$TRACEWID
 40
1.0
  9
$TEXTSTYLE
  7
Standard
  9
$CLAYER
  8
0
  9
$CELTYPE
  6
ByLayer
  9
$CECOLOR
 62
     7
  9
$CELTSCALE
 40
1.0
  9
$DISPSILH
 70
     0
  9
$DIMSCALE
 40
10.0
  9
$DIMASZ
 40
3.5
  9
$DIMEXO
 40
0.625
  9
$DIMDLI
 40
3.75
  9
$DIMRND
 40
0.0
  9
$DIMDLE
 40
0.0
  9
$DIMEXE
 40
1.25
  9
$DIMTP
 40
0.0
  9
$DIMTM
 40
0.0
  9
$DIMTXT
 40
3.5
  9
$DIMCEN
 40
2.5
  9
$DIMTSZ
 40
0.0
  9
$DIMTOL
 70
     0
  9
$DIMLIM
 70
     0
  9
$DIMTIH
 70
     0
  9
$DIMTOH
 70
     0
  9
$DIMSE1
 70
     0
  9
$DIMSE2
 70
     0
  9
$DIMTAD
 70
     1
  9
$DIMZIN
 70
     8
  9
$DIMBLK
  1

  9
$DIMASO
 70
     1
  9
$DIMSHO
 70
     1
  9
$DIMPOST
  1

  9
$DIMAPOST
  1

  9
$DIMALT
 70
     0
  9
$DIMALTD
 70
     3
  9
$DIMALTF
 40
0.03937
  9
$DIMLFAC
 40
1.0
  9
$DIMTOFL
 70
     1
  9
$DIMTVP
 40
0.0
  9
$DIMTIX
 70
     0
  9
$DIMSOXD
 70
     0
  9
$DIMSAH
 70
     0
  9
$DIMBLK1
  1

  9
$DIMBLK2
  1

  9
$DIMSTYLE
  2
ISO-25
  9
$DIMCLRD
 70
     0
  9
$DIMCLRE
 70
     0
  9
$DIMCLRT
 70
     0
  9
$DIMTFAC
 40
1.0
  9
$DIMGAP
 40
0.625
  9
$DIMJUST
 70
     0
  9
$DIMSD1
 70
     0
  9
$DIMSD2
 70
     0
  9
$DIMTOLJ
 70
     0
  9
$DIMTZIN
 70
     8
  9
$DIMALTZ
 70
     0
  9
$DIMALTTZ
 70
     0
  9
$DIMUPT
 70
     0
  9
$DIMDEC
 70
     2
  9
$DIMTDEC
 70
     2
  9
$DIMALTU
 70
     2
  9
$DIMALTTD
 70
     3
  9
$DIMTXSTY
  7
Standard
  9
$DIMAUNIT
 70
     0
  9
$DIMADEC
 70
     0
  9
$DIMALTRND
 40
0.0
  9
$DIMAZIN
 70
     0
  9
$DIMDSEP
 70
    44
  9
$DIMATFIT
 70
     3
  9
$DIMFRAC
 70
     0
  9
$DIMLDRBLK
  1

  9
$DIMLUNIT
 70
     2
  9
$DIMLWD
 70
    -2
  9
$DIMLWE
 70
    -2
  9
$DIMTMOVE
 70
     0
  9
$LUNITS
 70
     2
  9
$LUPREC
 70
     4
  9
$SKETCHINC
 40
1.0
  9
$FILLETRAD
 40
10.0
  9
$AUNITS
 70
     0
  9
$AUPREC
 70
     0
  9
$MENU
  1
.
  9
$ELEVATION
 40
0.0
  9
$PELEVATION
 40
0.0
  9
$THICKNESS
 40
0.0
  9
$LIMCHECK
 70
     0
  9
$CHAMFERA
 40
10.0
  9
$CHAMFERB
 40
10.0
  9
$CHAMFERC
 40
20.0
  9
$CHAMFERD
 40
0.0
  9
$SKPOLY
 70
     0
  9
$TDCREATE
 40
2456637.523256123
  9
$TDUCREATE
 40
2456637.481589456
  9
$TDUPDATE
 40
2456637.523256134
  9
$TDUUPDATE
 40
2456637.481589468
  9
$TDINDWG
 40
0.0000000116
  9
$TDUSRTIMER
 40
0.0000000116
  9
$USRTIMER
 70
     1
  9
$ANGBASE
 50
0.0
  9
$ANGDIR
 70
     0
  9
$PDMODE
 70
     0
  9
$PDSIZE
 40
0.0
  9
$PLINEWID
 40
0.0
  9
$SPLFRAME
 70
     0
  9
$SPLINETYPE
 70
     6
  9
$SPLINESEGS
 70
     8
  9
$HANDSEED
  5
51E
  9
$SURFTAB1
 70
     6
  9
$SURFTAB2
 70
     6
  9
$SURFTYPE
 70
     6
  9
$SURFU
 70
     6
  9
$SURFV
 70
     6
  9
$UCSBASE
  2

  9
$UCSNAME
  2

  9
$UCSORG
 10
0.0
 20
0.0
 30
0.0
  9
$UCSXDIR
 10
1.0
 20
0.0
 30
0.0
  9
$UCSYDIR
 10
0.0
 20
1.0
 30
0.0
  9
$UCSORTHOREF
  2

  9
$UCSORTHOVIEW
 70
     0
  9
$UCSORGTOP
 10
0.0
 20
0.0
 30
0.0
  9
$UCSORGBOTTOM
 10
0.0
 20
0.0
 30
0.0
  9
$UCSORGLEFT
 10
0.0
 20
0.0
 30
0.0
  9
$UCSORGRIGHT
 10
0.0
 20
0.0
 30
0.0
  9
$UCSORGFRONT
 10
0.0
 20
0.0
 30
0.0
  9
$UCSORGBACK
 10
0.0
 20
0.0
 30
0.0
  9
$PUCSBASE
  2

  9
$PUCSNAME
  2

  9
$PUCSORG
 10
0.0
 20
0.0
 30
0.0
  9
$PUCSXDIR
 10
1.0
 20
0.0
 30
0.0
  9
$PUCSYDIR
 10
0.0
 20
1.0
 30
0.0
  9
$PUCSORTHOREF
  2

  9
$PUCSORTHOVIEW
 70
     0
  9
$PUCSORGTOP
 10
0.0
 20
0.0
 30
0.0
  9
$PUCSORGBOTTOM
 10
0.0
 20
0.0
 30
0.0
  9
$PUCSORGLEFT
 10
0.0
 20
0.0
 30
0.0
  9
$PUCSORGRIGHT
 10
0.0
 20
0.0
 30
0.0
  9
$PUCSORGFRONT
 10
0.0
 20
0.0
 30
0.0
  9
$PUCSORGBACK
 10
0.0
 20
0.0
 30
0.0
  9
$USERI1
 70
     0
  9
$USERI2
 70
     0
  9
$USERI3
 70
     0
  9
$USERI4
 70
     0
  9
$USERI5
 70
     0
  9
$USERR1
 40
0.0
  9
$USERR2
 40
0.0
  9
$USERR3
 40
0.0
  9
$USERR4
 40
0.0
  9
$USERR5
 40
0.0
  9
$WORLDVIEW
 70
     1
  9
$SHADEDGE
 70
     3
  9
$SHADEDIF
 70
    70
  9
$TILEMODE
 70
     1
  9
$MAXACTVP
 70
    64
  9
$PINSBASE
 10
0.0
 20
0.0
 30
0.0
  9
$PLIMCHECK
 70
     0
  9
$PEXTMIN
 10
0.0
 20
0.0
 30
0.0
  9
$PEXTMAX
 10
2100.0
 20
2970.0
 30
0.0
  9
$PLIMMIN
 10
0.0
 20
0.0
  9
$PLIMMAX
 10
2100.0
 20
2970.0
  9
$UNITMODE
 70
     0
  9
$VISRETAIN
 70
     1
  9
$PLINEGEN
 70
     0
  9
$PSLTSCALE
 70
     1
  9
$TREEDEPTH
 70
  3020
  9
$CMLSTYLE
  2
Standard
  9
$CMLJUST
 70
     0
  9
$CMLSCALE
 40
20.0
  9
$PROXYGRAPHICS
 70
     1
  9
$MEASUREMENT
 70
     1
  9
$CELWEIGHT
370
    -1
  9
$ENDCAPS
280
     0
  9
$JOINSTYLE
280
     0
  9
$LWDISPLAY
290
     0
  9
$INSUNITS
 70
     4
  9
$HYPERLINKBASE
  1

  9
$STYLESHEET
  1

  9
$XEDIT
290
     1
  9
$CEPSNTYPE
380
     0
  9
$PSTYLEMODE
290
     1
  9
$FINGERPRINTGUID
  2
{FAEB1C30-E019-11D5-929B-00C0DF256EC4}
  9
$VERSIONGUID
  2
{FAEB1C32-E019-11D5-929B-00C0DF256EC4}
  9
$EXTNAMES
290
     1
  9
$PSVPSCALE
 40
0.0
  9
$OLESTARTUP
290
     0
  9
$SORTENTS
280
   127
  9
$INDEXCTL
280
     0
  9
$HIDETEXT
280
     1
  9
$XCLIPFRAME
290
     0
  9
$HALOGAP
280
     0
  9
$OBSCOLOR
 70
   257
  9
$OBSLTYPE
280
     0
  9
$INTERSECTIONDISPLAY
280
     0
  9
$INTERSECTIONCOLOR
 70
   257
  9
$DIMASSOC
280
     2
  9
$PROJECTNAME
  1

  0
ENDSEC
  0
SECTION
  2
CLASSES
  0
CLASS
  1
ACDBDICTIONARYWDFLT
  2
AcDbDictionaryWithDefault
  3
ObjectDBX Classes
 90
        0
 91
        1
280
     0
281
     0
  0
ENDSEC
  0
SECTION
  2
TABLES
  0
TABLE
  2
VPORT
  5
8
330
0
100
AcDbSymbolTable
 70
     2
  0
VPORT
  5
29
330
8
100
AcDbSymbolTableRecord
100
AcDbViewportTableRecord
  2
*ACTIVE
 70
     0
 10
0.0
 20
0.0
 11
1.0
 21
1.0
 12
1050.0
 22
1485.0
 13
0.0
 23
0.0
 14
1.0
 24
1.0
 15
0.0
 25
0.0
 16
0.0
 26
0.0
 36
1.0
 17
0.0
 27
0.0
 37
0.0
 40
2970.0
 41
0.707071
 42
50.0
 43
0.0
 44
0.0
 50
0.0
 51
0.0
 71
    16
 72
   100
 73
     1
 74
     0
 75
     0
 76
     0
 77
     0
 78
     0
281
     0
 65
     0
110
0.0
120
0.0
130
0.0
111
1.0
121
0.0
131
0.0
112
0.0
122
1.0
132
0.0
 79
     0
146
0.0
  0
ENDTAB
  0
TABLE
  2
LTYPE
  5
5
330
0
100
AcDbSymbolTable
 70
     2
  0
LTYPE
  5
14
330
5
100
AcDbSymbolTableRecord
100
AcDbLinetypeTableRecord
  2
ByBlock
 70
     0
  3

 72
    65
 73
     0
 40
0.0
  0
LTYPE
  5
15
330
5
100
AcDbSymbolTableRecord
100
AcDbLinetypeTableRecord
  2
ByLayer
 70
     0
  3

 72
    65
 73
     0
 40
0.0
  0
LTYPE
  5
16
330
5
100
AcDbSymbolTableRecord
100
AcDbLinetypeTableRecord
  2
Continuous
 70
     0
  3
Solid line
 72
    65
 73
     0
 40
0.0
  0
LTYPE
  5
2A
330
5
100
AcDbSymbolTableRecord
100
AcDbLinetypeTableRecord
  2
DASHED
 70
     0
  3
__ __ __ __ __
 72
    65
 73
     2
 40
6.25
 49
5.0
 74
     4
 75
     0
340
0
 46
1.0
 50
0.0
 44
0.0
 45
0.0
 49
-1.25
 74
     4
 75
     0
340
0
 46
1.0
 50
0.0
 44
0.0
 45
0.0
  0
ENDTAB
  0
TABLE
  2
LAYER
  5
2
330
0
100
AcDbSymbolTable
 70
    13
  0
LAYER
  5
10
330
2
100
AcDbSymbolTableRecord
100
AcDbLayerTableRecord
  2
0
 70
     0
 62
     7
  6
Continuous
370
    -3
390
F
  0
LAYER
  5
2B
330
2
100
AcDbSymbolTableRecord
100
AcDbLayerTableRecord
  2
LC-INFO-1-10-mm-A4H-0
 70
     1
 62
     7
  6
ByBlock
370
    -3
390
F
  0
LAYER
  5
2C
330
2
100
AcDbSymbolTableRecord
100
AcDbLayerTableRecord
  2
LC-CUT-HIDDEN
 70
     0
 62
     7
  6
DASHED
370
    -3
390
F
  0
LAYER
  5
2D
330
2
100
AcDbSymbolTableRecord
100
AcDbLayerTableRecord
  2
LC-VIEWPORT
 70
     0
 62
     7
  6
ByBlock
370
    -3
390
F
  0
LAYER
  5
2E
330
2
100
AcDbSymbolTableRecord
100
AcDbLayerTableRecord
  2
LC-3D-HIDDEN
 70
     0
 62
     9
  6
DASHED
370
    -3
390
F
  0
LAYER
  5
33
330
2
100
AcDbSymbolTableRecord
100
AcDbLayerTableRecord
  2
LC-001-111-----0
 70
     0
 62
   253
  6
ByBlock
370
    -3
390
F
  0
LAYER
  5
A2
330
2
100
AcDbSymbolTableRecord
100
AcDbLayerTableRecord
  2
LC-002-002-----0
 70
     0
 62
     1
  6
ByBlock
370
    -3
390
F
  0
LAYER
  5
104
330
2
100
AcDbSymbolTableRecord
100
AcDbLayerTableRecord
  2
LC-003-230-ZVN-0
 70
     0
 62
     1
  6
ByBlock
370
    -3
390
F
  0
LAYER
  5
10C
330
2
100
AcDbSymbolTableRecord
100
AcDbLayerTableRecord
  2
LC-004-002-RND-0
 70
     0
 62
     1
  6
ByBlock
370
    -3
390
F
  0
LAYER
  5
1B4
330
2
100
AcDbSymbolTableRecord
100
AcDbLayerTableRecord
  2
LC-005-005-----0
 70
     0
 62
     5
  6
ByBlock
370
    -3
390
F
  0
LAYER
  5
380
330
2
100
AcDbSymbolTableRecord
100
AcDbLayerTableRecord
  2
LC-006-003-----0
 70
     0
 62
     2
  6
ByBlock
370
    -3
390
F
  0
LAYER
  5
382
330
2
100
AcDbSymbolTableRecord
100
AcDbLayerTableRecord
  2
Defpoints
 70
     0
 62
     7
  6
Continuous
290
     0
370
    -3
390
F
  0
LAYER
  5
4F3
330
2
100
AcDbSymbolTableRecord
100
AcDbLayerTableRecord
  2
LC-007-004-----0
 70
     0
 62
     7
  6
ByBlock
370
    -3
390
F
  0
ENDTAB
  0
TABLE
  2
STYLE
  5
3
330
0
100
AcDbSymbolTable
 70
     2
  0
STYLE
  5
11
330
3
100
AcDbSymbolTableRecord
100
AcDbTextStyleTableRecord
  2
Standard
 70
     0
 40
0.0
 41
1.0
 50
0.0
 71
     0
 42
2.5
  3
txt
  4

  0
STYLE
  5
2F
330
3
100
AcDbSymbolTableRecord
100
AcDbTextStyleTableRecord
  2
LCTX0-400-0-0pDIN-Schrift
 70
     0
 40
0.0
 41
0.7
 50
0.0
 71
     0
 42
3.5
  3
TXT
  4

  0
ENDTAB
  0
TABLE
  2
VIEW
  5
6
330
0
100
AcDbSymbolTable
 70
     0
  0
ENDTAB
  0
TABLE
  2
UCS
  5
7
330
0
100
AcDbSymbolTable
 70
     0
  0
ENDTAB
  0
TABLE
  2
APPID
  5
9
330
0
100
AcDbSymbolTable
 70
     1
  0
APPID
  5
12
330
9
100
AcDbSymbolTableRecord
100
AcDbRegAppTableRecord
  2
ACAD
 70
     0
  0
ENDTAB
  0
TABLE
  2
DIMSTYLE
  5
A
330
0
100
AcDbSymbolTable
 70
     6
100
AcDbDimStyleTable
  0
DIMSTYLE
105
27
330
A
100
AcDbSymbolTableRecord
100
AcDbDimStyleTableRecord
  2
ISO-25
 70
     0
 41
2.5
 42
0.625
 43
3.75
 44
1.25
 73
     0
 74
     0
 77
     1
 78
     8
140
2.5
141
2.5
143
0.03937
147
0.625
171
     3
172
     1
271
     2
272
     2
274
     3
278
    44
283
     0
284
     8
340
11
  0
DIMSTYLE
105
37F
102
{ACAD_REACTORS
330
381
330
38F
330
3A6
330
3B3
330
3C0
330
3E4
330
3F1
330
3FF
330
40C
330
41B
330
428
330
435
330
443
330
461
330
470
330
47E
330
48C
330
49B
330
4AA
102
}
330
A
100
AcDbSymbolTableRecord
100
AcDbDimStyleTableRecord
  2
LC-DIM-L-0025-02-02
 70
     0
 40
10.0
 41
2.5
 42
0.0
 43
7.5
 44
1.8
 73
     0
 74
     0
 77
     1
 78
     8
 79
     2
140
2.5
141
0.0
146
0.71
147
1.5
172
     1
176
     2
177
     2
178
     2
179
     2
271
     2
278
    44
289
     1
340
2F
  0
DIMSTYLE
105
39C
102
{ACAD_REACTORS
330
39D
102
}
330
A
100
AcDbSymbolTableRecord
100
AcDbDimStyleTableRecord
  2
LC-DIM-R-0025-02-02
 70
     0
 40
10.0
 41
2.5
 42
0.0
 43
7.5
 44
1.8
 73
     0
 74
     0
 77
     1
 78
     8
 79
     2
140
2.5
141
0.0
146
0.71
147
1.5
176
     2
177
     2
178
     2
179
     2
271
     2
278
    44
289
     1
340
2F
  0
DIMSTYLE
105
3CD
102
{ACAD_REACTORS
330
3CE
330
3D9
102
}
330
A
100
AcDbSymbolTableRecord
100
AcDbDimStyleTableRecord
  2
LC-DIM-L-0025-02-32
 70
     0
 40
10.0
 41
2.5
 42
0.0
 43
7.5
 44
1.8
 73
     0
 74
     0
 75
     1
 76
     1
 77
     1
 78
     8
 79
     2
140
2.5
141
0.0
146
0.71
147
1.5
172
     1
176
     2
177
     2
178
     2
179
     2
271
     2
278
    44
289
     1
340
2F
  0
DIMSTYLE
105
452
102
{ACAD_REACTORS
330
453
102
}
330
A
100
AcDbSymbolTableRecord
100
AcDbDimStyleTableRecord
  2
LC-DIM-L-0025-02-12
 70
     0
 40
10.0
 41
2.5
 42
0.0
 43
7.5
 44
1.8
 73
     0
 74
     0
 76
     1
 77
     1
 78
     8
 79
     2
140
2.5
141
0.0
146
0.71
147
1.5
172
     1
176
     2
177
     2
178
     2
179
     2
271
     2
278
    44
289
     1
340
2F
  0
DIMSTYLE
105
4F8
102
{ACAD_REACTORS
330
4F9
102
}
330
A
100
AcDbSymbolTableRecord
100
AcDbDimStyleTableRecord
  2
LC-DIM-L-0025-02-22
 70
     0
 40
10.0
 41
2.5
 42
0.0
 43
7.5
 44
1.8
 73
     0
 74
     0
 75
     1
 77
     1
 78
     8
 79
     2
140
2.5
141
0.0
146
0.71
147
1.5
172
     1
176
     2
177
     2
178
     2
179
     2
271
     2
278
    44
289
     1
340
2F
  0
ENDTAB
  0
TABLE
  2
BLOCK_RECORD
  5
1
330
0
100
AcDbSymbolTable
 70
    31
  0
BLOCK_RECORD
  5
1F
330
1
100
AcDbSymbolTableRecord
100
AcDbBlockTableRecord
  2
*Model_Space
340
22
  0
BLOCK_RECORD
  5
1B
330
1
100
AcDbSymbolTableRecord
100
AcDbBlockTableRecord
  2
*Paper_Space
340
1E
  0
BLOCK_RECORD
  5
23
330
1
100
AcDbSymbolTableRecord
100
AcDbBlockTableRecord
  2
*Paper_Space0
340
26
  0
BLOCK_RECORD
  5
30
330
1
100
AcDbSymbolTableRecord
100
AcDbBlockTableRecord
  2
SYM1
340
0
102
{BLKREFS
331
105
102
}
  0
BLOCK_RECORD
  5
1B1
330
1
100
AcDbSymbolTableRecord
100
AcDbBlockTableRecord
  2
*X12
340
0
102
{BLKREFS
331
22B
102
}
  0
BLOCK_RECORD
  5
22F
330
1
100
AcDbSymbolTableRecord
100
AcDbBlockTableRecord
  2
*X23
340
0
102
{BLKREFS
331
2A5
102
}
  0
BLOCK_RECORD
  5
2A7
330
1
100
AcDbSymbolTableRecord
100
AcDbBlockTableRecord
  2
*X34
340
0
102
{BLKREFS
331
30D
102
}
  0
BLOCK_RECORD
  5
310
330
1
100
AcDbSymbolTableRecord
100
AcDbBlockTableRecord
  2
*X45
340
0
102
{BLKREFS
331
376
102
}
  0
BLOCK_RECORD
  5
383
330
1
100
AcDbSymbolTableRecord
100
AcDbBlockTableRecord
  2
*D6
340
0
  0
BLOCK_RECORD
  5
390
330
1
100
AcDbSymbolTableRecord
100
AcDbBlockTableRecord
  2
*D7
340
0
  0
BLOCK_RECORD
  5
39E
330
1
100
AcDbSymbolTableRecord
100
AcDbBlockTableRecord
  2
*D8
340
0
  0
BLOCK_RECORD
  5
3A7
330
1
100
AcDbSymbolTableRecord
100
AcDbBlockTableRecord
  2
*D9
340
0
  0
BLOCK_RECORD
  5
3B4
330
1
100
AcDbSymbolTableRecord
100
AcDbBlockTableRecord
  2
*D10
340
0
  0
BLOCK_RECORD
  5
3C1
330
1
100
AcDbSymbolTableRecord
100
AcDbBlockTableRecord
  2
*D11
340
0
  0
BLOCK_RECORD
  5
3CF
330
1
100
AcDbSymbolTableRecord
100
AcDbBlockTableRecord
  2
*D12
340
0
  0
BLOCK_RECORD
  5
3DA
330
1
100
AcDbSymbolTableRecord
100
AcDbBlockTableRecord
  2
*D13
340
0
  0
BLOCK_RECORD
  5
3E5
330
1
100
AcDbSymbolTableRecord
100
AcDbBlockTableRecord
  2
*D14
340
0
  0
BLOCK_RECORD
  5
3F2
330
1
100
AcDbSymbolTableRecord
100
AcDbBlockTableRecord
  2
*D15
340
0
  0
BLOCK_RECORD
  5
400
330
1
100
AcDbSymbolTableRecord
100
AcDbBlockTableRecord
  2
*D16
340
0
  0
BLOCK_RECORD
  5
40D
330
1
100
AcDbSymbolTableRecord
100
AcDbBlockTableRecord
  2
*D17
340
0
  0
BLOCK_RECORD
  5
41C
330
1
100
AcDbSymbolTableRecord
100
AcDbBlockTableRecord
  2
*D18
340
0
  0
BLOCK_RECORD
  5
429
330
1
100
AcDbSymbolTableRecord
100
AcDbBlockTableRecord
  2
*D19
340
0
  0
BLOCK_RECORD
  5
436
330
1
100
AcDbSymbolTableRecord
100
AcDbBlockTableRecord
  2
*D20
340
0
  0
BLOCK_RECORD
  5
444
330
1
100
AcDbSymbolTableRecord
100
AcDbBlockTableRecord
  2
*D21
340
0
  0
BLOCK_RECORD
  5
454
330
1
100
AcDbSymbolTableRecord
100
AcDbBlockTableRecord
  2
*D22
340
0
  0
BLOCK_RECORD
  5
462
330
1
100
AcDbSymbolTableRecord
100
AcDbBlockTableRecord
  2
*D23
340
0
  0
BLOCK_RECORD
  5
471
330
1
100
AcDbSymbolTableRecord
100
AcDbBlockTableRecord
  2
*D24
340
0
  0
BLOCK_RECORD
  5
47F
330
1
100
AcDbSymbolTableRecord
100
AcDbBlockTableRecord
  2
*D25
340
0
  0
BLOCK_RECORD
  5
48D
330
1
100
AcDbSymbolTableRecord
100
AcDbBlockTableRecord
  2
*D26
340
0
  0
BLOCK_RECORD
  5
49C
330
1
100
AcDbSymbolTableRecord
100
AcDbBlockTableRecord
  2
*D27
340
0
  0
BLOCK_RECORD
  5
4AB
330
1
100
AcDbSymbolTableRecord
100
AcDbBlockTableRecord
  2
*D28
340
0
  0
BLOCK_RECORD
  5
4B9
330
1
100
AcDbSymbolTableRecord
100
AcDbBlockTableRecord
  2
*X529
340
0
102
{BLKREFS
331
4F2
102
}
  0
BLOCK_RECORD
  5
4FA
330
1
100
AcDbSymbolTableRecord
100
AcDbBlockTableRecord
  2
*D30
340
0
  0
ENDTAB
  0
ENDSEC
  0
SECTION
  2
BLOCKS
  0
BLOCK
  5
20
330
1F
100
AcDbEntity
  8
0
100
AcDbBlockBegin
  2
*Model_Space
 70
     0
 71
     0
 10
0.0
 20
0.0
 30
0.0
  3
*Model_Space
  1

  0
ENDBLK
  5
21
330
1F
100
AcDbEntity
  8
0
100
AcDbBlockEnd
  0
BLOCK
  5
1C
330
1B
100
AcDbEntity
 67
     1
  8
0
100
AcDbBlockBegin
  2
*Paper_Space
 70
     0
 71
     0
 10
0.0
 20
0.0
 30
0.0
  3
*Paper_Space
  1

  0
ENDBLK
  5
1D
330
1B
100
AcDbEntity
 67
     1
  8
0
100
AcDbBlockEnd
  0
BLOCK
  5
24
330
23
100
AcDbEntity
  8
0
100
AcDbBlockBegin
  2
*Paper_Space0
 70
     0
 71
     0
 10
0.0
 20
0.0
 30
0.0
  3
*Paper_Space0
  1

  0
ENDBLK
  5
25
330
23
100
AcDbEntity
  8
0
100
AcDbBlockEnd
  0
BLOCK
  5
31
330
30
100
AcDbEntity
  8
0
100
AcDbBlockBegin
  2
SYM1
 70
     0
 71
     0
 10
0.0
 20
0.0
 30
0.0
  3
SYM1
  1

  4
SYM1
  0
LINE
  5
34
330
30
100
AcDbEntity
  8
LC-001-111-----0
 62
   253
370
    50
100
AcDbLine
 10
2050.0
 20
50.0
 30
0.0
 11
2050.0
 21
2920.0
 31
0.0
  0
LINE
  5
35
330
30
100
AcDbEntity
  8
LC-001-111-----0
 62
   253
370
    25
100
AcDbLine
 10
178.0
 20
220.0
 30
0.0
 11
724.0
 21
220.0
 31
0.0
  0
LINE
  5
36
330
30
100
AcDbEntity
  8
LC-001-111-----0
 62
   253
370
    35
100
AcDbLine
 10
724.0
 20
220.0
 30
0.0
 11
2050.0
 21
220.0
 31
0.0
  0
LINE
  5
37
330
30
100
AcDbEntity
  8
LC-001-111-----0
 62
   253
370
    50
100
AcDbLine
 10
178.0
 20
602.5
 30
0.0
 11
2050.0
 21
602.5
 31
0.0
  0
LINE
  5
38
330
30
100
AcDbEntity
  8
LC-001-111-----0
 62
   253
370
    25
100
AcDbLine
 10
178.0
 20
92.5
 30
0.0
 11
2050.0
 21
92.5
 31
0.0
  0
LINE
  5
39
330
30
100
AcDbEntity
  8
LC-001-111-----0
 62
   253
370
    25
100
AcDbLine
 10
178.0
 20
135.0
 30
0.0
 11
724.0
 21
135.0
 31
0.0
  0
LINE
  5
3A
330
30
100
AcDbEntity
  8
LC-001-111-----0
 62
   253
370
    25
100
AcDbLine
 10
178.0
 20
177.5
 30
0.0
 11
724.0
 21
177.5
 31
0.0
  0
LINE
  5
3B
330
30
100
AcDbEntity
  8
LC-001-111-----0
 62
   253
370
    25
100
AcDbLine
 10
178.0
 20
262.5
 30
0.0
 11
1166.0
 21
262.5
 31
0.0
  0
LINE
  5
3C
330
30
100
AcDbEntity
  8
LC-001-111-----0
 62
   253
370
    25
100
AcDbLine
 10
178.0
 20
305.0
 30
0.0
 11
1166.0
 21
305.0
 31
0.0
  0
LINE
  5
3D
330
30
100
AcDbEntity
  8
LC-001-111-----0
 62
   253
370
    25
100
AcDbLine
 10
178.0
 20
347.5
 30
0.0
 11
1166.0
 21
347.5
 31
0.0
  0
LINE
  5
3E
330
30
100
AcDbEntity
  8
LC-001-111-----0
 62
   253
370
    25
100
AcDbLine
 10
178.0
 20
390.0
 30
0.0
 11
1166.0
 21
390.0
 31
0.0
  0
LINE
  5
3F
330
30
100
AcDbEntity
  8
LC-001-111-----0
 62
   253
370
    35
100
AcDbLine
 10
178.0
 20
432.5
 30
0.0
 11
2050.0
 21
432.5
 31
0.0
  0
LINE
  5
40
330
30
100
AcDbEntity
  8
LC-001-111-----0
 62
   253
370
    25
100
AcDbLine
 10
828.0
 20
262.5
 30
0.0
 11
828.0
 21
432.5
 31
0.0
  0
LINE
  5
41
330
30
100
AcDbEntity
  8
LC-001-111-----0
 62
   253
370
    35
100
AcDbLine
 10
1920.0
 20
92.5
 30
0.0
 11
1920.0
 21
220.0
 31
0.0
  0
LINE
  5
42
330
30
100
AcDbEntity
  8
LC-001-111-----0
 62
   253
370
    25
100
AcDbLine
 10
1166.0
 20
538.75
 30
0.0
 11
2050.0
 21
538.75
 31
0.0
  0
LINE
  5
43
330
30
100
AcDbEntity
  8
LC-001-111-----0
 62
   253
370
    25
100
AcDbLine
 10
256.0
 20
50.0
 30
0.0
 11
256.0
 21
432.5
 31
0.0
  0
LINE
  5
44
330
30
100
AcDbEntity
  8
LC-001-111-----0
 62
   253
370
    25
100
AcDbLine
 10
516.0
 20
50.0
 30
0.0
 11
516.0
 21
432.5
 31
0.0
  0
LINE
  5
45
330
30
100
AcDbEntity
  8
LC-001-111-----0
 62
   253
370
    25
100
AcDbLine
 10
646.0
 20
50.0
 30
0.0
 11
646.0
 21
432.5
 31
0.0
  0
LINE
  5
46
330
30
100
AcDbEntity
  8
LC-001-111-----0
 62
   253
370
    35
100
AcDbLine
 10
724.0
 20
50.0
 30
0.0
 11
724.0
 21
602.5
 31
0.0
  0
LINE
  5
47
330
30
100
AcDbEntity
  8
LC-001-111-----0
 62
   253
370
    35
100
AcDbLine
 10
1166.0
 20
50.0
 30
0.0
 11
1166.0
 21
602.5
 31
0.0
  0
LINE
  5
48
330
30
100
AcDbEntity
  8
LC-001-111-----0
 62
   253
370
    25
100
AcDbLine
 10
1920.0
 20
135.0
 30
0.0
 11
2050.0
 21
135.0
 31
0.0
  0
LINE
  5
49
330
30
100
AcDbEntity
  8
LC-001-111-----0
 62
   253
370
    25
100
AcDbLine
 10
984.0
 20
220.0
 30
0.0
 11
984.0
 21
602.5
 31
0.0
  0
LINE
  5
4A
330
30
100
AcDbEntity
  8
LC-001-111-----0
 62
   253
370
    25
100
AcDbLine
 10
1686.0
 20
538.75
 30
0.0
 11
1686.0
 21
602.5
 31
0.0
  0
LINE
  5
4B
330
30
100
AcDbEntity
  8
LC-001-111-----0
 62
   253
370
    25
100
AcDbLine
 10
1608.0
 20
50.0
 30
0.0
 11
1608.0
 21
92.5
 31
0.0
  0
LINE
  5
4C
330
30
100
AcDbEntity
  8
LC-001-111-----0
 62
   253
370
    50
100
AcDbLine
 10
178.0
 20
50.0
 30
0.0
 11
178.0
 21
2920.0
 31
0.0
  0
LINE
  5
4D
330
30
100
AcDbEntity
  8
LC-001-111-----0
 62
   253
370
    50
100
AcDbLine
 10
178.0
 20
2920.0
 30
0.0
 11
2050.0
 21
2920.0
 31
0.0
  0
TEXT
  5
4E
330
30
100
AcDbEntity
  8
LC-001-111-----0
 62
     7
370
    25
100
AcDbText
 10
1414.9
 20
558.125
 30
0.0
 40
25.0
  1
1:10  -  mm
 41
0.75
  7
LCTX0-400-0-0pDIN-Schrift
 72
     1
 11
1504.0
 21
558.125
 31
0.0
100
AcDbText
  0
TEXT
  5
4F
330
30
100
AcDbEntity
  8
LC-001-111-----0
 62
     7
370
    25
100
AcDbText
 10
1948.821875
 20
101.25
 30
0.0
 40
25.0
  1
1
 41
0.75
  7
LCTX0-400-0-0pDIN-Schrift
 72
     1
 11
1955.0
 21
101.25
 31
0.0
100
AcDbText
  0
TEXT
  5
50
330
30
100
AcDbEntity
  8
LC-001-111-----0
 62
     7
370
    25
100
AcDbText
 10
743.178125
 20
398.75
 30
0.0
 40
25.0
  1
2013
 41
0.75
  7
LCTX0-400-0-0pDIN-Schrift
 72
     1
 11
776.0
 21
398.75
 31
0.0
100
AcDbText
  0
TEXT
  5
51
330
30
100
AcDbEntity
  8
LC-001-111-----0
 62
     7
370
    25
100
AcDbText
 10
871.6125
 20
356.25
 30
0.0
 40
25.0
  1
21.11.
 41
0.75
  7
LCTX0-400-0-0pDIN-Schrift
 72
     1
 11
906.0
 21
356.25
 31
0.0
100
AcDbText
  0
TEXT
  5
52
330
30
100
AcDbEntity
  8
LC-001-111-----0
 62
     7
370
    25
100
AcDbText
 10
1056.25
 20
356.25
 30
0.0
 40
25.0
  1
KM
 41
0.75
  7
LCTX0-400-0-0pDIN-Schrift
 72
     1
 11
1075.0
 21
356.25
 31
0.0
100
AcDbText
  0
TEXT
  5
53
330
30
100
AcDbEntity
  8
LC-001-111-----0
 62
   253
370
    20
100
AcDbText
 10
1183.923077
 20
560.625
 30
0.0
 40
20.0
  1
Maßstab
 41
0.75
  7
LCTX0-400-0-0pDIN-Schrift
100
AcDbText
  0
TEXT
  5
54
330
30
100
AcDbEntity
  8
LC-001-111-----0
 62
   253
370
    20
100
AcDbText
 10
868.4175
 20
401.25
 30
0.0
 40
20.0
  1
Datum
 41
0.75
  7
LCTX0-400-0-0pDIN-Schrift
 72
     1
 11
906.0
 21
401.25
 31
0.0
100
AcDbText
  0
TEXT
  5
55
330
30
100
AcDbEntity
  8
LC-001-111-----0
 62
   253
370
    20
100
AcDbText
 10
1044.9625
 20
401.25
 30
0.0
 40
20.0
  1
Name
 41
0.75
  7
LCTX0-400-0-0pDIN-Schrift
 72
     1
 11
1075.0
 21
401.25
 31
0.0
100
AcDbText
  0
TEXT
  5
56
330
30
100
AcDbEntity
  8
LC-001-111-----0
 62
   253
370
    20
100
AcDbText
 10
741.923077
 20
358.75
 30
0.0
 40
20.0
  1
Bearb.
 41
0.75
  7
LCTX0-400-0-0pDIN-Schrift
100
AcDbText
  0
TEXT
  5
57
330
30
100
AcDbEntity
  8
LC-001-111-----0
 62
   253
370
    20
100
AcDbText
 10
741.923077
 20
316.25
 30
0.0
 40
20.0
  1
Gepr.
 41
0.75
  7
LCTX0-400-0-0pDIN-Schrift
100
AcDbText
  0
TEXT
  5
58
330
30
100
AcDbEntity
  8
LC-001-111-----0
 62
   253
370
    20
100
AcDbText
 10
741.923077
 20
273.75
 30
0.0
 40
20.0
  1
Norm
 41
0.75
  7
LCTX0-400-0-0pDIN-Schrift
100
AcDbText
  0
TEXT
  5
59
330
30
100
AcDbEntity
  8
LC-001-111-----0
 62
   253
370
    20
100
AcDbText
 10
1937.923077
 20
188.75
 30
0.0
 40
20.0
  1
Blatt
 41
0.75
  7
LCTX0-400-0-0pDIN-Schrift
100
AcDbText
  0
TEXT
  5
5A
330
30
100
AcDbEntity
  8
LC-001-111-----0
 62
   253
370
    20
100
AcDbText
 10
2011.906923
 20
103.75
 30
0.0
 40
20.0
  1
Bl.
 41
0.75
  7
LCTX0-400-0-0pDIN-Schrift
 72
     2
 11
2037.076923
 21
103.75
 31
0.0
100
AcDbText
  0
TEXT
  5
5B
330
30
100
AcDbEntity
  8
LC-001-111-----0
 62
   253
370
    20
100
AcDbText
 10
196.056
 20
61.25
 30
0.0
 40
20.0
  1
Zust.
 41
0.6
  7
LCTX0-400-0-0pDIN-Schrift
 72
     1
 11
222.0
 21
61.25
 31
0.0
100
AcDbText
  0
TEXT
  5
5C
330
30
100
AcDbEntity
  8
LC-001-111-----0
 62
   253
370
    20
100
AcDbText
 10
326.0
 20
61.25
 30
0.0
 40
20.0
  1
Änderung
 41
0.75
  7
LCTX0-400-0-0pDIN-Schrift
 72
     1
 11
386.0
 21
61.25
 31
0.0
100
AcDbText
  0
TEXT
  5
5D
330
30
100
AcDbEntity
  8
LC-001-111-----0
 62
   253
370
    20
100
AcDbText
 10
543.4175
 20
61.25
 30
0.0
 40
20.0
  1
Datum
 41
0.75
  7
LCTX0-400-0-0pDIN-Schrift
 72
     1
 11
581.0
 21
61.25
 31
0.0
100
AcDbText
  0
TEXT
  5
5E
330
30
100
AcDbEntity
  8
LC-001-111-----0
 62
   253
370
    20
100
AcDbText
 10
654.9625
 20
61.25
 30
0.0
 40
20.0
  1
Name
 41
0.75
  7
LCTX0-400-0-0pDIN-Schrift
 72
     1
 11
685.0
 21
61.25
 31
0.0
100
AcDbText
  0
TEXT
  5
5F
330
30
100
AcDbEntity
  8
LC-001-111-----0
 62
     7
370
    50
100
AcDbText
 10
1464.24375
 20
343.75
 30
0.0
 40
50.0
  1
Edo-N175
 41
0.75
  7
LCTX0-400-0-0pDIN-Schrift
 72
     1
 11
1608.0
 21
343.75
 31
0.0
100
AcDbText
  0
TEXT
  5
60
330
30
100
AcDbEntity
  8
LC-001-111-----0
 62
     7
370
    35
100
AcDbText
 10
1451.316778
 20
266.25
 30
0.0
 40
35.0
  1
- übergreifend -
 41
0.75
  7
LCTX0-400-0-0pDIN-Schrift
100
AcDbText
  0
TEXT
  5
61
330
30
100
AcDbEntity
  8
LC-001-111-----0
 62
     7
370
    50
100
AcDbText
 10
1346.33125
 20
131.25
 30
0.0
 40
50.0
  1
4.13.825.04.00
 41
0.75
  7
LCTX0-400-0-0pDIN-Schrift
 72
     1
 11
1543.0
 21
131.25
 31
0.0
100
AcDbText
  0
ARC
  5
62
330
30
100
AcDbEntity
  8
LC-001-111-----0
 62
   253
370
    25
100
AcDbCircle
 10
758.903191
 20
174.567744
 30
0.0
 40
20.81533311668208
100
AcDbArc
 50
62.408264
 51
94.48185
  0
LINE
  5
63
330
30
100
AcDbEntity
  8
LC-001-111-----0
 62
   253
370
    50
100
AcDbLine
 10
178.0
 20
50.0
 30
0.0
 11
2050.0
 21
50.0
 31
0.0
  0
LINE
  5
64
330
30
100
AcDbEntity
  8
LC-001-111-----0
 62
   253
370
    25
100
AcDbLine
 10
50.0
 20
1485.0
 30
0.0
 11
0.0
 21
1485.0
 31
0.0
  0
LINE
  5
65
330
30
100
AcDbEntity
  8
LC-001-111-----0
 62
   253
370
    25
100
AcDbLine
 10
1063.835603
 20
195.169147
 30
0.0
 11
1063.835603
 21
157.149147
 31
0.0
  0
LINE
  5
66
330
30
100
AcDbEntity
  8
LC-001-111-----0
 62
   253
370
    25
100
AcDbLine
 10
2100.0
 20
2970.0
 30
0.0
 11
2100.0
 21
0.0
 31
0.0
  0
LINE
  5
67
330
30
100
AcDbEntity
  8
LC-001-111-----0
 62
   253
370
    25
100
AcDbLine
 10
2100.0
 20
0.0
 30
0.0
 11
0.0
 21
0.0
 31
0.0
  0
LINE
  5
68
330
30
100
AcDbEntity
  8
LC-001-111-----0
 62
   253
370
    25
100
AcDbLine
 10
0.0
 20
0.0
 30
0.0
 11
0.0
 21
2970.0
 31
0.0
  0
LINE
  5
69
330
30
100
AcDbEntity
  8
LC-001-111-----0
 62
   253
370
    25
100
AcDbLine
 10
2100.0
 20
2970.0
 30
0.0
 11
0.0
 21
2970.0
 31
0.0
  0
TEXT
  5
6A
330
30
100
AcDbEntity
  8
LC-001-111-----0
 62
   253
370
    20
100
AcDbText
 10
729.2325
 20
111.159147
 30
0.0
 40
20.0
  1
Hofbauerstraße 1  ·  D-94209 REGEN
 41
0.65
  7
LCTX0-400-0-0pDIN-Schrift
 72
     1
 11
945.0
 21
111.159147
 31
0.0
100
AcDbText
  0
ARC
  5
6B
330
30
100
AcDbEntity
  8
LC-001-111-----0
 62
   253
370
    25
100
AcDbCircle
 10
758.032826
 20
185.671748
 30
0.0
 40
9.677270814709853
100
AcDbArc
 50
94.48185
 51
252.731329
  0
ARC
  5
6C
330
30
100
AcDbEntity
  8
LC-001-111-----0
 62
   253
370
    25
100
AcDbCircle
 10
823.845603
 20
176.159147
 30
0.0
 40
19.01000000000008
100
AcDbArc
 50
74.719456
 51
285.280544
  0
LINE
  5
6D
330
30
100
AcDbEntity
  8
LC-001-111-----0
 62
   253
370
    25
100
AcDbLine
 10
828.855603
 20
157.821208
 30
0.0
 11
828.855603
 21
163.204148
 31
0.0
  0
ARC
  5
6E
330
30
100
AcDbEntity
  8
LC-001-111-----0
 62
   253
370
    25
100
AcDbCircle
 10
823.845603
 20
176.159147
 30
0.0
 40
13.88999999999995
100
AcDbArc
 50
68.857352
 51
291.142648
  0
ARC
  5
6F
330
30
100
AcDbEntity
  8
LC-001-111-----0
 62
   253
370
    25
100
AcDbCircle
 10
823.845603
 20
176.159147
 30
0.0
 40
12.39000000000002
100
AcDbArc
 50
58.303227
 51
301.696773
  0
ARC
  5
70
330
30
100
AcDbEntity
  8
LC-001-111-----0
 62
   253
370
    25
100
AcDbCircle
 10
1019.845603
 20
176.159147
 30
0.0
 40
19.01000000000008
100
AcDbArc
 50
74.719456
 51
285.280544
  0
LINE
  5
71
330
30
100
AcDbEntity
  8
LC-001-111-----0
 62
   253
370
    25
100
AcDbLine
 10
830.355603
 20
165.617231
 30
0.0
 11
830.355603
 21
156.709726
 31
0.0
  0
LINE
  5
72
330
30
100
AcDbEntity
  8
LC-001-111-----0
 62
   253
370
    25
100
AcDbLine
 10
755.160101
 20
176.430697
 30
0.0
 11
762.683613
 21
174.091896
 31
0.0
  0
ARC
  5
73
330
30
100
AcDbEntity
  8
LC-001-111-----0
 62
   253
370
    25
100
AcDbCircle
 10
823.845603
 20
176.159147
 30
0.0
 40
20.51000000000012
100
AcDbArc
 50
71.493868
 51
288.506132
  0
LINE
  5
74
330
30
100
AcDbEntity
  8
LC-001-111-----0
 62
   253
370
    25
100
AcDbLine
 10
1024.855603
 20
157.821208
 30
0.0
 11
1024.855603
 21
163.204148
 31
0.0
  0
LINE
  5
75
330
30
100
AcDbEntity
  8
LC-001-111-----0
 62
   253
370
    25
100
AcDbLine
 10
830.355603
 20
195.608569
 30
0.0
 11
830.355603
 21
186.701063
 31
0.0
  0
ARC
  5
76
330
30
100
AcDbEntity
  8
LC-001-111-----0
 62
   253
370
    25
100
AcDbCircle
 10
1019.845603
 20
176.159147
 30
0.0
 40
13.88999999999995
100
AcDbArc
 50
68.857352
 51
291.142648
  0
LINE
  5
77
330
30
100
AcDbEntity
  8
LC-001-111-----0
 62
   253
370
    25
100
AcDbLine
 10
862.835603
 20
155.649147
 30
0.0
 11
862.835603
 21
196.669147
 31
0.0
  0
LINE
  5
78
330
30
100
AcDbEntity
  8
LC-001-111-----0
 62
   253
370
    25
100
AcDbLine
 10
862.835603
 20
196.669147
 30
0.0
 11
872.355603
 21
196.669147
 31
0.0
  0
LINE
  5
79
330
30
100
AcDbEntity
  8
LC-001-111-----0
 62
   253
370
    25
100
AcDbLine
 10
872.355603
 20
196.669147
 30
0.0
 11
872.355603
 21
179.519147
 31
0.0
  0
LINE
  5
7A
330
30
100
AcDbEntity
  8
LC-001-111-----0
 62
   253
370
    25
100
AcDbLine
 10
872.355603
 20
179.519147
 30
0.0
 11
887.335603
 21
179.519147
 31
0.0
  0
LINE
  5
7B
330
30
100
AcDbEntity
  8
LC-001-111-----0
 62
   253
370
    25
100
AcDbLine
 10
887.335603
 20
179.519147
 30
0.0
 11
887.335603
 21
196.669147
 31
0.0
  0
LINE
  5
7C
330
30
100
AcDbEntity
  8
LC-001-111-----0
 62
   253
370
    25
100
AcDbLine
 10
887.335603
 20
196.669147
 30
0.0
 11
896.855603
 21
196.669147
 31
0.0
  0
LINE
  5
7D
330
30
100
AcDbEntity
  8
LC-001-111-----0
 62
   253
370
    25
100
AcDbLine
 10
896.855603
 20
196.669147
 30
0.0
 11
896.855603
 21
155.649147
 31
0.0
  0
LINE
  5
7E
330
30
100
AcDbEntity
  8
LC-001-111-----0
 62
   253
370
    25
100
AcDbLine
 10
896.855603
 20
155.649147
 30
0.0
 11
887.335603
 21
155.649147
 31
0.0
  0
LINE
  5
7F
330
30
100
AcDbEntity
  8
LC-001-111-----0
 62
   253
370
    25
100
AcDbLine
 10
887.335603
 20
155.649147
 30
0.0
 11
887.335603
 21
172.799147
 31
0.0
  0
LINE
  5
80
330
30
100
AcDbEntity
  8
LC-001-111-----0
 62
   253
370
    25
100
AcDbLine
 10
887.335603
 20
172.799147
 30
0.0
 11
872.355603
 21
172.799147
 31
0.0
  0
LINE
  5
81
330
30
100
AcDbEntity
  8
LC-001-111-----0
 62
   253
370
    25
100
AcDbLine
 10
872.355603
 20
172.799147
 30
0.0
 11
872.355603
 21
155.649147
 31
0.0
  0
LINE
  5
82
330
30
100
AcDbEntity
  8
LC-001-111-----0
 62
   253
370
    25
100
AcDbLine
 10
872.355603
 20
155.649147
 30
0.0
 11
862.835603
 21
155.649147
 31
0.0
  0
CIRCLE
  5
83
330
30
100
AcDbEntity
  8
LC-001-111-----0
 62
   253
370
    25
100
AcDbCircle
 10
946.345603
 20
176.159147
 30
0.0
 40
12.39000000000044
  0
CIRCLE
  5
84
330
30
100
AcDbEntity
  8
LC-001-111-----0
 62
   253
370
    25
100
AcDbCircle
 10
946.345603
 20
176.159147
 30
0.0
 40
20.51000000000049
  0
ARC
  5
85
330
30
100
AcDbEntity
  8
LC-001-111-----0
 62
   253
370
    25
100
AcDbCircle
 10
1019.845603
 20
176.159147
 30
0.0
 40
12.39000000000002
100
AcDbArc
 50
58.303227
 51
301.696773
  0
LINE
  5
86
330
30
100
AcDbEntity
  8
LC-001-111-----0
 62
   253
370
    25
100
AcDbLine
 10
864.335603
 20
195.169147
 30
0.0
 11
864.335603
 21
157.149147
 31
0.0
  0
LINE
  5
87
330
30
100
AcDbEntity
  8
LC-001-111-----0
 62
   253
370
    25
100
AcDbLine
 10
1026.355603
 20
165.617231
 30
0.0
 11
1026.355603
 21
156.709726
 31
0.0
  0
LINE
  5
88
330
30
100
AcDbEntity
  8
LC-001-111-----0
 62
   253
370
    25
100
AcDbLine
 10
864.335603
 20
157.149147
 30
0.0
 11
870.855603
 21
157.149147
 31
0.0
  0
LINE
  5
89
330
30
100
AcDbEntity
  8
LC-001-111-----0
 62
   253
370
    25
100
AcDbLine
 10
870.855603
 20
157.149147
 30
0.0
 11
870.855603
 21
174.299147
 31
0.0
  0
LINE
  5
8A
330
30
100
AcDbEntity
  8
LC-001-111-----0
 62
   253
370
    25
100
AcDbLine
 10
870.855603
 20
174.299147
 30
0.0
 11
888.835603
 21
174.299147
 31
0.0
  0
LINE
  5
8B
330
30
100
AcDbEntity
  8
LC-001-111-----0
 62
   253
370
    25
100
AcDbLine
 10
888.835603
 20
174.299147
 30
0.0
 11
888.835603
 21
157.149147
 31
0.0
  0
LINE
  5
8C
330
30
100
AcDbEntity
  8
LC-001-111-----0
 62
   253
370
    25
100
AcDbLine
 10
888.835603
 20
157.149147
 30
0.0
 11
895.355603
 21
157.149147
 31
0.0
  0
LINE
  5
8D
330
30
100
AcDbEntity
  8
LC-001-111-----0
 62
   253
370
    25
100
AcDbLine
 10
895.355603
 20
157.149147
 30
0.0
 11
895.355603
 21
195.169147
 31
0.0
  0
LINE
  5
8E
330
30
100
AcDbEntity
  8
LC-001-111-----0
 62
   253
370
    25
100
AcDbLine
 10
895.355603
 20
195.169147
 30
0.0
 11
888.835603
 21
195.169147
 31
0.0
  0
LINE
  5
8F
330
30
100
AcDbEntity
  8
LC-001-111-----0
 62
   253
370
    25
100
AcDbLine
 10
888.835603
 20
195.169147
 30
0.0
 11
888.835603
 21
178.019147
 31
0.0
  0
LINE
  5
90
330
30
100
AcDbEntity
  8
LC-001-111-----0
 62
   253
370
    25
100
AcDbLine
 10
888.835603
 20
178.019147
 30
0.0
 11
870.855603
 21
178.019147
 31
0.0
  0
LINE
  5
91
330
30
100
AcDbEntity
  8
LC-001-111-----0
 62
   253
370
    25
100
AcDbLine
 10
870.855603
 20
178.019147
 30
0.0
 11
870.855603
 21
195.169147
 31
0.0
  0
CIRCLE
  5
92
330
30
100
AcDbEntity
  8
LC-001-111-----0
 62
   253
370
    25
100
AcDbCircle
 10
946.345603
 20
176.159147
 30
0.0
 40
19.01000000000055
  0
ARC
  5
93
330
30
100
AcDbEntity
  8
LC-001-111-----0
 62
   253
370
    25
100
AcDbCircle
 10
760.836588
 20
168.15034
 30
0.0
 40
6.222024781007809
100
AcDbArc
 50
268.246912
 51
72.731329
  0
ARC
  5
94
330
30
100
AcDbEntity
  8
LC-001-111-----0
 62
   253
370
    25
100
AcDbCircle
 10
761.412387
 20
186.963179
 30
0.0
 40
25.04367341134793
100
AcDbArc
 50
239.19233
 51
268.246912
  0
LINE
  5
95
330
30
100
AcDbEntity
  8
LC-001-111-----0
 62
   253
370
    25
100
AcDbLine
 10
748.586073
 20
165.453385
 30
0.0
 11
748.586073
 21
160.350534
 31
0.0
  0
ARC
  5
96
330
30
100
AcDbEntity
  8
LC-001-111-----0
 62
   253
370
    25
100
AcDbCircle
 10
760.81067
 20
180.45076
 30
0.0
 40
23.52572762426598
100
AcDbArc
 50
238.692783
 51
274.343327
  0
ARC
  5
97
330
30
100
AcDbEntity
  8
LC-001-111-----0
 62
   253
370
    25
100
AcDbCircle
 10
1019.845603
 20
176.159147
 30
0.0
 40
20.51000000000012
100
AcDbArc
 50
71.493868
 51
288.506132
  0
ARC
  5
98
330
30
100
AcDbEntity
  8
LC-001-111-----0
 62
   253
370
    25
100
AcDbCircle
 10
761.779647
 20
167.692822
 30
0.0
 40
10.73104525444839
100
AcDbArc
 50
274.343327
 51
74.255463
  0
LINE
  5
99
330
30
100
AcDbEntity
  8
LC-001-111-----0
 62
   253
370
    25
100
AcDbLine
 10
1026.355603
 20
195.608569
 30
0.0
 11
1026.355603
 21
186.701063
 31
0.0
  0
LINE
  5
9A
330
30
100
AcDbEntity
  8
LC-001-111-----0
 62
   253
370
    25
100
AcDbLine
 10
764.691502
 20
178.02125
 30
0.0
 11
757.135251
 21
180.151556
 31
0.0
  0
LINE
  5
9B
330
30
100
AcDbEntity
  8
LC-001-111-----0
 62
   253
370
    25
100
AcDbLine
 10
1024.855603
 20
189.114146
 30
0.0
 11
1024.855603
 21
194.497086
 31
0.0
  0
ARC
  5
9C
330
30
100
AcDbEntity
  8
LC-001-111-----0
 62
   253
370
    25
100
AcDbCircle
 10
758.632108
 20
185.460948
 30
0.0
 40
5.51636013010035
100
AcDbArc
 50
90.951212
 51
254.255463
  0
ARC
  5
9D
330
30
100
AcDbEntity
  8
LC-001-111-----0
 62
   253
370
    25
100
AcDbCircle
 10
758.906662
 20
168.924866
 30
0.0
 40
22.05472179307849
100
AcDbArc
 50
64.088485
 51
90.951212
  0
LINE
  5
9E
330
30
100
AcDbEntity
  8
LC-001-111-----0
 62
   253
370
    25
100
AcDbLine
 10
768.544191
 20
188.762426
 30
0.0
 11
768.544191
 21
193.015758
 31
0.0
  0
LINE
  5
9F
330
30
100
AcDbEntity
  8
LC-001-111-----0
 62
   253
370
    25
100
AcDbLine
 10
1071.855603
 20
177.513832
 30
0.0
 11
1087.818366
 21
196.669147
 31
0.0
  0
LINE
  5
A0
330
30
100
AcDbEntity
  8
LC-001-111-----0
 62
   253
370
    25
100
AcDbLine
 10
1087.818366
 20
196.669147
 30
0.0
 11
1099.299433
 21
196.669147
 31
0.0
  0
LINE
  5
A1
330
30
100
AcDbEntity
  8
LC-001-111-----0
 62
   253
370
    25
100
AcDbLine
 10
1099.299433
 20
196.669147
 30
0.0
 11
1082.207766
 21
176.159147
 31
0.0
  0
LINE
  5
A3
330
30
100
AcDbEntity
  8
LC-002-002-----0
 62
     1
370
    25
100
AcDbLine
 10
1143.855603
 20
159.963432
 30
0.0
 11
1143.855603
 21
192.354862
 31
0.0
  0
LINE
  5
A4
330
30
100
AcDbEntity
  8
LC-002-002-----0
 62
     1
370
    25
100
AcDbLine
 10
1143.855603
 20
192.354862
 30
0.0
 11
1127.659888
 21
176.159147
 31
0.0
  0
LINE
  5
A5
330
30
100
AcDbEntity
  8
LC-002-002-----0
 62
     1
370
    25
100
AcDbLine
 10
1127.659888
 20
176.159147
 30
0.0
 11
1143.855603
 21
159.963432
 31
0.0
  0
LINE
  5
A6
330
30
100
AcDbEntity
  8
LC-002-002-----0
 62
     1
370
    25
100
AcDbLine
 10
1142.355603
 20
163.584752
 30
0.0
 11
1142.355603
 21
188.733542
 31
0.0
  0
LINE
  5
A7
330
30
100
AcDbEntity
  8
LC-001-111-----0
 62
   253
370
    25
100
AcDbLine
 10
1082.207766
 20
176.159147
 30
0.0
 11
1099.299433
 21
155.649147
 31
0.0
  0
LINE
  5
A8
330
30
100
AcDbEntity
  8
LC-001-111-----0
 62
   253
370
    25
100
AcDbLine
 10
1099.299433
 20
155.649147
 30
0.0
 11
1087.818366
 21
155.649147
 31
0.0
  0
LINE
  5
A9
330
30
100
AcDbEntity
  8
LC-001-111-----0
 62
   253
370
    25
100
AcDbLine
 10
1087.818366
 20
155.649147
 30
0.0
 11
1071.855603
 21
174.804462
 31
0.0
  0
LINE
  5
AA
330
30
100
AcDbEntity
  8
LC-001-111-----0
 62
   253
370
    25
100
AcDbLine
 10
1062.335603
 20
155.649147
 30
0.0
 11
1062.335603
 21
196.669147
 31
0.0
  0
LINE
  5
AB
330
30
100
AcDbEntity
  8
LC-001-111-----0
 62
   253
370
    25
100
AcDbLine
 10
828.855603
 20
189.114146
 30
0.0
 11
828.855603
 21
194.497086
 31
0.0
  0
ARC
  5
AC
330
30
100
AcDbEntity
  8
LC-001-111-----0
 62
   253
370
    25
100
AcDbCircle
 10
758.903191
 20
174.567744
 30
0.0
 40
19.31533311668209
100
AcDbArc
 50
65.072024
 51
94.48185
  0
LINE
  5
AD
330
30
100
AcDbEntity
  8
LC-001-111-----0
 62
   253
370
    25
100
AcDbLine
 10
1063.835603
 20
157.149147
 30
0.0
 11
1070.355603
 21
157.149147
 31
0.0
  0
LINE
  5
AE
330
30
100
AcDbEntity
  8
LC-001-111-----0
 62
   253
370
    25
100
AcDbLine
 10
1070.355603
 20
157.149147
 30
0.0
 11
1070.355603
 21
195.169147
 31
0.0
  0
LINE
  5
AF
330
30
100
AcDbEntity
  8
LC-001-111-----0
 62
   253
370
    25
100
AcDbLine
 10
1070.355603
 20
195.169147
 30
0.0
 11
1063.835603
 21
195.169147
 31
0.0
  0
LINE
  5
B0
330
30
100
AcDbEntity
  8
LC-001-111-----0
 62
   253
370
    25
100
AcDbLine
 10
1065.335603
 20
193.669147
 30
0.0
 11
1065.335603
 21
158.649147
 31
0.0
  0
LINE
  5
B1
330
30
100
AcDbEntity
  8
LC-002-002-----0
 62
     1
370
    25
100
AcDbLine
 10
1142.355603
 20
188.733542
 30
0.0
 11
1129.781208
 21
176.159147
 31
0.0
  0
LINE
  5
B2
330
30
100
AcDbEntity
  8
LC-002-002-----0
 62
     1
370
    25
100
AcDbLine
 10
1129.781208
 20
176.159147
 30
0.0
 11
1142.355603
 21
163.584752
 31
0.0
  0
LINE
  5
B3
330
30
100
AcDbEntity
  8
LC-001-111-----0
 62
   253
370
    25
100
AcDbLine
 10
1062.335603
 20
196.669147
 30
0.0
 11
1071.855603
 21
196.669147
 31
0.0
  0
LINE
  5
B4
330
30
100
AcDbEntity
  8
LC-001-111-----0
 62
   253
370
    25
100
AcDbLine
 10
1071.855603
 20
196.669147
 30
0.0
 11
1071.855603
 21
155.649147
 31
0.0
  0
LINE
  5
B5
330
30
100
AcDbEntity
  8
LC-001-111-----0
 62
   253
370
    25
100
AcDbLine
 10
1071.855603
 20
155.649147
 30
0.0
 11
1062.335603
 21
155.649147
 31
0.0
  0
ARC
  5
B6
330
30
100
AcDbEntity
  8
LC-001-111-----0
 62
   253
370
    25
100
AcDbCircle
 10
758.032826
 20
185.671748
 30
0.0
 40
8.177270814709827
100
AcDbArc
 50
94.48185
 51
252.731329
  0
LINE
  5
B7
330
30
100
AcDbEntity
  8
LC-001-111-----0
 62
   253
370
    25
100
AcDbLine
 10
755.60538
 20
177.863082
 30
0.0
 11
763.128892
 21
175.524281
 31
0.0
  0
ARC
  5
B8
330
30
100
AcDbEntity
  8
LC-001-111-----0
 62
   253
370
    25
100
AcDbCircle
 10
760.836588
 20
168.15034
 30
0.0
 40
7.72202478100773
100
AcDbArc
 50
268.246912
 51
72.731329
  0
LINE
  5
B9
330
30
100
AcDbEntity
  8
LC-001-111-----0
 62
   253
370
    25
100
AcDbLine
 10
827.355603
 20
191.143539
 30
0.0
 11
827.355603
 21
193.313738
 31
0.0
  0
ARC
  5
BA
330
30
100
AcDbEntity
  8
LC-001-111-----0
 62
   253
370
    25
100
AcDbCircle
 10
823.845603
 20
176.159147
 30
0.0
 40
17.50999999999996
100
AcDbArc
 50
78.436322
 51
281.563678
  0
LINE
  5
BB
330
30
100
AcDbEntity
  8
LC-001-111-----0
 62
   253
370
    25
100
AcDbLine
 10
827.355603
 20
159.004556
 30
0.0
 11
827.355603
 21
161.174755
 31
0.0
  0
LINE
  5
BC
330
30
100
AcDbEntity
  8
LC-002-002-----0
 62
     1
370
    25
100
AcDbLine
 10
1145.355603
 20
195.976182
 30
0.0
 11
1145.355603
 21
156.342112
 31
0.0
  0
LINE
  5
BD
330
30
100
AcDbEntity
  8
LC-002-002-----0
 62
     1
370
    25
100
AcDbLine
 10
1145.355603
 20
156.342112
 30
0.0
 11
1125.538568
 21
176.159147
 31
0.0
  0
LINE
  5
BE
330
30
100
AcDbEntity
  8
LC-002-002-----0
 62
     1
370
    25
100
AcDbLine
 10
1125.538568
 20
176.159147
 30
0.0
 11
1145.355603
 21
195.976182
 31
0.0
  0
LINE
  5
BF
330
30
100
AcDbEntity
  8
LC-001-111-----0
 62
   253
370
    25
100
AcDbLine
 10
1065.335603
 20
158.649147
 30
0.0
 11
1068.855603
 21
158.649147
 31
0.0
  0
LINE
  5
C0
330
30
100
AcDbEntity
  8
LC-001-111-----0
 62
   253
370
    25
100
AcDbLine
 10
1068.855603
 20
158.649147
 30
0.0
 11
1068.855603
 21
193.669147
 31
0.0
  0
LINE
  5
C1
330
30
100
AcDbEntity
  8
LC-001-111-----0
 62
   253
370
    25
100
AcDbLine
 10
1068.855603
 20
193.669147
 30
0.0
 11
1065.335603
 21
193.669147
 31
0.0
  0
LINE
  5
C2
330
30
100
AcDbEntity
  8
LC-001-111-----0
 62
   253
370
    25
100
AcDbLine
 10
1067.095603
 20
192.169147
 30
0.0
 11
1067.095603
 21
160.149147
 31
0.0
  0
ARC
  5
C3
330
30
100
AcDbEntity
  8
LC-001-111-----0
 62
   253
370
    25
100
AcDbCircle
 10
823.845603
 20
176.159147
 30
0.0
 40
15.38999999999992
100
AcDbArc
 50
76.816519
 51
283.183481
  0
LINE
  5
C4
330
30
100
AcDbEntity
  8
LC-001-111-----0
 62
   253
370
    25
100
AcDbLine
 10
870.855603
 20
195.169147
 30
0.0
 11
864.335603
 21
195.169147
 31
0.0
  0
LINE
  5
C5
330
30
100
AcDbEntity
  8
LC-001-111-----0
 62
   253
370
    25
100
AcDbLine
 10
1096.09687
 20
195.169147
 30
0.0
 11
1088.520928
 21
195.169147
 31
0.0
  0
LINE
  5
C6
330
30
100
AcDbEntity
  8
LC-001-111-----0
 62
   253
370
    25
100
AcDbLine
 10
865.835603
 20
158.649147
 30
0.0
 11
869.355603
 21
158.649147
 31
0.0
  0
LINE
  5
C7
330
30
100
AcDbEntity
  8
LC-001-111-----0
 62
   253
370
    25
100
AcDbLine
 10
1023.355603
 20
191.143539
 30
0.0
 11
1023.355603
 21
193.313738
 31
0.0
  0
LINE
  5
C8
330
30
100
AcDbEntity
  8
LC-001-111-----0
 62
   253
370
    25
100
AcDbLine
 10
892.095603
 20
192.169147
 30
0.0
 11
892.095603
 21
160.149147
 31
0.0
  0
TEXT
  5
C9
330
30
100
AcDbEntity
  8
LC-001-111-----0
 62
     1
370
    15
100
AcDbText
 10
1105.998125
 20
21.25
 30
0.0
 40
15.0
  1
Edo-N175_mm
 41
0.75
  7
LCTX0-400-0-0pDIN-Schrift
 72
     1
 11
1166.0
 21
21.25
 31
0.0
100
AcDbText
  0
CIRCLE
  5
CA
330
30
100
AcDbEntity
  8
LC-001-111-----0
 62
   253
370
    25
100
AcDbCircle
 10
946.345603
 20
176.159147
 30
0.0
 40
17.51000000000047
  0
LINE
  5
CB
330
30
100
AcDbEntity
  8
LC-001-111-----0
 62
   253
370
    25
100
AcDbLine
 10
1088.520928
 20
195.169147
 30
0.0
 11
1072.679261
 21
176.159147
 31
0.0
  0
ARC
  5
CC
330
30
100
AcDbEntity
  8
LC-001-111-----0
 62
   253
370
    25
100
AcDbCircle
 10
1019.845603
 20
176.159147
 30
0.0
 40
17.50999999999996
100
AcDbArc
 50
78.436322
 51
281.563678
  0
ARC
  5
CD
330
30
100
AcDbEntity
  8
LC-001-111-----0
 62
   253
370
    25
100
AcDbCircle
 10
761.412387
 20
186.963179
 30
0.0
 40
26.54367341134783
100
AcDbArc
 50
244.741378
 51
268.246912
  0
LINE
  5
CE
330
30
100
AcDbEntity
  8
LC-001-111-----0
 62
   253
370
    25
100
AcDbLine
 10
1023.355603
 20
159.004556
 30
0.0
 11
1023.355603
 21
161.174755
 31
0.0
  0
LINE
  5
CF
330
30
100
AcDbEntity
  8
LC-002-002-----0
 62
     1
370
    25
100
AcDbLine
 10
1140.855603
 20
167.206073
 30
0.0
 11
1140.855603
 21
185.112221
 31
0.0
  0
LINE
  5
D0
330
30
100
AcDbEntity
  8
LC-002-002-----0
 62
     1
370
    25
100
AcDbLine
 10
1140.855603
 20
185.112221
 30
0.0
 11
1131.902529
 21
176.159147
 31
0.0
  0
LINE
  5
D1
330
30
100
AcDbEntity
  8
LC-002-002-----0
 62
     1
370
    25
100
AcDbLine
 10
1131.902529
 20
176.159147
 30
0.0
 11
1140.855603
 21
167.206073
 31
0.0
  0
CIRCLE
  5
D2
330
30
100
AcDbEntity
  8
LC-001-111-----0
 62
   253
370
    25
100
AcDbCircle
 10
946.345603
 20
176.159147
 30
0.0
 40
13.89000000000002
  0
LINE
  5
D3
330
30
100
AcDbEntity
  8
LC-001-111-----0
 62
   253
370
    25
100
AcDbLine
 10
890.335603
 20
158.649147
 30
0.0
 11
893.855603
 21
158.649147
 31
0.0
  0
LINE
  5
D4
330
30
100
AcDbEntity
  8
LC-001-111-----0
 62
   253
370
    25
100
AcDbLine
 10
893.855603
 20
158.649147
 30
0.0
 11
893.855603
 21
193.669147
 31
0.0
  0
ARC
  5
D5
330
30
100
AcDbEntity
  8
LC-001-111-----0
 62
   253
370
    25
100
AcDbCircle
 10
758.906662
 20
168.924866
 30
0.0
 40
20.55472179307891
100
AcDbArc
 50
57.190491
 51
90.951212
  0
ARC
  5
D6
330
30
100
AcDbEntity
  8
LC-001-111-----0
 62
   253
370
    25
100
AcDbCircle
 10
761.779647
 20
167.692822
 30
0.0
 40
12.23104525444841
100
AcDbArc
 50
274.343327
 51
74.255463
  0
LINE
  5
D7
330
30
100
AcDbEntity
  8
LC-001-111-----0
 62
   253
370
    25
100
AcDbLine
 10
893.855603
 20
193.669147
 30
0.0
 11
890.335603
 21
193.669147
 31
0.0
  0
LINE
  5
D8
330
30
100
AcDbEntity
  8
LC-001-111-----0
 62
   253
370
    25
100
AcDbLine
 10
890.335603
 20
193.669147
 30
0.0
 11
890.335603
 21
158.649147
 31
0.0
  0
LINE
  5
D9
330
30
100
AcDbEntity
  8
LC-001-111-----0
 62
   253
370
    25
100
AcDbLine
 10
890.335603
 20
176.159147
 30
0.0
 11
869.355603
 21
176.159147
 31
0.0
  0
TEXT
  5
DA
330
30
100
AcDbEntity
  8
LC-001-111-----0
 62
     7
370
    25
100
AcDbText
 10
1978.821875
 20
143.75
 30
0.0
 40
25.0
  1
1
 41
0.75
  7
LCTX0-400-0-0pDIN-Schrift
 72
     1
 11
1985.0
 21
143.75
 31
0.0
100
AcDbText
  0
LINE
  5
DB
330
30
100
AcDbEntity
  8
LC-001-111-----0
 62
   253
370
    25
100
AcDbLine
 10
869.355603
 20
158.649147
 30
0.0
 11
869.355603
 21
193.669147
 31
0.0
  0
LINE
  5
DC
330
30
100
AcDbEntity
  8
LC-001-111-----0
 62
   253
370
    25
100
AcDbLine
 10
869.355603
 20
193.669147
 30
0.0
 11
865.835603
 21
193.669147
 31
0.0
  0
LINE
  5
DD
330
30
100
AcDbEntity
  8
LC-001-111-----0
 62
   253
370
    25
100
AcDbLine
 10
865.835603
 20
193.669147
 30
0.0
 11
865.835603
 21
158.649147
 31
0.0
  0
LINE
  5
DE
330
30
100
AcDbEntity
  8
LC-001-111-----0
 62
   253
370
    25
100
AcDbLine
 10
867.595603
 20
192.169147
 30
0.0
 11
867.595603
 21
160.149147
 31
0.0
  0
CIRCLE
  5
DF
330
30
100
AcDbEntity
  8
LC-001-111-----0
 62
   253
370
    25
100
AcDbCircle
 10
946.345603
 20
176.159147
 30
0.0
 40
15.38999999999984
  0
LINE
  5
E0
330
30
100
AcDbEntity
  8
LC-001-111-----0
 62
   253
370
    25
100
AcDbLine
 10
1072.679261
 20
176.159147
 30
0.0
 11
1088.520928
 21
157.149147
 31
0.0
  0
LINE
  5
E1
330
30
100
AcDbEntity
  8
LC-001-111-----0
 62
   253
370
    25
100
AcDbLine
 10
1088.520928
 20
157.149147
 30
0.0
 11
1096.09687
 21
157.149147
 31
0.0
  0
LINE
  5
E2
330
30
100
AcDbEntity
  8
LC-001-111-----0
 62
   253
370
    25
100
AcDbLine
 10
1096.09687
 20
157.149147
 30
0.0
 11
1080.255204
 21
176.159147
 31
0.0
  0
LINE
  5
E3
330
30
100
AcDbEntity
  8
LC-001-111-----0
 62
   253
370
    25
100
AcDbLine
 10
770.044191
 20
186.20063
 30
0.0
 11
770.044191
 21
193.903002
 31
0.0
  0
ARC
  5
E4
330
30
100
AcDbEntity
  8
LC-001-111-----0
 62
   253
370
    25
100
AcDbCircle
 10
761.412387
 20
186.963179
 30
0.0
 40
23.54367341134796
100
AcDbArc
 50
232.518913
 51
268.246912
  0
ARC
  5
E5
330
30
100
AcDbEntity
  8
LC-001-111-----0
 62
   253
370
    25
100
AcDbCircle
 10
760.836588
 20
168.15034
 30
0.0
 40
4.722024781007908
100
AcDbArc
 50
268.246912
 51
72.731329
  0
LINE
  5
E6
330
30
100
AcDbEntity
  8
LC-001-111-----0
 62
   253
370
    25
100
AcDbLine
 10
757.542274
 20
181.595277
 30
0.0
 11
765.098525
 21
179.464972
 31
0.0
  0
ARC
  5
E7
330
30
100
AcDbEntity
  8
LC-001-111-----0
 62
   253
370
    25
100
AcDbCircle
 10
758.632108
 20
185.460948
 30
0.0
 40
4.016360130100384
100
AcDbArc
 50
90.951212
 51
254.255463
  0
ARC
  5
E8
330
30
100
AcDbEntity
  8
LC-001-111-----0
 62
   253
370
    25
100
AcDbCircle
 10
758.032826
 20
185.671748
 30
0.0
 40
11.17727081470983
100
AcDbArc
 50
94.48185
 51
252.731329
  0
LINE
  5
E9
330
30
100
AcDbEntity
  8
LC-001-111-----0
 62
   253
370
    25
100
AcDbLine
 10
762.238334
 20
172.659511
 30
0.0
 11
754.714822
 21
174.998312
 31
0.0
  0
LINE
  5
EA
330
30
100
AcDbEntity
  8
LC-001-111-----0
 62
   253
370
    25
100
AcDbLine
 10
747.086073
 20
168.279997
 30
0.0
 11
747.086073
 21
159.524163
 31
0.0
  0
ARC
  5
EB
330
30
100
AcDbEntity
  8
LC-001-111-----0
 62
   253
370
    25
100
AcDbCircle
 10
758.903191
 20
174.567744
 30
0.0
 40
22.31533311668187
100
AcDbArc
 50
60.049399
 51
94.48185
  0
ARC
  5
EC
330
30
100
AcDbEntity
  8
LC-001-111-----0
 62
   253
370
    25
100
AcDbCircle
 10
760.81067
 20
180.45076
 30
0.0
 40
25.02572762426604
100
AcDbArc
 50
236.741348
 51
274.343327
  0
LINE
  5
ED
330
30
100
AcDbEntity
  8
LC-001-111-----0
 62
   253
370
    25
100
AcDbLine
 10
1080.255204
 20
176.159147
 30
0.0
 11
1096.09687
 21
195.169147
 31
0.0
  0
LINE
  5
EE
330
30
100
AcDbEntity
  8
LC-001-111-----0
 62
   253
370
    25
100
AcDbLine
 10
750.086073
 20
162.957321
 30
0.0
 11
750.086073
 21
161.212369
 31
0.0
  0
LINE
  5
EF
330
30
100
AcDbEntity
  8
LC-001-111-----0
 62
   253
370
    25
100
AcDbLine
 10
1078.302641
 20
176.159147
 30
0.0
 11
1092.894308
 21
193.669147
 31
0.0
  0
LINE
  5
F0
330
30
100
AcDbEntity
  8
LC-002-002-----0
 62
     1
370
    25
100
AcDbLine
 10
1139.355603
 20
170.827393
 30
0.0
 11
1139.355603
 21
181.490901
 31
0.0
  0
LINE
  5
F1
330
30
100
AcDbEntity
  8
LC-002-002-----0
 62
     1
370
    25
100
AcDbLine
 10
1139.355603
 20
181.490901
 30
0.0
 11
1134.023849
 21
176.159147
 31
0.0
  0
LINE
  5
F2
330
30
100
AcDbEntity
  8
LC-002-002-----0
 62
     1
370
    25
100
AcDbLine
 10
1134.023849
 20
176.159147
 30
0.0
 11
1139.355603
 21
170.827393
 31
0.0
  0
LINE
  5
F3
330
30
100
AcDbEntity
  8
LC-002-002-----0
 62
     1
370
    25
100
AcDbLine
 10
1137.855603
 20
174.448713
 30
0.0
 11
1137.855603
 21
177.869581
 31
0.0
  0
LINE
  5
F4
330
30
100
AcDbEntity
  8
LC-002-002-----0
 62
     1
370
    25
100
AcDbLine
 10
1137.855603
 20
177.869581
 30
0.0
 11
1136.145169
 21
176.159147
 31
0.0
  0
LINE
  5
F5
330
30
100
AcDbEntity
  8
LC-002-002-----0
 62
     1
370
    25
100
AcDbLine
 10
1136.145169
 20
176.159147
 30
0.0
 11
1137.855603
 21
174.448713
 31
0.0
  0
LINE
  5
F6
330
30
100
AcDbEntity
  8
LC-001-111-----0
 62
   253
370
    25
100
AcDbLine
 10
1092.894308
 20
193.669147
 30
0.0
 11
1089.22349
 21
193.669147
 31
0.0
  0
LINE
  5
F7
330
30
100
AcDbEntity
  8
LC-001-111-----0
 62
   253
370
    25
100
AcDbLine
 10
1089.22349
 20
193.669147
 30
0.0
 11
1074.631824
 21
176.159147
 31
0.0
  0
ARC
  5
F8
330
30
100
AcDbEntity
  8
LC-001-111-----0
 62
   253
370
    25
100
AcDbCircle
 10
1019.845603
 20
176.159147
 30
0.0
 40
15.38999999999992
100
AcDbArc
 50
76.816519
 51
283.183481
  0
LINE
  5
F9
330
30
100
AcDbEntity
  8
LC-001-111-----0
 62
   253
370
    25
100
AcDbLine
 10
1074.631824
 20
176.159147
 30
0.0
 11
1089.22349
 21
158.649147
 31
0.0
  0
LINE
  5
FA
330
30
100
AcDbEntity
  8
LC-001-111-----0
 62
   253
370
    25
100
AcDbLine
 10
1089.22349
 20
158.649147
 30
0.0
 11
1092.894308
 21
158.649147
 31
0.0
  0
LINE
  5
FB
330
30
100
AcDbEntity
  8
LC-001-111-----0
 62
   253
370
    25
100
AcDbLine
 10
1092.894308
 20
158.649147
 30
0.0
 11
1078.302641
 21
176.159147
 31
0.0
  0
LINE
  5
FC
330
30
100
AcDbEntity
  8
LC-001-111-----0
 62
   253
370
    25
100
AcDbLine
 10
1076.467232
 20
176.159147
 30
0.0
 11
1090.098623
 21
192.516815
 31
0.0
  0
LINE
  5
FD
330
30
100
AcDbEntity
  8
LC-001-111-----0
 62
   253
370
    25
100
AcDbLine
 10
1076.467232
 20
176.159147
 30
0.0
 11
1090.098623
 21
159.801479
 31
0.0
  0
ARC
  5
FE
330
30
100
AcDbEntity
  8
LC-001-111-----0
 62
   253
370
    25
100
AcDbCircle
 10
760.81067
 20
180.45076
 30
0.0
 40
22.02572762426587
100
AcDbArc
 50
240.862164
 51
274.343327
  0
ARC
  5
FF
330
30
100
AcDbEntity
  8
LC-001-111-----0
 62
   253
370
    25
100
AcDbCircle
 10
761.779647
 20
167.692822
 30
0.0
 40
9.231045254448425
100
AcDbArc
 50
274.343327
 51
74.255463
  0
LINE
  5
100
330
30
100
AcDbEntity
  8
LC-001-111-----0
 62
   253
370
    25
100
AcDbLine
 10
764.284479
 20
176.577529
 30
0.0
 11
756.728228
 21
178.707834
 31
0.0
  0
ARC
  5
101
330
30
100
AcDbEntity
  8
LC-001-111-----0
 62
   253
370
    25
100
AcDbCircle
 10
758.632108
 20
185.460948
 30
0.0
 40
7.016360130100396
100
AcDbArc
 50
90.951212
 51
254.255463
  0
ARC
  5
102
330
30
100
AcDbEntity
  8
LC-001-111-----0
 62
   253
370
    25
100
AcDbCircle
 10
758.906662
 20
168.924866
 30
0.0
 40
23.55472179307856
100
AcDbArc
 50
69.789306
 51
90.951212
  0
LINE
  5
103
330
30
100
AcDbEntity
  8
LC-001-111-----0
 62
   253
370
    25
100
AcDbLine
 10
767.044191
 20
191.029289
 30
0.0
 11
767.044191
 21
192.083629
 31
0.0
  0
ENDBLK
  5
32
330
30
100
AcDbEntity
  8
0
100
AcDbBlockEnd
  0
BLOCK
  5
1B2
330
1B1
100
AcDbEntity
  8
0
100
AcDbBlockBegin
  2
*X12
 70
     1
 71
     0
 10
0.0
 20
0.0
 30
0.0
  3
*X12
  1

  4
*X1
  0
LINE
  5
1B5
330
1B1
100
AcDbEntity
  8
LC-005-005-----0
 62
     7
370
    18
100
AcDbLine
 10
455.330174
 20
2602.887235
 30
0.0
 11
450.058112
 21
2602.774843
 31
0.0
  0
LINE
  5
1B6
330
1B1
100
AcDbEntity
  8
LC-005-005-----0
 62
     7
370
    18
100
AcDbLine
 10
450.058112
 20
2602.774843
 30
0.0
 11
445.293253
 21
2605.620695
 31
0.0
  0
LINE
  5
1B7
330
1B1
100
AcDbEntity
  8
LC-005-005-----0
 62
     7
370
    18
100
AcDbLine
 10
439.403435
 20
2602.24
 30
0.0
 11
439.838674
 21
2603.879252
 31
0.0
  0
LINE
  5
1B8
330
1B1
100
AcDbEntity
  8
LC-005-005-----0
 62
     7
370
    18
100
AcDbLine
 10
445.293253
 20
2605.620695
 30
0.0
 11
442.039511
 21
2602.645678
 31
0.0
  0
LINE
  5
1B9
330
1B1
100
AcDbEntity
  8
LC-005-005-----0
 62
     7
370
    18
100
AcDbLine
 10
442.039511
 20
2602.645678
 30
0.0
 11
435.664222
 21
2606.564312
 31
0.0
  0
LINE
  5
1BA
330
1B1
100
AcDbEntity
  8
LC-005-005-----0
 62
     7
370
    18
100
AcDbLine
 10
439.838674
 20
2603.879252
 30
0.0
 11
436.209923
 21
2607.814659
 31
0.0
  0
LINE
  5
1BB
330
1B1
100
AcDbEntity
  8
LC-005-005-----0
 62
     7
370
    18
100
AcDbLine
 10
435.664222
 20
2606.564312
 30
0.0
 11
431.371836
 21
2603.61102
 31
0.0
  0
LINE
  5
1BC
330
1B1
100
AcDbEntity
  8
LC-005-005-----0
 62
     7
370
    18
100
AcDbLine
 10
436.209923
 20
2607.814659
 30
0.0
 11
440.330951
 21
2613.220838
 31
0.0
  0
LINE
  5
1BD
330
1B1
100
AcDbEntity
  8
LC-005-005-----0
 62
     7
370
    18
100
AcDbLine
 10
431.371836
 20
2603.61102
 30
0.0
 11
424.789203
 21
2604.713581
 31
0.0
  0
LINE
  5
1BE
330
1B1
100
AcDbEntity
  8
LC-005-005-----0
 62
     7
370
    18
100
AcDbLine
 10
440.330951
 20
2613.220838
 30
0.0
 11
436.31729
 21
2616.496305
 31
0.0
  0
LINE
  5
1BF
330
1B1
100
AcDbEntity
  8
LC-005-005-----0
 62
     7
370
    18
100
AcDbLine
 10
436.31729
 20
2616.496305
 30
0.0
 11
435.569195
 21
2616.215067
 31
0.0
  0
LINE
  5
1C0
330
1B1
100
AcDbEntity
  8
LC-005-005-----0
 62
     7
370
    18
100
AcDbLine
 10
416.803481
 20
2602.24
 30
0.0
 11
417.715301
 21
2603.353126
 31
0.0
  0
LINE
  5
1C1
330
1B1
100
AcDbEntity
  8
LC-005-005-----0
 62
     7
370
    18
100
AcDbLine
 10
417.715301
 20
2603.353126
 30
0.0
 11
416.624071
 21
2608.224324
 31
0.0
  0
LINE
  5
1C2
330
1B1
100
AcDbEntity
  8
LC-005-005-----0
 62
     7
370
    18
100
AcDbLine
 10
416.624071
 20
2608.224324
 30
0.0
 11
417.126915
 21
2614.522616
 31
0.0
  0
LINE
  5
1C3
330
1B1
100
AcDbEntity
  8
LC-005-005-----0
 62
     7
370
    18
100
AcDbLine
 10
417.126915
 20
2614.522616
 30
0.0
 11
416.547666
 21
2618.765345
 31
0.0
  0
LINE
  5
1C4
330
1B1
100
AcDbEntity
  8
LC-005-005-----0
 62
     7
370
    18
100
AcDbLine
 10
425.201971
 20
2624.447811
 30
0.0
 11
420.301148
 21
2627.890276
 31
0.0
  0
LINE
  5
1C5
330
1B1
100
AcDbEntity
  8
LC-005-005-----0
 62
     7
370
    18
100
AcDbLine
 10
416.547666
 20
2618.765345
 30
0.0
 11
416.694787
 21
2622.250669
 31
0.0
  0
LINE
  5
1C6
330
1B1
100
AcDbEntity
  8
LC-005-005-----0
 62
     7
370
    18
100
AcDbLine
 10
397.105635
 20
2602.24
 30
0.0
 11
397.219184
 21
2602.479492
 31
0.0
  0
LINE
  5
1C7
330
1B1
100
AcDbEntity
  8
LC-005-005-----0
 62
     7
370
    18
100
AcDbLine
 10
391.124261
 20
2602.24
 30
0.0
 11
390.835841
 21
2602.494419
 31
0.0
  0
LINE
  5
1C8
330
1B1
100
AcDbEntity
  8
LC-005-005-----0
 62
     7
370
    18
100
AcDbLine
 10
397.219184
 20
2602.479492
 30
0.0
 11
395.812404
 21
2605.864247
 31
0.0
  0
LINE
  5
1C9
330
1B1
100
AcDbEntity
  8
LC-005-005-----0
 62
     7
370
    18
100
AcDbLine
 10
416.694787
 20
2622.250669
 30
0.0
 11
411.939239
 21
2625.541653
 31
0.0
  0
LINE
  5
1CA
330
1B1
100
AcDbEntity
  8
LC-005-005-----0
 62
     7
370
    18
100
AcDbLine
 10
420.301148
 20
2627.890276
 30
0.0
 11
412.637678
 21
2623.448848
 31
0.0
  0
LINE
  5
1CB
330
1B1
100
AcDbEntity
  8
LC-005-005-----0
 62
     7
370
    18
100
AcDbLine
 10
395.812404
 20
2605.864247
 30
0.0
 11
397.067111
 21
2609.749998
 31
0.0
  0
LINE
  5
1CC
330
1B1
100
AcDbEntity
  8
LC-005-005-----0
 62
     7
370
    18
100
AcDbLine
 10
412.637678
 20
2623.448848
 30
0.0
 11
407.200464
 21
2626.086098
 31
0.0
  0
LINE
  5
1CD
330
1B1
100
AcDbEntity
  8
LC-005-005-----0
 62
     7
370
    18
100
AcDbLine
 10
397.067111
 20
2609.749998
 30
0.0
 11
396.181205
 21
2613.071426
 31
0.0
  0
LINE
  5
1CE
330
1B1
100
AcDbEntity
  8
LC-005-005-----0
 62
     7
370
    18
100
AcDbLine
 10
386.639489
 20
2602.24
 30
0.0
 11
385.535846
 21
2603.942209
 31
0.0
  0
LINE
  5
1CF
330
1B1
100
AcDbEntity
  8
LC-005-005-----0
 62
     7
370
    18
100
AcDbLine
 10
411.939239
 20
2625.541653
 30
0.0
 11
412.227275
 21
2632.215544
 31
0.0
  0
LINE
  5
1D0
330
1B1
100
AcDbEntity
  8
LC-005-005-----0
 62
     7
370
    18
100
AcDbLine
 10
379.402962
 20
2602.24
 30
0.0
 11
379.398346
 21
2602.848958
 31
0.0
  0
LINE
  5
1D1
330
1B1
100
AcDbEntity
  8
LC-005-005-----0
 62
     7
370
    18
100
AcDbLine
 10
385.535846
 20
2603.942209
 30
0.0
 11
382.305676
 21
2602.241777
 31
0.0
  0
LINE
  5
1D2
330
1B1
100
AcDbEntity
  8
LC-005-005-----0
 62
     7
370
    18
100
AcDbLine
 10
407.200464
 20
2626.086098
 30
0.0
 11
402.191018
 21
2624.335345
 31
0.0
  0
LINE
  5
1D3
330
1B1
100
AcDbEntity
  8
LC-005-005-----0
 62
     7
370
    18
100
AcDbLine
 10
382.305676
 20
2602.241777
 30
0.0
 11
377.931343
 21
2605.564462
 31
0.0
  0
LINE
  5
1D4
330
1B1
100
AcDbEntity
  8
LC-005-005-----0
 62
     7
370
    18
100
AcDbLine
 10
412.227275
 20
2632.215544
 30
0.0
 11
407.111644
 21
2636.033609
 31
0.0
  0
LINE
  5
1D5
330
1B1
100
AcDbEntity
  8
LC-005-005-----0
 62
     7
370
    18
100
AcDbLine
 10
402.191018
 20
2624.335345
 30
0.0
 11
394.245054
 21
2624.130439
 31
0.0
  0
LINE
  5
1D6
330
1B1
100
AcDbEntity
  8
LC-005-005-----0
 62
     7
370
    18
100
AcDbLine
 10
379.398346
 20
2602.848958
 30
0.0
 11
381.716525
 21
2605.569413
 31
0.0
  0
LINE
  5
1D7
330
1B1
100
AcDbEntity
  8
LC-005-005-----0
 62
     7
370
    18
100
AcDbLine
 10
381.716525
 20
2605.569413
 30
0.0
 11
381.569404
 21
2609.054736
 31
0.0
  0
LINE
  5
1D8
330
1B1
100
AcDbEntity
  8
LC-005-005-----0
 62
     7
370
    18
100
AcDbLine
 10
377.931343
 20
2605.564462
 30
0.0
 11
375.787626
 21
2605.148517
 31
0.0
  0
LINE
  5
1D9
330
1B1
100
AcDbEntity
  8
LC-005-005-----0
 62
     7
370
    18
100
AcDbLine
 10
407.111644
 20
2636.033609
 30
0.0
 11
403.567945
 21
2640.486786
 31
0.0
  0
LINE
  5
1DA
330
1B1
100
AcDbEntity
  8
LC-005-005-----0
 62
     7
370
    18
100
AcDbLine
 10
387.643301
 20
2622.282507
 30
0.0
 11
388.967646
 21
2626.170825
 31
0.0
  0
LINE
  5
1DB
330
1B1
100
AcDbEntity
  8
LC-005-005-----0
 62
     7
370
    18
100
AcDbLine
 10
362.115314
 20
2602.24
 30
0.0
 11
362.041262
 21
2602.337469
 31
0.0
  0
LINE
  5
1DC
330
1B1
100
AcDbEntity
  8
LC-005-005-----0
 62
     7
370
    18
100
AcDbLine
 10
383.426342
 20
2619.633
 30
0.0
 11
380.851161
 21
2622.10266
 31
0.0
  0
LINE
  5
1DD
330
1B1
100
AcDbEntity
  8
LC-005-005-----0
 62
     7
370
    18
100
AcDbLine
 10
388.967646
 20
2626.170825
 30
0.0
 11
386.429267
 21
2629.778644
 31
0.0
  0
LINE
  5
1DE
330
1B1
100
AcDbEntity
  8
LC-005-005-----0
 62
     7
370
    18
100
AcDbLine
 10
373.425406
 20
2611.630581
 30
0.0
 11
374.408186
 21
2614.323104
 31
0.0
  0
LINE
  5
1DF
330
1B1
100
AcDbEntity
  8
LC-005-005-----0
 62
     7
370
    18
100
AcDbLine
 10
361.250302
 20
2602.24
 30
0.0
 11
361.368908
 21
2602.54607
 31
0.0
  0
LINE
  5
1E0
330
1B1
100
AcDbEntity
  8
LC-005-005-----0
 62
     7
370
    18
100
AcDbLine
 10
396.794741
 20
2636.026737
 30
0.0
 11
397.617321
 21
2639.869039
 31
0.0
  0
LINE
  5
1E1
330
1B1
100
AcDbEntity
  8
LC-005-005-----0
 62
     7
370
    18
100
AcDbLine
 10
374.408186
 20
2614.323104
 30
0.0
 11
375.908737
 21
2617.100678
 31
0.0
  0
LINE
  5
1E2
330
1B1
100
AcDbEntity
  8
LC-005-005-----0
 62
     7
370
    18
100
AcDbLine
 10
362.041262
 20
2602.337469
 30
0.0
 11
358.960726
 21
2604.128568
 31
0.0
  0
LINE
  5
1E3
330
1B1
100
AcDbEntity
  8
LC-005-005-----0
 62
     7
370
    18
100
AcDbLine
 10
361.368908
 20
2602.54607
 30
0.0
 11
359.823061
 21
2605.482588
 31
0.0
  0
LINE
  5
1E4
330
1B1
100
AcDbEntity
  8
LC-005-005-----0
 62
     7
370
    18
100
AcDbLine
 10
375.908737
 20
2617.100678
 30
0.0
 11
373.848223
 21
2619.803767
 31
0.0
  0
LINE
  5
1E5
330
1B1
100
AcDbEntity
  8
LC-005-005-----0
 62
     7
370
    18
100
AcDbLine
 10
380.851161
 20
2622.10266
 30
0.0
 11
376.69969
 21
2621.867384
 31
0.0
  0
LINE
  5
1E6
330
1B1
100
AcDbEntity
  8
LC-005-005-----0
 62
     7
370
    18
100
AcDbLine
 10
397.617321
 20
2639.869039
 30
0.0
 11
395.068816
 21
2642.223204
 31
0.0
  0
LINE
  5
1E7
330
1B1
100
AcDbEntity
  8
LC-005-005-----0
 62
     7
370
    18
100
AcDbLine
 10
386.429267
 20
2629.778644
 30
0.0
 11
386.706316
 21
2632.749349
 31
0.0
  0
LINE
  5
1E8
330
1B1
100
AcDbEntity
  8
LC-005-005-----0
 62
     7
370
    18
100
AcDbLine
 10
374.087859
 20
2618.992345
 30
0.0
 11
371.430731
 21
2621.831398
 31
0.0
  0
LINE
  5
1E9
330
1B1
100
AcDbEntity
  8
LC-005-005-----0
 62
     7
370
    18
100
AcDbLine
 10
374.087859
 20
2618.992345
 30
0.0
 11
376.69969
 21
2621.867384
 31
0.0
  0
LINE
  5
1EA
330
1B1
100
AcDbEntity
  8
LC-005-005-----0
 62
     7
370
    18
100
AcDbLine
 10
358.960726
 20
2604.128568
 30
0.0
 11
356.152117
 21
2607.112895
 31
0.0
  0
LINE
  5
1EB
330
1B1
100
AcDbEntity
  8
LC-005-005-----0
 62
     7
370
    18
100
AcDbLine
 10
359.823061
 20
2605.482588
 30
0.0
 11
362.567752
 21
2609.102619
 31
0.0
  0
LINE
  5
1EC
330
1B1
100
AcDbEntity
  8
LC-005-005-----0
 62
     7
370
    18
100
AcDbLine
 10
373.848223
 20
2619.803767
 30
0.0
 11
374.328751
 21
2621.66935
 31
0.0
  0
LINE
  5
1ED
330
1B1
100
AcDbEntity
  8
LC-005-005-----0
 62
     7
370
    18
100
AcDbLine
 10
386.706316
 20
2632.749349
 30
0.0
 11
382.499572
 21
2637.439059
 31
0.0
  0
LINE
  5
1EE
330
1B1
100
AcDbEntity
  8
LC-005-005-----0
 62
     7
370
    18
100
AcDbLine
 10
362.567752
 20
2609.102619
 30
0.0
 11
361.887343
 21
2613.24478
 31
0.0
  0
LINE
  5
1EF
330
1B1
100
AcDbEntity
  8
LC-005-005-----0
 62
     7
370
    18
100
AcDbLine
 10
374.328751
 20
2621.66935
 30
0.0
 11
371.946654
 21
2625.553254
 31
0.0
  0
LINE
  5
1F0
330
1B1
100
AcDbEntity
  8
LC-005-005-----0
 62
     7
370
    18
100
AcDbLine
 10
371.430731
 20
2621.831398
 30
0.0
 11
368.35825
 21
2619.688937
 31
0.0
  0
LINE
  5
1F1
330
1B1
100
AcDbEntity
  8
LC-005-005-----0
 62
     7
370
    18
100
AcDbLine
 10
356.152117
 20
2607.112895
 30
0.0
 11
354.683858
 21
2606.339972
 31
0.0
  0
LINE
  5
1F2
330
1B1
100
AcDbEntity
  8
LC-005-005-----0
 62
     7
370
    18
100
AcDbLine
 10
368.35825
 20
2619.688937
 30
0.0
 11
364.920735
 21
2620.804577
 31
0.0
  0
LINE
  5
1F3
330
1B1
100
AcDbEntity
  8
LC-005-005-----0
 62
     7
370
    18
100
AcDbLine
 10
361.887343
 20
2613.24478
 30
0.0
 11
362.901158
 21
2614.453526
 31
0.0
  0
LINE
  5
1F4
330
1B1
100
AcDbEntity
  8
LC-005-005-----0
 62
     7
370
    18
100
AcDbLine
 10
371.946654
 20
2625.553254
 30
0.0
 11
372.026754
 21
2628.820666
 31
0.0
  0
LINE
  5
1F5
330
1B1
100
AcDbEntity
  8
LC-005-005-----0
 62
     7
370
    18
100
AcDbLine
 10
364.920735
 20
2620.804577
 30
0.0
 11
362.580831
 21
2619.122767
 31
0.0
  0
LINE
  5
1F6
330
1B1
100
AcDbEntity
  8
LC-005-005-----0
 62
     7
370
    18
100
AcDbLine
 10
362.580831
 20
2619.122767
 30
0.0
 11
359.124695
 21
2621.128673
 31
0.0
  0
LINE
  5
1F7
330
1B1
100
AcDbEntity
  8
LC-005-005-----0
 62
     7
370
    18
100
AcDbLine
 10
372.026754
 20
2628.820666
 30
0.0
 11
369.154819
 21
2631.28412
 31
0.0
  0
LINE
  5
1F8
330
1B1
100
AcDbEntity
  8
LC-005-005-----0
 62
     7
370
    18
100
AcDbLine
 10
359.124695
 20
2621.128673
 30
0.0
 11
355.821888
 21
2619.352501
 31
0.0
  0
LINE
  5
1F9
330
1B1
100
AcDbEntity
  8
LC-005-005-----0
 62
     7
370
    18
100
AcDbLine
 10
369.154819
 20
2631.28412
 30
0.0
 11
367.934915
 21
2636.379873
 31
0.0
  0
LINE
  5
1FA
330
1B1
100
AcDbEntity
  8
LC-005-005-----0
 62
     7
370
    18
100
AcDbLine
 10
358.946687
 20
2625.610965
 30
0.0
 11
358.630054
 21
2628.215333
 31
0.0
  0
LINE
  5
1FB
330
1B1
100
AcDbEntity
  8
LC-005-005-----0
 62
     7
370
    18
100
AcDbLine
 10
358.630054
 20
2628.215333
 30
0.0
 11
355.526537
 21
2628.874017
 31
0.0
  0
LINE
  5
1FC
330
1B1
100
AcDbEntity
  8
LC-005-005-----0
 62
     7
370
    18
100
AcDbLine
 10
359.76801
 20
2632.941693
 30
0.0
 11
356.220616
 21
2630.121261
 31
0.0
  0
LINE
  5
1FD
330
1B1
100
AcDbEntity
  8
LC-005-005-----0
 62
     7
370
    18
100
AcDbLine
 10
359.76801
 20
2632.941693
 30
0.0
 11
359.185657
 21
2637.036045
 31
0.0
  0
LINE
  5
1FE
330
1B1
100
AcDbEntity
  8
LC-005-005-----0
 62
     7
370
    18
100
AcDbLine
 10
355.526537
 20
2628.874017
 30
0.0
 11
355.563779
 21
2630.654549
 31
0.0
  0
LINE
  5
1FF
330
1B1
100
AcDbEntity
  8
LC-005-005-----0
 62
     7
370
    18
100
AcDbLine
 10
355.563779
 20
2630.654549
 30
0.0
 11
353.808075
 21
2631.878813
 31
0.0
  0
LINE
  5
200
330
1B1
100
AcDbEntity
  8
LC-005-005-----0
 62
     7
370
    18
100
AcDbLine
 10
390.835841
 20
2602.494419
 30
0.0
 11
390.319138
 21
2602.24
 31
0.0
  0
LINE
  5
201
330
1B1
100
AcDbEntity
  8
LC-005-005-----0
 62
     7
370
    18
100
AcDbLine
 10
395.068816
 20
2642.223204
 30
0.0
 11
395.06818
 21
2642.24
 31
0.0
  0
LINE
  5
202
330
1B1
100
AcDbEntity
  8
LC-005-005-----0
 62
     7
370
    18
100
AcDbLine
 10
382.499572
 20
2637.439059
 30
0.0
 11
384.212245
 21
2642.24
 31
0.0
  0
LINE
  5
203
330
1B1
100
AcDbEntity
  8
LC-005-005-----0
 62
     7
370
    18
100
AcDbLine
 10
354.683858
 20
2606.339972
 30
0.0
 11
353.759738
 21
2607.616904
 31
0.0
  0
LINE
  5
204
330
1B1
100
AcDbEntity
  8
LC-005-005-----0
 62
     7
370
    18
100
AcDbLine
 10
356.220616
 20
2630.121261
 30
0.0
 11
353.759738
 21
2629.739869
 31
0.0
  0
LINE
  5
205
330
1B1
100
AcDbEntity
  8
LC-005-005-----0
 62
     7
370
    18
100
AcDbLine
 10
353.808075
 20
2631.878813
 30
0.0
 11
353.759738
 21
2631.911544
 31
0.0
  0
LINE
  5
206
330
1B1
100
AcDbEntity
  8
LC-005-005-----0
 62
     7
370
    18
100
AcDbLine
 10
473.759738
 20
2606.49036
 30
0.0
 11
470.672672
 21
2608.421881
 31
0.0
  0
LINE
  5
207
330
1B1
100
AcDbEntity
  8
LC-005-005-----0
 62
     7
370
    18
100
AcDbLine
 10
469.342224
 20
2604.608767
 30
0.0
 11
466.829114
 21
2604.110874
 31
0.0
  0
LINE
  5
208
330
1B1
100
AcDbEntity
  8
LC-005-005-----0
 62
     7
370
    18
100
AcDbLine
 10
469.342224
 20
2604.608767
 30
0.0
 11
471.629368
 21
2608.812998
 31
0.0
  0
LINE
  5
209
330
1B1
100
AcDbEntity
  8
LC-005-005-----0
 62
     7
370
    18
100
AcDbLine
 10
473.759738
 20
2609.795134
 30
0.0
 11
471.629368
 21
2608.812998
 31
0.0
  0
LINE
  5
20A
330
1B1
100
AcDbEntity
  8
LC-005-005-----0
 62
     7
370
    18
100
AcDbLine
 10
465.590955
 20
2602.24
 30
0.0
 11
466.829114
 21
2604.110874
 31
0.0
  0
LINE
  5
20B
330
1B1
100
AcDbEntity
  8
LC-005-005-----0
 62
     7
370
    18
100
AcDbLine
 10
470.672672
 20
2608.421881
 30
0.0
 11
467.649256
 21
2611.030608
 31
0.0
  0
LINE
  5
20C
330
1B1
100
AcDbEntity
  8
LC-005-005-----0
 62
     7
370
    18
100
AcDbLine
 10
467.649256
 20
2611.030608
 30
0.0
 11
462.766463
 21
2613.823109
 31
0.0
  0
LINE
  5
20D
330
1B1
100
AcDbEntity
  8
LC-005-005-----0
 62
     7
370
    18
100
AcDbLine
 10
462.766463
 20
2613.823109
 30
0.0
 11
458.120202
 21
2615.952565
 31
0.0
  0
LINE
  5
20E
330
1B1
100
AcDbEntity
  8
LC-005-005-----0
 62
     7
370
    18
100
AcDbLine
 10
463.135264
 20
2621.030288
 30
0.0
 11
460.280693
 21
2619.115048
 31
0.0
  0
LINE
  5
20F
330
1B1
100
AcDbEntity
  8
LC-005-005-----0
 62
     7
370
    18
100
AcDbLine
 10
463.135264
 20
2621.030288
 30
0.0
 11
465.431719
 21
2624.789386
 31
0.0
  0
LINE
  5
210
330
1B1
100
AcDbEntity
  8
LC-005-005-----0
 62
     7
370
    18
100
AcDbLine
 10
465.431719
 20
2624.789386
 30
0.0
 11
467.465557
 21
2626.910122
 31
0.0
  0
LINE
  5
211
330
1B1
100
AcDbEntity
  8
LC-005-005-----0
 62
     7
370
    18
100
AcDbLine
 10
467.465557
 20
2626.910122
 30
0.0
 11
470.007855
 21
2629.561043
 31
0.0
  0
LINE
  5
212
330
1B1
100
AcDbEntity
  8
LC-005-005-----0
 62
     7
370
    18
100
AcDbLine
 10
470.007855
 20
2629.561043
 30
0.0
 11
469.503755
 21
2632.370908
 31
0.0
  0
LINE
  5
213
330
1B1
100
AcDbEntity
  8
LC-005-005-----0
 62
     7
370
    18
100
AcDbLine
 10
472.948732
 20
2634.446939
 30
0.0
 11
469.503755
 21
2632.370908
 31
0.0
  0
LINE
  5
214
330
1B1
100
AcDbEntity
  8
LC-005-005-----0
 62
     7
370
    18
100
AcDbLine
 10
472.948732
 20
2634.446939
 30
0.0
 11
471.611486
 21
2638.055812
 31
0.0
  0
LINE
  5
215
330
1B1
100
AcDbEntity
  8
LC-005-005-----0
 62
     7
370
    18
100
AcDbLine
 10
473.759738
 20
2637.308346
 30
0.0
 11
471.324041
 21
2637.604472
 31
0.0
  0
LINE
  5
216
330
1B1
100
AcDbEntity
  8
LC-005-005-----0
 62
     7
370
    18
100
AcDbLine
 10
471.324041
 20
2637.604472
 30
0.0
 11
468.376365
 21
2640.140563
 31
0.0
  0
LINE
  5
217
330
1B1
100
AcDbEntity
  8
LC-005-005-----0
 62
     7
370
    18
100
AcDbLine
 10
458.564153
 20
2630.212338
 30
0.0
 11
455.114224
 21
2631.921489
 31
0.0
  0
LINE
  5
218
330
1B1
100
AcDbEntity
  8
LC-005-005-----0
 62
     7
370
    18
100
AcDbLine
 10
468.376365
 20
2640.140563
 30
0.0
 11
465.017695
 21
2641.035189
 31
0.0
  0
LINE
  5
219
330
1B1
100
AcDbEntity
  8
LC-005-005-----0
 62
     7
370
    18
100
AcDbLine
 10
455.114224
 20
2631.921489
 30
0.0
 11
452.70294
 21
2633.652365
 31
0.0
  0
LINE
  5
21A
330
1B1
100
AcDbEntity
  8
LC-005-005-----0
 62
     7
370
    18
100
AcDbLine
 10
446.679013
 20
2623.580714
 30
0.0
 11
444.111887
 21
2622.116814
 31
0.0
  0
LINE
  5
21B
330
1B1
100
AcDbEntity
  8
LC-005-005-----0
 62
     7
370
    18
100
AcDbLine
 10
446.679013
 20
2623.580714
 30
0.0
 11
446.774631
 21
2626.106238
 31
0.0
  0
LINE
  5
21C
330
1B1
100
AcDbEntity
  8
LC-005-005-----0
 62
     7
370
    18
100
AcDbLine
 10
446.774631
 20
2626.106238
 30
0.0
 11
450.409588
 21
2629.744889
 31
0.0
  0
LINE
  5
21D
330
1B1
100
AcDbEntity
  8
LC-005-005-----0
 62
     7
370
    18
100
AcDbLine
 10
450.409588
 20
2629.744889
 30
0.0
 11
449.766421
 21
2632.106518
 31
0.0
  0
LINE
  5
21E
330
1B1
100
AcDbEntity
  8
LC-005-005-----0
 62
     7
370
    18
100
AcDbLine
 10
452.70294
 20
2633.652365
 30
0.0
 11
449.599423
 21
2632.993681
 31
0.0
  0
LINE
  5
21F
330
1B1
100
AcDbEntity
  8
LC-005-005-----0
 62
     7
370
    18
100
AcDbLine
 10
449.766421
 20
2632.106518
 30
0.0
 11
453.95144
 21
2637.834871
 31
0.0
  0
LINE
  5
220
330
1B1
100
AcDbEntity
  8
LC-005-005-----0
 62
     7
370
    18
100
AcDbLine
 10
449.599423
 20
2632.993681
 30
0.0
 11
446.124666
 21
2635.889853
 31
0.0
  0
LINE
  5
221
330
1B1
100
AcDbEntity
  8
LC-005-005-----0
 62
     7
370
    18
100
AcDbLine
 10
453.95144
 20
2637.834871
 30
0.0
 11
451.224779
 21
2640.449806
 31
0.0
  0
LINE
  5
222
330
1B1
100
AcDbEntity
  8
LC-005-005-----0
 62
     7
370
    18
100
AcDbLine
 10
453.192331
 20
2642.24
 30
0.0
 11
451.224779
 21
2640.449806
 31
0.0
  0
LINE
  5
223
330
1B1
100
AcDbEntity
  8
LC-005-005-----0
 62
     7
370
    18
100
AcDbLine
 10
446.124666
 20
2635.889853
 30
0.0
 11
442.039625
 21
2636.027073
 31
0.0
  0
LINE
  5
224
330
1B1
100
AcDbEntity
  8
LC-005-005-----0
 62
     7
370
    18
100
AcDbLine
 10
442.039625
 20
2636.027073
 30
0.0
 11
438.785883
 21
2639.002089
 31
0.0
  0
LINE
  5
225
330
1B1
100
AcDbEntity
  8
LC-005-005-----0
 62
     7
370
    18
100
AcDbLine
 10
444.118489
 20
2642.24
 30
0.0
 11
442.533823
 21
2640.787572
 31
0.0
  0
LINE
  5
226
330
1B1
100
AcDbEntity
  8
LC-005-005-----0
 62
     7
370
    18
100
AcDbLine
 10
438.785883
 20
2639.002089
 30
0.0
 11
435.076441
 21
2638.924501
 31
0.0
  0
LINE
  5
227
330
1B1
100
AcDbEntity
  8
LC-005-005-----0
 62
     7
370
    18
100
AcDbLine
 10
427.152202
 20
2638.090764
 30
0.0
 11
428.725389
 21
2640.944078
 31
0.0
  0
LINE
  5
228
330
1B1
100
AcDbEntity
  8
LC-005-005-----0
 62
     7
370
    18
100
AcDbLine
 10
471.611486
 20
2638.055812
 30
0.0
 11
473.759738
 21
2641.505365
 31
0.0
  0
LINE
  5
229
330
1B1
100
AcDbEntity
  8
LC-005-005-----0
 62
     7
370
    18
100
AcDbLine
 10
473.759738
 20
2641.526005
 30
0.0
 11
473.366497
 21
2642.24
 31
0.0
  0
LINE
  5
22A
330
1B1
100
AcDbEntity
  8
LC-005-005-----0
 62
     7
370
    18
100
AcDbLine
 10
428.725389
 20
2640.944078
 30
0.0
 11
428.043188
 21
2642.24
 31
0.0
  0
ENDBLK
  5
1B3
330
1B1
100
AcDbEntity
  8
0
100
AcDbBlockEnd
  0
BLOCK
  5
230
330
22F
100
AcDbEntity
  8
0
100
AcDbBlockBegin
  2
*X23
 70
     1
 71
     0
 10
0.0
 20
0.0
 30
0.0
  3
*X23
  1

  4
*X2
  0
LINE
  5
232
330
22F
100
AcDbEntity
  8
LC-005-005-----0
 62
     7
370
    18
100
AcDbLine
 10
1393.930174
 20
2602.487235
 30
0.0
 11
1388.658112
 21
2602.374843
 31
0.0
  0
LINE
  5
233
330
22F
100
AcDbEntity
  8
LC-005-005-----0
 62
     7
370
    18
100
AcDbLine
 10
1388.658112
 20
2602.374843
 30
0.0
 11
1383.893253
 21
2605.220695
 31
0.0
  0
LINE
  5
234
330
22F
100
AcDbEntity
  8
LC-005-005-----0
 62
     7
370
    18
100
AcDbLine
 10
1378.109639
 20
2602.24
 30
0.0
 11
1378.438674
 21
2603.479252
 31
0.0
  0
LINE
  5
235
330
22F
100
AcDbEntity
  8
LC-005-005-----0
 62
     7
370
    18
100
AcDbLine
 10
1383.893253
 20
2605.220695
 30
0.0
 11
1380.639511
 21
2602.245678
 31
0.0
  0
LINE
  5
236
330
22F
100
AcDbEntity
  8
LC-005-005-----0
 62
     7
370
    18
100
AcDbLine
 10
1380.639511
 20
2602.245678
 30
0.0
 11
1374.264222
 21
2606.164312
 31
0.0
  0
LINE
  5
237
330
22F
100
AcDbEntity
  8
LC-005-005-----0
 62
     7
370
    18
100
AcDbLine
 10
1378.438674
 20
2603.479252
 30
0.0
 11
1374.809923
 21
2607.414659
 31
0.0
  0
LINE
  5
238
330
22F
100
AcDbEntity
  8
LC-005-005-----0
 62
     7
370
    18
100
AcDbLine
 10
1374.264222
 20
2606.164312
 30
0.0
 11
1369.971836
 21
2603.21102
 31
0.0
  0
LINE
  5
239
330
22F
100
AcDbEntity
  8
LC-005-005-----0
 62
     7
370
    18
100
AcDbLine
 10
1374.809923
 20
2607.414659
 30
0.0
 11
1378.930951
 21
2612.820838
 31
0.0
  0
LINE
  5
23A
330
22F
100
AcDbEntity
  8
LC-005-005-----0
 62
     7
370
    18
100
AcDbLine
 10
1369.971836
 20
2603.21102
 30
0.0
 11
1363.389203
 21
2604.313581
 31
0.0
  0
LINE
  5
23B
330
22F
100
AcDbEntity
  8
LC-005-005-----0
 62
     7
370
    18
100
AcDbLine
 10
1378.930951
 20
2612.820838
 30
0.0
 11
1374.91729
 21
2616.096305
 31
0.0
  0
LINE
  5
23C
330
22F
100
AcDbEntity
  8
LC-005-005-----0
 62
     7
370
    18
100
AcDbLine
 10
1374.91729
 20
2616.096305
 30
0.0
 11
1374.169195
 21
2615.815067
 31
0.0
  0
LINE
  5
23D
330
22F
100
AcDbEntity
  8
LC-005-005-----0
 62
     7
370
    18
100
AcDbLine
 10
1355.731142
 20
2602.24
 30
0.0
 11
1356.315301
 21
2602.953126
 31
0.0
  0
LINE
  5
23E
330
22F
100
AcDbEntity
  8
LC-005-005-----0
 62
     7
370
    18
100
AcDbLine
 10
1356.315301
 20
2602.953126
 30
0.0
 11
1355.224071
 21
2607.824324
 31
0.0
  0
LINE
  5
23F
330
22F
100
AcDbEntity
  8
LC-005-005-----0
 62
     7
370
    18
100
AcDbLine
 10
1355.224071
 20
2607.824324
 30
0.0
 11
1355.726915
 21
2614.122616
 31
0.0
  0
LINE
  5
240
330
22F
100
AcDbEntity
  8
LC-005-005-----0
 62
     7
370
    18
100
AcDbLine
 10
1355.726915
 20
2614.122616
 30
0.0
 11
1355.147666
 21
2618.365345
 31
0.0
  0
LINE
  5
241
330
22F
100
AcDbEntity
  8
LC-005-005-----0
 62
     7
370
    18
100
AcDbLine
 10
1363.801971
 20
2624.047811
 30
0.0
 11
1358.901148
 21
2627.490276
 31
0.0
  0
LINE
  5
242
330
22F
100
AcDbEntity
  8
LC-005-005-----0
 62
     7
370
    18
100
AcDbLine
 10
1355.147666
 20
2618.365345
 30
0.0
 11
1355.294787
 21
2621.850669
 31
0.0
  0
LINE
  5
243
330
22F
100
AcDbEntity
  8
LC-005-005-----0
 62
     7
370
    18
100
AcDbLine
 10
1335.752473
 20
2602.24
 30
0.0
 11
1334.412404
 21
2605.464247
 31
0.0
  0
LINE
  5
244
330
22F
100
AcDbEntity
  8
LC-005-005-----0
 62
     7
370
    18
100
AcDbLine
 10
1355.294787
 20
2621.850669
 30
0.0
 11
1350.539239
 21
2625.141653
 31
0.0
  0
LINE
  5
245
330
22F
100
AcDbEntity
  8
LC-005-005-----0
 62
     7
370
    18
100
AcDbLine
 10
1358.901148
 20
2627.490276
 30
0.0
 11
1351.237678
 21
2623.048848
 31
0.0
  0
LINE
  5
246
330
22F
100
AcDbEntity
  8
LC-005-005-----0
 62
     7
370
    18
100
AcDbLine
 10
1334.412404
 20
2605.464247
 30
0.0
 11
1335.667111
 21
2609.349998
 31
0.0
  0
LINE
  5
247
330
22F
100
AcDbEntity
  8
LC-005-005-----0
 62
     7
370
    18
100
AcDbLine
 10
1351.237678
 20
2623.048848
 30
0.0
 11
1345.800464
 21
2625.686098
 31
0.0
  0
LINE
  5
248
330
22F
100
AcDbEntity
  8
LC-005-005-----0
 62
     7
370
    18
100
AcDbLine
 10
1335.667111
 20
2609.349998
 30
0.0
 11
1334.781205
 21
2612.671426
 31
0.0
  0
LINE
  5
249
330
22F
100
AcDbEntity
  8
LC-005-005-----0
 62
     7
370
    18
100
AcDbLine
 10
1324.980146
 20
2602.24
 30
0.0
 11
1324.135846
 21
2603.542209
 31
0.0
  0
LINE
  5
24A
330
22F
100
AcDbEntity
  8
LC-005-005-----0
 62
     7
370
    18
100
AcDbLine
 10
1350.539239
 20
2625.141653
 30
0.0
 11
1350.827275
 21
2631.815544
 31
0.0
  0
LINE
  5
24B
330
22F
100
AcDbEntity
  8
LC-005-005-----0
 62
     7
370
    18
100
AcDbLine
 10
1317.99993
 20
2602.24
 30
0.0
 11
1317.998346
 21
2602.448958
 31
0.0
  0
LINE
  5
24C
330
22F
100
AcDbEntity
  8
LC-005-005-----0
 62
     7
370
    18
100
AcDbLine
 10
1345.800464
 20
2625.686098
 30
0.0
 11
1340.791018
 21
2623.935345
 31
0.0
  0
LINE
  5
24D
330
22F
100
AcDbEntity
  8
LC-005-005-----0
 62
     7
370
    18
100
AcDbLine
 10
1320.381414
 20
2602.24
 30
0.0
 11
1316.531343
 21
2605.164462
 31
0.0
  0
LINE
  5
24E
330
22F
100
AcDbEntity
  8
LC-005-005-----0
 62
     7
370
    18
100
AcDbLine
 10
1350.827275
 20
2631.815544
 30
0.0
 11
1345.711644
 21
2635.633609
 31
0.0
  0
LINE
  5
24F
330
22F
100
AcDbEntity
  8
LC-005-005-----0
 62
     7
370
    18
100
AcDbLine
 10
1340.791018
 20
2623.935345
 30
0.0
 11
1332.845054
 21
2623.730439
 31
0.0
  0
LINE
  5
250
330
22F
100
AcDbEntity
  8
LC-005-005-----0
 62
     7
370
    18
100
AcDbLine
 10
1317.998346
 20
2602.448958
 30
0.0
 11
1320.316525
 21
2605.169413
 31
0.0
  0
LINE
  5
251
330
22F
100
AcDbEntity
  8
LC-005-005-----0
 62
     7
370
    18
100
AcDbLine
 10
1320.316525
 20
2605.169413
 30
0.0
 11
1320.169404
 21
2608.654736
 31
0.0
  0
LINE
  5
252
330
22F
100
AcDbEntity
  8
LC-005-005-----0
 62
     7
370
    18
100
AcDbLine
 10
1316.531343
 20
2605.164462
 30
0.0
 11
1314.387626
 21
2604.748517
 31
0.0
  0
LINE
  5
253
330
22F
100
AcDbEntity
  8
LC-005-005-----0
 62
     7
370
    18
100
AcDbLine
 10
1345.711644
 20
2635.633609
 30
0.0
 11
1342.167945
 21
2640.086786
 31
0.0
  0
LINE
  5
254
330
22F
100
AcDbEntity
  8
LC-005-005-----0
 62
     7
370
    18
100
AcDbLine
 10
1326.243301
 20
2621.882507
 30
0.0
 11
1327.567646
 21
2625.770825
 31
0.0
  0
LINE
  5
255
330
22F
100
AcDbEntity
  8
LC-005-005-----0
 62
     7
370
    18
100
AcDbLine
 10
1322.026342
 20
2619.233
 30
0.0
 11
1319.451161
 21
2621.70266
 31
0.0
  0
LINE
  5
256
330
22F
100
AcDbEntity
  8
LC-005-005-----0
 62
     7
370
    18
100
AcDbLine
 10
1327.567646
 20
2625.770825
 30
0.0
 11
1325.029267
 21
2629.378644
 31
0.0
  0
LINE
  5
257
330
22F
100
AcDbEntity
  8
LC-005-005-----0
 62
     7
370
    18
100
AcDbLine
 10
1312.025406
 20
2611.230581
 30
0.0
 11
1313.008186
 21
2613.923104
 31
0.0
  0
LINE
  5
258
330
22F
100
AcDbEntity
  8
LC-005-005-----0
 62
     7
370
    18
100
AcDbLine
 10
1335.394741
 20
2635.626737
 30
0.0
 11
1336.217321
 21
2639.469039
 31
0.0
  0
LINE
  5
259
330
22F
100
AcDbEntity
  8
LC-005-005-----0
 62
     7
370
    18
100
AcDbLine
 10
1313.008186
 20
2613.923104
 30
0.0
 11
1314.508737
 21
2616.700678
 31
0.0
  0
LINE
  5
25A
330
22F
100
AcDbEntity
  8
LC-005-005-----0
 62
     7
370
    18
100
AcDbLine
 10
1300.120936
 20
2602.24
 30
0.0
 11
1297.560726
 21
2603.728568
 31
0.0
  0
LINE
  5
25B
330
22F
100
AcDbEntity
  8
LC-005-005-----0
 62
     7
370
    18
100
AcDbLine
 10
1299.919461
 20
2602.24
 30
0.0
 11
1298.423061
 21
2605.082588
 31
0.0
  0
LINE
  5
25C
330
22F
100
AcDbEntity
  8
LC-005-005-----0
 62
     7
370
    18
100
AcDbLine
 10
1314.508737
 20
2616.700678
 30
0.0
 11
1312.448223
 21
2619.403767
 31
0.0
  0
LINE
  5
25D
330
22F
100
AcDbEntity
  8
LC-005-005-----0
 62
     7
370
    18
100
AcDbLine
 10
1319.451161
 20
2621.70266
 30
0.0
 11
1315.29969
 21
2621.467384
 31
0.0
  0
LINE
  5
25E
330
22F
100
AcDbEntity
  8
LC-005-005-----0
 62
     7
370
    18
100
AcDbLine
 10
1336.217321
 20
2639.469039
 30
0.0
 11
1333.668816
 21
2641.823204
 31
0.0
  0
LINE
  5
25F
330
22F
100
AcDbEntity
  8
LC-005-005-----0
 62
     7
370
    18
100
AcDbLine
 10
1325.029267
 20
2629.378644
 30
0.0
 11
1325.306316
 21
2632.349349
 31
0.0
  0
LINE
  5
260
330
22F
100
AcDbEntity
  8
LC-005-005-----0
 62
     7
370
    18
100
AcDbLine
 10
1312.687859
 20
2618.592345
 30
0.0
 11
1310.030731
 21
2621.431398
 31
0.0
  0
LINE
  5
261
330
22F
100
AcDbEntity
  8
LC-005-005-----0
 62
     7
370
    18
100
AcDbLine
 10
1312.687859
 20
2618.592345
 30
0.0
 11
1315.29969
 21
2621.467384
 31
0.0
  0
LINE
  5
262
330
22F
100
AcDbEntity
  8
LC-005-005-----0
 62
     7
370
    18
100
AcDbLine
 10
1297.560726
 20
2603.728568
 30
0.0
 11
1294.752117
 21
2606.712895
 31
0.0
  0
LINE
  5
263
330
22F
100
AcDbEntity
  8
LC-005-005-----0
 62
     7
370
    18
100
AcDbLine
 10
1298.423061
 20
2605.082588
 30
0.0
 11
1301.167752
 21
2608.702619
 31
0.0
  0
LINE
  5
264
330
22F
100
AcDbEntity
  8
LC-005-005-----0
 62
     7
370
    18
100
AcDbLine
 10
1312.448223
 20
2619.403767
 30
0.0
 11
1312.928751
 21
2621.26935
 31
0.0
  0
LINE
  5
265
330
22F
100
AcDbEntity
  8
LC-005-005-----0
 62
     7
370
    18
100
AcDbLine
 10
1325.306316
 20
2632.349349
 30
0.0
 11
1321.099572
 21
2637.039059
 31
0.0
  0
LINE
  5
266
330
22F
100
AcDbEntity
  8
LC-005-005-----0
 62
     7
370
    18
100
AcDbLine
 10
1301.167752
 20
2608.702619
 30
0.0
 11
1300.487343
 21
2612.84478
 31
0.0
  0
LINE
  5
267
330
22F
100
AcDbEntity
  8
LC-005-005-----0
 62
     7
370
    18
100
AcDbLine
 10
1312.928751
 20
2621.26935
 30
0.0
 11
1310.546654
 21
2625.153254
 31
0.0
  0
LINE
  5
268
330
22F
100
AcDbEntity
  8
LC-005-005-----0
 62
     7
370
    18
100
AcDbLine
 10
1310.030731
 20
2621.431398
 30
0.0
 11
1306.95825
 21
2619.288937
 31
0.0
  0
LINE
  5
269
330
22F
100
AcDbEntity
  8
LC-005-005-----0
 62
     7
370
    18
100
AcDbLine
 10
1294.752117
 20
2606.712895
 30
0.0
 11
1293.283858
 21
2605.939972
 31
0.0
  0
LINE
  5
26A
330
22F
100
AcDbEntity
  8
LC-005-005-----0
 62
     7
370
    18
100
AcDbLine
 10
1306.95825
 20
2619.288937
 30
0.0
 11
1303.520735
 21
2620.404577
 31
0.0
  0
LINE
  5
26B
330
22F
100
AcDbEntity
  8
LC-005-005-----0
 62
     7
370
    18
100
AcDbLine
 10
1300.487343
 20
2612.84478
 30
0.0
 11
1301.501158
 21
2614.053526
 31
0.0
  0
LINE
  5
26C
330
22F
100
AcDbEntity
  8
LC-005-005-----0
 62
     7
370
    18
100
AcDbLine
 10
1310.546654
 20
2625.153254
 30
0.0
 11
1310.626754
 21
2628.420666
 31
0.0
  0
LINE
  5
26D
330
22F
100
AcDbEntity
  8
LC-005-005-----0
 62
     7
370
    18
100
AcDbLine
 10
1321.099572
 20
2637.039059
 30
0.0
 11
1322.912987
 21
2642.122398
 31
0.0
  0
LINE
  5
26E
330
22F
100
AcDbEntity
  8
LC-005-005-----0
 62
     7
370
    18
100
AcDbLine
 10
1303.520735
 20
2620.404577
 30
0.0
 11
1301.180831
 21
2618.722767
 31
0.0
  0
LINE
  5
26F
330
22F
100
AcDbEntity
  8
LC-005-005-----0
 62
     7
370
    18
100
AcDbLine
 10
1301.180831
 20
2618.722767
 30
0.0
 11
1297.724695
 21
2620.728673
 31
0.0
  0
LINE
  5
270
330
22F
100
AcDbEntity
  8
LC-005-005-----0
 62
     7
370
    18
100
AcDbLine
 10
1310.626754
 20
2628.420666
 30
0.0
 11
1307.754819
 21
2630.88412
 31
0.0
  0
LINE
  5
271
330
22F
100
AcDbEntity
  8
LC-005-005-----0
 62
     7
370
    18
100
AcDbLine
 10
1297.724695
 20
2620.728673
 30
0.0
 11
1294.421888
 21
2618.952501
 31
0.0
  0
LINE
  5
272
330
22F
100
AcDbEntity
  8
LC-005-005-----0
 62
     7
370
    18
100
AcDbLine
 10
1307.754819
 20
2630.88412
 30
0.0
 11
1306.534915
 21
2635.979873
 31
0.0
  0
LINE
  5
273
330
22F
100
AcDbEntity
  8
LC-005-005-----0
 62
     7
370
    18
100
AcDbLine
 10
1297.546687
 20
2625.210965
 30
0.0
 11
1297.230054
 21
2627.815333
 31
0.0
  0
LINE
  5
274
330
22F
100
AcDbEntity
  8
LC-005-005-----0
 62
     7
370
    18
100
AcDbLine
 10
1297.230054
 20
2627.815333
 30
0.0
 11
1294.126537
 21
2628.474017
 31
0.0
  0
LINE
  5
275
330
22F
100
AcDbEntity
  8
LC-005-005-----0
 62
     7
370
    18
100
AcDbLine
 10
1298.36801
 20
2632.541693
 30
0.0
 11
1294.820616
 21
2629.721261
 31
0.0
  0
LINE
  5
276
330
22F
100
AcDbEntity
  8
LC-005-005-----0
 62
     7
370
    18
100
AcDbLine
 10
1298.36801
 20
2632.541693
 30
0.0
 11
1297.785657
 21
2636.636045
 31
0.0
  0
LINE
  5
277
330
22F
100
AcDbEntity
  8
LC-005-005-----0
 62
     7
370
    18
100
AcDbLine
 10
1294.126537
 20
2628.474017
 30
0.0
 11
1294.163779
 21
2630.254549
 31
0.0
  0
LINE
  5
278
330
22F
100
AcDbEntity
  8
LC-005-005-----0
 62
     7
370
    18
100
AcDbLine
 10
1294.163779
 20
2630.254549
 30
0.0
 11
1292.408075
 21
2631.478813
 31
0.0
  0
LINE
  5
279
330
22F
100
AcDbEntity
  8
LC-005-005-----0
 62
     7
370
    18
100
AcDbLine
 10
1324.135846
 20
2603.542209
 30
0.0
 11
1321.662147
 21
2602.24
 31
0.0
  0
LINE
  5
27A
330
22F
100
AcDbEntity
  8
LC-005-005-----0
 62
     7
370
    18
100
AcDbLine
 10
1333.668816
 20
2641.823204
 30
0.0
 11
1333.653036
 21
2642.24
 31
0.0
  0
LINE
  5
27B
330
22F
100
AcDbEntity
  8
LC-005-005-----0
 62
     7
370
    18
100
AcDbLine
 10
1322.912987
 20
2642.122398
 30
0.0
 11
1322.635929
 21
2642.24
 31
0.0
  0
LINE
  5
27C
330
22F
100
AcDbEntity
  8
LC-005-005-----0
 62
     7
370
    18
100
AcDbLine
 10
1293.283858
 20
2605.939972
 30
0.0
 11
1291.959738
 21
2607.769616
 31
0.0
  0
LINE
  5
27D
330
22F
100
AcDbEntity
  8
LC-005-005-----0
 62
     7
370
    18
100
AcDbLine
 10
1294.820616
 20
2629.721261
 30
0.0
 11
1291.959738
 21
2629.277876
 31
0.0
  0
LINE
  5
27E
330
22F
100
AcDbEntity
  8
LC-005-005-----0
 62
     7
370
    18
100
AcDbLine
 10
1292.408075
 20
2631.478813
 30
0.0
 11
1291.959738
 21
2631.7824
 31
0.0
  0
LINE
  5
27F
330
22F
100
AcDbEntity
  8
LC-005-005-----0
 62
     7
370
    18
100
AcDbLine
 10
1412.759738
 20
2605.840087
 30
0.0
 11
1409.272672
 21
2608.021881
 31
0.0
  0
LINE
  5
280
330
22F
100
AcDbEntity
  8
LC-005-005-----0
 62
     7
370
    18
100
AcDbLine
 10
1407.942224
 20
2604.208767
 30
0.0
 11
1405.429114
 21
2603.710874
 31
0.0
  0
LINE
  5
281
330
22F
100
AcDbEntity
  8
LC-005-005-----0
 62
     7
370
    18
100
AcDbLine
 10
1407.942224
 20
2604.208767
 30
0.0
 11
1410.229368
 21
2608.412998
 31
0.0
  0
LINE
  5
282
330
22F
100
AcDbEntity
  8
LC-005-005-----0
 62
     7
370
    18
100
AcDbLine
 10
1412.759738
 20
2609.579541
 30
0.0
 11
1410.229368
 21
2608.412998
 31
0.0
  0
LINE
  5
283
330
22F
100
AcDbEntity
  8
LC-005-005-----0
 62
     7
370
    18
100
AcDbLine
 10
1404.455678
 20
2602.24
 30
0.0
 11
1405.429114
 21
2603.710874
 31
0.0
  0
LINE
  5
284
330
22F
100
AcDbEntity
  8
LC-005-005-----0
 62
     7
370
    18
100
AcDbLine
 10
1409.272672
 20
2608.021881
 30
0.0
 11
1406.249256
 21
2610.630608
 31
0.0
  0
LINE
  5
285
330
22F
100
AcDbEntity
  8
LC-005-005-----0
 62
     7
370
    18
100
AcDbLine
 10
1406.249256
 20
2610.630608
 30
0.0
 11
1401.366463
 21
2613.423109
 31
0.0
  0
LINE
  5
286
330
22F
100
AcDbEntity
  8
LC-005-005-----0
 62
     7
370
    18
100
AcDbLine
 10
1401.366463
 20
2613.423109
 30
0.0
 11
1396.720202
 21
2615.552565
 31
0.0
  0
LINE
  5
287
330
22F
100
AcDbEntity
  8
LC-005-005-----0
 62
     7
370
    18
100
AcDbLine
 10
1401.735264
 20
2620.630288
 30
0.0
 11
1398.880693
 21
2618.715048
 31
0.0
  0
LINE
  5
288
330
22F
100
AcDbEntity
  8
LC-005-005-----0
 62
     7
370
    18
100
AcDbLine
 10
1401.735264
 20
2620.630288
 30
0.0
 11
1404.031719
 21
2624.389386
 31
0.0
  0
LINE
  5
289
330
22F
100
AcDbEntity
  8
LC-005-005-----0
 62
     7
370
    18
100
AcDbLine
 10
1404.031719
 20
2624.389386
 30
0.0
 11
1406.065557
 21
2626.510122
 31
0.0
  0
LINE
  5
28A
330
22F
100
AcDbEntity
  8
LC-005-005-----0
 62
     7
370
    18
100
AcDbLine
 10
1406.065557
 20
2626.510122
 30
0.0
 11
1408.607855
 21
2629.161043
 31
0.0
  0
LINE
  5
28B
330
22F
100
AcDbEntity
  8
LC-005-005-----0
 62
     7
370
    18
100
AcDbLine
 10
1408.607855
 20
2629.161043
 30
0.0
 11
1408.103755
 21
2631.970908
 31
0.0
  0
LINE
  5
28C
330
22F
100
AcDbEntity
  8
LC-005-005-----0
 62
     7
370
    18
100
AcDbLine
 10
1412.759738
 20
2636.862574
 30
0.0
 11
1412.528409
 21
2636.88784
 31
0.0
  0
LINE
  5
28D
330
22F
100
AcDbEntity
  8
LC-005-005-----0
 62
     7
370
    18
100
AcDbLine
 10
1411.548732
 20
2634.046939
 30
0.0
 11
1408.103755
 21
2631.970908
 31
0.0
  0
LINE
  5
28E
330
22F
100
AcDbEntity
  8
LC-005-005-----0
 62
     7
370
    18
100
AcDbLine
 10
1411.548732
 20
2634.046939
 30
0.0
 11
1410.211486
 21
2637.655812
 31
0.0
  0
LINE
  5
28F
330
22F
100
AcDbEntity
  8
LC-005-005-----0
 62
     7
370
    18
100
AcDbLine
 10
1412.528409
 20
2636.88784
 30
0.0
 11
1409.924041
 21
2637.204472
 31
0.0
  0
LINE
  5
290
330
22F
100
AcDbEntity
  8
LC-005-005-----0
 62
     7
370
    18
100
AcDbLine
 10
1409.924041
 20
2637.204472
 30
0.0
 11
1406.976365
 21
2639.740563
 31
0.0
  0
LINE
  5
291
330
22F
100
AcDbEntity
  8
LC-005-005-----0
 62
     7
370
    18
100
AcDbLine
 10
1410.211486
 20
2637.655812
 30
0.0
 11
1412.36577
 21
2641.115051
 31
0.0
  0
LINE
  5
292
330
22F
100
AcDbEntity
  8
LC-005-005-----0
 62
     7
370
    18
100
AcDbLine
 10
1397.164153
 20
2629.812338
 30
0.0
 11
1393.714224
 21
2631.521489
 31
0.0
  0
LINE
  5
293
330
22F
100
AcDbEntity
  8
LC-005-005-----0
 62
     7
370
    18
100
AcDbLine
 10
1406.976365
 20
2639.740563
 30
0.0
 11
1403.617695
 21
2640.635189
 31
0.0
  0
LINE
  5
294
330
22F
100
AcDbEntity
  8
LC-005-005-----0
 62
     7
370
    18
100
AcDbLine
 10
1393.714224
 20
2631.521489
 30
0.0
 11
1391.30294
 21
2633.252365
 31
0.0
  0
LINE
  5
295
330
22F
100
AcDbEntity
  8
LC-005-005-----0
 62
     7
370
    18
100
AcDbLine
 10
1385.279013
 20
2623.180714
 30
0.0
 11
1382.711887
 21
2621.716814
 31
0.0
  0
LINE
  5
296
330
22F
100
AcDbEntity
  8
LC-005-005-----0
 62
     7
370
    18
100
AcDbLine
 10
1385.279013
 20
2623.180714
 30
0.0
 11
1385.374631
 21
2625.706238
 31
0.0
  0
LINE
  5
297
330
22F
100
AcDbEntity
  8
LC-005-005-----0
 62
     7
370
    18
100
AcDbLine
 10
1385.374631
 20
2625.706238
 30
0.0
 11
1389.009588
 21
2629.344889
 31
0.0
  0
LINE
  5
298
330
22F
100
AcDbEntity
  8
LC-005-005-----0
 62
     7
370
    18
100
AcDbLine
 10
1389.009588
 20
2629.344889
 30
0.0
 11
1388.366421
 21
2631.706518
 31
0.0
  0
LINE
  5
299
330
22F
100
AcDbEntity
  8
LC-005-005-----0
 62
     7
370
    18
100
AcDbLine
 10
1391.30294
 20
2633.252365
 30
0.0
 11
1388.199423
 21
2632.593681
 31
0.0
  0
LINE
  5
29A
330
22F
100
AcDbEntity
  8
LC-005-005-----0
 62
     7
370
    18
100
AcDbLine
 10
1388.366421
 20
2631.706518
 30
0.0
 11
1392.55144
 21
2637.434871
 31
0.0
  0
LINE
  5
29B
330
22F
100
AcDbEntity
  8
LC-005-005-----0
 62
     7
370
    18
100
AcDbLine
 10
1388.199423
 20
2632.593681
 30
0.0
 11
1384.724666
 21
2635.489853
 31
0.0
  0
LINE
  5
29C
330
22F
100
AcDbEntity
  8
LC-005-005-----0
 62
     7
370
    18
100
AcDbLine
 10
1392.55144
 20
2637.434871
 30
0.0
 11
1389.824779
 21
2640.049806
 31
0.0
  0
LINE
  5
29D
330
22F
100
AcDbEntity
  8
LC-005-005-----0
 62
     7
370
    18
100
AcDbLine
 10
1392.23196
 20
2642.24
 30
0.0
 11
1389.824779
 21
2640.049806
 31
0.0
  0
LINE
  5
29E
330
22F
100
AcDbEntity
  8
LC-005-005-----0
 62
     7
370
    18
100
AcDbLine
 10
1384.724666
 20
2635.489853
 30
0.0
 11
1380.639625
 21
2635.627073
 31
0.0
  0
LINE
  5
29F
330
22F
100
AcDbEntity
  8
LC-005-005-----0
 62
     7
370
    18
100
AcDbLine
 10
1380.639625
 20
2635.627073
 30
0.0
 11
1377.385883
 21
2638.602089
 31
0.0
  0
LINE
  5
2A0
330
22F
100
AcDbEntity
  8
LC-005-005-----0
 62
     7
370
    18
100
AcDbLine
 10
1383.154907
 20
2642.24
 30
0.0
 11
1381.133823
 21
2640.387572
 31
0.0
  0
LINE
  5
2A1
330
22F
100
AcDbEntity
  8
LC-005-005-----0
 62
     7
370
    18
100
AcDbLine
 10
1377.385883
 20
2638.602089
 30
0.0
 11
1373.676441
 21
2638.524501
 31
0.0
  0
LINE
  5
2A2
330
22F
100
AcDbEntity
  8
LC-005-005-----0
 62
     7
370
    18
100
AcDbLine
 10
1365.752202
 20
2637.690764
 30
0.0
 11
1367.325389
 21
2640.544078
 31
0.0
  0
LINE
  5
2A3
330
22F
100
AcDbEntity
  8
LC-005-005-----0
 62
     7
370
    18
100
AcDbLine
 10
1412.36577
 20
2641.115051
 30
0.0
 11
1411.746193
 21
2642.24
 31
0.0
  0
LINE
  5
2A4
330
22F
100
AcDbEntity
  8
LC-005-005-----0
 62
     7
370
    18
100
AcDbLine
 10
1367.325389
 20
2640.544078
 30
0.0
 11
1366.432619
 21
2642.24
 31
0.0
  0
ENDBLK
  5
231
330
22F
100
AcDbEntity
  8
0
100
AcDbBlockEnd
  0
BLOCK
  5
2A8
330
2A7
100
AcDbEntity
  8
0
100
AcDbBlockBegin
  2
*X34
 70
     1
 71
     0
 10
0.0
 20
0.0
 30
0.0
  3
*X34
  1

  4
*X3
  0
LINE
  5
2AA
330
2A7
100
AcDbEntity
  8
LC-005-005-----0
 62
     7
370
    18
100
AcDbLine
 10
1300.834249
 20
2381.171911
 30
0.0
 11
1300.566429
 21
2381.956455
 31
0.0
  0
LINE
  5
2AB
330
2A7
100
AcDbEntity
  8
LC-005-005-----0
 62
     7
370
    18
100
AcDbLine
 10
1300.566429
 20
2381.956455
 30
0.0
 11
1296.20451
 21
2384.685628
 31
0.0
  0
LINE
  5
2AC
330
2A7
100
AcDbEntity
  8
LC-005-005-----0
 62
     7
370
    18
100
AcDbLine
 10
1295.036936
 20
2381.171911
 30
0.0
 11
1297.161206
 21
2385.076745
 31
0.0
  0
LINE
  5
2AD
330
2A7
100
AcDbEntity
  8
LC-005-005-----0
 62
     7
370
    18
100
AcDbLine
 10
1300.02819
 20
2386.398474
 30
0.0
 11
1297.161206
 21
2385.076745
 31
0.0
  0
LINE
  5
2AE
330
2A7
100
AcDbEntity
  8
LC-005-005-----0
 62
     7
370
    18
100
AcDbLine
 10
1296.20451
 20
2384.685628
 30
0.0
 11
1293.181093
 21
2387.294356
 31
0.0
  0
LINE
  5
2AF
330
2A7
100
AcDbEntity
  8
LC-005-005-----0
 62
     7
370
    18
100
AcDbLine
 10
1293.181093
 20
2387.294356
 30
0.0
 11
1288.2983
 21
2390.086856
 31
0.0
  0
LINE
  5
2B0
330
2A7
100
AcDbEntity
  8
LC-005-005-----0
 62
     7
370
    18
100
AcDbLine
 10
1288.2983
 20
2390.086856
 30
0.0
 11
1283.65204
 21
2392.216312
 31
0.0
  0
LINE
  5
2B1
330
2A7
100
AcDbEntity
  8
LC-005-005-----0
 62
     7
370
    18
100
AcDbLine
 10
1288.667101
 20
2397.294036
 30
0.0
 11
1285.812531
 21
2395.378796
 31
0.0
  0
LINE
  5
2B2
330
2A7
100
AcDbEntity
  8
LC-005-005-----0
 62
     7
370
    18
100
AcDbLine
 10
1288.667101
 20
2397.294036
 30
0.0
 11
1290.963556
 21
2401.053134
 31
0.0
  0
LINE
  5
2B3
330
2A7
100
AcDbEntity
  8
LC-005-005-----0
 62
     7
370
    18
100
AcDbLine
 10
1290.963556
 20
2401.053134
 30
0.0
 11
1292.997394
 21
2403.17387
 31
0.0
  0
LINE
  5
2B4
330
2A7
100
AcDbEntity
  8
LC-005-005-----0
 62
     7
370
    18
100
AcDbLine
 10
1292.997394
 20
2403.17387
 30
0.0
 11
1295.539692
 21
2405.824791
 31
0.0
  0
LINE
  5
2B5
330
2A7
100
AcDbEntity
  8
LC-005-005-----0
 62
     7
370
    18
100
AcDbLine
 10
1295.539692
 20
2405.824791
 30
0.0
 11
1295.035592
 21
2408.634656
 31
0.0
  0
LINE
  5
2B6
330
2A7
100
AcDbEntity
  8
LC-005-005-----0
 62
     7
370
    18
100
AcDbLine
 10
1301.959738
 20
2413.278592
 30
0.0
 11
1299.460247
 21
2413.551587
 31
0.0
  0
LINE
  5
2B7
330
2A7
100
AcDbEntity
  8
LC-005-005-----0
 62
     7
370
    18
100
AcDbLine
 10
1298.48057
 20
2410.710687
 30
0.0
 11
1295.035592
 21
2408.634656
 31
0.0
  0
LINE
  5
2B8
330
2A7
100
AcDbEntity
  8
LC-005-005-----0
 62
     7
370
    18
100
AcDbLine
 10
1298.48057
 20
2410.710687
 30
0.0
 11
1297.143323
 21
2414.31956
 31
0.0
  0
LINE
  5
2B9
330
2A7
100
AcDbEntity
  8
LC-005-005-----0
 62
     7
370
    18
100
AcDbLine
 10
1299.460247
 20
2413.551587
 30
0.0
 11
1296.855879
 21
2413.86822
 31
0.0
  0
LINE
  5
2BA
330
2A7
100
AcDbEntity
  8
LC-005-005-----0
 62
     7
370
    18
100
AcDbLine
 10
1296.855879
 20
2413.86822
 30
0.0
 11
1293.908203
 21
2416.404311
 31
0.0
  0
LINE
  5
2BB
330
2A7
100
AcDbEntity
  8
LC-005-005-----0
 62
     7
370
    18
100
AcDbLine
 10
1297.143323
 20
2414.31956
 30
0.0
 11
1299.297608
 21
2417.778799
 31
0.0
  0
LINE
  5
2BC
330
2A7
100
AcDbEntity
  8
LC-005-005-----0
 62
     7
370
    18
100
AcDbLine
 10
1299.297608
 20
2417.778799
 30
0.0
 11
1297.600279
 21
2420.860592
 31
0.0
  0
LINE
  5
2BD
330
2A7
100
AcDbEntity
  8
LC-005-005-----0
 62
     7
370
    18
100
AcDbLine
 10
1293.908203
 20
2416.404311
 30
0.0
 11
1290.549532
 21
2417.298936
 31
0.0
  0
LINE
  5
2BE
330
2A7
100
AcDbEntity
  8
LC-005-005-----0
 62
     7
370
    18
100
AcDbLine
 10
1292.467517
 20
2424.112093
 30
0.0
 11
1292.138501
 21
2426.441757
 31
0.0
  0
LINE
  5
2BF
330
2A7
100
AcDbEntity
  8
LC-005-005-----0
 62
     7
370
    18
100
AcDbLine
 10
1292.138501
 20
2426.441757
 30
0.0
 11
1294.053405
 21
2429.901697
 31
0.0
  0
LINE
  5
2C0
330
2A7
100
AcDbEntity
  8
LC-005-005-----0
 62
     7
370
    18
100
AcDbLine
 10
1294.053405
 20
2429.901697
 30
0.0
 11
1296.415301
 21
2432.785037
 31
0.0
  0
LINE
  5
2C1
330
2A7
100
AcDbEntity
  8
LC-005-005-----0
 62
     7
370
    18
100
AcDbLine
 10
1296.415301
 20
2432.785037
 30
0.0
 11
1295.324071
 21
2437.656234
 31
0.0
  0
LINE
  5
2C2
330
2A7
100
AcDbEntity
  8
LC-005-005-----0
 62
     7
370
    18
100
AcDbLine
 10
1295.324071
 20
2437.656234
 30
0.0
 11
1295.826915
 21
2443.954526
 31
0.0
  0
LINE
  5
2C3
330
2A7
100
AcDbEntity
  8
LC-005-005-----0
 62
     7
370
    18
100
AcDbLine
 10
1295.826915
 20
2443.954526
 30
0.0
 11
1295.247666
 21
2448.197256
 31
0.0
  0
LINE
  5
2C4
330
2A7
100
AcDbEntity
  8
LC-005-005-----0
 62
     7
370
    18
100
AcDbLine
 10
1301.959738
 20
2455.243996
 30
0.0
 11
1299.001148
 21
2457.322187
 31
0.0
  0
LINE
  5
2C5
330
2A7
100
AcDbEntity
  8
LC-005-005-----0
 62
     7
370
    18
100
AcDbLine
 10
1295.247666
 20
2448.197256
 30
0.0
 11
1295.394787
 21
2451.682579
 31
0.0
  0
LINE
  5
2C6
330
2A7
100
AcDbEntity
  8
LC-005-005-----0
 62
     7
370
    18
100
AcDbLine
 10
1295.394787
 20
2451.682579
 30
0.0
 11
1290.639239
 21
2454.973563
 31
0.0
  0
LINE
  5
2C7
330
2A7
100
AcDbEntity
  8
LC-005-005-----0
 62
     7
370
    18
100
AcDbLine
 10
1299.001148
 20
2457.322187
 30
0.0
 11
1291.337678
 21
2452.880758
 31
0.0
  0
LINE
  5
2C8
330
2A7
100
AcDbEntity
  8
LC-005-005-----0
 62
     7
370
    18
100
AcDbLine
 10
1291.337678
 20
2452.880758
 30
0.0
 11
1285.900464
 21
2455.518009
 31
0.0
  0
LINE
  5
2C9
330
2A7
100
AcDbEntity
  8
LC-005-005-----0
 62
     7
370
    18
100
AcDbLine
 10
1290.639239
 20
2454.973563
 30
0.0
 11
1290.927275
 21
2461.647455
 31
0.0
  0
LINE
  5
2CA
330
2A7
100
AcDbEntity
  8
LC-005-005-----0
 62
     7
370
    18
100
AcDbLine
 10
1290.927275
 20
2461.647455
 30
0.0
 11
1285.811644
 21
2465.46552
 31
0.0
  0
LINE
  5
2CB
330
2A7
100
AcDbEntity
  8
LC-005-005-----0
 62
     7
370
    18
100
AcDbLine
 10
1293.438463
 20
2475.251647
 30
0.0
 11
1288.853017
 21
2479.578172
 31
0.0
  0
LINE
  5
2CC
330
2A7
100
AcDbEntity
  8
LC-005-005-----0
 62
     7
370
    18
100
AcDbLine
 10
1288.853017
 20
2479.578172
 30
0.0
 11
1283.10789
 21
2478.139692
 31
0.0
  0
LINE
  5
2CD
330
2A7
100
AcDbEntity
  8
LC-005-005-----0
 62
     7
370
    18
100
AcDbLine
 10
1300.02819
 20
2386.398474
 30
0.0
 11
1301.959738
 21
2390.355601
 31
0.0
  0
LINE
  5
2CE
330
2A7
100
AcDbEntity
  8
LC-005-005-----0
 62
     7
370
    18
100
AcDbLine
 10
1284.09599
 20
2406.476086
 30
0.0
 11
1282.959738
 21
2407.039004
 31
0.0
  0
LINE
  5
2CF
330
2A7
100
AcDbEntity
  8
LC-005-005-----0
 62
     7
370
    18
100
AcDbLine
 10
1285.900464
 20
2455.518009
 30
0.0
 11
1282.959738
 21
2454.490253
 31
0.0
  0
LINE
  5
2D0
330
2A7
100
AcDbEntity
  8
LC-005-005-----0
 62
     7
370
    18
100
AcDbLine
 10
1285.811644
 20
2465.46552
 30
0.0
 11
1282.959738
 21
2469.049358
 31
0.0
  0
LINE
  5
2D1
330
2A7
100
AcDbEntity
  8
LC-005-005-----0
 62
     7
370
    18
100
AcDbLine
 10
1283.10789
 20
2478.139692
 30
0.0
 11
1282.959738
 21
2478.223171
 31
0.0
  0
LINE
  5
2D2
330
2A7
100
AcDbEntity
  8
LC-005-005-----0
 62
     7
370
    18
100
AcDbLine
 10
1298.223535
 20
2480.945607
 30
0.0
 11
1296.351745
 21
2481.72289
 31
0.0
  0
LINE
  5
2D3
330
2A7
100
AcDbEntity
  8
LC-005-005-----0
 62
     7
370
    18
100
AcDbLine
 10
1296.351745
 20
2481.72289
 30
0.0
 11
1293.909425
 21
2484.937542
 31
0.0
  0
LINE
  5
2D4
330
2A7
100
AcDbEntity
  8
LC-005-005-----0
 62
     7
370
    18
100
AcDbLine
 10
1291.758245
 20
2481.329926
 30
0.0
 11
1293.23707
 21
2485.146143
 31
0.0
  0
LINE
  5
2D5
330
2A7
100
AcDbEntity
  8
LC-005-005-----0
 62
     7
370
    18
100
AcDbLine
 10
1291.758245
 20
2481.329926
 30
0.0
 11
1290.138876
 21
2479.954548
 31
0.0
  0
LINE
  5
2D6
330
2A7
100
AcDbEntity
  8
LC-005-005-----0
 62
     7
370
    18
100
AcDbLine
 10
1293.909425
 20
2484.937542
 30
0.0
 11
1290.828889
 21
2486.728641
 31
0.0
  0
LINE
  5
2D7
330
2A7
100
AcDbEntity
  8
LC-005-005-----0
 62
     7
370
    18
100
AcDbLine
 10
1293.23707
 20
2485.146143
 30
0.0
 11
1291.691223
 21
2488.082661
 31
0.0
  0
LINE
  5
2D8
330
2A7
100
AcDbEntity
  8
LC-005-005-----0
 62
     7
370
    18
100
AcDbLine
 10
1290.828889
 20
2486.728641
 30
0.0
 11
1288.02028
 21
2489.712968
 31
0.0
  0
LINE
  5
2D9
330
2A7
100
AcDbEntity
  8
LC-005-005-----0
 62
     7
370
    18
100
AcDbLine
 10
1291.691223
 20
2488.082661
 30
0.0
 11
1294.435915
 21
2491.702692
 31
0.0
  0
LINE
  5
2DA
330
2A7
100
AcDbEntity
  8
LC-005-005-----0
 62
     7
370
    18
100
AcDbLine
 10
1294.435915
 20
2491.702692
 30
0.0
 11
1293.755505
 21
2495.844853
 31
0.0
  0
LINE
  5
2DB
330
2A7
100
AcDbEntity
  8
LC-005-005-----0
 62
     7
370
    18
100
AcDbLine
 10
1301.959738
 20
2503.497669
 30
0.0
 11
1300.226412
 21
2502.28901
 31
0.0
  0
LINE
  5
2DC
330
2A7
100
AcDbEntity
  8
LC-005-005-----0
 62
     7
370
    18
100
AcDbLine
 10
1288.02028
 20
2489.712968
 30
0.0
 11
1286.552021
 21
2488.940045
 31
0.0
  0
LINE
  5
2DD
330
2A7
100
AcDbEntity
  8
LC-005-005-----0
 62
     7
370
    18
100
AcDbLine
 10
1300.226412
 20
2502.28901
 30
0.0
 11
1296.788898
 21
2503.404651
 31
0.0
  0
LINE
  5
2DE
330
2A7
100
AcDbEntity
  8
LC-005-005-----0
 62
     7
370
    18
100
AcDbLine
 10
1293.755505
 20
2495.844853
 30
0.0
 11
1294.769321
 21
2497.053599
 31
0.0
  0
LINE
  5
2DF
330
2A7
100
AcDbEntity
  8
LC-005-005-----0
 62
     7
370
    18
100
AcDbLine
 10
1286.552021
 20
2488.940045
 30
0.0
 11
1285.176276
 21
2490.841023
 31
0.0
  0
LINE
  5
2E0
330
2A7
100
AcDbEntity
  8
LC-005-005-----0
 62
     7
370
    18
100
AcDbLine
 10
1296.788898
 20
2503.404651
 30
0.0
 11
1294.448994
 21
2501.72284
 31
0.0
  0
LINE
  5
2E1
330
2A7
100
AcDbEntity
  8
LC-005-005-----0
 62
     7
370
    18
100
AcDbLine
 10
1294.448994
 20
2501.72284
 30
0.0
 11
1290.992858
 21
2503.728747
 31
0.0
  0
LINE
  5
2E2
330
2A7
100
AcDbEntity
  8
LC-005-005-----0
 62
     7
370
    18
100
AcDbLine
 10
1301.959738
 20
2513.080674
 30
0.0
 11
1301.022982
 21
2513.884193
 31
0.0
  0
LINE
  5
2E3
330
2A7
100
AcDbEntity
  8
LC-005-005-----0
 62
     7
370
    18
100
AcDbLine
 10
1290.992858
 20
2503.728747
 30
0.0
 11
1287.690051
 21
2501.952574
 31
0.0
  0
LINE
  5
2E4
330
2A7
100
AcDbEntity
  8
LC-005-005-----0
 62
     7
370
    18
100
AcDbLine
 10
1301.022982
 20
2513.884193
 30
0.0
 11
1299.803078
 21
2518.979946
 31
0.0
  0
LINE
  5
2E5
330
2A7
100
AcDbEntity
  8
LC-005-005-----0
 62
     7
370
    18
100
AcDbLine
 10
1290.814849
 20
2508.211038
 30
0.0
 11
1290.498217
 21
2510.815406
 31
0.0
  0
LINE
  5
2E6
330
2A7
100
AcDbEntity
  8
LC-005-005-----0
 62
     7
370
    18
100
AcDbLine
 10
1290.498217
 20
2510.815406
 30
0.0
 11
1287.3947
 21
2511.47409
 31
0.0
  0
LINE
  5
2E7
330
2A7
100
AcDbEntity
  8
LC-005-005-----0
 62
     7
370
    18
100
AcDbLine
 10
1301.959738
 20
2529.576323
 30
0.0
 11
1301.133526
 21
2529.593605
 31
0.0
  0
LINE
  5
2E8
330
2A7
100
AcDbEntity
  8
LC-005-005-----0
 62
     7
370
    18
100
AcDbLine
 10
1291.636173
 20
2515.541767
 30
0.0
 11
1288.088779
 21
2512.721335
 31
0.0
  0
LINE
  5
2E9
330
2A7
100
AcDbEntity
  8
LC-005-005-----0
 62
     7
370
    18
100
AcDbLine
 10
1291.636173
 20
2515.541767
 30
0.0
 11
1291.05382
 21
2519.636118
 31
0.0
  0
LINE
  5
2EA
330
2A7
100
AcDbEntity
  8
LC-005-005-----0
 62
     7
370
    18
100
AcDbLine
 10
1287.3947
 20
2511.47409
 30
0.0
 11
1287.431942
 21
2513.254622
 31
0.0
  0
LINE
  5
2EB
330
2A7
100
AcDbEntity
  8
LC-005-005-----0
 62
     7
370
    18
100
AcDbLine
 10
1282.998642
 20
2507.112762
 30
0.0
 11
1284.291183
 21
2512.132775
 31
0.0
  0
LINE
  5
2EC
330
2A7
100
AcDbEntity
  8
LC-005-005-----0
 62
     7
370
    18
100
AcDbLine
 10
1288.088779
 20
2512.721335
 30
0.0
 11
1284.291183
 21
2512.132775
 31
0.0
  0
LINE
  5
2ED
330
2A7
100
AcDbEntity
  8
LC-005-005-----0
 62
     7
370
    18
100
AcDbLine
 10
1287.431942
 20
2513.254622
 30
0.0
 11
1285.676238
 21
2514.478886
 31
0.0
  0
LINE
  5
2EE
330
2A7
100
AcDbEntity
  8
LC-005-005-----0
 62
     7
370
    18
100
AcDbLine
 10
1301.959738
 20
2536.016413
 30
0.0
 11
1301.936228
 21
2536.034067
 31
0.0
  0
LINE
  5
2EF
330
2A7
100
AcDbEntity
  8
LC-005-005-----0
 62
     7
370
    18
100
AcDbLine
 10
1285.676238
 20
2514.478886
 30
0.0
 11
1283.187956
 21
2516.1638
 31
0.0
  0
LINE
  5
2F0
330
2A7
100
AcDbEntity
  8
LC-005-005-----0
 62
     7
370
    18
100
AcDbLine
 10
1293.255248
 20
2525.527776
 30
0.0
 11
1288.159495
 21
2526.74768
 31
0.0
  0
LINE
  5
2F1
330
2A7
100
AcDbEntity
  8
LC-005-005-----0
 62
     7
370
    18
100
AcDbLine
 10
1301.936228
 20
2536.034067
 30
0.0
 11
1298.422973
 21
2534.84579
 31
0.0
  0
LINE
  5
2F2
330
2A7
100
AcDbEntity
  8
LC-005-005-----0
 62
     7
370
    18
100
AcDbLine
 10
1298.422973
 20
2534.84579
 30
0.0
 11
1295.471529
 21
2542.77498
 31
0.0
  0
LINE
  5
2F3
330
2A7
100
AcDbEntity
  8
LC-005-005-----0
 62
     7
370
    18
100
AcDbLine
 10
1288.159495
 20
2526.74768
 30
0.0
 11
1285.696041
 21
2529.619615
 31
0.0
  0
LINE
  5
2F4
330
2A7
100
AcDbEntity
  8
LC-005-005-----0
 62
     7
370
    18
100
AcDbLine
 10
1295.471529
 20
2542.77498
 30
0.0
 11
1289.602852
 21
2542.526625
 31
0.0
  0
LINE
  5
2F5
330
2A7
100
AcDbEntity
  8
LC-005-005-----0
 62
     7
370
    18
100
AcDbLine
 10
1301.959738
 20
2552.553351
 30
0.0
 11
1299.098579
 21
2552.661677
 31
0.0
  0
LINE
  5
2F6
330
2A7
100
AcDbEntity
  8
LC-005-005-----0
 62
     7
370
    18
100
AcDbLine
 10
1289.602852
 20
2542.526625
 30
0.0
 11
1286.842643
 21
2545.404767
 31
0.0
  0
LINE
  5
2F7
330
2A7
100
AcDbEntity
  8
LC-005-005-----0
 62
     7
370
    18
100
AcDbLine
 10
1299.098579
 20
2552.661677
 30
0.0
 11
1296.744414
 21
2555.210181
 31
0.0
  0
LINE
  5
2F8
330
2A7
100
AcDbEntity
  8
LC-005-005-----0
 62
     7
370
    18
100
AcDbLine
 10
1296.744414
 20
2555.210181
 30
0.0
 11
1292.902112
 21
2554.387602
 31
0.0
  0
LINE
  5
2F9
330
2A7
100
AcDbEntity
  8
LC-005-005-----0
 62
     7
370
    18
100
AcDbLine
 10
1297.362162
 20
2561.160806
 30
0.0
 11
1292.908984
 21
2564.704505
 31
0.0
  0
LINE
  5
2FA
330
2A7
100
AcDbEntity
  8
LC-005-005-----0
 62
     7
370
    18
100
AcDbLine
 10
1292.908984
 20
2564.704505
 30
0.0
 11
1289.090919
 21
2569.820135
 31
0.0
  0
LINE
  5
2FB
330
2A7
100
AcDbEntity
  8
LC-005-005-----0
 62
     7
370
    18
100
AcDbLine
 10
1282.959738
 20
2564.788358
 30
0.0
 11
1282.961474
 21
2564.793324
 31
0.0
  0
LINE
  5
2FC
330
2A7
100
AcDbEntity
  8
LC-005-005-----0
 62
     7
370
    18
100
AcDbLine
 10
1282.959738
 20
2574.777992
 30
0.0
 11
1284.765651
 21
2577.894008
 31
0.0
  0
LINE
  5
2FD
330
2A7
100
AcDbEntity
  8
LC-005-005-----0
 62
     7
370
    18
100
AcDbLine
 10
1285.176276
 20
2490.841023
 30
0.0
 11
1282.959738
 21
2492.35528
 31
0.0
  0
LINE
  5
2FE
330
2A7
100
AcDbEntity
  8
LC-005-005-----0
 62
     7
370
    18
100
AcDbLine
 10
1283.413774
 20
2497.038746
 30
0.0
 11
1282.959738
 21
2498.859448
 31
0.0
  0
LINE
  5
2FF
330
2A7
100
AcDbEntity
  8
LC-005-005-----0
 62
     7
370
    18
100
AcDbLine
 10
1283.413774
 20
2497.038746
 30
0.0
 11
1282.959738
 21
2496.799732
 31
0.0
  0
LINE
  5
300
330
2A7
100
AcDbEntity
  8
LC-005-005-----0
 62
     7
370
    18
100
AcDbLine
 10
1282.998642
 20
2507.112762
 30
0.0
 11
1282.959738
 21
2507.109768
 31
0.0
  0
LINE
  5
301
330
2A7
100
AcDbEntity
  8
LC-005-005-----0
 62
     7
370
    18
100
AcDbLine
 10
1283.187956
 20
2516.1638
 30
0.0
 11
1282.959738
 21
2516.085677
 31
0.0
  0
LINE
  5
302
330
2A7
100
AcDbEntity
  8
LC-005-005-----0
 62
     7
370
    18
100
AcDbLine
 10
1285.696041
 20
2529.619615
 30
0.0
 11
1282.959738
 21
2529.552535
 31
0.0
  0
LINE
  5
303
330
2A7
100
AcDbEntity
  8
LC-005-005-----0
 62
     7
370
    18
100
AcDbLine
 10
1289.090919
 20
2569.820135
 30
0.0
 11
1282.959738
 21
2569.555522
 31
0.0
  0
LINE
  5
304
330
2A7
100
AcDbEntity
  8
LC-005-005-----0
 62
     7
370
    18
100
AcDbLine
 10
1282.961474
 20
2564.793324
 30
0.0
 11
1282.959738
 21
2564.796903
 31
0.0
  0
LINE
  5
305
330
2A7
100
AcDbEntity
  8
LC-005-005-----0
 62
     7
370
    18
100
AcDbLine
 10
1284.765651
 20
2577.894008
 30
0.0
 11
1282.959738
 21
2580.464975
 31
0.0
  0
LINE
  5
306
330
2A7
100
AcDbEntity
  8
LC-005-005-----0
 62
     7
370
    18
100
AcDbLine
 10
1300.168668
 20
2585.081572
 30
0.0
 11
1297.819453
 21
2586.31825
 31
0.0
  0
LINE
  5
307
330
2A7
100
AcDbEntity
  8
LC-005-005-----0
 62
     7
370
    18
100
AcDbLine
 10
1297.819453
 20
2586.31825
 30
0.0
 11
1294.966139
 21
2584.745062
 31
0.0
  0
LINE
  5
308
330
2A7
100
AcDbEntity
  8
LC-005-005-----0
 62
     7
370
    18
100
AcDbLine
 10
1295.799877
 20
2592.669302
 30
0.0
 11
1295.877465
 21
2596.378744
 31
0.0
  0
LINE
  5
309
330
2A7
100
AcDbEntity
  8
LC-005-005-----0
 62
     7
370
    18
100
AcDbLine
 10
1295.877465
 20
2596.378744
 30
0.0
 11
1292.902448
 21
2599.632485
 31
0.0
  0
LINE
  5
30A
330
2A7
100
AcDbEntity
  8
LC-005-005-----0
 62
     7
370
    18
100
AcDbLine
 10
1300.168668
 20
2585.081572
 30
0.0
 11
1301.959738
 21
2587.270844
 31
0.0
  0
LINE
  5
30B
330
2A7
100
AcDbEntity
  8
LC-005-005-----0
 62
     7
370
    18
100
AcDbLine
 10
1297.662948
 20
2600.126684
 30
0.0
 11
1299.599911
 21
2602.24
 31
0.0
  0
LINE
  5
30C
330
2A7
100
AcDbEntity
  8
LC-005-005-----0
 62
     7
370
    18
100
AcDbLine
 10
1292.902448
 20
2599.632485
 30
0.0
 11
1292.81486
 21
2602.24
 31
0.0
  0
ENDBLK
  5
2A9
330
2A7
100
AcDbEntity
  8
0
100
AcDbBlockEnd
  0
BLOCK
  5
311
330
310
100
AcDbEntity
  8
0
100
AcDbBlockBegin
  2
*X45
 70
     1
 71
     0
 10
0.0
 20
0.0
 30
0.0
  3
*X45
  1

  4
*X4
  0
LINE
  5
313
330
310
100
AcDbEntity
  8
LC-005-005-----0
 62
     7
370
    18
100
AcDbLine
 10
481.634249
 20
2381.171911
 30
0.0
 11
481.366429
 21
2381.956455
 31
0.0
  0
LINE
  5
314
330
310
100
AcDbEntity
  8
LC-005-005-----0
 62
     7
370
    18
100
AcDbLine
 10
481.366429
 20
2381.956455
 30
0.0
 11
477.00451
 21
2384.685628
 31
0.0
  0
LINE
  5
315
330
310
100
AcDbEntity
  8
LC-005-005-----0
 62
     7
370
    18
100
AcDbLine
 10
475.836936
 20
2381.171911
 30
0.0
 11
477.961206
 21
2385.076745
 31
0.0
  0
LINE
  5
316
330
310
100
AcDbEntity
  8
LC-005-005-----0
 62
     7
370
    18
100
AcDbLine
 10
480.82819
 20
2386.398474
 30
0.0
 11
477.961206
 21
2385.076745
 31
0.0
  0
LINE
  5
317
330
310
100
AcDbEntity
  8
LC-005-005-----0
 62
     7
370
    18
100
AcDbLine
 10
477.00451
 20
2384.685628
 30
0.0
 11
473.981093
 21
2387.294356
 31
0.0
  0
LINE
  5
318
330
310
100
AcDbEntity
  8
LC-005-005-----0
 62
     7
370
    18
100
AcDbLine
 10
473.981093
 20
2387.294356
 30
0.0
 11
469.0983
 21
2390.086856
 31
0.0
  0
LINE
  5
319
330
310
100
AcDbEntity
  8
LC-005-005-----0
 62
     7
370
    18
100
AcDbLine
 10
469.0983
 20
2390.086856
 30
0.0
 11
464.45204
 21
2392.216312
 31
0.0
  0
LINE
  5
31A
330
310
100
AcDbEntity
  8
LC-005-005-----0
 62
     7
370
    18
100
AcDbLine
 10
469.467101
 20
2397.294036
 30
0.0
 11
466.612531
 21
2395.378796
 31
0.0
  0
LINE
  5
31B
330
310
100
AcDbEntity
  8
LC-005-005-----0
 62
     7
370
    18
100
AcDbLine
 10
469.467101
 20
2397.294036
 30
0.0
 11
471.763556
 21
2401.053134
 31
0.0
  0
LINE
  5
31C
330
310
100
AcDbEntity
  8
LC-005-005-----0
 62
     7
370
    18
100
AcDbLine
 10
471.763556
 20
2401.053134
 30
0.0
 11
473.797394
 21
2403.17387
 31
0.0
  0
LINE
  5
31D
330
310
100
AcDbEntity
  8
LC-005-005-----0
 62
     7
370
    18
100
AcDbLine
 10
473.797394
 20
2403.17387
 30
0.0
 11
476.339692
 21
2405.824791
 31
0.0
  0
LINE
  5
31E
330
310
100
AcDbEntity
  8
LC-005-005-----0
 62
     7
370
    18
100
AcDbLine
 10
476.339692
 20
2405.824791
 30
0.0
 11
475.835592
 21
2408.634656
 31
0.0
  0
LINE
  5
31F
330
310
100
AcDbEntity
  8
LC-005-005-----0
 62
     7
370
    18
100
AcDbLine
 10
482.759738
 20
2413.278592
 30
0.0
 11
480.260247
 21
2413.551587
 31
0.0
  0
LINE
  5
320
330
310
100
AcDbEntity
  8
LC-005-005-----0
 62
     7
370
    18
100
AcDbLine
 10
479.28057
 20
2410.710687
 30
0.0
 11
475.835592
 21
2408.634656
 31
0.0
  0
LINE
  5
321
330
310
100
AcDbEntity
  8
LC-005-005-----0
 62
     7
370
    18
100
AcDbLine
 10
479.28057
 20
2410.710687
 30
0.0
 11
477.943323
 21
2414.31956
 31
0.0
  0
LINE
  5
322
330
310
100
AcDbEntity
  8
LC-005-005-----0
 62
     7
370
    18
100
AcDbLine
 10
480.260247
 20
2413.551587
 30
0.0
 11
477.655879
 21
2413.86822
 31
0.0
  0
LINE
  5
323
330
310
100
AcDbEntity
  8
LC-005-005-----0
 62
     7
370
    18
100
AcDbLine
 10
477.655879
 20
2413.86822
 30
0.0
 11
474.708203
 21
2416.404311
 31
0.0
  0
LINE
  5
324
330
310
100
AcDbEntity
  8
LC-005-005-----0
 62
     7
370
    18
100
AcDbLine
 10
477.943323
 20
2414.31956
 30
0.0
 11
480.097608
 21
2417.778799
 31
0.0
  0
LINE
  5
325
330
310
100
AcDbEntity
  8
LC-005-005-----0
 62
     7
370
    18
100
AcDbLine
 10
480.097608
 20
2417.778799
 30
0.0
 11
478.400279
 21
2420.860592
 31
0.0
  0
LINE
  5
326
330
310
100
AcDbEntity
  8
LC-005-005-----0
 62
     7
370
    18
100
AcDbLine
 10
474.708203
 20
2416.404311
 30
0.0
 11
471.349532
 21
2417.298936
 31
0.0
  0
LINE
  5
327
330
310
100
AcDbEntity
  8
LC-005-005-----0
 62
     7
370
    18
100
AcDbLine
 10
473.267517
 20
2424.112093
 30
0.0
 11
472.938501
 21
2426.441757
 31
0.0
  0
LINE
  5
328
330
310
100
AcDbEntity
  8
LC-005-005-----0
 62
     7
370
    18
100
AcDbLine
 10
472.938501
 20
2426.441757
 30
0.0
 11
474.853405
 21
2429.901697
 31
0.0
  0
LINE
  5
329
330
310
100
AcDbEntity
  8
LC-005-005-----0
 62
     7
370
    18
100
AcDbLine
 10
474.853405
 20
2429.901697
 30
0.0
 11
477.215301
 21
2432.785037
 31
0.0
  0
LINE
  5
32A
330
310
100
AcDbEntity
  8
LC-005-005-----0
 62
     7
370
    18
100
AcDbLine
 10
477.215301
 20
2432.785037
 30
0.0
 11
476.124071
 21
2437.656234
 31
0.0
  0
LINE
  5
32B
330
310
100
AcDbEntity
  8
LC-005-005-----0
 62
     7
370
    18
100
AcDbLine
 10
476.124071
 20
2437.656234
 30
0.0
 11
476.626915
 21
2443.954526
 31
0.0
  0
LINE
  5
32C
330
310
100
AcDbEntity
  8
LC-005-005-----0
 62
     7
370
    18
100
AcDbLine
 10
476.626915
 20
2443.954526
 30
0.0
 11
476.047666
 21
2448.197256
 31
0.0
  0
LINE
  5
32D
330
310
100
AcDbEntity
  8
LC-005-005-----0
 62
     7
370
    18
100
AcDbLine
 10
482.759738
 20
2455.243996
 30
0.0
 11
479.801148
 21
2457.322187
 31
0.0
  0
LINE
  5
32E
330
310
100
AcDbEntity
  8
LC-005-005-----0
 62
     7
370
    18
100
AcDbLine
 10
476.047666
 20
2448.197256
 30
0.0
 11
476.194787
 21
2451.682579
 31
0.0
  0
LINE
  5
32F
330
310
100
AcDbEntity
  8
LC-005-005-----0
 62
     7
370
    18
100
AcDbLine
 10
476.194787
 20
2451.682579
 30
0.0
 11
471.439239
 21
2454.973563
 31
0.0
  0
LINE
  5
330
330
310
100
AcDbEntity
  8
LC-005-005-----0
 62
     7
370
    18
100
AcDbLine
 10
479.801148
 20
2457.322187
 30
0.0
 11
472.137678
 21
2452.880758
 31
0.0
  0
LINE
  5
331
330
310
100
AcDbEntity
  8
LC-005-005-----0
 62
     7
370
    18
100
AcDbLine
 10
472.137678
 20
2452.880758
 30
0.0
 11
466.700464
 21
2455.518009
 31
0.0
  0
LINE
  5
332
330
310
100
AcDbEntity
  8
LC-005-005-----0
 62
     7
370
    18
100
AcDbLine
 10
471.439239
 20
2454.973563
 30
0.0
 11
471.727275
 21
2461.647455
 31
0.0
  0
LINE
  5
333
330
310
100
AcDbEntity
  8
LC-005-005-----0
 62
     7
370
    18
100
AcDbLine
 10
471.727275
 20
2461.647455
 30
0.0
 11
466.611644
 21
2465.46552
 31
0.0
  0
LINE
  5
334
330
310
100
AcDbEntity
  8
LC-005-005-----0
 62
     7
370
    18
100
AcDbLine
 10
474.238463
 20
2475.251647
 30
0.0
 11
469.653017
 21
2479.578172
 31
0.0
  0
LINE
  5
335
330
310
100
AcDbEntity
  8
LC-005-005-----0
 62
     7
370
    18
100
AcDbLine
 10
469.653017
 20
2479.578172
 30
0.0
 11
463.90789
 21
2478.139692
 31
0.0
  0
LINE
  5
336
330
310
100
AcDbEntity
  8
LC-005-005-----0
 62
     7
370
    18
100
AcDbLine
 10
480.82819
 20
2386.398474
 30
0.0
 11
482.759738
 21
2390.355601
 31
0.0
  0
LINE
  5
337
330
310
100
AcDbEntity
  8
LC-005-005-----0
 62
     7
370
    18
100
AcDbLine
 10
464.89599
 20
2406.476086
 30
0.0
 11
463.759738
 21
2407.039004
 31
0.0
  0
LINE
  5
338
330
310
100
AcDbEntity
  8
LC-005-005-----0
 62
     7
370
    18
100
AcDbLine
 10
466.700464
 20
2455.518009
 30
0.0
 11
463.759738
 21
2454.490253
 31
0.0
  0
LINE
  5
339
330
310
100
AcDbEntity
  8
LC-005-005-----0
 62
     7
370
    18
100
AcDbLine
 10
466.611644
 20
2465.46552
 30
0.0
 11
463.759738
 21
2469.049358
 31
0.0
  0
LINE
  5
33A
330
310
100
AcDbEntity
  8
LC-005-005-----0
 62
     7
370
    18
100
AcDbLine
 10
463.90789
 20
2478.139692
 30
0.0
 11
463.759738
 21
2478.223171
 31
0.0
  0
LINE
  5
33B
330
310
100
AcDbEntity
  8
LC-005-005-----0
 62
     7
370
    18
100
AcDbLine
 10
479.023535
 20
2480.945607
 30
0.0
 11
477.151745
 21
2481.72289
 31
0.0
  0
LINE
  5
33C
330
310
100
AcDbEntity
  8
LC-005-005-----0
 62
     7
370
    18
100
AcDbLine
 10
477.151745
 20
2481.72289
 30
0.0
 11
474.709425
 21
2484.937542
 31
0.0
  0
LINE
  5
33D
330
310
100
AcDbEntity
  8
LC-005-005-----0
 62
     7
370
    18
100
AcDbLine
 10
472.558245
 20
2481.329926
 30
0.0
 11
474.03707
 21
2485.146143
 31
0.0
  0
LINE
  5
33E
330
310
100
AcDbEntity
  8
LC-005-005-----0
 62
     7
370
    18
100
AcDbLine
 10
472.558245
 20
2481.329926
 30
0.0
 11
470.938876
 21
2479.954548
 31
0.0
  0
LINE
  5
33F
330
310
100
AcDbEntity
  8
LC-005-005-----0
 62
     7
370
    18
100
AcDbLine
 10
474.709425
 20
2484.937542
 30
0.0
 11
471.628889
 21
2486.728641
 31
0.0
  0
LINE
  5
340
330
310
100
AcDbEntity
  8
LC-005-005-----0
 62
     7
370
    18
100
AcDbLine
 10
474.03707
 20
2485.146143
 30
0.0
 11
472.491223
 21
2488.082661
 31
0.0
  0
LINE
  5
341
330
310
100
AcDbEntity
  8
LC-005-005-----0
 62
     7
370
    18
100
AcDbLine
 10
471.628889
 20
2486.728641
 30
0.0
 11
468.82028
 21
2489.712968
 31
0.0
  0
LINE
  5
342
330
310
100
AcDbEntity
  8
LC-005-005-----0
 62
     7
370
    18
100
AcDbLine
 10
472.491223
 20
2488.082661
 30
0.0
 11
475.235915
 21
2491.702692
 31
0.0
  0
LINE
  5
343
330
310
100
AcDbEntity
  8
LC-005-005-----0
 62
     7
370
    18
100
AcDbLine
 10
475.235915
 20
2491.702692
 30
0.0
 11
474.555505
 21
2495.844853
 31
0.0
  0
LINE
  5
344
330
310
100
AcDbEntity
  8
LC-005-005-----0
 62
     7
370
    18
100
AcDbLine
 10
482.759738
 20
2503.497669
 30
0.0
 11
481.026412
 21
2502.28901
 31
0.0
  0
LINE
  5
345
330
310
100
AcDbEntity
  8
LC-005-005-----0
 62
     7
370
    18
100
AcDbLine
 10
468.82028
 20
2489.712968
 30
0.0
 11
467.352021
 21
2488.940045
 31
0.0
  0
LINE
  5
346
330
310
100
AcDbEntity
  8
LC-005-005-----0
 62
     7
370
    18
100
AcDbLine
 10
481.026412
 20
2502.28901
 30
0.0
 11
477.588898
 21
2503.404651
 31
0.0
  0
LINE
  5
347
330
310
100
AcDbEntity
  8
LC-005-005-----0
 62
     7
370
    18
100
AcDbLine
 10
474.555505
 20
2495.844853
 30
0.0
 11
475.569321
 21
2497.053599
 31
0.0
  0
LINE
  5
348
330
310
100
AcDbEntity
  8
LC-005-005-----0
 62
     7
370
    18
100
AcDbLine
 10
467.352021
 20
2488.940045
 30
0.0
 11
465.976276
 21
2490.841023
 31
0.0
  0
LINE
  5
349
330
310
100
AcDbEntity
  8
LC-005-005-----0
 62
     7
370
    18
100
AcDbLine
 10
477.588898
 20
2503.404651
 30
0.0
 11
475.248994
 21
2501.72284
 31
0.0
  0
LINE
  5
34A
330
310
100
AcDbEntity
  8
LC-005-005-----0
 62
     7
370
    18
100
AcDbLine
 10
475.248994
 20
2501.72284
 30
0.0
 11
471.792858
 21
2503.728747
 31
0.0
  0
LINE
  5
34B
330
310
100
AcDbEntity
  8
LC-005-005-----0
 62
     7
370
    18
100
AcDbLine
 10
482.759738
 20
2513.080674
 30
0.0
 11
481.822982
 21
2513.884193
 31
0.0
  0
LINE
  5
34C
330
310
100
AcDbEntity
  8
LC-005-005-----0
 62
     7
370
    18
100
AcDbLine
 10
471.792858
 20
2503.728747
 30
0.0
 11
468.490051
 21
2501.952574
 31
0.0
  0
LINE
  5
34D
330
310
100
AcDbEntity
  8
LC-005-005-----0
 62
     7
370
    18
100
AcDbLine
 10
481.822982
 20
2513.884193
 30
0.0
 11
480.603078
 21
2518.979946
 31
0.0
  0
LINE
  5
34E
330
310
100
AcDbEntity
  8
LC-005-005-----0
 62
     7
370
    18
100
AcDbLine
 10
471.614849
 20
2508.211038
 30
0.0
 11
471.298217
 21
2510.815406
 31
0.0
  0
LINE
  5
34F
330
310
100
AcDbEntity
  8
LC-005-005-----0
 62
     7
370
    18
100
AcDbLine
 10
471.298217
 20
2510.815406
 30
0.0
 11
468.1947
 21
2511.47409
 31
0.0
  0
LINE
  5
350
330
310
100
AcDbEntity
  8
LC-005-005-----0
 62
     7
370
    18
100
AcDbLine
 10
482.759738
 20
2529.576323
 30
0.0
 11
481.933526
 21
2529.593605
 31
0.0
  0
LINE
  5
351
330
310
100
AcDbEntity
  8
LC-005-005-----0
 62
     7
370
    18
100
AcDbLine
 10
472.436173
 20
2515.541767
 30
0.0
 11
468.888779
 21
2512.721335
 31
0.0
  0
LINE
  5
352
330
310
100
AcDbEntity
  8
LC-005-005-----0
 62
     7
370
    18
100
AcDbLine
 10
472.436173
 20
2515.541767
 30
0.0
 11
471.85382
 21
2519.636118
 31
0.0
  0
LINE
  5
353
330
310
100
AcDbEntity
  8
LC-005-005-----0
 62
     7
370
    18
100
AcDbLine
 10
468.1947
 20
2511.47409
 30
0.0
 11
468.231942
 21
2513.254622
 31
0.0
  0
LINE
  5
354
330
310
100
AcDbEntity
  8
LC-005-005-----0
 62
     7
370
    18
100
AcDbLine
 10
463.798642
 20
2507.112762
 30
0.0
 11
465.091183
 21
2512.132775
 31
0.0
  0
LINE
  5
355
330
310
100
AcDbEntity
  8
LC-005-005-----0
 62
     7
370
    18
100
AcDbLine
 10
468.888779
 20
2512.721335
 30
0.0
 11
465.091183
 21
2512.132775
 31
0.0
  0
LINE
  5
356
330
310
100
AcDbEntity
  8
LC-005-005-----0
 62
     7
370
    18
100
AcDbLine
 10
468.231942
 20
2513.254622
 30
0.0
 11
466.476238
 21
2514.478886
 31
0.0
  0
LINE
  5
357
330
310
100
AcDbEntity
  8
LC-005-005-----0
 62
     7
370
    18
100
AcDbLine
 10
482.759738
 20
2536.016413
 30
0.0
 11
482.736228
 21
2536.034067
 31
0.0
  0
LINE
  5
358
330
310
100
AcDbEntity
  8
LC-005-005-----0
 62
     7
370
    18
100
AcDbLine
 10
466.476238
 20
2514.478886
 30
0.0
 11
463.987956
 21
2516.1638
 31
0.0
  0
LINE
  5
359
330
310
100
AcDbEntity
  8
LC-005-005-----0
 62
     7
370
    18
100
AcDbLine
 10
474.055248
 20
2525.527776
 30
0.0
 11
468.959495
 21
2526.74768
 31
0.0
  0
LINE
  5
35A
330
310
100
AcDbEntity
  8
LC-005-005-----0
 62
     7
370
    18
100
AcDbLine
 10
482.736228
 20
2536.034067
 30
0.0
 11
479.222973
 21
2534.84579
 31
0.0
  0
LINE
  5
35B
330
310
100
AcDbEntity
  8
LC-005-005-----0
 62
     7
370
    18
100
AcDbLine
 10
479.222973
 20
2534.84579
 30
0.0
 11
476.271529
 21
2542.77498
 31
0.0
  0
LINE
  5
35C
330
310
100
AcDbEntity
  8
LC-005-005-----0
 62
     7
370
    18
100
AcDbLine
 10
468.959495
 20
2526.74768
 30
0.0
 11
466.496041
 21
2529.619615
 31
0.0
  0
LINE
  5
35D
330
310
100
AcDbEntity
  8
LC-005-005-----0
 62
     7
370
    18
100
AcDbLine
 10
476.271529
 20
2542.77498
 30
0.0
 11
470.402852
 21
2542.526625
 31
0.0
  0
LINE
  5
35E
330
310
100
AcDbEntity
  8
LC-005-005-----0
 62
     7
370
    18
100
AcDbLine
 10
482.759738
 20
2552.553351
 30
0.0
 11
479.898579
 21
2552.661677
 31
0.0
  0
LINE
  5
35F
330
310
100
AcDbEntity
  8
LC-005-005-----0
 62
     7
370
    18
100
AcDbLine
 10
470.402852
 20
2542.526625
 30
0.0
 11
467.642643
 21
2545.404767
 31
0.0
  0
LINE
  5
360
330
310
100
AcDbEntity
  8
LC-005-005-----0
 62
     7
370
    18
100
AcDbLine
 10
479.898579
 20
2552.661677
 30
0.0
 11
477.544414
 21
2555.210181
 31
0.0
  0
LINE
  5
361
330
310
100
AcDbEntity
  8
LC-005-005-----0
 62
     7
370
    18
100
AcDbLine
 10
477.544414
 20
2555.210181
 30
0.0
 11
473.702112
 21
2554.387602
 31
0.0
  0
LINE
  5
362
330
310
100
AcDbEntity
  8
LC-005-005-----0
 62
     7
370
    18
100
AcDbLine
 10
478.162162
 20
2561.160806
 30
0.0
 11
473.708984
 21
2564.704505
 31
0.0
  0
LINE
  5
363
330
310
100
AcDbEntity
  8
LC-005-005-----0
 62
     7
370
    18
100
AcDbLine
 10
473.708984
 20
2564.704505
 30
0.0
 11
469.890919
 21
2569.820135
 31
0.0
  0
LINE
  5
364
330
310
100
AcDbEntity
  8
LC-005-005-----0
 62
     7
370
    18
100
AcDbLine
 10
463.759738
 20
2564.788358
 30
0.0
 11
463.761474
 21
2564.793324
 31
0.0
  0
LINE
  5
365
330
310
100
AcDbEntity
  8
LC-005-005-----0
 62
     7
370
    18
100
AcDbLine
 10
463.759738
 20
2574.777992
 30
0.0
 11
465.565651
 21
2577.894008
 31
0.0
  0
LINE
  5
366
330
310
100
AcDbEntity
  8
LC-005-005-----0
 62
     7
370
    18
100
AcDbLine
 10
465.976276
 20
2490.841023
 30
0.0
 11
463.759738
 21
2492.35528
 31
0.0
  0
LINE
  5
367
330
310
100
AcDbEntity
  8
LC-005-005-----0
 62
     7
370
    18
100
AcDbLine
 10
464.213774
 20
2497.038746
 30
0.0
 11
463.759738
 21
2498.859448
 31
0.0
  0
LINE
  5
368
330
310
100
AcDbEntity
  8
LC-005-005-----0
 62
     7
370
    18
100
AcDbLine
 10
464.213774
 20
2497.038746
 30
0.0
 11
463.759738
 21
2496.799732
 31
0.0
  0
LINE
  5
369
330
310
100
AcDbEntity
  8
LC-005-005-----0
 62
     7
370
    18
100
AcDbLine
 10
463.798642
 20
2507.112762
 30
0.0
 11
463.759738
 21
2507.109768
 31
0.0
  0
LINE
  5
36A
330
310
100
AcDbEntity
  8
LC-005-005-----0
 62
     7
370
    18
100
AcDbLine
 10
463.987956
 20
2516.1638
 30
0.0
 11
463.759738
 21
2516.085677
 31
0.0
  0
LINE
  5
36B
330
310
100
AcDbEntity
  8
LC-005-005-----0
 62
     7
370
    18
100
AcDbLine
 10
466.496041
 20
2529.619615
 30
0.0
 11
463.759738
 21
2529.552535
 31
0.0
  0
LINE
  5
36C
330
310
100
AcDbEntity
  8
LC-005-005-----0
 62
     7
370
    18
100
AcDbLine
 10
469.890919
 20
2569.820135
 30
0.0
 11
463.759738
 21
2569.555522
 31
0.0
  0
LINE
  5
36D
330
310
100
AcDbEntity
  8
LC-005-005-----0
 62
     7
370
    18
100
AcDbLine
 10
463.761474
 20
2564.793324
 30
0.0
 11
463.759738
 21
2564.796903
 31
0.0
  0
LINE
  5
36E
330
310
100
AcDbEntity
  8
LC-005-005-----0
 62
     7
370
    18
100
AcDbLine
 10
465.565651
 20
2577.894008
 30
0.0
 11
463.759738
 21
2580.464975
 31
0.0
  0
LINE
  5
36F
330
310
100
AcDbEntity
  8
LC-005-005-----0
 62
     7
370
    18
100
AcDbLine
 10
480.968668
 20
2585.081572
 30
0.0
 11
478.619453
 21
2586.31825
 31
0.0
  0
LINE
  5
370
330
310
100
AcDbEntity
  8
LC-005-005-----0
 62
     7
370
    18
100
AcDbLine
 10
478.619453
 20
2586.31825
 30
0.0
 11
475.766139
 21
2584.745062
 31
0.0
  0
LINE
  5
371
330
310
100
AcDbEntity
  8
LC-005-005-----0
 62
     7
370
    18
100
AcDbLine
 10
476.599877
 20
2592.669302
 30
0.0
 11
476.677465
 21
2596.378744
 31
0.0
  0
LINE
  5
372
330
310
100
AcDbEntity
  8
LC-005-005-----0
 62
     7
370
    18
100
AcDbLine
 10
476.677465
 20
2596.378744
 30
0.0
 11
473.702448
 21
2599.632485
 31
0.0
  0
LINE
  5
373
330
310
100
AcDbEntity
  8
LC-005-005-----0
 62
     7
370
    18
100
AcDbLine
 10
480.968668
 20
2585.081572
 30
0.0
 11
482.759738
 21
2587.270844
 31
0.0
  0
LINE
  5
374
330
310
100
AcDbEntity
  8
LC-005-005-----0
 62
     7
370
    18
100
AcDbLine
 10
478.462948
 20
2600.126684
 30
0.0
 11
480.399911
 21
2602.24
 31
0.0
  0
LINE
  5
375
330
310
100
AcDbEntity
  8
LC-005-005-----0
 62
     7
370
    18
100
AcDbLine
 10
473.702448
 20
2599.632485
 30
0.0
 11
473.61486
 21
2602.24
 31
0.0
  0
ENDBLK
  5
312
330
310
100
AcDbEntity
  8
0
100
AcDbBlockEnd
  0
BLOCK
  5
38D
330
383
100
AcDbEntity
  8
0
100
AcDbBlockBegin
  2
*D6
 70
     1
 71
     0
 10
0.0
 20
0.0
 30
0.0
  3
*D6
  1

  0
LINE
  5
384
330
383
100
AcDbEntity
  8
LC-006-003-----0
 62
     2
370
    -2
100
AcDbLine
 10
709.969152
 20
767.101053
 30
0.0
 11
709.969152
 21
682.0
 31
0.0
  0
LINE
  5
385
330
383
100
AcDbEntity
  8
LC-006-003-----0
 62
     2
370
    -2
100
AcDbLine
 10
1119.469152
 20
767.101053
 30
0.0
 11
1119.469152
 21
682.0
 31
0.0
  0
LINE
  5
386
330
383
100
AcDbEntity
  8
LC-006-003-----0
 62
     2
370
    -2
100
AcDbLine
 10
734.969152
 20
700.0
 30
0.0
 11
1094.469152
 21
700.0
 31
0.0
  0
SOLID
  5
387
330
383
100
AcDbEntity
  8
LC-006-003-----0
 62
     2
100
AcDbTrace
 10
734.969152
 20
704.166667
 30
0.0
 11
734.969152
 21
695.833333
 31
0.0
 12
709.969152
 22
700.0
 32
0.0
 13
709.969152
 23
700.0
 33
0.0
  0
SOLID
  5
388
330
383
100
AcDbEntity
  8
LC-006-003-----0
 62
     2
100
AcDbTrace
 10
1094.469152
 20
695.833333
 30
0.0
 11
1094.469152
 21
704.166667
 31
0.0
 12
1119.469152
 22
700.0
 32
0.0
 13
1119.469152
 23
700.0
 33
0.0
  0
MTEXT
  5
389
330
383
100
AcDbEntity
  8
LC-006-003-----0
 62
     2
100
AcDbMText
 10
914.719152
 20
730.0
 30
0.0
 40
25.0
 41
0.0
 71
     5
 72
     1
  1
\A1;819
  7
LCTX0-400-0-0pDIN-Schrift
 73
     1
 44
1.0
  0
POINT
  5
38A
330
383
100
AcDbEntity
  8
Defpoints
 62
     0
100
AcDbPoint
 10
709.969152
 20
767.101053
 30
0.0
  0
POINT
  5
38B
330
383
100
AcDbEntity
  8
Defpoints
 62
     0
100
AcDbPoint
 10
1119.469152
 20
767.101053
 30
0.0
  0
POINT
  5
38C
330
383
100
AcDbEntity
  8
Defpoints
 62
     0
100
AcDbPoint
 10
1119.469152
 20
700.0
 30
0.0
  0
ENDBLK
  5
38E
330
383
100
AcDbEntity
  8
0
100
AcDbBlockEnd
  0
BLOCK
  5
39A
330
390
100
AcDbEntity
  8
0
100
AcDbBlockBegin
  2
*D7
 70
     1
 71
     0
 10
0.0
 20
0.0
 30
0.0
  3
*D7
  1

  0
LINE
  5
391
330
390
100
AcDbEntity
  8
LC-006-003-----0
 62
     2
370
    -2
100
AcDbLine
 10
659.719152
 20
1071.851053
 30
0.0
 11
582.0
 21
1071.851053
 31
0.0
  0
LINE
  5
392
330
390
100
AcDbEntity
  8
LC-006-003-----0
 62
     2
370
    -2
100
AcDbLine
 10
659.719152
 20
802.351053
 30
0.0
 11
582.0
 21
802.351053
 31
0.0
  0
LINE
  5
393
330
390
100
AcDbEntity
  8
LC-006-003-----0
 62
     2
370
    -2
100
AcDbLine
 10
600.0
 20
1046.851053
 30
0.0
 11
600.0
 21
827.351053
 31
0.0
  0
SOLID
  5
394
330
390
100
AcDbEntity
  8
LC-006-003-----0
 62
     2
100
AcDbTrace
 10
604.166667
 20
1046.851053
 30
0.0
 11
595.833333
 21
1046.851053
 31
0.0
 12
600.0
 22
1071.851053
 32
0.0
 13
600.0
 23
1071.851053
 33
0.0
  0
SOLID
  5
395
330
390
100
AcDbEntity
  8
LC-006-003-----0
 62
     2
100
AcDbTrace
 10
595.833333
 20
827.351053
 30
0.0
 11
604.166667
 21
827.351053
 31
0.0
 12
600.0
 22
802.351053
 32
0.0
 13
600.0
 23
802.351053
 33
0.0
  0
MTEXT
  5
396
330
390
100
AcDbEntity
  8
LC-006-003-----0
 62
     2
100
AcDbMText
 10
570.0
 20
937.101053
 30
0.0
 40
25.0
 41
0.0
 71
     5
 72
     1
  1
\A1;539
  7
LCTX0-400-0-0pDIN-Schrift
 11
6.123031769111886E-17
 21
1.0
 31
0.0
 73
     1
 44
1.0
  0
POINT
  5
397
330
390
100
AcDbEntity
  8
Defpoints
 62
     0
100
AcDbPoint
 10
659.719152
 20
1071.851053
 30
0.0
  0
POINT
  5
398
330
390
100
AcDbEntity
  8
Defpoints
 62
     0
100
AcDbPoint
 10
659.719152
 20
802.351053
 30
0.0
  0
POINT
  5
399
330
390
100
AcDbEntity
  8
Defpoints
 62
     0
100
AcDbPoint
 10
600.0
 20
802.351053
 30
0.0
  0
ENDBLK
  5
39B
330
390
100
AcDbEntity
  8
0
100
AcDbBlockEnd
  0
BLOCK
  5
3A4
330
39E
100
AcDbEntity
  8
0
100
AcDbBlockBegin
  2
*D8
 70
     1
 71
     0
 10
0.0
 20
0.0
 30
0.0
  3
*D8
  1

  0
LINE
  5
39F
330
39E
100
AcDbEntity
  8
LC-006-003-----0
 62
     2
370
    -2
100
AcDbLine
 10
724.507494
 20
813.846919
 30
0.0
 11
739.765102
 21
824.237759
 31
0.0
  0
MTEXT
  5
3A0
330
39E
100
AcDbEntity
  8
LC-006-003-----0
 62
     2
100
AcDbMText
 10
759.45642
 20
823.204614
 30
0.0
 40
25.0
 41
0.0
 71
     5
 72
     1
  1
\A1;R10
  7
LCTX0-400-0-0pDIN-Schrift
 11
0.826531677260452
 21
0.5628902081978545
 31
0.0
 73
     1
 44
1.0
  0
SOLID
  5
3A1
330
39E
100
AcDbEntity
  8
LC-006-003-----0
 62
     2
100
AcDbTrace
 10
700.783894
 20
792.649366
 30
0.0
 11
696.093142
 21
799.53713
 31
0.0
 12
719.10181
 22
810.165504
 32
0.0
 13
719.10181
 23
810.165504
 33
0.0
  0
POINT
  5
3A2
330
39E
100
AcDbEntity
  8
Defpoints
 62
     0
100
AcDbPoint
 10
719.10181
 20
810.165504
 30
0.0
  0
POINT
  5
3A3
330
39E
100
AcDbEntity
  8
Defpoints
 62
     0
100
AcDbPoint
 10
714.969152
 20
807.351053
 30
0.0
  0
ENDBLK
  5
3A5
330
39E
100
AcDbEntity
  8
0
100
AcDbBlockEnd
  0
BLOCK
  5
3B1
330
3A7
100
AcDbEntity
  8
0
100
AcDbBlockBegin
  2
*D9
 70
     1
 71
     0
 10
0.0
 20
0.0
 30
0.0
  3
*D9
  1

  0
LINE
  5
3A8
330
3A7
100
AcDbEntity
  8
LC-006-003-----0
 62
     2
370
    -2
100
AcDbLine
 10
463.759738
 20
1457.34
 30
0.0
 11
463.759738
 21
1332.0
 31
0.0
  0
LINE
  5
3A9
330
3A7
100
AcDbEntity
  8
LC-006-003-----0
 62
     2
370
    -2
100
AcDbLine
 10
1301.959738
 20
1457.34
 30
0.0
 11
1301.959738
 21
1332.0
 31
0.0
  0
LINE
  5
3AA
330
3A7
100
AcDbEntity
  8
LC-006-003-----0
 62
     2
370
    -2
100
AcDbLine
 10
488.759738
 20
1350.0
 30
0.0
 11
1276.959738
 21
1350.0
 31
0.0
  0
SOLID
  5
3AB
330
3A7
100
AcDbEntity
  8
LC-006-003-----0
 62
     2
100
AcDbTrace
 10
488.759738
 20
1354.166667
 30
0.0
 11
488.759738
 21
1345.833333
 31
0.0
 12
463.759738
 22
1350.0
 32
0.0
 13
463.759738
 23
1350.0
 33
0.0
  0
SOLID
  5
3AC
330
3A7
100
AcDbEntity
  8
LC-006-003-----0
 62
     2
100
AcDbTrace
 10
1276.959738
 20
1345.833333
 30
0.0
 11
1276.959738
 21
1354.166667
 31
0.0
 12
1301.959738
 22
1350.0
 32
0.0
 13
1301.959738
 23
1350.0
 33
0.0
  0
MTEXT
  5
3AD
330
3A7
100
AcDbEntity
  8
LC-006-003-----0
 62
     2
100
AcDbMText
 10
882.859738
 20
1380.0
 30
0.0
 40
25.0
 41
0.0
 71
     5
 72
     1
  1
\A1;838,2
  7
LCTX0-400-0-0pDIN-Schrift
 73
     1
 44
1.0
  0
POINT
  5
3AE
330
3A7
100
AcDbEntity
  8
Defpoints
 62
     0
100
AcDbPoint
 10
463.759738
 20
1457.34
 30
0.0
  0
POINT
  5
3AF
330
3A7
100
AcDbEntity
  8
Defpoints
 62
     0
100
AcDbPoint
 10
1301.959738
 20
1457.34
 30
0.0
  0
POINT
  5
3B0
330
3A7
100
AcDbEntity
  8
Defpoints
 62
     0
100
AcDbPoint
 10
1301.959738
 20
1350.0
 30
0.0
  0
ENDBLK
  5
3B2
330
3A7
100
AcDbEntity
  8
0
100
AcDbBlockEnd
  0
BLOCK
  5
3BE
330
3B4
100
AcDbEntity
  8
0
100
AcDbBlockBegin
  2
*D10
 70
     1
 71
     0
 10
0.0
 20
0.0
 30
0.0
  3
*D10
  1

  0
LINE
  5
3B5
330
3B4
100
AcDbEntity
  8
LC-006-003-----0
 62
     2
370
    -2
100
AcDbLine
 10
453.759738
 20
2026.14
 30
0.0
 11
332.0
 21
2026.14
 31
0.0
  0
LINE
  5
3B6
330
3B4
100
AcDbEntity
  8
LC-006-003-----0
 62
     2
370
    -2
100
AcDbLine
 10
453.759738
 20
1467.34
 30
0.0
 11
332.0
 21
1467.34
 31
0.0
  0
LINE
  5
3B7
330
3B4
100
AcDbEntity
  8
LC-006-003-----0
 62
     2
370
    -2
100
AcDbLine
 10
350.0
 20
2001.14
 30
0.0
 11
350.0
 21
1492.34
 31
0.0
  0
SOLID
  5
3B8
330
3B4
100
AcDbEntity
  8
LC-006-003-----0
 62
     2
100
AcDbTrace
 10
354.166667
 20
2001.14
 30
0.0
 11
345.833333
 21
2001.14
 31
0.0
 12
350.0
 22
2026.14
 32
0.0
 13
350.0
 23
2026.14
 33
0.0
  0
SOLID
  5
3B9
330
3B4
100
AcDbEntity
  8
LC-006-003-----0
 62
     2
100
AcDbTrace
 10
345.833333
 20
1492.34
 30
0.0
 11
354.166667
 21
1492.34
 31
0.0
 12
350.0
 22
1467.34
 32
0.0
 13
350.0
 23
1467.34
 33
0.0
  0
MTEXT
  5
3BA
330
3B4
100
AcDbEntity
  8
LC-006-003-----0
 62
     2
100
AcDbMText
 10
320.0
 20
1746.74
 30
0.0
 40
25.0
 41
0.0
 71
     5
 72
     1
  1
\A1;558,8
  7
LCTX0-400-0-0pDIN-Schrift
 11
6.123031769111886E-17
 21
1.0
 31
0.0
 73
     1
 44
1.0
  0
POINT
  5
3BB
330
3B4
100
AcDbEntity
  8
Defpoints
 62
     0
100
AcDbPoint
 10
453.759738
 20
2026.14
 30
0.0
  0
POINT
  5
3BC
330
3B4
100
AcDbEntity
  8
Defpoints
 62
     0
100
AcDbPoint
 10
453.759738
 20
1467.34
 30
0.0
  0
POINT
  5
3BD
330
3B4
100
AcDbEntity
  8
Defpoints
 62
     0
100
AcDbPoint
 10
350.0
 20
1467.34
 30
0.0
  0
ENDBLK
  5
3BF
330
3B4
100
AcDbEntity
  8
0
100
AcDbBlockEnd
  0
BLOCK
  5
3CB
330
3C1
100
AcDbEntity
  8
0
100
AcDbBlockBegin
  2
*D11
 70
     1
 71
     0
 10
0.0
 20
0.0
 30
0.0
  3
*D11
  1

  0
LINE
  5
3C2
330
3C1
100
AcDbEntity
  8
LC-006-003-----0
 62
     2
370
    -2
100
AcDbLine
 10
463.759738
 20
2371.171911
 30
0.0
 11
463.759738
 21
2282.0
 31
0.0
  0
LINE
  5
3C3
330
3C1
100
AcDbEntity
  8
LC-006-003-----0
 62
     2
370
    -2
100
AcDbLine
 10
1301.959738
 20
2371.171911
 30
0.0
 11
1301.959738
 21
2282.0
 31
0.0
  0
LINE
  5
3C4
330
3C1
100
AcDbEntity
  8
LC-006-003-----0
 62
     2
370
    -2
100
AcDbLine
 10
488.759738
 20
2300.0
 30
0.0
 11
1276.959738
 21
2300.0
 31
0.0
  0
SOLID
  5
3C5
330
3C1
100
AcDbEntity
  8
LC-006-003-----0
 62
     2
100
AcDbTrace
 10
488.759738
 20
2304.166667
 30
0.0
 11
488.759738
 21
2295.833333
 31
0.0
 12
463.759738
 22
2300.0
 32
0.0
 13
463.759738
 23
2300.0
 33
0.0
  0
SOLID
  5
3C6
330
3C1
100
AcDbEntity
  8
LC-006-003-----0
 62
     2
100
AcDbTrace
 10
1276.959738
 20
2295.833333
 30
0.0
 11
1276.959738
 21
2304.166667
 31
0.0
 12
1301.959738
 22
2300.0
 32
0.0
 13
1301.959738
 23
2300.0
 33
0.0
  0
MTEXT
  5
3C7
330
3C1
100
AcDbEntity
  8
LC-006-003-----0
 62
     2
100
AcDbMText
 10
882.859738
 20
2330.0
 30
0.0
 40
25.0
 41
0.0
 71
     5
 72
     1
  1
\A1;838,2
  7
LCTX0-400-0-0pDIN-Schrift
 73
     1
 44
1.0
  0
POINT
  5
3C8
330
3C1
100
AcDbEntity
  8
Defpoints
 62
     0
100
AcDbPoint
 10
463.759738
 20
2371.171911
 30
0.0
  0
POINT
  5
3C9
330
3C1
100
AcDbEntity
  8
Defpoints
 62
     0
100
AcDbPoint
 10
1301.959738
 20
2371.171911
 30
0.0
  0
POINT
  5
3CA
330
3C1
100
AcDbEntity
  8
Defpoints
 62
     0
100
AcDbPoint
 10
1301.959738
 20
2300.0
 30
0.0
  0
ENDBLK
  5
3CC
330
3C1
100
AcDbEntity
  8
0
100
AcDbBlockEnd
  0
BLOCK
  5
3D7
330
3CF
100
AcDbEntity
  8
0
100
AcDbBlockBegin
  2
*D12
 70
     1
 71
     0
 10
0.0
 20
0.0
 30
0.0
  3
*D12
  1

  0
LINE
  5
3D0
330
3CF
100
AcDbEntity
  8
LC-006-003-----0
 62
     2
370
    -2
100
AcDbLine
 10
700.0
 20
2624.24
 30
0.0
 11
700.0
 21
2420.24
 31
0.0
  0
SOLID
  5
3D1
330
3CF
100
AcDbEntity
  8
LC-006-003-----0
 62
     2
100
AcDbTrace
 10
704.166667
 20
2624.24
 30
0.0
 11
695.833333
 21
2624.24
 31
0.0
 12
700.0
 22
2649.24
 32
0.0
 13
700.0
 23
2649.24
 33
0.0
  0
SOLID
  5
3D2
330
3CF
100
AcDbEntity
  8
LC-006-003-----0
 62
     2
100
AcDbTrace
 10
695.833333
 20
2420.24
 30
0.0
 11
704.166667
 21
2420.24
 31
0.0
 12
700.0
 22
2395.24
 32
0.0
 13
700.0
 23
2395.24
 33
0.0
  0
MTEXT
  5
3D3
330
3CF
100
AcDbEntity
  8
LC-006-003-----0
 62
     2
100
AcDbMText
 10
670.0
 20
2522.24
 30
0.0
 40
25.0
 41
0.0
 71
     5
 72
     1
  1
\A1;254
  7
LCTX0-400-0-0pDIN-Schrift
 11
6.123031769111886E-17
 21
1.0
 31
0.0
 73
     1
 44
1.0
  0
POINT
  5
3D4
330
3CF
100
AcDbEntity
  8
Defpoints
 62
     0
100
AcDbPoint
 10
882.859738
 20
2649.24
 30
0.0
  0
POINT
  5
3D5
330
3CF
100
AcDbEntity
  8
Defpoints
 62
     0
100
AcDbPoint
 10
715.999738
 20
2395.24
 30
0.0
  0
POINT
  5
3D6
330
3CF
100
AcDbEntity
  8
Defpoints
 62
     0
100
AcDbPoint
 10
700.0
 20
2395.24
 30
0.0
  0
ENDBLK
  5
3D8
330
3CF
100
AcDbEntity
  8
0
100
AcDbBlockEnd
  0
BLOCK
  5
3E2
330
3DA
100
AcDbEntity
  8
0
100
AcDbBlockBegin
  2
*D13
 70
     1
 71
     0
 10
0.0
 20
0.0
 30
0.0
  3
*D13
  1

  0
LINE
  5
3DB
330
3DA
100
AcDbEntity
  8
LC-006-003-----0
 62
     2
370
    -2
100
AcDbLine
 10
1100.0
 20
2624.24
 30
0.0
 11
1100.0
 21
2420.24
 31
0.0
  0
SOLID
  5
3DC
330
3DA
100
AcDbEntity
  8
LC-006-003-----0
 62
     2
100
AcDbTrace
 10
1104.166667
 20
2624.24
 30
0.0
 11
1095.833333
 21
2624.24
 31
0.0
 12
1100.0
 22
2649.24
 32
0.0
 13
1100.0
 23
2649.24
 33
0.0
  0
SOLID
  5
3DD
330
3DA
100
AcDbEntity
  8
LC-006-003-----0
 62
     2
100
AcDbTrace
 10
1095.833333
 20
2420.24
 30
0.0
 11
1104.166667
 21
2420.24
 31
0.0
 12
1100.0
 22
2395.24
 32
0.0
 13
1100.0
 23
2395.24
 33
0.0
  0
MTEXT
  5
3DE
330
3DA
100
AcDbEntity
  8
LC-006-003-----0
 62
     2
100
AcDbMText
 10
1070.0
 20
2522.24
 30
0.0
 40
25.0
 41
0.0
 71
     5
 72
     1
  1
\A1;254
  7
LCTX0-400-0-0pDIN-Schrift
 11
6.123031769111886E-17
 21
1.0
 31
0.0
 73
     1
 44
1.0
  0
POINT
  5
3DF
330
3DA
100
AcDbEntity
  8
Defpoints
 62
     0
100
AcDbPoint
 10
882.859738
 20
2649.24
 30
0.0
  0
POINT
  5
3E0
330
3DA
100
AcDbEntity
  8
Defpoints
 62
     0
100
AcDbPoint
 10
1101.659738
 20
2395.24
 30
0.0
  0
POINT
  5
3E1
330
3DA
100
AcDbEntity
  8
Defpoints
 62
     0
100
AcDbPoint
 10
1100.0
 20
2395.24
 30
0.0
  0
ENDBLK
  5
3E3
330
3DA
100
AcDbEntity
  8
0
100
AcDbBlockEnd
  0
BLOCK
  5
3EF
330
3E5
100
AcDbEntity
  8
0
100
AcDbBlockBegin
  2
*D14
 70
     1
 71
     0
 10
0.0
 20
0.0
 30
0.0
  3
*D14
  1

  0
LINE
  5
3E6
330
3E5
100
AcDbEntity
  8
LC-006-003-----0
 62
     2
370
    -2
100
AcDbLine
 10
497.559738
 20
2659.24
 30
0.0
 11
497.559738
 21
2818.0
 31
0.0
  0
LINE
  5
3E7
330
3E5
100
AcDbEntity
  8
LC-006-003-----0
 62
     2
370
    -2
100
AcDbLine
 10
1268.159738
 20
2659.24
 30
0.0
 11
1268.159738
 21
2818.0
 31
0.0
  0
LINE
  5
3E8
330
3E5
100
AcDbEntity
  8
LC-006-003-----0
 62
     2
370
    -2
100
AcDbLine
 10
522.559738
 20
2800.0
 30
0.0
 11
1243.159738
 21
2800.0
 31
0.0
  0
SOLID
  5
3E9
330
3E5
100
AcDbEntity
  8
LC-006-003-----0
 62
     2
100
AcDbTrace
 10
522.559738
 20
2804.166667
 30
0.0
 11
522.559738
 21
2795.833333
 31
0.0
 12
497.559738
 22
2800.0
 32
0.0
 13
497.559738
 23
2800.0
 33
0.0
  0
SOLID
  5
3EA
330
3E5
100
AcDbEntity
  8
LC-006-003-----0
 62
     2
100
AcDbTrace
 10
1243.159738
 20
2795.833333
 30
0.0
 11
1243.159738
 21
2804.166667
 31
0.0
 12
1268.159738
 22
2800.0
 32
0.0
 13
1268.159738
 23
2800.0
 33
0.0
  0
MTEXT
  5
3EB
330
3E5
100
AcDbEntity
  8
LC-006-003-----0
 62
     2
100
AcDbMText
 10
882.859738
 20
2830.0
 30
0.0
 40
25.0
 41
0.0
 71
     5
 72
     1
  1
\A1;770,6
  7
LCTX0-400-0-0pDIN-Schrift
 73
     1
 44
1.0
  0
POINT
  5
3EC
330
3E5
100
AcDbEntity
  8
Defpoints
 62
     0
100
AcDbPoint
 10
497.559738
 20
2659.24
 30
0.0
  0
POINT
  5
3ED
330
3E5
100
AcDbEntity
  8
Defpoints
 62
     0
100
AcDbPoint
 10
1268.159738
 20
2659.24
 30
0.0
  0
POINT
  5
3EE
330
3E5
100
AcDbEntity
  8
Defpoints
 62
     0
100
AcDbPoint
 10
1268.159738
 20
2800.0
 30
0.0
  0
ENDBLK
  5
3F0
330
3E5
100
AcDbEntity
  8
0
100
AcDbBlockEnd
  0
BLOCK
  5
3FD
330
3F2
100
AcDbEntity
  8
0
100
AcDbBlockBegin
  2
*D15
 70
     1
 71
     0
 10
0.0
 20
0.0
 30
0.0
  3
*D15
  1

  0
LINE
  5
3F3
330
3F2
100
AcDbEntity
  8
LC-006-003-----0
 62
     2
370
    -2
100
AcDbLine
 10
919.859738
 20
2659.24
 30
0.0
 11
919.859738
 21
2768.0
 31
0.0
  0
LINE
  5
3F4
330
3F2
100
AcDbEntity
  8
LC-006-003-----0
 62
     2
370
    -2
100
AcDbLine
 10
497.559738
 20
2659.24
 30
0.0
 11
497.559738
 21
2768.0
 31
0.0
  0
LINE
  5
3F5
330
3F2
100
AcDbEntity
  8
LC-006-003-----0
 62
     2
370
    -2
100
AcDbLine
 10
894.859738
 20
2750.0
 30
0.0
 11
760.459737
 21
2750.0
 31
0.0
  0
LINE
  5
3F6
330
3F2
100
AcDbEntity
  8
LC-006-003-----0
 62
     2
370
    -2
100
AcDbLine
 10
522.559738
 20
2750.0
 30
0.0
 11
656.959738
 21
2750.0
 31
0.0
  0
SOLID
  5
3F7
330
3F2
100
AcDbEntity
  8
LC-006-003-----0
 62
     2
100
AcDbTrace
 10
894.859738
 20
2745.833333
 30
0.0
 11
894.859738
 21
2754.166667
 31
0.0
 12
919.859738
 22
2750.0
 32
0.0
 13
919.859738
 23
2750.0
 33
0.0
  0
SOLID
  5
3F8
330
3F2
100
AcDbEntity
  8
LC-006-003-----0
 62
     2
100
AcDbTrace
 10
522.559738
 20
2754.166667
 30
0.0
 11
522.559738
 21
2745.833333
 31
0.0
 12
497.559738
 22
2750.0
 32
0.0
 13
497.559738
 23
2750.0
 33
0.0
  0
MTEXT
  5
3F9
330
3F2
100
AcDbEntity
  8
LC-006-003-----0
 62
     2
100
AcDbMText
 10
708.709738
 20
2780.0
 30
0.0
 40
25.0
 41
0.0
 71
     5
 72
     1
  1
\A1;422,3
  7
LCTX0-400-0-0pDIN-Schrift
 73
     1
 44
1.0
  0
POINT
  5
3FA
330
3F2
100
AcDbEntity
  8
Defpoints
 62
     0
100
AcDbPoint
 10
919.859738
 20
2659.24
 30
0.0
  0
POINT
  5
3FB
330
3F2
100
AcDbEntity
  8
Defpoints
 62
     0
100
AcDbPoint
 10
497.559738
 20
2659.24
 30
0.0
  0
POINT
  5
3FC
330
3F2
100
AcDbEntity
  8
Defpoints
 62
     0
100
AcDbPoint
 10
497.559738
 20
2750.0
 30
0.0
  0
ENDBLK
  5
3FE
330
3F2
100
AcDbEntity
  8
0
100
AcDbBlockEnd
  0
BLOCK
  5
40A
330
400
100
AcDbEntity
  8
0
100
AcDbBlockBegin
  2
*D16
 70
     1
 71
     0
 10
0.0
 20
0.0
 30
0.0
  3
*D16
  1

  0
LINE
  5
401
330
400
100
AcDbEntity
  8
LC-006-003-----0
 62
     2
370
    -2
100
AcDbLine
 10
949.859738
 20
2659.24
 30
0.0
 11
949.859738
 21
2768.0
 31
0.0
  0
LINE
  5
402
330
400
100
AcDbEntity
  8
LC-006-003-----0
 62
     2
370
    -2
100
AcDbLine
 10
1268.159738
 20
2659.24
 30
0.0
 11
1268.159738
 21
2768.0
 31
0.0
  0
LINE
  5
403
330
400
100
AcDbEntity
  8
LC-006-003-----0
 62
     2
370
    -2
100
AcDbLine
 10
974.859738
 20
2750.0
 30
0.0
 11
1243.159738
 21
2750.0
 31
0.0
  0
SOLID
  5
404
330
400
100
AcDbEntity
  8
LC-006-003-----0
 62
     2
100
AcDbTrace
 10
974.859738
 20
2754.166667
 30
0.0
 11
974.859738
 21
2745.833333
 31
0.0
 12
949.859738
 22
2750.0
 32
0.0
 13
949.859738
 23
2750.0
 33
0.0
  0
SOLID
  5
405
330
400
100
AcDbEntity
  8
LC-006-003-----0
 62
     2
100
AcDbTrace
 10
1243.159738
 20
2745.833333
 30
0.0
 11
1243.159738
 21
2754.166667
 31
0.0
 12
1268.159738
 22
2750.0
 32
0.0
 13
1268.159738
 23
2750.0
 33
0.0
  0
MTEXT
  5
406
330
400
100
AcDbEntity
  8
LC-006-003-----0
 62
     2
100
AcDbMText
 10
1109.009738
 20
2780.0
 30
0.0
 40
25.0
 41
0.0
 71
     5
 72
     1
  1
\A1;318,3
  7
LCTX0-400-0-0pDIN-Schrift
 73
     1
 44
1.0
  0
POINT
  5
407
330
400
100
AcDbEntity
  8
Defpoints
 62
     0
100
AcDbPoint
 10
949.859738
 20
2659.24
 30
0.0
  0
POINT
  5
408
330
400
100
AcDbEntity
  8
Defpoints
 62
     0
100
AcDbPoint
 10
1268.159738
 20
2659.24
 30
0.0
  0
POINT
  5
409
330
400
100
AcDbEntity
  8
Defpoints
 62
     0
100
AcDbPoint
 10
1268.159738
 20
2750.0
 30
0.0
  0
ENDBLK
  5
40B
330
400
100
AcDbEntity
  8
0
100
AcDbBlockEnd
  0
BLOCK
  5
419
330
40D
100
AcDbEntity
  8
0
100
AcDbBlockBegin
  2
*D17
 70
     1
 71
     0
 10
0.0
 20
0.0
 30
0.0
  3
*D17
  1

  0
LINE
  5
40E
330
40D
100
AcDbEntity
  8
LC-006-003-----0
 62
     2
370
    -2
100
AcDbLine
 10
919.859738
 20
2659.24
 30
0.0
 11
919.859738
 21
2718.0
 31
0.0
  0
LINE
  5
40F
330
40D
100
AcDbEntity
  8
LC-006-003-----0
 62
     2
370
    -2
100
AcDbLine
 10
949.859738
 20
2659.24
 30
0.0
 11
949.859738
 21
2718.0
 31
0.0
  0
LINE
  5
410
330
40D
100
AcDbEntity
  8
LC-006-003-----0
 62
     2
370
    -2
100
AcDbLine
 10
974.859738
 20
2700.0
 30
0.0
 11
999.859738
 21
2700.0
 31
0.0
  0
LINE
  5
411
330
40D
100
AcDbEntity
  8
LC-006-003-----0
 62
     2
370
    -2
100
AcDbLine
 10
894.859738
 20
2700.0
 30
0.0
 11
879.714284
 21
2700.0
 31
0.0
  0
LINE
  5
412
330
40D
100
AcDbEntity
  8
LC-006-003-----0
 62
     2
370
    -2
100
AcDbLine
 10
919.859738
 20
2700.0
 30
0.0
 11
949.859738
 21
2700.0
 31
0.0
  0
SOLID
  5
413
330
40D
100
AcDbEntity
  8
LC-006-003-----0
 62
     2
100
AcDbTrace
 10
894.859738
 20
2695.833333
 30
0.0
 11
894.859738
 21
2704.166667
 31
0.0
 12
919.859738
 22
2700.0
 32
0.0
 13
919.859738
 23
2700.0
 33
0.0
  0
SOLID
  5
414
330
40D
100
AcDbEntity
  8
LC-006-003-----0
 62
     2
100
AcDbTrace
 10
974.859738
 20
2704.166667
 30
0.0
 11
974.859738
 21
2695.833333
 31
0.0
 12
949.859738
 22
2700.0
 32
0.0
 13
949.859738
 23
2700.0
 33
0.0
  0
MTEXT
  5
415
330
40D
100
AcDbEntity
  8
LC-006-003-----0
 62
     2
100
AcDbMText
 10
908.005533
 20
2730.0
 30
0.0
 40
25.0
 41
0.0
 71
     5
 72
     1
  1
\A1;30
  7
LCTX0-400-0-0pDIN-Schrift
 73
     1
 44
1.0
  0
POINT
  5
416
330
40D
100
AcDbEntity
  8
Defpoints
 62
     0
100
AcDbPoint
 10
919.859738
 20
2659.24
 30
0.0
  0
POINT
  5
417
330
40D
100
AcDbEntity
  8
Defpoints
 62
     0
100
AcDbPoint
 10
949.859738
 20
2659.24
 30
0.0
  0
POINT
  5
418
330
40D
100
AcDbEntity
  8
Defpoints
 62
     0
100
AcDbPoint
 10
949.859738
 20
2700.0
 30
0.0
  0
ENDBLK
  5
41A
330
40D
100
AcDbEntity
  8
0
100
AcDbBlockEnd
  0
BLOCK
  5
426
330
41C
100
AcDbEntity
  8
0
100
AcDbBlockBegin
  2
*D18
 70
     1
 71
     0
 10
0.0
 20
0.0
 30
0.0
  3
*D18
  1

  0
LINE
  5
41D
330
41C
100
AcDbEntity
  8
LC-006-003-----0
 62
     2
370
    -2
100
AcDbLine
 10
960.859738
 20
2036.14
 30
0.0
 11
960.859738
 21
2118.0
 31
0.0
  0
LINE
  5
41E
330
41C
100
AcDbEntity
  8
LC-006-003-----0
 62
     2
370
    -2
100
AcDbLine
 10
1062.459738
 20
2036.14
 30
0.0
 11
1062.459738
 21
2118.0
 31
0.0
  0
LINE
  5
41F
330
41C
100
AcDbEntity
  8
LC-006-003-----0
 62
     2
370
    -2
100
AcDbLine
 10
985.859738
 20
2100.0
 30
0.0
 11
1037.459738
 21
2100.0
 31
0.0
  0
SOLID
  5
420
330
41C
100
AcDbEntity
  8
LC-006-003-----0
 62
     2
100
AcDbTrace
 10
985.859738
 20
2104.166667
 30
0.0
 11
985.859738
 21
2095.833333
 31
0.0
 12
960.859738
 22
2100.0
 32
0.0
 13
960.859738
 23
2100.0
 33
0.0
  0
SOLID
  5
421
330
41C
100
AcDbEntity
  8
LC-006-003-----0
 62
     2
100
AcDbTrace
 10
1037.459738
 20
2095.833333
 30
0.0
 11
1037.459738
 21
2104.166667
 31
0.0
 12
1062.459738
 22
2100.0
 32
0.0
 13
1062.459738
 23
2100.0
 33
0.0
  0
MTEXT
  5
422
330
41C
100
AcDbEntity
  8
LC-006-003-----0
 62
     2
100
AcDbMText
 10
1011.659738
 20
2130.0
 30
0.0
 40
25.0
 41
0.0
 71
     5
 72
     1
  1
\A1;101,6
  7
LCTX0-400-0-0pDIN-Schrift
 73
     1
 44
1.0
  0
POINT
  5
423
330
41C
100
AcDbEntity
  8
Defpoints
 62
     0
100
AcDbPoint
 10
960.859738
 20
2036.14
 30
0.0
  0
POINT
  5
424
330
41C
100
AcDbEntity
  8
Defpoints
 62
     0
100
AcDbPoint
 10
1062.459738
 20
2036.14
 30
0.0
  0
POINT
  5
425
330
41C
100
AcDbEntity
  8
Defpoints
 62
     0
100
AcDbPoint
 10
1062.459738
 20
2100.0
 30
0.0
  0
ENDBLK
  5
427
330
41C
100
AcDbEntity
  8
0
100
AcDbBlockEnd
  0
BLOCK
  5
433
330
429
100
AcDbEntity
  8
0
100
AcDbBlockBegin
  2
*D19
 70
     1
 71
     0
 10
0.0
 20
0.0
 30
0.0
  3
*D19
  1

  0
LINE
  5
42A
330
429
100
AcDbEntity
  8
LC-006-003-----0
 62
     2
370
    -2
100
AcDbLine
 10
1062.459738
 20
2036.14
 30
0.0
 11
1062.459738
 21
2118.0
 31
0.0
  0
LINE
  5
42B
330
429
100
AcDbEntity
  8
LC-006-003-----0
 62
     2
370
    -2
100
AcDbLine
 10
1164.059738
 20
2036.14
 30
0.0
 11
1164.059738
 21
2118.0
 31
0.0
  0
LINE
  5
42C
330
429
100
AcDbEntity
  8
LC-006-003-----0
 62
     2
370
    -2
100
AcDbLine
 10
1087.459738
 20
2100.0
 30
0.0
 11
1139.059738
 21
2100.0
 31
0.0
  0
SOLID
  5
42D
330
429
100
AcDbEntity
  8
LC-006-003-----0
 62
     2
100
AcDbTrace
 10
1087.459738
 20
2104.166667
 30
0.0
 11
1087.459738
 21
2095.833333
 31
0.0
 12
1062.459738
 22
2100.0
 32
0.0
 13
1062.459738
 23
2100.0
 33
0.0
  0
SOLID
  5
42E
330
429
100
AcDbEntity
  8
LC-006-003-----0
 62
     2
100
AcDbTrace
 10
1139.059738
 20
2095.833333
 30
0.0
 11
1139.059738
 21
2104.166667
 31
0.0
 12
1164.059738
 22
2100.0
 32
0.0
 13
1164.059738
 23
2100.0
 33
0.0
  0
MTEXT
  5
42F
330
429
100
AcDbEntity
  8
LC-006-003-----0
 62
     2
100
AcDbMText
 10
1113.259738
 20
2130.0
 30
0.0
 40
25.0
 41
0.0
 71
     5
 72
     1
  1
\A1;101,6
  7
LCTX0-400-0-0pDIN-Schrift
 73
     1
 44
1.0
  0
POINT
  5
430
330
429
100
AcDbEntity
  8
Defpoints
 62
     0
100
AcDbPoint
 10
1062.459738
 20
2036.14
 30
0.0
  0
POINT
  5
431
330
429
100
AcDbEntity
  8
Defpoints
 62
     0
100
AcDbPoint
 10
1164.059738
 20
2036.14
 30
0.0
  0
POINT
  5
432
330
429
100
AcDbEntity
  8
Defpoints
 62
     0
100
AcDbPoint
 10
1164.059738
 20
2100.0
 30
0.0
  0
ENDBLK
  5
434
330
429
100
AcDbEntity
  8
0
100
AcDbBlockEnd
  0
BLOCK
  5
441
330
436
100
AcDbEntity
  8
0
100
AcDbBlockBegin
  2
*D20
 70
     1
 71
     0
 10
0.0
 20
0.0
 30
0.0
  3
*D20
  1

  0
LINE
  5
437
330
436
100
AcDbEntity
  8
LC-006-003-----0
 62
     2
370
    -2
100
AcDbLine
 10
960.859738
 20
2036.14
 30
0.0
 11
960.859738
 21
2168.0
 31
0.0
  0
LINE
  5
438
330
436
100
AcDbEntity
  8
LC-006-003-----0
 62
     2
370
    -2
100
AcDbLine
 10
1301.959738
 20
2036.14
 30
0.0
 11
1301.959738
 21
2168.0
 31
0.0
  0
LINE
  5
439
330
436
100
AcDbEntity
  8
LC-006-003-----0
 62
     2
370
    -2
100
AcDbLine
 10
985.859738
 20
2150.0
 30
0.0
 11
1085.714738
 21
2150.0
 31
0.0
  0
LINE
  5
43A
330
436
100
AcDbEntity
  8
LC-006-003-----0
 62
     2
370
    -2
100
AcDbLine
 10
1276.959738
 20
2150.0
 30
0.0
 11
1177.104737
 21
2150.0
 31
0.0
  0
SOLID
  5
43B
330
436
100
AcDbEntity
  8
LC-006-003-----0
 62
     2
100
AcDbTrace
 10
985.859738
 20
2154.166667
 30
0.0
 11
985.859738
 21
2145.833333
 31
0.0
 12
960.859738
 22
2150.0
 32
0.0
 13
960.859738
 23
2150.0
 33
0.0
  0
SOLID
  5
43C
330
436
100
AcDbEntity
  8
LC-006-003-----0
 62
     2
100
AcDbTrace
 10
1276.959738
 20
2145.833333
 30
0.0
 11
1276.959738
 21
2154.166667
 31
0.0
 12
1301.959738
 22
2150.0
 32
0.0
 13
1301.959738
 23
2150.0
 33
0.0
  0
MTEXT
  5
43D
330
436
100
AcDbEntity
  8
LC-006-003-----0
 62
     2
100
AcDbMText
 10
1131.409738
 20
2180.0
 30
0.0
 40
25.0
 41
0.0
 71
     5
 72
     1
  1
\A1;341,1
  7
LCTX0-400-0-0pDIN-Schrift
 73
     1
 44
1.0
  0
POINT
  5
43E
330
436
100
AcDbEntity
  8
Defpoints
 62
     0
100
AcDbPoint
 10
960.859738
 20
2036.14
 30
0.0
  0
POINT
  5
43F
330
436
100
AcDbEntity
  8
Defpoints
 62
     0
100
AcDbPoint
 10
1301.959738
 20
2036.14
 30
0.0
  0
POINT
  5
440
330
436
100
AcDbEntity
  8
Defpoints
 62
     0
100
AcDbPoint
 10
1301.959738
 20
2150.0
 30
0.0
  0
ENDBLK
  5
442
330
436
100
AcDbEntity
  8
0
100
AcDbBlockEnd
  0
BLOCK
  5
450
330
444
100
AcDbEntity
  8
0
100
AcDbBlockBegin
  2
*D21
 70
     1
 71
     0
 10
0.0
 20
0.0
 30
0.0
  3
*D21
  1

  0
LINE
  5
445
330
444
100
AcDbEntity
  8
LC-006-003-----0
 62
     2
370
    -2
100
AcDbLine
 10
463.759738
 20
2036.14
 30
0.0
 11
463.759738
 21
2118.0
 31
0.0
  0
LINE
  5
446
330
444
100
AcDbEntity
  8
LC-006-003-----0
 62
     2
370
    -2
100
AcDbLine
 10
508.759738
 20
2036.14
 30
0.0
 11
508.759738
 21
2118.0
 31
0.0
  0
LINE
  5
447
330
444
100
AcDbEntity
  8
LC-006-003-----0
 62
     2
370
    -2
100
AcDbLine
 10
438.759738
 20
2100.0
 30
0.0
 11
413.759738
 21
2100.0
 31
0.0
  0
LINE
  5
448
330
444
100
AcDbEntity
  8
LC-006-003-----0
 62
     2
370
    -2
100
AcDbLine
 10
533.759738
 20
2100.0
 30
0.0
 11
566.143987
 21
2100.0
 31
0.0
  0
LINE
  5
449
330
444
100
AcDbEntity
  8
LC-006-003-----0
 62
     2
370
    -2
100
AcDbLine
 10
463.759738
 20
2100.0
 30
0.0
 11
508.759738
 21
2100.0
 31
0.0
  0
SOLID
  5
44A
330
444
100
AcDbEntity
  8
LC-006-003-----0
 62
     2
100
AcDbTrace
 10
438.759738
 20
2095.833333
 30
0.0
 11
438.759738
 21
2104.166667
 31
0.0
 12
463.759738
 22
2100.0
 32
0.0
 13
463.759738
 23
2100.0
 33
0.0
  0
SOLID
  5
44B
330
444
100
AcDbEntity
  8
LC-006-003-----0
 62
     2
100
AcDbTrace
 10
533.759738
 20
2104.166667
 30
0.0
 11
533.759738
 21
2095.833333
 31
0.0
 12
508.759738
 22
2100.0
 32
0.0
 13
508.759738
 23
2100.0
 33
0.0
  0
MTEXT
  5
44C
330
444
100
AcDbEntity
  8
LC-006-003-----0
 62
     2
100
AcDbMText
 10
536.268987
 20
2130.0
 30
0.0
 40
25.0
 41
0.0
 71
     5
 72
     1
  1
\A1;45
  7
LCTX0-400-0-0pDIN-Schrift
 73
     1
 44
1.0
  0
POINT
  5
44D
330
444
100
AcDbEntity
  8
Defpoints
 62
     0
100
AcDbPoint
 10
463.759738
 20
2036.14
 30
0.0
  0
POINT
  5
44E
330
444
100
AcDbEntity
  8
Defpoints
 62
     0
100
AcDbPoint
 10
508.759738
 20
2036.14
 30
0.0
  0
POINT
  5
44F
330
444
100
AcDbEntity
  8
Defpoints
 62
     0
100
AcDbPoint
 10
508.759738
 20
2100.0
 30
0.0
  0
ENDBLK
  5
451
330
444
100
AcDbEntity
  8
0
100
AcDbBlockEnd
  0
BLOCK
  5
45F
330
454
100
AcDbEntity
  8
0
100
AcDbBlockBegin
  2
*D22
 70
     1
 71
     0
 10
0.0
 20
0.0
 30
0.0
  3
*D22
  1

  0
LINE
  5
455
330
454
100
AcDbEntity
  8
LC-006-003-----0
 62
     2
370
    -2
100
AcDbLine
 10
453.759738
 20
1981.14
 30
0.0
 11
382.0
 21
1981.14
 31
0.0
  0
LINE
  5
456
330
454
100
AcDbEntity
  8
LC-006-003-----0
 62
     2
370
    -2
100
AcDbLine
 10
400.0
 20
1956.14
 30
0.0
 11
400.0
 21
1931.14
 31
0.0
  0
LINE
  5
457
330
454
100
AcDbEntity
  8
LC-006-003-----0
 62
     2
370
    -2
100
AcDbLine
 10
400.0
 20
2051.14
 30
0.0
 11
400.0
 21
2102.444984
 31
0.0
  0
LINE
  5
458
330
454
100
AcDbEntity
  8
LC-006-003-----0
 62
     2
370
    -2
100
AcDbLine
 10
400.0
 20
1981.14
 30
0.0
 11
400.0
 21
2026.14
 31
0.0
  0
SOLID
  5
459
330
454
100
AcDbEntity
  8
LC-006-003-----0
 62
     2
100
AcDbTrace
 10
404.166667
 20
1956.14
 30
0.0
 11
395.833333
 21
1956.14
 31
0.0
 12
400.0
 22
1981.14
 32
0.0
 13
400.0
 23
1981.14
 33
0.0
  0
SOLID
  5
45A
330
454
100
AcDbEntity
  8
LC-006-003-----0
 62
     2
100
AcDbTrace
 10
395.833333
 20
2051.14
 30
0.0
 11
404.166667
 21
2051.14
 31
0.0
 12
400.0
 22
2026.14
 32
0.0
 13
400.0
 23
2026.14
 33
0.0
  0
MTEXT
  5
45B
330
454
100
AcDbEntity
  8
LC-006-003-----0
 62
     2
100
AcDbMText
 10
370.0
 20
2072.569984
 30
0.0
 40
25.0
 41
0.0
 71
     5
 72
     1
  1
\A1;45
  7
LCTX0-400-0-0pDIN-Schrift
 11
6.123031769111886E-17
 21
1.0
 31
0.0
 73
     1
 44
1.0
  0
POINT
  5
45C
330
454
100
AcDbEntity
  8
Defpoints
 62
     0
100
AcDbPoint
 10
453.759738
 20
1981.14
 30
0.0
  0
POINT
  5
45D
330
454
100
AcDbEntity
  8
Defpoints
 62
     0
100
AcDbPoint
 10
496.459738
 20
2026.14
 30
0.0
  0
POINT
  5
45E
330
454
100
AcDbEntity
  8
Defpoints
 62
     0
100
AcDbPoint
 10
400.0
 20
2026.14
 30
0.0
  0
ENDBLK
  5
460
330
454
100
AcDbEntity
  8
0
100
AcDbBlockEnd
  0
BLOCK
  5
46E
330
462
100
AcDbEntity
  8
0
100
AcDbBlockBegin
  2
*D23
 70
     1
 71
     0
 10
0.0
 20
0.0
 30
0.0
  3
*D23
  1

  0
LINE
  5
463
330
462
100
AcDbEntity
  8
LC-006-003-----0
 62
     2
370
    -2
100
AcDbLine
 10
1311.959738
 20
2026.14
 30
0.0
 11
1418.0
 21
2026.14
 31
0.0
  0
LINE
  5
464
330
462
100
AcDbEntity
  8
LC-006-003-----0
 62
     2
370
    -2
100
AcDbLine
 10
1311.959738
 20
1975.34
 30
0.0
 11
1418.0
 21
1975.34
 31
0.0
  0
LINE
  5
465
330
462
100
AcDbEntity
  8
LC-006-003-----0
 62
     2
370
    -2
100
AcDbLine
 10
1400.0
 20
1950.34
 30
0.0
 11
1400.0
 21
1925.34
 31
0.0
  0
LINE
  5
466
330
462
100
AcDbEntity
  8
LC-006-003-----0
 62
     2
370
    -2
100
AcDbLine
 10
1400.0
 20
2051.14
 30
0.0
 11
1400.0
 21
2116.982447
 31
0.0
  0
LINE
  5
467
330
462
100
AcDbEntity
  8
LC-006-003-----0
 62
     2
370
    -2
100
AcDbLine
 10
1400.0
 20
2026.14
 30
0.0
 11
1400.0
 21
1975.34
 31
0.0
  0
SOLID
  5
468
330
462
100
AcDbEntity
  8
LC-006-003-----0
 62
     2
100
AcDbTrace
 10
1395.833333
 20
2051.14
 30
0.0
 11
1404.166667
 21
2051.14
 31
0.0
 12
1400.0
 22
2026.14
 32
0.0
 13
1400.0
 23
2026.14
 33
0.0
  0
SOLID
  5
469
330
462
100
AcDbEntity
  8
LC-006-003-----0
 62
     2
100
AcDbTrace
 10
1404.166667
 20
1950.34
 30
0.0
 11
1395.833333
 21
1950.34
 31
0.0
 12
1400.0
 22
1975.34
 32
0.0
 13
1400.0
 23
1975.34
 33
0.0
  0
MTEXT
  5
46A
330
462
100
AcDbEntity
  8
LC-006-003-----0
 62
     2
100
AcDbMText
 10
1370.0
 20
2075.539947
 30
0.0
 40
25.0
 41
0.0
 71
     5
 72
     1
  1
\A1;50,8
  7
LCTX0-400-0-0pDIN-Schrift
 11
6.123031769111886E-17
 21
1.0
 31
0.0
 73
     1
 44
1.0
  0
POINT
  5
46B
330
462
100
AcDbEntity
  8
Defpoints
 62
     0
100
AcDbPoint
 10
1311.959738
 20
2026.14
 30
0.0
  0
POINT
  5
46C
330
462
100
AcDbEntity
  8
Defpoints
 62
     0
100
AcDbPoint
 10
1311.959738
 20
1975.34
 30
0.0
  0
POINT
  5
46D
330
462
100
AcDbEntity
  8
Defpoints
 62
     0
100
AcDbPoint
 10
1400.0
 20
1975.34
 30
0.0
  0
ENDBLK
  5
46F
330
462
100
AcDbEntity
  8
0
100
AcDbBlockEnd
  0
BLOCK
  5
47C
330
471
100
AcDbEntity
  8
0
100
AcDbBlockBegin
  2
*D24
 70
     1
 71
     0
 10
0.0
 20
0.0
 30
0.0
  3
*D24
  1

  0
LINE
  5
472
330
471
100
AcDbEntity
  8
LC-006-003-----0
 62
     2
370
    -2
100
AcDbLine
 10
1814.007392
 20
1992.34
 30
0.0
 11
2018.0
 21
1992.34
 31
0.0
  0
LINE
  5
473
330
471
100
AcDbEntity
  8
LC-006-003-----0
 62
     2
370
    -2
100
AcDbLine
 10
1814.007392
 20
1501.14
 30
0.0
 11
2018.0
 21
1501.14
 31
0.0
  0
LINE
  5
474
330
471
100
AcDbEntity
  8
LC-006-003-----0
 62
     2
370
    -2
100
AcDbLine
 10
2000.0
 20
1967.34
 30
0.0
 11
2000.0
 21
1795.576249
 31
0.0
  0
LINE
  5
475
330
471
100
AcDbEntity
  8
LC-006-003-----0
 62
     2
370
    -2
100
AcDbLine
 10
2000.0
 20
1526.14
 30
0.0
 11
2000.0
 21
1697.903751
 31
0.0
  0
SOLID
  5
476
330
471
100
AcDbEntity
  8
LC-006-003-----0
 62
     2
100
AcDbTrace
 10
2004.166667
 20
1967.34
 30
0.0
 11
1995.833333
 21
1967.34
 31
0.0
 12
2000.0
 22
1992.34
 32
0.0
 13
2000.0
 23
1992.34
 33
0.0
  0
SOLID
  5
477
330
471
100
AcDbEntity
  8
LC-006-003-----0
 62
     2
100
AcDbTrace
 10
1995.833333
 20
1526.14
 30
0.0
 11
2004.166667
 21
1526.14
 31
0.0
 12
2000.0
 22
1501.14
 32
0.0
 13
2000.0
 23
1501.14
 33
0.0
  0
MTEXT
  5
478
330
471
100
AcDbEntity
  8
LC-006-003-----0
 62
     2
100
AcDbMText
 10
1970.0
 20
1746.74
 30
0.0
 40
25.0
 41
0.0
 71
     5
 72
     1
  1
\A1;491,2
  7
LCTX0-400-0-0pDIN-Schrift
 11
6.123031769111886E-17
 21
1.0
 31
0.0
 73
     1
 44
1.0
  0
POINT
  5
479
330
471
100
AcDbEntity
  8
Defpoints
 62
     0
100
AcDbPoint
 10
1814.007392
 20
1992.34
 30
0.0
  0
POINT
  5
47A
330
471
100
AcDbEntity
  8
Defpoints
 62
     0
100
AcDbPoint
 10
1814.007392
 20
1501.14
 30
0.0
  0
POINT
  5
47B
330
471
100
AcDbEntity
  8
Defpoints
 62
     0
100
AcDbPoint
 10
2000.0
 20
1501.14
 30
0.0
  0
ENDBLK
  5
47D
330
471
100
AcDbEntity
  8
0
100
AcDbBlockEnd
  0
BLOCK
  5
48A
330
47F
100
AcDbEntity
  8
0
100
AcDbBlockBegin
  2
*D25
 70
     1
 71
     0
 10
0.0
 20
0.0
 30
0.0
  3
*D25
  1

  0
LINE
  5
480
330
47F
100
AcDbEntity
  8
LC-006-003-----0
 62
     2
370
    -2
100
AcDbLine
 10
1814.007392
 20
1923.64
 30
0.0
 11
1918.0
 21
1923.64
 31
0.0
  0
LINE
  5
481
330
47F
100
AcDbEntity
  8
LC-006-003-----0
 62
     2
370
    -2
100
AcDbLine
 10
1814.007392
 20
1501.14
 30
0.0
 11
1918.0
 21
1501.14
 31
0.0
  0
LINE
  5
482
330
47F
100
AcDbEntity
  8
LC-006-003-----0
 62
     2
370
    -2
100
AcDbLine
 10
1900.0
 20
1898.64
 30
0.0
 11
1900.0
 21
1764.139999
 31
0.0
  0
LINE
  5
483
330
47F
100
AcDbEntity
  8
LC-006-003-----0
 62
     2
370
    -2
100
AcDbLine
 10
1900.0
 20
1526.14
 30
0.0
 11
1900.0
 21
1660.640001
 31
0.0
  0
SOLID
  5
484
330
47F
100
AcDbEntity
  8
LC-006-003-----0
 62
     2
100
AcDbTrace
 10
1904.166667
 20
1898.64
 30
0.0
 11
1895.833333
 21
1898.64
 31
0.0
 12
1900.0
 22
1923.64
 32
0.0
 13
1900.0
 23
1923.64
 33
0.0
  0
SOLID
  5
485
330
47F
100
AcDbEntity
  8
LC-006-003-----0
 62
     2
100
AcDbTrace
 10
1895.833333
 20
1526.14
 30
0.0
 11
1904.166667
 21
1526.14
 31
0.0
 12
1900.0
 22
1501.14
 32
0.0
 13
1900.0
 23
1501.14
 33
0.0
  0
MTEXT
  5
486
330
47F
100
AcDbEntity
  8
LC-006-003-----0
 62
     2
100
AcDbMText
 10
1870.0
 20
1712.39
 30
0.0
 40
25.0
 41
0.0
 71
     5
 72
     1
  1
\A1;422,5
  7
LCTX0-400-0-0pDIN-Schrift
 11
6.123031769111886E-17
 21
1.0
 31
0.0
 73
     1
 44
1.0
  0
POINT
  5
487
330
47F
100
AcDbEntity
  8
Defpoints
 62
     0
100
AcDbPoint
 10
1814.007392
 20
1923.64
 30
0.0
  0
POINT
  5
488
330
47F
100
AcDbEntity
  8
Defpoints
 62
     0
100
AcDbPoint
 10
1814.007392
 20
1501.14
 30
0.0
  0
POINT
  5
489
330
47F
100
AcDbEntity
  8
Defpoints
 62
     0
100
AcDbPoint
 10
1900.0
 20
1501.14
 30
0.0
  0
ENDBLK
  5
48B
330
47F
100
AcDbEntity
  8
0
100
AcDbBlockEnd
  0
BLOCK
  5
499
330
48D
100
AcDbEntity
  8
0
100
AcDbBlockBegin
  2
*D26
 70
     1
 71
     0
 10
0.0
 20
0.0
 30
0.0
  3
*D26
  1

  0
LINE
  5
48E
330
48D
100
AcDbEntity
  8
LC-006-003-----0
 62
     2
370
    -2
100
AcDbLine
 10
463.759738
 20
1457.34
 30
0.0
 11
463.759738
 21
1382.0
 31
0.0
  0
LINE
  5
48F
330
48D
100
AcDbEntity
  8
LC-006-003-----0
 62
     2
370
    -2
100
AcDbLine
 10
497.559738
 20
1457.34
 30
0.0
 11
497.559738
 21
1382.0
 31
0.0
  0
LINE
  5
490
330
48D
100
AcDbEntity
  8
LC-006-003-----0
 62
     2
370
    -2
100
AcDbLine
 10
438.759738
 20
1400.0
 30
0.0
 11
413.759738
 21
1400.0
 31
0.0
  0
LINE
  5
491
330
48D
100
AcDbEntity
  8
LC-006-003-----0
 62
     2
370
    -2
100
AcDbLine
 10
522.559738
 20
1400.0
 30
0.0
 11
547.559738
 21
1400.0
 31
0.0
  0
LINE
  5
492
330
48D
100
AcDbEntity
  8
LC-006-003-----0
 62
     2
370
    -2
100
AcDbLine
 10
463.759738
 20
1400.0
 30
0.0
 11
497.559738
 21
1400.0
 31
0.0
  0
SOLID
  5
493
330
48D
100
AcDbEntity
  8
LC-006-003-----0
 62
     2
100
AcDbTrace
 10
438.759738
 20
1395.833333
 30
0.0
 11
438.759738
 21
1404.166667
 31
0.0
 12
463.759738
 22
1400.0
 32
0.0
 13
463.759738
 23
1400.0
 33
0.0
  0
SOLID
  5
494
330
48D
100
AcDbEntity
  8
LC-006-003-----0
 62
     2
100
AcDbTrace
 10
522.559738
 20
1404.166667
 30
0.0
 11
522.559738
 21
1395.833333
 31
0.0
 12
497.559738
 22
1400.0
 32
0.0
 13
497.559738
 23
1400.0
 33
0.0
  0
MTEXT
  5
495
330
48D
100
AcDbEntity
  8
LC-006-003-----0
 62
     2
100
AcDbMText
 10
480.659738
 20
1430.0
 30
0.0
 40
25.0
 41
0.0
 71
     5
 72
     1
  1
\A1;33,8
  7
LCTX0-400-0-0pDIN-Schrift
 73
     1
 44
1.0
  0
POINT
  5
496
330
48D
100
AcDbEntity
  8
Defpoints
 62
     0
100
AcDbPoint
 10
463.759738
 20
1457.34
 30
0.0
  0
POINT
  5
497
330
48D
100
AcDbEntity
  8
Defpoints
 62
     0
100
AcDbPoint
 10
497.559738
 20
1457.34
 30
0.0
  0
POINT
  5
498
330
48D
100
AcDbEntity
  8
Defpoints
 62
     0
100
AcDbPoint
 10
497.559738
 20
1400.0
 30
0.0
  0
ENDBLK
  5
49A
330
48D
100
AcDbEntity
  8
0
100
AcDbBlockEnd
  0
BLOCK
  5
4A8
330
49C
100
AcDbEntity
  8
0
100
AcDbBlockBegin
  2
*D27
 70
     1
 71
     0
 10
0.0
 20
0.0
 30
0.0
  3
*D27
  1

  0
LINE
  5
49D
330
49C
100
AcDbEntity
  8
LC-006-003-----0
 62
     2
370
    -2
100
AcDbLine
 10
1301.959738
 20
1457.34
 30
0.0
 11
1301.959738
 21
1382.0
 31
0.0
  0
LINE
  5
49E
330
49C
100
AcDbEntity
  8
LC-006-003-----0
 62
     2
370
    -2
100
AcDbLine
 10
1268.159738
 20
1457.34
 30
0.0
 11
1268.159738
 21
1382.0
 31
0.0
  0
LINE
  5
49F
330
49C
100
AcDbEntity
  8
LC-006-003-----0
 62
     2
370
    -2
100
AcDbLine
 10
1326.959738
 20
1400.0
 30
0.0
 11
1351.959738
 21
1400.0
 31
0.0
  0
LINE
  5
4A0
330
49C
100
AcDbEntity
  8
LC-006-003-----0
 62
     2
370
    -2
100
AcDbLine
 10
1243.159738
 20
1400.0
 30
0.0
 11
1222.729441
 21
1400.0
 31
0.0
  0
LINE
  5
4A1
330
49C
100
AcDbEntity
  8
LC-006-003-----0
 62
     2
370
    -2
100
AcDbLine
 10
1301.959738
 20
1400.0
 30
0.0
 11
1268.159738
 21
1400.0
 31
0.0
  0
SOLID
  5
4A2
330
49C
100
AcDbEntity
  8
LC-006-003-----0
 62
     2
100
AcDbTrace
 10
1326.959738
 20
1404.166667
 30
0.0
 11
1326.959738
 21
1395.833333
 31
0.0
 12
1301.959738
 22
1400.0
 32
0.0
 13
1301.959738
 23
1400.0
 33
0.0
  0
SOLID
  5
4A3
330
49C
100
AcDbEntity
  8
LC-006-003-----0
 62
     2
100
AcDbTrace
 10
1243.159738
 20
1395.833333
 30
0.0
 11
1243.159738
 21
1404.166667
 31
0.0
 12
1268.159738
 22
1400.0
 32
0.0
 13
1268.159738
 23
1400.0
 33
0.0
  0
MTEXT
  5
4A4
330
49C
100
AcDbEntity
  8
LC-006-003-----0
 62
     2
100
AcDbMText
 10
1265.598191
 20
1430.0
 30
0.0
 40
25.0
 41
0.0
 71
     5
 72
     1
  1
\A1;33,8
  7
LCTX0-400-0-0pDIN-Schrift
 73
     1
 44
1.0
  0
POINT
  5
4A5
330
49C
100
AcDbEntity
  8
Defpoints
 62
     0
100
AcDbPoint
 10
1301.959738
 20
1457.34
 30
0.0
  0
POINT
  5
4A6
330
49C
100
AcDbEntity
  8
Defpoints
 62
     0
100
AcDbPoint
 10
1268.159738
 20
1457.34
 30
0.0
  0
POINT
  5
4A7
330
49C
100
AcDbEntity
  8
Defpoints
 62
     0
100
AcDbPoint
 10
1268.159738
 20
1400.0
 30
0.0
  0
ENDBLK
  5
4A9
330
49C
100
AcDbEntity
  8
0
100
AcDbBlockEnd
  0
BLOCK
  5
4B7
330
4AB
100
AcDbEntity
  8
0
100
AcDbBlockBegin
  2
*D28
 70
     1
 71
     0
 10
0.0
 20
0.0
 30
0.0
  3
*D28
  1

  0
LINE
  5
4AC
330
4AB
100
AcDbEntity
  8
LC-006-003-----0
 62
     2
370
    -2
100
AcDbLine
 10
453.759738
 20
1467.34
 30
0.0
 11
382.0
 21
1467.34
 31
0.0
  0
LINE
  5
4AD
330
4AB
100
AcDbEntity
  8
LC-006-003-----0
 62
     2
370
    -2
100
AcDbLine
 10
453.759738
 20
1501.14
 30
0.0
 11
382.0
 21
1501.14
 31
0.0
  0
LINE
  5
4AE
330
4AB
100
AcDbEntity
  8
LC-006-003-----0
 62
     2
370
    -2
100
AcDbLine
 10
400.0
 20
1442.34
 30
0.0
 11
400.0
 21
1417.34
 31
0.0
  0
LINE
  5
4AF
330
4AB
100
AcDbEntity
  8
LC-006-003-----0
 62
     2
370
    -2
100
AcDbLine
 10
400.0
 20
1526.14
 30
0.0
 11
400.0
 21
1551.14
 31
0.0
  0
LINE
  5
4B0
330
4AB
100
AcDbEntity
  8
LC-006-003-----0
 62
     2
370
    -2
100
AcDbLine
 10
400.0
 20
1467.34
 30
0.0
 11
400.0
 21
1501.14
 31
0.0
  0
SOLID
  5
4B1
330
4AB
100
AcDbEntity
  8
LC-006-003-----0
 62
     2
100
AcDbTrace
 10
404.166667
 20
1442.34
 30
0.0
 11
395.833333
 21
1442.34
 31
0.0
 12
400.0
 22
1467.34
 32
0.0
 13
400.0
 23
1467.34
 33
0.0
  0
SOLID
  5
4B2
330
4AB
100
AcDbEntity
  8
LC-006-003-----0
 62
     2
100
AcDbTrace
 10
395.833333
 20
1526.14
 30
0.0
 11
404.166667
 21
1526.14
 31
0.0
 12
400.0
 22
1501.14
 32
0.0
 13
400.0
 23
1501.14
 33
0.0
  0
MTEXT
  5
4B3
330
4AB
100
AcDbEntity
  8
LC-006-003-----0
 62
     2
100
AcDbMText
 10
370.0
 20
1484.24
 30
0.0
 40
25.0
 41
0.0
 71
     5
 72
     1
  1
\A1;33,8
  7
LCTX0-400-0-0pDIN-Schrift
 11
6.123031769111886E-17
 21
1.0
 31
0.0
 73
     1
 44
1.0
  0
POINT
  5
4B4
330
4AB
100
AcDbEntity
  8
Defpoints
 62
     0
100
AcDbPoint
 10
453.759738
 20
1467.34
 30
0.0
  0
POINT
  5
4B5
330
4AB
100
AcDbEntity
  8
Defpoints
 62
     0
100
AcDbPoint
 10
453.759738
 20
1501.14
 30
0.0
  0
POINT
  5
4B6
330
4AB
100
AcDbEntity
  8
Defpoints
 62
     0
100
AcDbPoint
 10
400.0
 20
1501.14
 30
0.0
  0
ENDBLK
  5
4B8
330
4AB
100
AcDbEntity
  8
0
100
AcDbBlockEnd
  0
BLOCK
  5
4BA
330
4B9
100
AcDbEntity
  8
0
100
AcDbBlockBegin
  2
*X529
 70
     1
 71
     0
 10
0.0
 20
0.0
 30
0.0
  3
*X529
  1

  4
*X5
  0
LINE
  5
4BC
330
4B9
100
AcDbEntity
  8
LC-005-005-----0
 62
     7
370
    25
100
AcDbLine
 10
1164.719152
 20
1098.022548
 30
0.0
 11
1160.640647
 21
1102.101053
 31
0.0
  0
LINE
  5
4BD
330
4B9
100
AcDbEntity
  8
LC-005-005-----0
 62
     7
370
    25
100
AcDbLine
 10
1164.719152
 20
1069.738277
 30
0.0
 11
1132.356376
 21
1102.101053
 31
0.0
  0
LINE
  5
4BE
330
4B9
100
AcDbEntity
  8
LC-005-005-----0
 62
     7
370
    25
100
AcDbLine
 10
1164.719152
 20
1041.454006
 30
0.0
 11
1104.072105
 21
1102.101053
 31
0.0
  0
LINE
  5
4BF
330
4B9
100
AcDbEntity
  8
LC-005-005-----0
 62
     7
370
    25
100
AcDbLine
 10
1164.719152
 20
1013.169734
 30
0.0
 11
1119.469152
 21
1058.419734
 31
0.0
  0
LINE
  5
4C0
330
4B9
100
AcDbEntity
  8
LC-005-005-----0
 62
     7
370
    25
100
AcDbLine
 10
1106.037833
 20
1071.851053
 30
0.0
 11
1075.787833
 21
1102.101053
 31
0.0
  0
LINE
  5
4C1
330
4B9
100
AcDbEntity
  8
LC-005-005-----0
 62
     7
370
    25
100
AcDbLine
 10
1164.719152
 20
984.885463
 30
0.0
 11
1119.469152
 21
1030.135463
 31
0.0
  0
LINE
  5
4C2
330
4B9
100
AcDbEntity
  8
LC-005-005-----0
 62
     7
370
    25
100
AcDbLine
 10
1077.753562
 20
1071.851053
 30
0.0
 11
1047.503562
 21
1102.101053
 31
0.0
  0
LINE
  5
4C3
330
4B9
100
AcDbEntity
  8
LC-005-005-----0
 62
     7
370
    25
100
AcDbLine
 10
1164.719152
 20
956.601192
 30
0.0
 11
1119.469152
 21
1001.851192
 31
0.0
  0
LINE
  5
4C4
330
4B9
100
AcDbEntity
  8
LC-005-005-----0
 62
     7
370
    25
100
AcDbLine
 10
1049.469291
 20
1071.851053
 30
0.0
 11
1019.219291
 21
1102.101053
 31
0.0
  0
LINE
  5
4C5
330
4B9
100
AcDbEntity
  8
LC-005-005-----0
 62
     7
370
    25
100
AcDbLine
 10
1164.719152
 20
928.316921
 30
0.0
 11
1119.469152
 21
973.566921
 31
0.0
  0
LINE
  5
4C6
330
4B9
100
AcDbEntity
  8
LC-005-005-----0
 62
     7
370
    25
100
AcDbLine
 10
1021.18502
 20
1071.851053
 30
0.0
 11
990.93502
 21
1102.101053
 31
0.0
  0
LINE
  5
4C7
330
4B9
100
AcDbEntity
  8
LC-005-005-----0
 62
     7
370
    25
100
AcDbLine
 10
1164.719152
 20
900.032649
 30
0.0
 11
1119.469152
 21
945.282649
 31
0.0
  0
LINE
  5
4C8
330
4B9
100
AcDbEntity
  8
LC-005-005-----0
 62
     7
370
    25
100
AcDbLine
 10
992.900748
 20
1071.851053
 30
0.0
 11
962.650748
 21
1102.101053
 31
0.0
  0
LINE
  5
4C9
330
4B9
100
AcDbEntity
  8
LC-005-005-----0
 62
     7
370
    25
100
AcDbLine
 10
1164.719152
 20
871.748378
 30
0.0
 11
1119.469152
 21
916.998378
 31
0.0
  0
LINE
  5
4CA
330
4B9
100
AcDbEntity
  8
LC-005-005-----0
 62
     7
370
    25
100
AcDbLine
 10
964.616477
 20
1071.851053
 30
0.0
 11
934.366477
 21
1102.101053
 31
0.0
  0
LINE
  5
4CB
330
4B9
100
AcDbEntity
  8
LC-005-005-----0
 62
     7
370
    25
100
AcDbLine
 10
1164.719152
 20
843.464107
 30
0.0
 11
1119.469152
 21
888.714107
 31
0.0
  0
LINE
  5
4CC
330
4B9
100
AcDbEntity
  8
LC-005-005-----0
 62
     7
370
    25
100
AcDbLine
 10
936.332206
 20
1071.851053
 30
0.0
 11
906.082206
 21
1102.101053
 31
0.0
  0
LINE
  5
4CD
330
4B9
100
AcDbEntity
  8
LC-005-005-----0
 62
     7
370
    25
100
AcDbLine
 10
1164.719152
 20
815.179836
 30
0.0
 11
1119.469152
 21
860.429836
 31
0.0
  0
LINE
  5
4CE
330
4B9
100
AcDbEntity
  8
LC-005-005-----0
 62
     7
370
    25
100
AcDbLine
 10
908.047935
 20
1071.851053
 30
0.0
 11
877.797935
 21
1102.101053
 31
0.0
  0
LINE
  5
4CF
330
4B9
100
AcDbEntity
  8
LC-005-005-----0
 62
     7
370
    25
100
AcDbLine
 10
1164.719152
 20
786.895564
 30
0.0
 11
1119.469152
 21
832.145564
 31
0.0
  0
LINE
  5
4D0
330
4B9
100
AcDbEntity
  8
LC-005-005-----0
 62
     7
370
    25
100
AcDbLine
 10
879.763663
 20
1071.851053
 30
0.0
 11
849.513663
 21
1102.101053
 31
0.0
  0
LINE
  5
4D1
330
4B9
100
AcDbEntity
  8
LC-005-005-----0
 62
     7
370
    25
100
AcDbLine
 10
1151.229392
 20
772.101053
 30
0.0
 11
1118.678225
 21
804.65222
 31
0.0
  0
LINE
  5
4D2
330
4B9
100
AcDbEntity
  8
LC-005-005-----0
 62
     7
370
    25
100
AcDbLine
 10
851.479392
 20
1071.851053
 30
0.0
 11
821.229392
 21
1102.101053
 31
0.0
  0
LINE
  5
4D3
330
4B9
100
AcDbEntity
  8
LC-005-005-----0
 62
     7
370
    25
100
AcDbLine
 10
1122.945121
 20
772.101053
 30
0.0
 11
1092.695121
 21
802.351053
 31
0.0
  0
LINE
  5
4D4
330
4B9
100
AcDbEntity
  8
LC-005-005-----0
 62
     7
370
    25
100
AcDbLine
 10
823.195121
 20
1071.851053
 30
0.0
 11
792.945121
 21
1102.101053
 31
0.0
  0
LINE
  5
4D5
330
4B9
100
AcDbEntity
  8
LC-005-005-----0
 62
     7
370
    25
100
AcDbLine
 10
1094.66085
 20
772.101053
 30
0.0
 11
1064.41085
 21
802.351053
 31
0.0
  0
LINE
  5
4D6
330
4B9
100
AcDbEntity
  8
LC-005-005-----0
 62
     7
370
    25
100
AcDbLine
 10
794.91085
 20
1071.851053
 30
0.0
 11
764.66085
 21
1102.101053
 31
0.0
  0
LINE
  5
4D7
330
4B9
100
AcDbEntity
  8
LC-005-005-----0
 62
     7
370
    25
100
AcDbLine
 10
1066.376578
 20
772.101053
 30
0.0
 11
1036.126578
 21
802.351053
 31
0.0
  0
LINE
  5
4D8
330
4B9
100
AcDbEntity
  8
LC-005-005-----0
 62
     7
370
    25
100
AcDbLine
 10
766.626578
 20
1071.851053
 30
0.0
 11
736.376578
 21
1102.101053
 31
0.0
  0
LINE
  5
4D9
330
4B9
100
AcDbEntity
  8
LC-005-005-----0
 62
     7
370
    25
100
AcDbLine
 10
1038.092307
 20
772.101053
 30
0.0
 11
1007.842307
 21
802.351053
 31
0.0
  0
LINE
  5
4DA
330
4B9
100
AcDbEntity
  8
LC-005-005-----0
 62
     7
370
    25
100
AcDbLine
 10
738.342307
 20
1071.851053
 30
0.0
 11
708.092307
 21
1102.101053
 31
0.0
  0
LINE
  5
4DB
330
4B9
100
AcDbEntity
  8
LC-005-005-----0
 62
     7
370
    25
100
AcDbLine
 10
1009.808036
 20
772.101053
 30
0.0
 11
979.558036
 21
802.351053
 31
0.0
  0
LINE
  5
4DC
330
4B9
100
AcDbEntity
  8
LC-005-005-----0
 62
     7
370
    25
100
AcDbLine
 10
711.478339
 20
1070.430749
 30
0.0
 11
679.808036
 21
1102.101053
 31
0.0
  0
LINE
  5
4DD
330
4B9
100
AcDbEntity
  8
LC-005-005-----0
 62
     7
370
    25
100
AcDbLine
 10
981.523765
 20
772.101053
 30
0.0
 11
951.273765
 21
802.351053
 31
0.0
  0
LINE
  5
4DE
330
4B9
100
AcDbEntity
  8
LC-005-005-----0
 62
     7
370
    25
100
AcDbLine
 10
709.969152
 20
1043.655666
 30
0.0
 11
664.719152
 21
1088.905666
 31
0.0
  0
LINE
  5
4DF
330
4B9
100
AcDbEntity
  8
LC-005-005-----0
 62
     7
370
    25
100
AcDbLine
 10
953.239493
 20
772.101053
 30
0.0
 11
922.989493
 21
802.351053
 31
0.0
  0
LINE
  5
4E0
330
4B9
100
AcDbEntity
  8
LC-005-005-----0
 62
     7
370
    25
100
AcDbLine
 10
709.969152
 20
1015.371394
 30
0.0
 11
664.719152
 21
1060.621394
 31
0.0
  0
LINE
  5
4E1
330
4B9
100
AcDbEntity
  8
LC-005-005-----0
 62
     7
370
    25
100
AcDbLine
 10
924.955222
 20
772.101053
 30
0.0
 11
894.705222
 21
802.351053
 31
0.0
  0
LINE
  5
4E2
330
4B9
100
AcDbEntity
  8
LC-005-005-----0
 62
     7
370
    25
100
AcDbLine
 10
709.969152
 20
987.087123
 30
0.0
 11
664.719152
 21
1032.337123
 31
0.0
  0
LINE
  5
4E3
330
4B9
100
AcDbEntity
  8
LC-005-005-----0
 62
     7
370
    25
100
AcDbLine
 10
896.670951
 20
772.101053
 30
0.0
 11
866.420951
 21
802.351053
 31
0.0
  0
LINE
  5
4E4
330
4B9
100
AcDbEntity
  8
LC-005-005-----0
 62
     7
370
    25
100
AcDbLine
 10
709.969152
 20
958.802852
 30
0.0
 11
664.719152
 21
1004.052852
 31
0.0
  0
LINE
  5
4E5
330
4B9
100
AcDbEntity
  8
LC-005-005-----0
 62
     7
370
    25
100
AcDbLine
 10
868.38668
 20
772.101053
 30
0.0
 11
838.13668
 21
802.351053
 31
0.0
  0
LINE
  5
4E6
330
4B9
100
AcDbEntity
  8
LC-005-005-----0
 62
     7
370
    25
100
AcDbLine
 10
709.969152
 20
930.518581
 30
0.0
 11
664.719152
 21
975.768581
 31
0.0
  0
LINE
  5
4E7
330
4B9
100
AcDbEntity
  8
LC-005-005-----0
 62
     7
370
    25
100
AcDbLine
 10
840.102408
 20
772.101053
 30
0.0
 11
809.852408
 21
802.351053
 31
0.0
  0
LINE
  5
4E8
330
4B9
100
AcDbEntity
  8
LC-005-005-----0
 62
     7
370
    25
100
AcDbLine
 10
709.969152
 20
902.234309
 30
0.0
 11
664.719152
 21
947.484309
 31
0.0
  0
LINE
  5
4E9
330
4B9
100
AcDbEntity
  8
LC-005-005-----0
 62
     7
370
    25
100
AcDbLine
 10
811.818137
 20
772.101053
 30
0.0
 11
781.568137
 21
802.351053
 31
0.0
  0
LINE
  5
4EA
330
4B9
100
AcDbEntity
  8
LC-005-005-----0
 62
     7
370
    25
100
AcDbLine
 10
709.969152
 20
873.950038
 30
0.0
 11
664.719152
 21
919.200038
 31
0.0
  0
LINE
  5
4EB
330
4B9
100
AcDbEntity
  8
LC-005-005-----0
 62
     7
370
    25
100
AcDbLine
 10
783.533866
 20
772.101053
 30
0.0
 11
753.283866
 21
802.351053
 31
0.0
  0
LINE
  5
4EC
330
4B9
100
AcDbEntity
  8
LC-005-005-----0
 62
     7
370
    25
100
AcDbLine
 10
709.969152
 20
845.665767
 30
0.0
 11
664.719152
 21
890.915767
 31
0.0
  0
LINE
  5
4ED
330
4B9
100
AcDbEntity
  8
LC-005-005-----0
 62
     7
370
    25
100
AcDbLine
 10
755.249595
 20
772.101053
 30
0.0
 11
724.999595
 21
802.351053
 31
0.0
  0
LINE
  5
4EE
330
4B9
100
AcDbEntity
  8
LC-005-005-----0
 62
     7
370
    25
100
AcDbLine
 10
709.969152
 20
817.381496
 30
0.0
 11
664.719152
 21
862.631496
 31
0.0
  0
LINE
  5
4EF
330
4B9
100
AcDbEntity
  8
LC-005-005-----0
 62
     7
370
    25
100
AcDbLine
 10
726.965324
 20
772.101053
 30
0.0
 11
664.719152
 21
834.347224
 31
0.0
  0
LINE
  5
4F0
330
4B9
100
AcDbEntity
  8
LC-005-005-----0
 62
     7
370
    25
100
AcDbLine
 10
698.681052
 20
772.101053
 30
0.0
 11
664.719152
 21
806.062953
 31
0.0
  0
LINE
  5
4F1
330
4B9
100
AcDbEntity
  8
LC-005-005-----0
 62
     7
370
    25
100
AcDbLine
 10
670.396781
 20
772.101053
 30
0.0
 11
664.719152
 21
777.778682
 31
0.0
  0
ENDBLK
  5
4BB
330
4B9
100
AcDbEntity
  8
0
100
AcDbBlockEnd
  0
BLOCK
  5
503
330
4FA
100
AcDbEntity
  8
0
100
AcDbBlockBegin
  2
*D30
 70
     1
 71
     0
 10
0.0
 20
0.0
 30
0.0
  3
*D30
  1

  0
LINE
  5
4FB
330
4FA
100
AcDbEntity
  8
LC-006-003-----0
 62
     2
370
    -2
100
AcDbLine
 10
909.859738
 20
2522.24
 30
0.0
 11
832.0
 21
2522.24
 31
0.0
  0
LINE
  5
4FC
330
4FA
100
AcDbEntity
  8
LC-006-003-----0
 62
     2
370
    -2
100
AcDbLine
 10
850.0
 20
2624.24
 30
0.0
 11
850.0
 21
2547.24
 31
0.0
  0
SOLID
  5
4FD
330
4FA
100
AcDbEntity
  8
LC-006-003-----0
 62
     2
100
AcDbTrace
 10
854.166667
 20
2624.24
 30
0.0
 11
845.833333
 21
2624.24
 31
0.0
 12
850.0
 22
2649.24
 32
0.0
 13
850.0
 23
2649.24
 33
0.0
  0
SOLID
  5
4FE
330
4FA
100
AcDbEntity
  8
LC-006-003-----0
 62
     2
100
AcDbTrace
 10
845.833333
 20
2547.24
 30
0.0
 11
854.166667
 21
2547.24
 31
0.0
 12
850.0
 22
2522.24
 32
0.0
 13
850.0
 23
2522.24
 33
0.0
  0
MTEXT
  5
4FF
330
4FA
100
AcDbEntity
  8
LC-006-003-----0
 62
     2
100
AcDbMText
 10
820.0
 20
2585.74
 30
0.0
 40
25.0
 41
0.0
 71
     5
 72
     1
  1
\A1;127
  7
LCTX0-400-0-0pDIN-Schrift
 11
6.123031769111886E-17
 21
1.0
 31
0.0
 73
     1
 44
1.0
  0
POINT
  5
500
330
4FA
100
AcDbEntity
  8
Defpoints
 62
     0
100
AcDbPoint
 10
857.859738
 20
2649.24
 30
0.0
  0
POINT
  5
501
330
4FA
100
AcDbEntity
  8
Defpoints
 62
     0
100
AcDbPoint
 10
909.859738
 20
2522.24
 30
0.0
  0
POINT
  5
502
330
4FA
100
AcDbEntity
  8
Defpoints
 62
     0
100
AcDbPoint
 10
850.0
 20
2522.24
 30
0.0
  0
ENDBLK
  5
504
330
4FA
100
AcDbEntity
  8
0
100
AcDbBlockEnd
  0
ENDSEC
  0
SECTION
  2
ENTITIES
  0
INSERT
  5
105
330
1F
100
AcDbEntity
  8
LC-003-230-ZVN-0
 62
     7
370
    50
100
AcDbBlockReference
  2
SYM1
 10
0.0
 20
0.0
 30
0.0
  0
ARC
  5
106
102
{ACAD_REACTORS
330
51C
102
}
330
1F
100
AcDbEntity
  8
LC-002-002-----0
 62
     7
370
    50
100
AcDbCircle
 10
1541.302886
 20
1742.39703
 30
0.0
 40
5.000000000000077
100
AcDbArc
 50
4.0
 51
65.0
  0
LINE
  5
107
102
{ACAD_REACTORS
330
51D
102
}
330
1F
100
AcDbEntity
  8
LC-002-002-----0
 62
     7
370
    50
100
AcDbLine
 10
514.009436
 20
2416.197399
 30
0.0
 11
490.932199
 21
2635.762642
 31
0.0
  0
LINE
  5
108
102
{ACAD_REACTORS
330
51D
102
}
330
1F
100
AcDbEntity
  8
LC-002-002-----0
 62
     7
370
    50
100
AcDbLine
 10
761.999738
 20
2391.229872
 30
0.0
 11
761.999738
 21
2381.171911
 31
0.0
  0
LINE
  5
109
102
{ACAD_REACTORS
330
51D
102
}
330
1F
100
AcDbEntity
  8
LC-002-002-----0
 62
     7
370
    50
100
AcDbLine
 10
669.999738
 20
2391.229872
 30
0.0
 11
761.999738
 21
2391.229872
 31
0.0
  0
LINE
  5
10A
102
{ACAD_REACTORS
330
51D
102
}
330
1F
100
AcDbEntity
  8
LC-002-002-----0
 62
     7
370
    50
100
AcDbLine
 10
669.999738
 20
2391.229872
 30
0.0
 11
669.999738
 21
2381.171911
 31
0.0
  0
LINE
  5
10B
102
{ACAD_REACTORS
330
51D
102
}
330
1F
100
AcDbEntity
  8
LC-002-002-----0
 62
     7
370
    50
100
AcDbLine
 10
647.446475
 20
2386.985699
 30
0.0
 11
536.203806
 21
2394.764545
 31
0.0
  0
ARC
  5
10D
102
{ACAD_REACTORS
330
51D
102
}
330
1F
100
AcDbEntity
  8
LC-004-002-RND-0
 62
     7
370
    50
100
AcDbCircle
 10
537.877961
 20
2418.706082
 30
0.0
 40
24.00000000000006
100
AcDbArc
 50
186.0
 51
266.0
  0
ARC
  5
10E
102
{ACAD_REACTORS
330
51D
102
}
330
1F
100
AcDbEntity
  8
LC-004-002-RND-0
 62
     7
370
    50
100
AcDbCircle
 10
894.310686
 20
2418.71931
 30
0.0
 40
24.00000000000029
100
AcDbArc
 50
274.0
 51
354.0
  0
ARC
  5
10F
102
{ACAD_REACTORS
330
51D
102
}
330
1F
100
AcDbEntity
  8
LC-004-002-RND-0
 62
     7
370
    50
100
AcDbCircle
 10
975.794242
 20
2415.051967
 30
0.0
 40
23.99999999999998
100
AcDbArc
 50
186.0
 51
266.0
  0
ARC
  5
110
102
{ACAD_REACTORS
330
51D
102
}
330
1F
100
AcDbEntity
  8
LC-004-002-RND-0
 62
     7
370
    50
100
AcDbCircle
 10
647.097693
 20
2381.997879
 30
0.0
 40
5.000000000000181
100
AcDbArc
 50
25.0
 51
86.0
  0
ARC
  5
111
102
{ACAD_REACTORS
330
51D
102
}
330
1F
100
AcDbEntity
  8
LC-002-002-----0
 62
     7
370
    50
100
AcDbCircle
 10
890.789579
 20
2423.4853
 30
0.0
 40
20.00000000000024
100
AcDbArc
 50
274.0
 51
354.0
  0
LINE
  5
112
102
{ACAD_REACTORS
330
51D
102
}
330
1F
100
AcDbEntity
  8
LC-002-002-----0
 62
     7
370
    50
100
AcDbLine
 10
1274.787276
 20
2635.762642
 30
0.0
 11
1251.325475
 21
2412.538509
 31
0.0
  0
LINE
  5
113
102
{ACAD_REACTORS
330
51D
102
}
330
1F
100
AcDbEntity
  8
LC-002-002-----0
 62
     7
370
    50
100
AcDbLine
 10
927.815913
 20
2507.897712
 30
0.0
 11
918.179212
 21
2416.210627
 31
0.0
  0
LINE
  5
114
102
{ACAD_REACTORS
330
51D
102
}
330
1F
100
AcDbEntity
  8
LC-002-002-----0
 62
     7
370
    50
100
AcDbLine
 10
951.925717
 20
2412.543284
 30
0.0
 11
941.903562
 21
2507.897712
 31
0.0
  0
ARC
  5
115
102
{ACAD_REACTORS
330
51D
102
}
330
1F
100
AcDbEntity
  8
LC-004-002-RND-0
 62
     7
370
    50
100
AcDbCircle
 10
1227.456949
 20
2415.047192
 30
0.0
 40
23.99999999999938
100
AcDbArc
 50
274.0
 51
354.0
  0
ARC
  5
116
102
{ACAD_REACTORS
330
51D
102
}
330
1F
100
AcDbEntity
  8
LC-002-002-----0
 62
     7
370
    50
100
AcDbCircle
 10
934.859738
 20
2507.157376
 30
0.0
 40
7.082624193443924
100
AcDbArc
 50
6.0
 51
174.0
  0
LINE
  5
117
102
{ACAD_REACTORS
330
51D
102
}
330
1F
100
AcDbEntity
  8
LC-002-002-----0
 62
     7
370
    25
100
AcDbLine
 10
658.42476
 20
2395.24
 30
0.0
 11
773.574715
 21
2395.24
 31
0.0
  0
LINE
  5
118
102
{ACAD_REACTORS
330
51D
102
}
330
1F
100
AcDbEntity
  8
LC-002-002-----0
 62
     7
370
    50
100
AcDbLine
 10
1289.459738
 20
2640.24
 30
0.0
 11
1279.759886
 21
2640.24
 31
0.0
  0
LINE
  5
119
102
{ACAD_REACTORS
330
51D
102
}
330
1F
100
AcDbEntity
  8
LC-002-002-----0
 62
     7
370
    50
100
AcDbLine
 10
1301.959738
 20
2642.24
 30
0.0
 11
1289.459738
 21
2642.24
 31
0.0
  0
LINE
  5
11A
102
{ACAD_REACTORS
330
51D
102
}
330
1F
100
AcDbEntity
  8
LC-002-002-----0
 62
     7
370
    50
100
AcDbLine
 10
1289.459738
 20
2642.24
 30
0.0
 11
1289.459738
 21
2640.24
 31
0.0
  0
ARC
  5
11B
102
{ACAD_REACTORS
330
51D
102
}
330
1F
100
AcDbEntity
  8
LC-004-002-RND-0
 62
     7
370
    50
100
AcDbCircle
 10
1279.759886
 20
2635.24
 30
0.0
 40
5.0
100
AcDbArc
 50
90.0
 51
174.0
  0
LINE
  5
11C
102
{ACAD_REACTORS
330
51D
102
}
330
1F
100
AcDbEntity
  8
LC-002-002-----0
 62
     7
370
    50
100
AcDbLine
 10
464.054078
 20
2646.449269
 30
0.0
 11
463.759738
 21
2642.24
 31
0.0
  0
LINE
  5
11D
102
{ACAD_REACTORS
330
51D
102
}
330
1F
100
AcDbEntity
  8
LC-002-002-----0
 62
     7
370
    50
100
AcDbLine
 10
773.485389
 20
2394.219003
 30
0.0
 11
773.466615
 21
2394.004407
 31
0.0
  0
LINE
  5
11E
102
{ACAD_REACTORS
330
51D
102
}
330
1F
100
AcDbEntity
  8
LC-002-002-----0
 62
     7
370
    50
100
AcDbLine
 10
521.508631
 20
2421.381502
 30
0.0
 11
497.936209
 21
2645.658114
 31
0.0
  0
LINE
  5
11F
102
{ACAD_REACTORS
330
51D
102
}
330
1F
100
AcDbEntity
  8
LC-002-002-----0
 62
     7
370
    50
100
AcDbLine
 10
919.859738
 20
2508.733939
 30
0.0
 11
910.680017
 21
2421.39473
 31
0.0
  0
LINE
  5
120
102
{ACAD_REACTORS
330
51D
102
}
330
1F
100
AcDbEntity
  8
LC-002-002-----0
 62
     7
370
    50
100
AcDbLine
 10
658.532861
 20
2394.004407
 30
0.0
 11
658.514086
 21
2394.219003
 31
0.0
  0
LINE
  5
121
102
{ACAD_REACTORS
330
51D
102
}
330
1F
100
AcDbEntity
  8
LC-002-002-----0
 62
     7
370
    50
100
AcDbLine
 10
1158.970412
 20
2394.219003
 30
0.0
 11
1158.951637
 21
2394.004407
 31
0.0
  0
LINE
  5
122
102
{ACAD_REACTORS
330
51D
102
}
330
1F
100
AcDbEntity
  8
LC-002-002-----0
 62
     7
370
    50
100
AcDbLine
 10
1267.783266
 20
2645.658114
 30
0.0
 11
1243.827575
 21
2417.734938
 31
0.0
  0
LINE
  5
123
102
{ACAD_REACTORS
330
51D
102
}
330
1F
100
AcDbEntity
  8
LC-002-002-----0
 62
     7
370
    50
100
AcDbLine
 10
959.423616
 20
2417.739713
 30
0.0
 11
949.859738
 21
2508.733939
 31
0.0
  0
LINE
  5
124
102
{ACAD_REACTORS
330
51D
102
}
330
1F
100
AcDbEntity
  8
LC-002-002-----0
 62
     7
370
    50
100
AcDbLine
 10
1044.367838
 20
2394.004407
 30
0.0
 11
1044.349063
 21
2394.219003
 31
0.0
  0
LINE
  5
125
102
{ACAD_REACTORS
330
51D
102
}
330
1F
100
AcDbEntity
  8
LC-002-002-----0
 62
     7
370
    50
100
AcDbLine
 10
1301.959738
 20
2642.24
 30
0.0
 11
1301.665397
 21
2646.449269
 31
0.0
  0
LINE
  5
126
102
{ACAD_REACTORS
330
51D
102
}
330
1F
100
AcDbEntity
  8
LC-002-002-----0
 62
     7
370
    50
100
AcDbLine
 10
1158.129091
 20
2393.106755
 30
0.0
 11
1147.659738
 21
2391.260726
 31
0.0
  0
LINE
  5
127
102
{ACAD_REACTORS
330
51D
102
}
330
1F
100
AcDbEntity
  8
LC-002-002-----0
 62
     7
370
    50
100
AcDbLine
 10
772.644068
 20
2393.106755
 30
0.0
 11
761.999738
 21
2391.229872
 31
0.0
  0
LINE
  5
128
102
{ACAD_REACTORS
330
51D
102
}
330
1F
100
AcDbEntity
  8
LC-002-002-----0
 62
     7
370
    50
100
AcDbLine
 10
1225.332267
 20
2399.874227
 30
0.0
 11
1160.082138
 21
2395.311493
 31
0.0
  0
LINE
  5
129
102
{ACAD_REACTORS
330
51D
102
}
330
1F
100
AcDbEntity
  8
LC-002-002-----0
 62
     7
370
    50
100
AcDbLine
 10
1298.672705
 20
2649.24
 30
0.0
 11
467.046771
 21
2649.24
 31
0.0
  0
LINE
  5
12A
102
{ACAD_REACTORS
330
51D
102
}
330
1F
100
AcDbEntity
  8
LC-002-002-----0
 62
     7
370
    50
100
AcDbLine
 10
657.40236
 20
2395.311493
 30
0.0
 11
540.003939
 21
2403.52079
 31
0.0
  0
LINE
  5
12B
102
{ACAD_REACTORS
330
51D
102
}
330
1F
100
AcDbEntity
  8
LC-002-002-----0
 62
     7
370
    50
100
AcDbLine
 10
1043.237337
 20
2395.311493
 30
0.0
 11
977.918925
 21
2399.879002
 31
0.0
  0
LINE
  5
12C
102
{ACAD_REACTORS
330
51D
102
}
330
1F
100
AcDbEntity
  8
LC-002-002-----0
 62
     7
370
    50
100
AcDbLine
 10
669.999738
 20
2391.229872
 30
0.0
 11
659.355407
 21
2393.106755
 31
0.0
  0
LINE
  5
12D
102
{ACAD_REACTORS
330
51D
102
}
330
1F
100
AcDbEntity
  8
LC-002-002-----0
 62
     7
370
    50
100
AcDbLine
 10
1055.659738
 20
2391.260726
 30
0.0
 11
1045.190385
 21
2393.106755
 31
0.0
  0
ARC
  5
12E
102
{ACAD_REACTORS
330
51D
102
}
330
1F
100
AcDbEntity
  8
LC-002-002-----0
 62
     7
370
    50
100
AcDbCircle
 10
541.399069
 20
2423.472071
 30
0.0
 40
19.99999999999969
100
AcDbArc
 50
186.0
 51
266.0
  0
ARC
  5
12F
102
{ACAD_REACTORS
330
51D
102
}
330
1F
100
AcDbEntity
  8
LC-002-002-----0
 62
     7
370
    50
100
AcDbCircle
 10
493.958121
 20
2645.24
 30
0.0
 40
4.000000000000038
100
AcDbArc
 50
6.0
 51
90.0
  0
ARC
  5
130
102
{ACAD_REACTORS
330
51D
102
}
330
1F
100
AcDbEntity
  8
LC-002-002-----0
 62
     7
370
    50
100
AcDbCircle
 10
467.046771
 20
2646.24
 30
0.0
 40
3.0
100
AcDbArc
 50
90.0
 51
176.0
  0
ARC
  5
131
102
{ACAD_REACTORS
330
51D
102
}
330
1F
100
AcDbEntity
  8
LC-002-002-----0
 62
     7
370
    50
100
AcDbCircle
 10
774.680823
 20
2394.114416
 30
0.0
 40
1.200000000000096
100
AcDbArc
 50
94.0
 51
175.0
  0
ARC
  5
132
102
{ACAD_REACTORS
330
51D
102
}
330
1F
100
AcDbEntity
  8
LC-002-002-----0
 62
     7
370
    50
100
AcDbCircle
 10
657.318652
 20
2394.114416
 30
0.0
 40
1.200000000000195
100
AcDbArc
 50
5.0
 51
86.0
  0
ARC
  5
133
102
{ACAD_REACTORS
330
51D
102
}
330
1F
100
AcDbEntity
  8
LC-002-002-----0
 62
     7
370
    50
100
AcDbCircle
 10
772.47042
 20
2394.091563
 30
0.0
 40
1.000000000000085
100
AcDbArc
 50
280.0
 51
355.0
  0
ARC
  5
134
102
{ACAD_REACTORS
330
51D
102
}
330
1F
100
AcDbEntity
  8
LC-002-002-----0
 62
     7
370
    50
100
AcDbCircle
 10
659.529055
 20
2394.091563
 30
0.0
 40
0.9999999999998402
100
AcDbArc
 50
185.0
 51
260.0
  0
ARC
  5
135
102
{ACAD_REACTORS
330
51D
102
}
330
1F
100
AcDbEntity
  8
LC-002-002-----0
 62
     7
370
    50
100
AcDbCircle
 10
1223.937137
 20
2419.825508
 30
0.0
 40
20.00000000000012
100
AcDbArc
 50
274.0
 51
354.0
  0
ARC
  5
136
102
{ACAD_REACTORS
330
51D
102
}
330
1F
100
AcDbEntity
  8
LC-002-002-----0
 62
     7
370
    50
100
AcDbCircle
 10
979.314054
 20
2419.830283
 30
0.0
 40
19.99999999999992
100
AcDbArc
 50
186.0
 51
266.0
  0
ARC
  5
137
102
{ACAD_REACTORS
330
51D
102
}
330
1F
100
AcDbEntity
  8
LC-002-002-----0
 62
     7
370
    50
100
AcDbCircle
 10
934.859738
 20
2507.157376
 30
0.0
 40
15.0826241935001
100
AcDbArc
 50
6.0
 51
174.0
  0
ARC
  5
138
102
{ACAD_REACTORS
330
51D
102
}
330
1F
100
AcDbEntity
  8
LC-002-002-----0
 62
     7
370
    50
100
AcDbCircle
 10
1271.761354
 20
2645.24
 30
0.0
 40
4.0
100
AcDbArc
 50
90.0
 51
174.0
  0
ARC
  5
139
102
{ACAD_REACTORS
330
51D
102
}
330
1F
100
AcDbEntity
  8
LC-002-002-----0
 62
     7
370
    50
100
AcDbCircle
 10
1298.672705
 20
2646.24
 30
0.0
 40
3.000000000000006
100
AcDbArc
 50
4.0
 51
90.0
  0
ARC
  5
13A
102
{ACAD_REACTORS
330
51D
102
}
330
1F
100
AcDbEntity
  8
LC-002-002-----0
 62
     7
370
    50
100
AcDbCircle
 10
1160.165846
 20
2394.114416
 30
0.0
 40
1.200000000000096
100
AcDbArc
 50
94.0
 51
175.0
  0
ARC
  5
13B
102
{ACAD_REACTORS
330
51D
102
}
330
1F
100
AcDbEntity
  8
LC-002-002-----0
 62
     7
370
    50
100
AcDbCircle
 10
1043.15363
 20
2394.114416
 30
0.0
 40
1.200000000000195
100
AcDbArc
 50
5.0
 51
86.0
  0
ARC
  5
13C
102
{ACAD_REACTORS
330
51D
102
}
330
1F
100
AcDbEntity
  8
LC-002-002-----0
 62
     7
370
    50
100
AcDbCircle
 10
1157.955443
 20
2394.091563
 30
0.0
 40
1.000000000000125
100
AcDbArc
 50
280.0
 51
355.0
  0
ARC
  5
13D
102
{ACAD_REACTORS
330
51D
102
}
330
1F
100
AcDbEntity
  8
LC-002-002-----0
 62
     7
370
    50
100
AcDbCircle
 10
1045.364033
 20
2394.091563
 30
0.0
 40
0.9999999999998402
100
AcDbArc
 50
185.0
 51
260.0
  0
LINE
  5
13E
102
{ACAD_REACTORS
330
51D
102
}
330
1F
100
AcDbEntity
  8
LC-002-002-----0
 62
     7
370
    50
100
AcDbLine
 10
654.910948
 20
2381.171911
 30
0.0
 11
777.088527
 21
2381.171911
 31
0.0
  0
ARC
  5
13F
102
{ACAD_REACTORS
330
51D
102
}
330
1F
100
AcDbEntity
  8
LC-002-002-----0
 62
     7
370
    50
100
AcDbCircle
 10
654.910948
 20
2384.171911
 30
0.0
 40
3.000000000000054
100
AcDbArc
 50
205.0
 51
270.0
  0
LINE
  5
140
102
{ACAD_REACTORS
330
51D
102
}
330
1F
100
AcDbEntity
  8
LC-002-002-----0
 62
     7
370
    50
100
AcDbLine
 10
652.192025
 20
2382.904056
 30
0.0
 11
651.629231
 21
2384.11097
 31
0.0
  0
ARC
  5
141
102
{ACAD_REACTORS
330
51D
102
}
330
1F
100
AcDbEntity
  8
LC-004-002-RND-0
 62
     7
370
    50
100
AcDbCircle
 10
784.901783
 20
2381.997879
 30
0.0
 40
5.000000000000063
100
AcDbArc
 50
94.0
 51
155.0
  0
ARC
  5
142
102
{ACAD_REACTORS
330
51D
102
}
330
1F
100
AcDbEntity
  8
LC-002-002-----0
 62
     7
370
    50
100
AcDbCircle
 10
777.088527
 20
2384.171911
 30
0.0
 40
3.0
100
AcDbArc
 50
270.0
 51
335.0
  0
LINE
  5
143
102
{ACAD_REACTORS
330
51D
102
}
330
1F
100
AcDbEntity
  8
LC-002-002-----0
 62
     7
370
    50
100
AcDbLine
 10
779.80745
 20
2382.904056
 30
0.0
 11
780.370244
 21
2384.11097
 31
0.0
  0
LINE
  5
144
102
{ACAD_REACTORS
330
51D
102
}
330
1F
100
AcDbEntity
  8
LC-002-002-----0
 62
     7
370
    50
100
AcDbLine
 10
784.553
 20
2386.985699
 30
0.0
 11
895.984842
 21
2394.777773
 31
0.0
  0
LINE
  5
145
102
{ACAD_REACTORS
330
51D
102
}
330
1F
100
AcDbEntity
  8
LC-002-002-----0
 62
     7
370
    50
100
AcDbLine
 10
774.597115
 20
2395.311493
 30
0.0
 11
892.184708
 21
2403.534019
 31
0.0
  0
LINE
  5
146
102
{ACAD_REACTORS
330
51D
102
}
330
1F
100
AcDbEntity
  8
LC-002-002-----0
 62
     7
370
    25
100
AcDbLine
 10
1044.08476
 20
2395.24
 30
0.0
 11
1159.234715
 21
2395.24
 31
0.0
  0
LINE
  5
147
102
{ACAD_REACTORS
330
51D
102
}
330
1F
100
AcDbEntity
  8
LC-002-002-----0
 62
     7
370
    50
100
AcDbLine
 10
1033.106475
 20
2386.985699
 30
0.0
 11
974.120087
 21
2391.110429
 31
0.0
  0
ARC
  5
148
102
{ACAD_REACTORS
330
51D
102
}
330
1F
100
AcDbEntity
  8
LC-004-002-RND-0
 62
     7
370
    50
100
AcDbCircle
 10
1032.757693
 20
2381.997879
 30
0.0
 40
5.000000000000181
100
AcDbArc
 50
25.0
 51
86.0
  0
LINE
  5
149
102
{ACAD_REACTORS
330
51D
102
}
330
1F
100
AcDbEntity
  8
LC-002-002-----0
 62
     7
370
    50
100
AcDbLine
 10
1040.570948
 20
2381.171911
 30
0.0
 11
1162.748527
 21
2381.171911
 31
0.0
  0
ARC
  5
14A
102
{ACAD_REACTORS
330
51D
102
}
330
1F
100
AcDbEntity
  8
LC-002-002-----0
 62
     7
370
    50
100
AcDbCircle
 10
1040.570948
 20
2384.171911
 30
0.0
 40
3.000000000000054
100
AcDbArc
 50
205.0
 51
270.0
  0
LINE
  5
14B
102
{ACAD_REACTORS
330
51D
102
}
330
1F
100
AcDbEntity
  8
LC-002-002-----0
 62
     7
370
    50
100
AcDbLine
 10
1037.852025
 20
2382.904056
 30
0.0
 11
1037.289231
 21
2384.11097
 31
0.0
  0
ARC
  5
14C
102
{ACAD_REACTORS
330
51D
102
}
330
1F
100
AcDbEntity
  8
LC-004-002-RND-0
 62
     7
370
    50
100
AcDbCircle
 10
1170.561783
 20
2381.997879
 30
0.0
 40
5.000000000000063
100
AcDbArc
 50
94.0
 51
155.0
  0
ARC
  5
14D
102
{ACAD_REACTORS
330
51D
102
}
330
1F
100
AcDbEntity
  8
LC-002-002-----0
 62
     7
370
    50
100
AcDbCircle
 10
1162.748527
 20
2384.171911
 30
0.0
 40
3.0
100
AcDbArc
 50
270.0
 51
335.0
  0
LINE
  5
14E
102
{ACAD_REACTORS
330
51D
102
}
330
1F
100
AcDbEntity
  8
LC-002-002-----0
 62
     7
370
    50
100
AcDbLine
 10
1165.46745
 20
2382.904056
 30
0.0
 11
1166.030244
 21
2384.11097
 31
0.0
  0
LINE
  5
14F
102
{ACAD_REACTORS
330
51D
102
}
330
1F
100
AcDbEntity
  8
LC-002-002-----0
 62
     7
370
    50
100
AcDbLine
 10
1170.213
 20
2386.985699
 30
0.0
 11
1229.131104
 21
2391.105655
 31
0.0
  0
LINE
  5
150
102
{ACAD_REACTORS
330
51D
102
}
330
1F
100
AcDbEntity
  8
LC-002-002-----0
 62
     7
370
    50
100
AcDbLine
 10
476.259738
 20
2640.24
 30
0.0
 11
485.959589
 21
2640.24
 31
0.0
  0
LINE
  5
151
102
{ACAD_REACTORS
330
51D
102
}
330
1F
100
AcDbEntity
  8
LC-002-002-----0
 62
     7
370
    50
100
AcDbLine
 10
463.759738
 20
2642.24
 30
0.0
 11
476.259738
 21
2642.24
 31
0.0
  0
LINE
  5
152
102
{ACAD_REACTORS
330
51D
102
}
330
1F
100
AcDbEntity
  8
LC-002-002-----0
 62
     7
370
    50
100
AcDbLine
 10
476.259738
 20
2642.24
 30
0.0
 11
476.259738
 21
2640.24
 31
0.0
  0
ARC
  5
153
102
{ACAD_REACTORS
330
51D
102
}
330
1F
100
AcDbEntity
  8
LC-004-002-RND-0
 62
     7
370
    50
100
AcDbCircle
 10
485.959589
 20
2635.24
 30
0.0
 40
5.000000000000143
100
AcDbArc
 50
6.0
 51
90.0
  0
LINE
  5
154
102
{ACAD_REACTORS
330
51D
102
}
330
1F
100
AcDbEntity
  8
LC-002-002-----0
 62
     7
370
    50
100
AcDbLine
 10
1055.659738
 20
2391.229872
 30
0.0
 11
1147.659738
 21
2391.229872
 31
0.0
  0
LINE
  5
155
102
{ACAD_REACTORS
330
51D
102
}
330
1F
100
AcDbEntity
  8
LC-002-002-----0
 62
     7
370
    50
100
AcDbLine
 10
1055.659738
 20
2391.260726
 30
0.0
 11
1055.659738
 21
2381.171911
 31
0.0
  0
LINE
  5
156
102
{ACAD_REACTORS
330
51D
102
}
330
1F
100
AcDbEntity
  8
LC-002-002-----0
 62
     7
370
    50
100
AcDbLine
 10
1147.659738
 20
2391.260726
 30
0.0
 11
1147.659738
 21
2381.171911
 31
0.0
  0
ARC
  5
157
102
{ACAD_REACTORS
330
519
102
}
330
1F
100
AcDbEntity
  8
LC-002-002-----0
 62
     7
370
    50
100
AcDbCircle
 10
513.559738
 20
1517.14
 30
0.0
 40
16.0
100
AcDbArc
 50
180.0
 51
270.0
  0
ARC
  5
158
102
{ACAD_REACTORS
330
519
102
}
330
1F
100
AcDbEntity
  8
LC-002-002-----0
 62
     7
370
    50
100
AcDbCircle
 10
1252.159738
 20
1517.14
 30
0.0
 40
16.0
100
AcDbArc
 50
270.0
 51
0.0
  0
ARC
  5
159
102
{ACAD_REACTORS
330
519
102
}
330
1F
100
AcDbEntity
  8
LC-002-002-----0
 62
     7
370
    50
100
AcDbCircle
 10
517.559738
 20
1909.557233
 30
0.0
 40
19.99999999999997
100
AcDbArc
 50
125.112827
 51
180.0
  0
ARC
  5
15A
102
{ACAD_REACTORS
330
519
102
}
330
1F
100
AcDbEntity
  8
LC-002-002-----0
 62
     7
370
    50
100
AcDbCircle
 10
1252.159738
 20
1898.035909
 30
0.0
 40
16.0
100
AcDbArc
 50
0.0
 51
82.697292
  0
CIRCLE
  5
15B
102
{ACAD_REACTORS
330
519
102
}
330
1F
100
AcDbEntity
  8
LC-002-002-----0
 62
     7
370
    50
100
AcDbCircle
 10
715.999738
 20
1876.19
 30
0.0
 40
57.40000000000032
  0
CIRCLE
  5
15C
102
{ACAD_REACTORS
330
519
102
}
330
1F
100
AcDbEntity
  8
LC-002-002-----0
 62
     7
370
    50
100
AcDbCircle
 10
715.999738
 20
1876.19
 30
0.0
 40
46.0
  0
CIRCLE
  5
15D
102
{ACAD_REACTORS
330
519
102
}
330
1F
100
AcDbEntity
  8
LC-002-002-----0
 62
     7
370
    50
100
AcDbCircle
 10
1101.659738
 20
1813.415
 30
0.0
 40
57.40000000000009
  0
CIRCLE
  5
15E
102
{ACAD_REACTORS
330
519
102
}
330
1F
100
AcDbEntity
  8
LC-002-002-----0
 62
     7
370
    50
100
AcDbCircle
 10
1101.659738
 20
1813.415
 30
0.0
 40
46.0
  0
CIRCLE
  5
15F
102
{ACAD_REACTORS
330
519
102
}
330
1F
100
AcDbEntity
  8
LC-002-002-----0
 62
     7
370
    50
100
AcDbCircle
 10
949.871239
 20
1890.940865
 30
0.0
 40
0.0115008908499304
  0
ARC
  5
160
102
{ACAD_REACTORS
330
519
102
}
330
1F
100
AcDbEntity
  8
LC-002-002-----0
 62
     7
370
    50
100
AcDbCircle
 10
907.859738
 20
1527.907782
 30
0.0
 40
12.0
100
AcDbArc
 50
270.0
 51
360.0
  0
ARC
  5
161
102
{ACAD_REACTORS
330
519
102
}
330
1F
100
AcDbEntity
  8
LC-002-002-----0
 62
     7
370
    50
100
AcDbCircle
 10
961.859738
 20
1527.907782
 30
0.0
 40
12.0
100
AcDbArc
 50
180.0
 51
270.0
  0
ARC
  5
162
102
{ACAD_REACTORS
330
519
102
}
330
1F
100
AcDbEntity
  8
LC-002-002-----0
 62
     7
370
    50
100
AcDbCircle
 10
962.041324
 20
1890.137422
 30
0.0
 40
12.18158614269464
100
AcDbArc
 50
90.0
 51
180.0
  0
ARC
  5
163
102
{ACAD_REACTORS
330
519
102
}
330
1F
100
AcDbEntity
  8
LC-002-002-----0
 62
     7
370
    50
100
AcDbCircle
 10
908.54713
 20
1906.720411
 30
0.0
 40
11.31260805921465
100
AcDbArc
 50
0.0
 51
62.511609
  0
LINE
  5
164
102
{ACAD_REACTORS
330
519
102
}
330
1F
100
AcDbEntity
  8
LC-002-002-----0
 62
     7
370
    50
100
AcDbLine
 10
463.759738
 20
1480.04
 30
0.0
 11
463.759738
 21
2013.44
 31
0.0
  0
LINE
  5
165
102
{ACAD_REACTORS
330
519
102
}
330
1F
100
AcDbEntity
  8
LC-002-002-----0
 62
     7
370
    50
100
AcDbLine
 10
497.559738
 20
1517.14
 30
0.0
 11
497.559738
 21
1909.557233
 31
0.0
  0
LINE
  5
166
102
{ACAD_REACTORS
330
519
102
}
330
1F
100
AcDbEntity
  8
LC-002-002-----0
 62
     7
370
    50
100
AcDbLine
 10
1289.259738
 20
1467.34
 30
0.0
 11
476.459738
 21
1467.34
 31
0.0
  0
LINE
  5
167
102
{ACAD_REACTORS
330
519
102
}
330
1F
100
AcDbEntity
  8
LC-002-002-----0
 62
     7
370
    50
100
AcDbLine
 10
513.559738
 20
1501.14
 30
0.0
 11
1252.159738
 21
1501.14
 31
0.0
  0
LINE
  5
168
102
{ACAD_REACTORS
330
519
102
}
330
1F
100
AcDbEntity
  8
LC-002-002-----0
 62
     7
370
    50
100
AcDbLine
 10
919.859738
 20
1906.720411
 30
0.0
 11
919.859738
 21
1527.907782
 31
0.0
  0
LINE
  5
169
102
{ACAD_REACTORS
330
519
102
}
330
1F
100
AcDbEntity
  8
LC-002-002-----0
 62
     7
370
    50
100
AcDbLine
 10
949.859738
 20
1890.137422
 30
0.0
 11
949.859738
 21
1527.907782
 31
0.0
  0
LINE
  5
16A
102
{ACAD_REACTORS
330
519
102
}
330
1F
100
AcDbEntity
  8
LC-002-002-----0
 62
     7
370
    50
100
AcDbLine
 10
476.459738
 20
2026.14
 30
0.0
 11
1289.259738
 21
2026.14
 31
0.0
  0
LINE
  5
16B
102
{ACAD_REACTORS
330
519
102
}
330
1F
100
AcDbEntity
  8
LC-002-002-----0
 62
     7
370
    50
100
AcDbLine
 10
1268.159738
 20
1517.14
 30
0.0
 11
1268.159738
 21
1898.035909
 31
0.0
  0
LINE
  5
16C
102
{ACAD_REACTORS
330
519
102
}
330
1F
100
AcDbEntity
  8
LC-002-002-----0
 62
     7
370
    50
100
AcDbLine
 10
1301.959738
 20
2013.44
 30
0.0
 11
1301.959738
 21
1480.04
 31
0.0
  0
ARC
  5
16D
102
{ACAD_REACTORS
330
519
102
}
330
1F
100
AcDbEntity
  8
LC-002-002-----0
 62
     7
370
    50
100
AcDbCircle
 10
476.459738
 20
2013.44
 30
0.0
 40
12.69999999999982
100
AcDbArc
 50
90.0
 51
180.0
  0
ARC
  5
16E
102
{ACAD_REACTORS
330
519
102
}
330
1F
100
AcDbEntity
  8
LC-002-002-----0
 62
     7
370
    50
100
AcDbCircle
 10
476.459738
 20
1480.04
 30
0.0
 40
12.70000000000027
100
AcDbArc
 50
180.0
 51
270.0
  0
ARC
  5
16F
102
{ACAD_REACTORS
330
519
102
}
330
1F
100
AcDbEntity
  8
LC-002-002-----0
 62
     7
370
    50
100
AcDbCircle
 10
715.999738
 20
1627.34
 30
0.0
 40
365.0000000000001
100
AcDbArc
 50
56.826326
 51
125.112827
  0
ARC
  5
170
102
{ACAD_REACTORS
330
519
102
}
330
1F
100
AcDbEntity
  8
LC-002-002-----0
 62
     7
370
    50
100
AcDbCircle
 10
969.343473
 20
2014.878323
 30
0.0
 40
98.00000000000007
100
AcDbArc
 50
236.826326
 51
275.850813
  0
ARC
  5
171
102
{ACAD_REACTORS
330
519
102
}
330
1F
100
AcDbEntity
  8
LC-002-002-----0
 62
     7
370
    50
100
AcDbCircle
 10
1101.659738
 20
723.64
 30
0.0
 40
1200.000000000001
100
AcDbArc
 50
82.697292
 51
95.850813
  0
ARC
  5
172
102
{ACAD_REACTORS
330
519
102
}
330
1F
100
AcDbEntity
  8
LC-002-002-----0
 62
     7
370
    50
100
AcDbCircle
 10
1289.259738
 20
1480.04
 30
0.0
 40
12.70000000000005
100
AcDbArc
 50
270.0
 51
0.0
  0
ARC
  5
173
102
{ACAD_REACTORS
330
519
102
}
330
1F
100
AcDbEntity
  8
LC-002-002-----0
 62
     7
370
    50
100
AcDbCircle
 10
1289.259738
 20
2013.44
 30
0.0
 40
12.70000000000027
100
AcDbArc
 50
0.0
 51
90.0
  0
ARC
  5
174
102
{ACAD_REACTORS
330
51C
102
}
330
1F
100
AcDbEntity
  8
LC-004-002-RND-0
 62
     7
370
    50
100
AcDbCircle
 10
1571.03369
 20
1947.743312
 30
0.0
 40
20.00000000000024
100
AcDbArc
 50
96.0
 51
176.0
  0
ARC
  5
175
102
{ACAD_REACTORS
330
51C
102
}
330
1F
100
AcDbEntity
  8
LC-004-002-RND-0
 62
     7
370
    50
100
AcDbCircle
 10
1589.271784
 20
1543.819787
 30
0.0
 40
20.00000000000013
100
AcDbArc
 50
184.0
 51
264.0
  0
LINE
  5
176
102
{ACAD_REACTORS
330
51C
102
}
330
1F
100
AcDbEntity
  8
LC-002-002-----0
 62
     7
370
    50
100
AcDbLine
 10
1541.754131
 20
1807.621865
 30
0.0
 11
1560.564258
 21
1538.624525
 31
0.0
  0
LINE
  5
177
102
{ACAD_REACTORS
330
51C
102
}
330
1F
100
AcDbEntity
  8
LC-002-002-----0
 62
     7
370
    50
100
AcDbLine
 10
1542.326163
 20
1952.938574
 30
0.0
 11
1541.754131
 21
1944.758135
 31
0.0
  0
ARC
  5
178
102
{ACAD_REACTORS
330
51C
102
}
330
1F
100
AcDbEntity
  8
LC-002-002-----0
 62
     7
370
    50
100
AcDbCircle
 10
1536.766311
 20
1945.106917
 30
0.0
 40
4.999999999999865
100
AcDbArc
 50
295.0
 51
356.0
  0
ARC
  5
179
102
{ACAD_REACTORS
330
51C
102
}
330
1F
100
AcDbEntity
  8
LC-002-002-----0
 62
     7
370
    50
100
AcDbCircle
 10
1536.766311
 20
1807.273083
 30
0.0
 40
5.000000000000032
100
AcDbArc
 50
4.0
 51
65.0
  0
LINE
  5
17A
102
{ACAD_REACTORS
330
51C
102
}
330
1F
100
AcDbEntity
  8
LC-002-002-----0
 62
     7
370
    50
100
AcDbLine
 10
1790.530034
 20
1998.967539
 30
0.0
 11
1563.759017
 21
1975.132945
 31
0.0
  0
LINE
  5
17B
102
{ACAD_REACTORS
330
51C
102
}
330
1F
100
AcDbEntity
  8
LC-002-002-----0
 62
     7
370
    50
100
AcDbLine
 10
1581.997112
 20
1516.430154
 30
0.0
 11
1790.530034
 21
1494.512461
 31
0.0
  0
ARC
  5
17C
102
{ACAD_REACTORS
330
51C
102
}
330
1F
100
AcDbEntity
  8
LC-002-002-----0
 62
     7
370
    50
100
AcDbCircle
 10
1566.2677
 20
1951.264419
 30
0.0
 40
23.99999999999987
100
AcDbArc
 50
96.0
 51
176.0
  0
ARC
  5
17D
102
{ACAD_REACTORS
330
51C
102
}
330
1F
100
AcDbEntity
  8
LC-004-002-RND-0
 62
     7
370
    50
100
AcDbCircle
 10
1584.505795
 20
1540.29868
 30
0.0
 40
24.00000000000015
100
AcDbArc
 50
184.0
 51
264.0
  0
LINE
  5
17E
102
{ACAD_REACTORS
330
51C
102
}
330
1F
100
AcDbEntity
  8
LC-002-002-----0
 62
     7
370
    50
100
AcDbLine
 10
1797.007392
 20
2026.14
 30
0.0
 11
1797.007392
 21
2013.64
 31
0.0
  0
LINE
  5
17F
102
{ACAD_REACTORS
330
51C
102
}
330
1F
100
AcDbEntity
  8
LC-002-002-----0
 62
     7
370
    50
100
AcDbLine
 10
1797.007392
 20
2013.64
 30
0.0
 11
1795.007392
 21
2013.64
 31
0.0
  0
ARC
  5
180
102
{ACAD_REACTORS
330
51C
102
}
330
1F
100
AcDbEntity
  8
LC-002-002-----0
 62
     7
370
    50
100
AcDbCircle
 10
1790.007392
 20
2003.940148
 30
0.0
 40
5.000000000000286
100
AcDbArc
 50
276.0
 51
0.0
  0
LINE
  5
181
102
{ACAD_REACTORS
330
51C
102
}
330
1F
100
AcDbEntity
  8
LC-002-002-----0
 62
     7
370
    50
100
AcDbLine
 10
1795.007392
 20
2013.64
 30
0.0
 11
1795.007392
 21
2003.940148
 31
0.0
  0
LINE
  5
182
102
{ACAD_REACTORS
330
51C
102
}
330
1F
100
AcDbEntity
  8
LC-002-002-----0
 62
     7
370
    50
100
AcDbLine
 10
1797.007392
 20
1467.34
 30
0.0
 11
1797.007392
 21
1479.84
 31
0.0
  0
LINE
  5
183
102
{ACAD_REACTORS
330
51C
102
}
330
1F
100
AcDbEntity
  8
LC-002-002-----0
 62
     7
370
    50
100
AcDbLine
 10
1797.007392
 20
1479.84
 30
0.0
 11
1795.007392
 21
1479.84
 31
0.0
  0
ARC
  5
184
102
{ACAD_REACTORS
330
51C
102
}
330
1F
100
AcDbEntity
  8
LC-002-002-----0
 62
     7
370
    50
100
AcDbCircle
 10
1790.007392
 20
1489.539852
 30
0.0
 40
5.0
100
AcDbArc
 50
0.0
 51
84.0
  0
LINE
  5
185
102
{ACAD_REACTORS
330
51C
102
}
330
1F
100
AcDbEntity
  8
LC-002-002-----0
 62
     7
370
    50
100
AcDbLine
 10
1795.007392
 20
1489.539852
 30
0.0
 11
1795.007392
 21
1479.84
 31
0.0
  0
LINE
  5
186
102
{ACAD_REACTORS
330
51C
102
}
330
1F
100
AcDbEntity
  8
LC-002-002-----0
 62
     7
370
    50
100
AcDbLine
 10
1545.997264
 20
1922.19
 30
0.0
 11
1545.997264
 21
1830.19
 31
0.0
  0
LINE
  5
187
102
{ACAD_REACTORS
330
51C
102
}
330
1F
100
AcDbEntity
  8
LC-002-002-----0
 62
     7
370
    50
100
AcDbLine
 10
1545.997264
 20
1830.19
 30
0.0
 11
1535.908449
 21
1830.19
 31
0.0
  0
LINE
  5
188
102
{ACAD_REACTORS
330
51C
102
}
330
1F
100
AcDbEntity
  8
LC-002-002-----0
 62
     7
370
    50
100
AcDbLine
 10
1545.997264
 20
1922.19
 30
0.0
 11
1535.908449
 21
1922.19
 31
0.0
  0
LINE
  5
189
102
{ACAD_REACTORS
330
51C
102
}
330
1F
100
AcDbEntity
  8
LC-002-002-----0
 62
     7
370
    50
100
AcDbLine
 10
1551.082409
 20
1949.138441
 30
0.0
 11
1550.078885
 21
1934.787378
 31
0.0
  0
LINE
  5
18A
102
{ACAD_REACTORS
330
51C
102
}
330
1F
100
AcDbEntity
  8
LC-002-002-----0
 62
     7
370
    50
100
AcDbLine
 10
1804.007392
 20
2022.852967
 30
0.0
 11
1804.007392
 21
1470.627033
 31
0.0
  0
LINE
  5
18B
102
{ACAD_REACTORS
330
51C
102
}
330
1F
100
AcDbEntity
  8
LC-002-002-----0
 62
     7
370
    50
100
AcDbLine
 10
1550.078885
 20
1817.592622
 30
0.0
 11
1569.320503
 21
1542.424658
 31
0.0
  0
LINE
  5
18C
102
{ACAD_REACTORS
330
51C
102
}
330
1F
100
AcDbEntity
  8
LC-002-002-----0
 62
     7
370
    50
100
AcDbLine
 10
1545.997264
 20
1830.19
 30
0.0
 11
1547.874147
 21
1819.54567
 31
0.0
  0
LINE
  5
18D
102
{ACAD_REACTORS
330
51C
102
}
330
1F
100
AcDbEntity
  8
LC-002-002-----0
 62
     7
370
    50
100
AcDbLine
 10
1547.874147
 20
1932.83433
 30
0.0
 11
1545.997264
 21
1922.19
 31
0.0
  0
LINE
  5
18E
102
{ACAD_REACTORS
330
51C
102
}
330
1F
100
AcDbEntity
  8
LC-002-002-----0
 62
     7
370
    50
100
AcDbLine
 10
1587.181215
 20
1523.929349
 30
0.0
 11
1800.425506
 21
1501.516471
 31
0.0
  0
LINE
  5
18F
102
{ACAD_REACTORS
330
51C
102
}
330
1F
100
AcDbEntity
  8
LC-002-002-----0
 62
     7
370
    50
100
AcDbLine
 10
1548.771799
 20
1818.723123
 30
0.0
 11
1548.986395
 21
1818.704348
 31
0.0
  0
LINE
  5
190
102
{ACAD_REACTORS
330
51C
102
}
330
1F
100
AcDbEntity
  8
LC-002-002-----0
 62
     7
370
    50
100
AcDbLine
 10
1797.007392
 20
2026.14
 30
0.0
 11
1801.216661
 21
2025.845659
 31
0.0
  0
LINE
  5
191
102
{ACAD_REACTORS
330
51C
102
}
330
1F
100
AcDbEntity
  8
LC-002-002-----0
 62
     7
370
    50
100
AcDbLine
 10
1801.216661
 20
1467.634341
 30
0.0
 11
1797.007392
 21
1467.34
 31
0.0
  0
LINE
  5
192
102
{ACAD_REACTORS
330
51C
102
}
330
1F
100
AcDbEntity
  8
LC-002-002-----0
 62
     7
370
    50
100
AcDbLine
 10
1548.986395
 20
1933.675652
 30
0.0
 11
1548.771799
 21
1933.656877
 31
0.0
  0
LINE
  5
193
102
{ACAD_REACTORS
330
51C
102
}
330
1F
100
AcDbEntity
  8
LC-002-002-----0
 62
     7
370
    50
100
AcDbLine
 10
1800.425506
 20
1991.963529
 30
0.0
 11
1568.943121
 21
1967.63375
 31
0.0
  0
ARC
  5
194
102
{ACAD_REACTORS
330
51C
102
}
330
1F
100
AcDbEntity
  8
LC-002-002-----0
 62
     7
370
    50
100
AcDbCircle
 10
1800.007392
 20
1995.941616
 30
0.0
 40
4.000000000000085
100
AcDbArc
 50
276.0
 51
0.0
  0
ARC
  5
195
102
{ACAD_REACTORS
330
51C
102
}
330
1F
100
AcDbEntity
  8
LC-002-002-----0
 62
     7
370
    50
100
AcDbCircle
 10
1800.007392
 20
1497.538384
 30
0.0
 40
4.0
100
AcDbArc
 50
0.0
 51
84.0
  0
ARC
  5
196
102
{ACAD_REACTORS
330
51C
102
}
330
1F
100
AcDbEntity
  8
LC-002-002-----0
 62
     7
370
    50
100
AcDbCircle
 10
1801.007392
 20
1470.627033
 30
0.0
 40
3.000000000000006
100
AcDbArc
 50
274.0
 51
0.0
  0
ARC
  5
197
102
{ACAD_REACTORS
330
51C
102
}
330
1F
100
AcDbEntity
  8
LC-002-002-----0
 62
     7
370
    50
100
AcDbCircle
 10
1801.007392
 20
2022.852967
 30
0.0
 40
3.0
100
AcDbArc
 50
0.0
 51
86.0
  0
ARC
  5
198
102
{ACAD_REACTORS
330
51C
102
}
330
1F
100
AcDbEntity
  8
LC-002-002-----0
 62
     7
370
    50
100
AcDbCircle
 10
1548.881808
 20
1934.871085
 30
0.0
 40
1.200000000000195
100
AcDbArc
 50
275.0
 51
356.0
  0
ARC
  5
199
102
{ACAD_REACTORS
330
51C
102
}
330
1F
100
AcDbEntity
  8
LC-002-002-----0
 62
     7
370
    50
100
AcDbCircle
 10
1548.881808
 20
1817.508915
 30
0.0
 40
1.200000000000081
100
AcDbArc
 50
4.0
 51
85.0
  0
ARC
  5
19A
102
{ACAD_REACTORS
330
51C
102
}
330
1F
100
AcDbEntity
  8
LC-002-002-----0
 62
     7
370
    50
100
AcDbCircle
 10
1548.858955
 20
1932.660682
 30
0.0
 40
0.9999999999993475
100
AcDbArc
 50
95.0
 51
170.0
  0
ARC
  5
19B
102
{ACAD_REACTORS
330
51C
102
}
330
1F
100
AcDbEntity
  8
LC-002-002-----0
 62
     7
370
    50
100
AcDbCircle
 10
1548.858955
 20
1819.719318
 30
0.0
 40
1.000000000000125
100
AcDbArc
 50
190.0
 51
265.0
  0
LINE
  5
19C
102
{ACAD_REACTORS
330
51C
102
}
330
1F
100
AcDbEntity
  8
LC-002-002-----0
 62
     7
370
    50
100
AcDbLine
 10
1535.908449
 20
1937.278789
 30
0.0
 11
1535.908449
 21
1815.101211
 31
0.0
  0
ARC
  5
19D
102
{ACAD_REACTORS
330
51C
102
}
330
1F
100
AcDbEntity
  8
LC-002-002-----0
 62
     7
370
    50
100
AcDbCircle
 10
1538.908449
 20
1815.101211
 30
0.0
 40
3.0
100
AcDbArc
 50
180.0
 51
245.0
  0
LINE
  5
19E
102
{ACAD_REACTORS
330
51C
102
}
330
1F
100
AcDbEntity
  8
LC-002-002-----0
 62
     7
370
    50
100
AcDbLine
 10
1537.640594
 20
1812.382287
 30
0.0
 11
1538.879402
 21
1811.804622
 31
0.0
  0
LINE
  5
19F
102
{ACAD_REACTORS
330
51C
102
}
330
1F
100
AcDbEntity
  8
LC-002-002-----0
 62
     7
370
    50
100
AcDbLine
 10
1541.890252
 20
1946.971001
 30
0.0
 11
1541.734886
 21
1944.749161
 31
0.0
  0
ARC
  5
1A0
102
{ACAD_REACTORS
330
51C
102
}
330
1F
100
AcDbEntity
  8
LC-002-002-----0
 62
     7
370
    50
100
AcDbCircle
 10
1538.908449
 20
1937.278789
 30
0.0
 40
3.000000000000466
100
AcDbArc
 50
115.0
 51
180.0
  0
LINE
  5
1A1
102
{ACAD_REACTORS
330
51C
102
}
330
1F
100
AcDbEntity
  8
LC-002-002-----0
 62
     7
370
    50
100
AcDbLine
 10
1537.640594
 20
1939.997713
 30
0.0
 11
1538.879402
 21
1940.575378
 31
0.0
  0
LINE
  5
1A2
102
{ACAD_REACTORS
330
51C
102
}
330
1F
100
AcDbEntity
  8
LC-002-002-----0
 62
     7
370
    25
100
AcDbLine
 10
1549.976538
 20
1933.764977
 30
0.0
 11
1549.976538
 21
1818.615023
 31
0.0
  0
LINE
  5
1A3
102
{ACAD_REACTORS
330
51C
102
}
330
1F
100
AcDbEntity
  8
LC-002-002-----0
  6
DASHED
 62
     7
370
    25
100
AcDbLine
 10
1790.530034
 20
1930.267539
 30
0.0
 11
1563.353959
 21
1906.390371
 31
0.0
  0
LINE
  5
1A4
102
{ACAD_REACTORS
330
51C
102
}
330
1F
100
AcDbEntity
  8
LC-002-002-----0
  6
DASHED
 62
     7
370
    25
100
AcDbLine
 10
1800.425506
 20
1923.263529
 30
0.0
 11
1568.538063
 21
1898.891176
 31
0.0
  0
ARC
  5
1A5
102
{ACAD_REACTORS
330
51C
102
}
330
1F
100
AcDbEntity
  8
LC-002-002-----0
  6
DASHED
 62
     7
370
    25
100
AcDbCircle
 10
1790.007392
 20
1935.240148
 30
0.0
 40
4.999999999999833
100
AcDbArc
 50
276.0
 51
0.0
  0
ARC
  5
1A6
102
{ACAD_REACTORS
330
51C
102
}
330
1F
100
AcDbEntity
  8
LC-002-002-----0
  6
DASHED
 62
     7
370
    25
100
AcDbCircle
 10
1800.007392
 20
1927.241616
 30
0.0
 40
3.999999999999991
100
AcDbArc
 50
276.0
 51
0.0
  0
LINE
  5
1A7
102
{ACAD_REACTORS
330
51C
102
}
330
1F
100
AcDbEntity
  8
LC-002-002-----0
  6
DASHED
 62
     7
370
    25
100
AcDbLine
 10
1795.007392
 20
2013.64
 30
0.0
 11
1795.007392
 21
1935.240148
 31
0.0
  0
ARC
  5
1A8
102
{ACAD_REACTORS
330
51C
102
}
330
1F
100
AcDbEntity
  8
LC-004-002-RND-0
  6
DASHED
 62
     7
370
    25
100
AcDbCircle
 10
1565.862643
 20
1882.521846
 30
0.0
 40
24.00000000000018
100
AcDbArc
 50
96.0
 51
176.0
  0
ARC
  5
1A9
102
{ACAD_REACTORS
330
51C
102
}
330
1F
100
AcDbEntity
  8
LC-004-002-RND-0
  6
DASHED
 62
     7
370
    25
100
AcDbCircle
 10
1570.628632
 20
1879.000738
 30
0.0
 40
20.00000000000014
100
AcDbArc
 50
96.0
 51
176.0
  0
ARC
  5
1AA
102
{ACAD_REACTORS
330
51C
102
}
330
1F
100
AcDbEntity
  8
LC-002-002-----0
 62
     7
370
    50
100
AcDbCircle
 10
1538.939302
 20
1752.326211
 30
0.0
 40
3.0
100
AcDbArc
 50
180.0
 51
245.0
  0
LINE
  5
1AB
102
{ACAD_REACTORS
330
51C
102
}
330
1F
100
AcDbEntity
  8
LC-002-002-----0
 62
     7
370
    50
100
AcDbLine
 10
1537.671447
 20
1749.607287
 30
0.0
 11
1543.415978
 21
1746.928569
 31
0.0
  0
LINE
  5
1AC
102
{ACAD_REACTORS
330
51C
102
}
330
1F
100
AcDbEntity
  8
LC-002-002-----0
 62
     7
370
    50
100
AcDbLine
 10
1535.939302
 20
1814.672063
 30
0.0
 11
1535.939302
 21
1752.326211
 31
0.0
  0
LINE
  5
1AD
102
{ACAD_REACTORS
330
51A
102
}
330
1F
100
AcDbEntity
  8
LC-002-002-----0
 62
     7
370
    35
100
AcDbLine
 10
473.759738
 20
2642.24
 30
0.0
 11
353.759738
 21
2642.24
 31
0.0
  0
LINE
  5
1AE
102
{ACAD_REACTORS
330
51A
102
}
330
1F
100
AcDbEntity
  8
LC-002-002-----0
 62
     7
370
    35
100
AcDbLine
 10
353.759738
 20
2602.24
 30
0.0
 11
482.759738
 21
2602.24
 31
0.0
  0
LINE
  5
1AF
102
{ACAD_REACTORS
330
51A
102
}
330
1F
100
AcDbEntity
  8
LC-002-002-----0
 62
     7
370
    35
100
AcDbLine
 10
473.759738
 20
2602.24
 30
0.0
 11
473.759738
 21
2642.24
 31
0.0
  0
LINE
  5
1B0
102
{ACAD_REACTORS
330
51A
102
}
330
1F
100
AcDbEntity
  8
LC-002-002-----0
 62
     7
370
    35
100
AcDbLine
 10
1301.959738
 20
2381.171911
 30
0.0
 11
1301.959738
 21
2602.24
 31
0.0
  0
INSERT
  5
22B
102
{ACAD_REACTORS
330
51A
102
}
330
1F
100
AcDbEntity
  8
LC-005-005-----0
 62
     7
370
    18
100
AcDbBlockReference
  2
*X12
 10
0.0
 20
0.0
 30
0.0
  0
LINE
  5
22C
102
{ACAD_REACTORS
330
51A
102
}
330
1F
100
AcDbEntity
  8
LC-002-002-----0
 62
     7
370
    35
100
AcDbLine
 10
1291.959738
 20
2642.24
 30
0.0
 11
1412.759738
 21
2642.24
 31
0.0
  0
LINE
  5
22D
102
{ACAD_REACTORS
330
51A
102
}
330
1F
100
AcDbEntity
  8
LC-002-002-----0
 62
     7
370
    35
100
AcDbLine
 10
1412.759738
 20
2602.24
 30
0.0
 11
1282.959738
 21
2602.24
 31
0.0
  0
LINE
  5
22E
102
{ACAD_REACTORS
330
51A
102
}
330
1F
100
AcDbEntity
  8
LC-002-002-----0
 62
     7
370
    35
100
AcDbLine
 10
1291.959738
 20
2602.24
 30
0.0
 11
1291.959738
 21
2642.24
 31
0.0
  0
INSERT
  5
2A5
102
{ACAD_REACTORS
330
51A
102
}
330
1F
100
AcDbEntity
  8
LC-005-005-----0
 62
     7
370
    18
100
AcDbBlockReference
  2
*X23
 10
0.0
 20
0.0
 30
0.0
  0
LINE
  5
2A6
102
{ACAD_REACTORS
330
51A
102
}
330
1F
100
AcDbEntity
  8
LC-002-002-----0
 62
     7
370
    35
100
AcDbLine
 10
1282.959738
 20
2381.171911
 30
0.0
 11
1282.959738
 21
2602.24
 31
0.0
  0
INSERT
  5
30D
102
{ACAD_REACTORS
330
51A
102
}
330
1F
100
AcDbEntity
  8
LC-005-005-----0
 62
     7
370
    18
100
AcDbBlockReference
  2
*X34
 10
0.0
 20
0.0
 30
0.0
  0
LINE
  5
30E
102
{ACAD_REACTORS
330
51A
102
}
330
1F
100
AcDbEntity
  8
LC-002-002-----0
 62
     7
370
    35
100
AcDbLine
 10
463.759738
 20
2381.171911
 30
0.0
 11
463.759738
 21
2602.24
 31
0.0
  0
LINE
  5
30F
102
{ACAD_REACTORS
330
51A
102
}
330
1F
100
AcDbEntity
  8
LC-002-002-----0
 62
     7
370
    35
100
AcDbLine
 10
482.759738
 20
2381.171911
 30
0.0
 11
482.759738
 21
2602.24
 31
0.0
  0
INSERT
  5
376
102
{ACAD_REACTORS
330
51A
102
}
330
1F
100
AcDbEntity
  8
LC-005-005-----0
 62
     7
370
    18
100
AcDbBlockReference
  2
*X45
 10
0.0
 20
0.0
 30
0.0
  0
ARC
  5
377
102
{ACAD_REACTORS
330
51B
102
}
330
1F
100
AcDbEntity
  8
LC-004-002-RND-0
 62
     7
370
    50
100
AcDbCircle
 10
714.969152
 20
1066.851053
 30
0.0
 40
5.0
100
AcDbArc
 50
90.0
 51
180.0
  0
ARC
  5
378
102
{ACAD_REACTORS
330
51B
102
}
330
1F
100
AcDbEntity
  8
LC-004-002-RND-0
 62
     7
370
    50
100
AcDbCircle
 10
714.969152
 20
807.351053
 30
0.0
 40
5.0
100
AcDbArc
 50
180.0
 51
270.0
  0
ARC
  5
379
102
{ACAD_REACTORS
330
51B
102
}
330
1F
100
AcDbEntity
  8
LC-004-002-RND-0
 62
     7
370
    50
100
AcDbCircle
 10
1114.469152
 20
807.351053
 30
0.0
 40
5.0
100
AcDbArc
 50
270.0
 51
0.0
  0
ARC
  5
37A
102
{ACAD_REACTORS
330
51B
102
}
330
1F
100
AcDbEntity
  8
LC-004-002-RND-0
 62
     7
370
    50
100
AcDbCircle
 10
1114.469152
 20
1066.851053
 30
0.0
 40
5.0
100
AcDbArc
 50
0.0
 51
90.0
  0
LINE
  5
37B
102
{ACAD_REACTORS
330
51B
102
}
330
1F
100
AcDbEntity
  8
LC-002-002-----0
 62
     7
370
    50
100
AcDbLine
 10
714.969152
 20
802.351053
 30
0.0
 11
1114.469152
 21
802.351053
 31
0.0
  0
LINE
  5
37C
102
{ACAD_REACTORS
330
51B
102
}
330
1F
100
AcDbEntity
  8
LC-002-002-----0
 62
     7
370
    50
100
AcDbLine
 10
1119.469152
 20
807.351053
 30
0.0
 11
1119.469152
 21
1066.851053
 31
0.0
  0
LINE
  5
37D
102
{ACAD_REACTORS
330
51B
102
}
330
1F
100
AcDbEntity
  8
LC-002-002-----0
 62
     7
370
    50
100
AcDbLine
 10
1114.469152
 20
1071.851053
 30
0.0
 11
714.969152
 21
1071.851053
 31
0.0
  0
LINE
  5
37E
102
{ACAD_REACTORS
330
51B
102
}
330
1F
100
AcDbEntity
  8
LC-002-002-----0
 62
     7
370
    50
100
AcDbLine
 10
709.969152
 20
1066.851053
 30
0.0
 11
709.969152
 21
807.351053
 31
0.0
  0
DIMENSION
  5
381
330
1F
100
AcDbEntity
  8
LC-006-003-----0
 62
     7
370
    25
100
AcDbDimension
  2
*D6
 10
1119.469152
 20
700.0
 30
0.0
 11
914.719152
 21
730.0
 31
0.0
 70
   160
 71
     5
 42
819.0
  3
LC-DIM-L-0025-02-02
100
AcDbAlignedDimension
 13
709.969152
 23
767.101053
 33
0.0
 14
1119.469152
 24
767.101053
 34
0.0
100
AcDbRotatedDimension
1001
ACAD
1000
DSTYLE
1002
{
1070
   144
1040
2.0
1002
}
  0
DIMENSION
  5
38F
330
1F
100
AcDbEntity
  8
LC-006-003-----0
 62
     7
370
    25
100
AcDbDimension
  2
*D7
 10
600.0
 20
802.351053
 30
0.0
 11
570.0
 21
937.101053
 31
0.0
 70
   160
 71
     5
 42
539.0
 53
90.0
  3
LC-DIM-L-0025-02-02
100
AcDbAlignedDimension
 13
659.719152
 23
1071.851053
 33
0.0
 14
659.719152
 24
802.351053
 34
0.0
 50
90.0
100
AcDbRotatedDimension
1001
ACAD
1000
DSTYLE
1002
{
1070
   144
1040
2.0
1002
}
  0
DIMENSION
  5
39D
330
1F
100
AcDbEntity
  8
LC-006-003-----0
 62
     7
370
    25
100
AcDbDimension
  2
*D8
 10
714.969152
 20
807.351053
 30
0.0
 11
759.45642
 21
823.204614
 31
0.0
 70
   164
 71
     5
 42
10.0
  3
LC-DIM-R-0025-02-02
100
AcDbRadialDimension
 15
719.10181
 25
810.165504
 35
0.0
 40
1.0
1001
ACAD
1000
DSTYLE
1002
{
1070
   144
1040
2.0
1002
}
  0
DIMENSION
  5
3A6
330
1F
100
AcDbEntity
  8
LC-006-003-----0
 62
     7
370
    25
100
AcDbDimension
  2
*D9
 10
1301.959738
 20
1350.0
 30
0.0
 11
882.859738
 21
1380.0
 31
0.0
 70
   160
 71
     5
 42
838.2
  3
LC-DIM-L-0025-02-02
100
AcDbAlignedDimension
 13
463.759738
 23
1457.34
 33
0.0
 14
1301.959738
 24
1457.34
 34
0.0
100
AcDbRotatedDimension
  0
DIMENSION
  5
3B3
330
1F
100
AcDbEntity
  8
LC-006-003-----0
 62
     7
370
    25
100
AcDbDimension
  2
*D10
 10
350.0
 20
1467.34
 30
0.0
 11
320.0
 21
1746.74
 31
0.0
 70
   160
 71
     5
 42
558.8
 53
90.0
  3
LC-DIM-L-0025-02-02
100
AcDbAlignedDimension
 13
453.759738
 23
2026.14
 33
0.0
 14
453.759738
 24
1467.34
 34
0.0
 50
90.0
100
AcDbRotatedDimension
  0
DIMENSION
  5
3C0
330
1F
100
AcDbEntity
  8
LC-006-003-----0
 62
     7
370
    25
100
AcDbDimension
  2
*D11
 10
1301.959738
 20
2300.0
 30
0.0
 11
882.859738
 21
2330.0
 31
0.0
 70
   160
 71
     5
 42
838.2
  3
LC-DIM-L-0025-02-02
100
AcDbAlignedDimension
 13
463.759738
 23
2371.171911
 33
0.0
 14
1301.959738
 24
2371.171911
 34
0.0
100
AcDbRotatedDimension
  0
DIMENSION
  5
3CE
330
1F
100
AcDbEntity
  8
LC-006-003-----0
 62
     7
370
    25
100
AcDbDimension
  2
*D12
 10
700.0
 20
2395.24
 30
0.0
 11
670.0
 21
2522.24
 31
0.0
 70
   160
 71
     5
 42
254.0
 53
90.0
  3
LC-DIM-L-0025-02-32
100
AcDbAlignedDimension
 13
882.859738
 23
2649.24
 33
0.0
 14
715.999738
 24
2395.24
 34
0.0
 50
90.0
100
AcDbRotatedDimension
  0
DIMENSION
  5
3D9
330
1F
100
AcDbEntity
  8
LC-006-003-----0
 62
     7
370
    25
100
AcDbDimension
  2
*D13
 10
1100.0
 20
2395.24
 30
0.0
 11
1070.0
 21
2522.24
 31
0.0
 70
   160
 71
     5
 42
254.0
 53
90.0
  3
LC-DIM-L-0025-02-32
100
AcDbAlignedDimension
 13
882.859738
 23
2649.24
 33
0.0
 14
1101.659738
 24
2395.24
 34
0.0
 50
90.0
100
AcDbRotatedDimension
  0
DIMENSION
  5
3E4
330
1F
100
AcDbEntity
  8
LC-006-003-----0
 62
     7
370
    25
100
AcDbDimension
  2
*D14
 10
1268.159738
 20
2800.0
 30
0.0
 11
882.859738
 21
2830.0
 31
0.0
 70
   160
 71
     5
 42
770.6
  3
LC-DIM-L-0025-02-02
100
AcDbAlignedDimension
 13
497.559738
 23
2659.24
 33
0.0
 14
1268.159738
 24
2659.24
 34
0.0
100
AcDbRotatedDimension
  0
DIMENSION
  5
3F1
330
1F
100
AcDbEntity
  8
LC-006-003-----0
 62
     7
370
    25
100
AcDbDimension
  2
*D15
 10
497.559738
 20
2750.0
 30
0.0
 11
708.709738
 21
2780.0
 31
0.0
 70
   160
 71
     5
 42
422.3
  3
LC-DIM-L-0025-02-02
100
AcDbAlignedDimension
 13
919.859738
 23
2659.24
 33
0.0
 14
497.559738
 24
2659.24
 34
0.0
100
AcDbRotatedDimension
  0
DIMENSION
  5
3FF
330
1F
100
AcDbEntity
  8
LC-006-003-----0
 62
     7
370
    25
100
AcDbDimension
  2
*D16
 10
1268.159738
 20
2750.0
 30
0.0
 11
1109.009738
 21
2780.0
 31
0.0
 70
   160
 71
     5
 42
318.3
  3
LC-DIM-L-0025-02-02
100
AcDbAlignedDimension
 13
949.859738
 23
2659.24
 33
0.0
 14
1268.159738
 24
2659.24
 34
0.0
100
AcDbRotatedDimension
  0
DIMENSION
  5
40C
330
1F
100
AcDbEntity
  8
LC-006-003-----0
 62
     7
370
    25
100
AcDbDimension
  2
*D17
 10
949.859738
 20
2700.0
 30
0.0
 11
908.005533
 21
2730.0
 31
0.0
 70
   160
 71
     5
 42
30.0
  3
LC-DIM-L-0025-02-02
100
AcDbAlignedDimension
 13
919.859738
 23
2659.24
 33
0.0
 14
949.859738
 24
2659.24
 34
0.0
100
AcDbRotatedDimension
  0
DIMENSION
  5
41B
330
1F
100
AcDbEntity
  8
LC-006-003-----0
 62
     7
370
    25
100
AcDbDimension
  2
*D18
 10
1062.459738
 20
2100.0
 30
0.0
 11
1011.659738
 21
2130.0
 31
0.0
 70
   160
 71
     5
 42
101.6
  3
LC-DIM-L-0025-02-02
100
AcDbAlignedDimension
 13
960.859738
 23
2036.14
 33
0.0
 14
1062.459738
 24
2036.14
 34
0.0
100
AcDbRotatedDimension
  0
DIMENSION
  5
428
330
1F
100
AcDbEntity
  8
LC-006-003-----0
 62
     7
370
    25
100
AcDbDimension
  2
*D19
 10
1164.059738
 20
2100.0
 30
0.0
 11
1113.259738
 21
2130.0
 31
0.0
 70
   160
 71
     5
 42
101.6
  3
LC-DIM-L-0025-02-02
100
AcDbAlignedDimension
 13
1062.459738
 23
2036.14
 33
0.0
 14
1164.059738
 24
2036.14
 34
0.0
100
AcDbRotatedDimension
  0
DIMENSION
  5
435
330
1F
100
AcDbEntity
  8
LC-006-003-----0
 62
     7
370
    25
100
AcDbDimension
  2
*D20
 10
1301.959738
 20
2150.0
 30
0.0
 11
1131.409738
 21
2180.0
 31
0.0
 70
   160
 71
     5
 42
341.1
  3
LC-DIM-L-0025-02-02
100
AcDbAlignedDimension
 13
960.859738
 23
2036.14
 33
0.0
 14
1301.959738
 24
2036.14
 34
0.0
100
AcDbRotatedDimension
  0
DIMENSION
  5
443
330
1F
100
AcDbEntity
  8
LC-006-003-----0
 62
     7
370
    25
100
AcDbDimension
  2
*D21
 10
508.759738
 20
2100.0
 30
0.0
 11
536.268987
 21
2130.0
 31
0.0
 70
   160
 71
     5
 42
45.0
  3
LC-DIM-L-0025-02-02
100
AcDbAlignedDimension
 13
463.759738
 23
2036.14
 33
0.0
 14
508.759738
 24
2036.14
 34
0.0
100
AcDbRotatedDimension
  0
DIMENSION
  5
453
330
1F
100
AcDbEntity
  8
LC-006-003-----0
 62
     7
370
    25
100
AcDbDimension
  2
*D22
 10
400.0
 20
2026.14
 30
0.0
 11
370.0
 21
2072.569984
 31
0.0
 70
   160
 71
     5
 42
45.0
 53
90.0
  3
LC-DIM-L-0025-02-12
100
AcDbAlignedDimension
 13
453.759738
 23
1981.14
 33
0.0
 14
496.459738
 24
2026.14
 34
0.0
 50
90.0
100
AcDbRotatedDimension
  0
DIMENSION
  5
461
330
1F
100
AcDbEntity
  8
LC-006-003-----0
 62
     7
370
    25
100
AcDbDimension
  2
*D23
 10
1400.0
 20
1975.34
 30
0.0
 11
1370.0
 21
2075.539947
 31
0.0
 70
   160
 71
     5
 42
50.8
 53
90.0
  3
LC-DIM-L-0025-02-02
100
AcDbAlignedDimension
 13
1311.959738
 23
2026.14
 33
0.0
 14
1311.959738
 24
1975.34
 34
0.0
 50
90.0
100
AcDbRotatedDimension
  0
DIMENSION
  5
470
330
1F
100
AcDbEntity
  8
LC-006-003-----0
 62
     7
370
    25
100
AcDbDimension
  2
*D24
 10
2000.0
 20
1501.14
 30
0.0
 11
1970.0
 21
1746.74
 31
0.0
 70
   160
 71
     5
 42
491.2
 53
90.0
  3
LC-DIM-L-0025-02-02
100
AcDbAlignedDimension
 13
1814.007392
 23
1992.34
 33
0.0
 14
1814.007392
 24
1501.14
 34
0.0
 50
90.0
100
AcDbRotatedDimension
  0
DIMENSION
  5
47E
330
1F
100
AcDbEntity
  8
LC-006-003-----0
 62
     7
370
    25
100
AcDbDimension
  2
*D25
 10
1900.0
 20
1501.14
 30
0.0
 11
1870.0
 21
1712.39
 31
0.0
 70
   160
 71
     5
 42
422.5
 53
90.0
  3
LC-DIM-L-0025-02-02
100
AcDbAlignedDimension
 13
1814.007392
 23
1923.64
 33
0.0
 14
1814.007392
 24
1501.14
 34
0.0
 50
90.0
100
AcDbRotatedDimension
  0
DIMENSION
  5
48C
330
1F
100
AcDbEntity
  8
LC-006-003-----0
 62
     7
370
    25
100
AcDbDimension
  2
*D26
 10
497.559738
 20
1400.0
 30
0.0
 11
480.659738
 21
1430.0
 31
0.0
 70
   160
 71
     5
 42
33.8
  3
LC-DIM-L-0025-02-02
100
AcDbAlignedDimension
 13
463.759738
 23
1457.34
 33
0.0
 14
497.559738
 24
1457.34
 34
0.0
100
AcDbRotatedDimension
  0
DIMENSION
  5
49B
330
1F
100
AcDbEntity
  8
LC-006-003-----0
 62
     7
370
    25
100
AcDbDimension
  2
*D27
 10
1268.159738
 20
1400.0
 30
0.0
 11
1265.598191
 21
1430.0
 31
0.0
 70
   160
 71
     5
 42
33.8
  3
LC-DIM-L-0025-02-02
100
AcDbAlignedDimension
 13
1301.959738
 23
1457.34
 33
0.0
 14
1268.159738
 24
1457.34
 34
0.0
100
AcDbRotatedDimension
  0
DIMENSION
  5
4AA
330
1F
100
AcDbEntity
  8
LC-006-003-----0
 62
     7
370
    25
100
AcDbDimension
  2
*D28
 10
400.0
 20
1501.14
 30
0.0
 11
370.0
 21
1484.24
 31
0.0
 70
   160
 71
     5
 42
33.8
 53
90.0
  3
LC-DIM-L-0025-02-02
100
AcDbAlignedDimension
 13
453.759738
 23
1467.34
 33
0.0
 14
453.759738
 24
1501.14
 34
0.0
 50
90.0
100
AcDbRotatedDimension
  0
INSERT
  5
4F2
330
1F
100
AcDbEntity
  8
LC-005-005-----0
 62
     7
370
    25
100
AcDbBlockReference
  2
*X529
 10
0.0
 20
0.0
 30
0.0
  0
TEXT
  5
4F4
330
1F
100
AcDbEntity
  8
LC-007-004-----0
 62
     7
370
    18
100
AcDbText
 10
1705.120817
 20
561.221442
 30
0.0
 40
17.5
  1
Material: 
 41
0.8
  7
LCTX0-400-0-0pDIN-Schrift
100
AcDbText
  0
TEXT
  5
4F5
330
1F
100
AcDbEntity
  8
LC-007-004-----0
 62
     7
370
    25
100
AcDbText
 10
1801.335838
 20
557.471443
 30
0.0
 40
25.0
  1
Cristalite
 41
0.8
  7
LCTX0-400-0-0pDIN-Schrift
100
AcDbText
  0
TEXT
  5
4F6
330
1F
100
AcDbEntity
  8
LC-007-004-----0
 62
     7
370
    25
100
AcDbText
 10
1257.518666
 20
477.939631
 30
0.0
 40
25.0
  1
Art. Nr.  846
 41
0.8
  7
LCTX0-400-0-0pDIN-Schrift
100
AcDbText
  0
TEXT
  5
4F7
330
1F
100
AcDbEntity
  8
LC-007-004-----0
 62
     7
370
    35
100
AcDbText
 10
602.344152
 20
1135.251053
 30
0.0
 40
35.0
  1
Ausschnitt übergreifend 1:20
 41
0.7
  7
LCTX0-400-0-0pDIN-Schrift
 72
     1
 11
914.719152
 21
1135.251053
 31
0.0
100
AcDbText
  0
DIMENSION
  5
4F9
330
1F
100
AcDbEntity
  8
LC-006-003-----0
 62
     7
370
    25
100
AcDbDimension
  2
*D30
 10
850.0
 20
2522.24
 30
0.0
 11
820.0
 21
2585.74
 31
0.0
 70
   160
 71
     5
 42
127.0
 53
90.0
  3
LC-DIM-L-0025-02-22
100
AcDbAlignedDimension
 13
857.859738
 23
2649.24
 33
0.0
 14
909.859738
 24
2522.24
 34
0.0
 50
90.0
100
AcDbRotatedDimension
  0
ARC
  5
505
102
{ACAD_REACTORS
330
519
102
}
330
1F
100
AcDbEntity
  8
LC-002-002-----0
 62
     7
370
    25
100
AcDbCircle
 10
508.759738
 20
1981.14
 30
0.0
 40
19.05000000000018
100
AcDbArc
 50
72.0
 51
108.0
  0
ARC
  5
506
102
{ACAD_REACTORS
330
519
102
}
330
1F
100
AcDbEntity
  8
LC-002-002-----0
 62
     7
370
    25
100
AcDbCircle
 10
508.759738
 20
1981.14
 30
0.0
 40
19.0500000000002
100
AcDbArc
 50
144.0
 51
180.0
  0
ARC
  5
507
102
{ACAD_REACTORS
330
519
102
}
330
1F
100
AcDbEntity
  8
LC-002-002-----0
 62
     7
370
    25
100
AcDbCircle
 10
508.759738
 20
1981.14
 30
0.0
 40
19.05000000000012
100
AcDbArc
 50
216.0
 51
252.0
  0
ARC
  5
508
102
{ACAD_REACTORS
330
519
102
}
330
1F
100
AcDbEntity
  8
LC-002-002-----0
 62
     7
370
    25
100
AcDbCircle
 10
508.759738
 20
1981.14
 30
0.0
 40
19.04999999999957
100
AcDbArc
 50
288.0
 51
324.0
  0
ARC
  5
509
102
{ACAD_REACTORS
330
519
102
}
330
1F
100
AcDbEntity
  8
LC-002-002-----0
 62
     7
370
    25
100
AcDbCircle
 10
508.759738
 20
1981.14
 30
0.0
 40
19.0499999999995
100
AcDbArc
 50
0.0
 51
36.0
  0
ARC
  5
50A
102
{ACAD_REACTORS
330
519
102
}
330
1F
100
AcDbEntity
  8
LC-002-002-----0
 62
     7
370
    25
100
AcDbCircle
 10
960.859738
 20
1975.34
 30
0.0
 40
19.05000000000018
100
AcDbArc
 50
72.0
 51
108.0
  0
ARC
  5
50B
102
{ACAD_REACTORS
330
519
102
}
330
1F
100
AcDbEntity
  8
LC-002-002-----0
 62
     7
370
    25
100
AcDbCircle
 10
960.859738
 20
1975.34
 30
0.0
 40
19.0500000000002
100
AcDbArc
 50
144.0
 51
180.0
  0
ARC
  5
50C
102
{ACAD_REACTORS
330
519
102
}
330
1F
100
AcDbEntity
  8
LC-002-002-----0
 62
     7
370
    25
100
AcDbCircle
 10
960.859738
 20
1975.34
 30
0.0
 40
19.05000000000012
100
AcDbArc
 50
216.0
 51
252.0
  0
ARC
  5
50D
102
{ACAD_REACTORS
330
519
102
}
330
1F
100
AcDbEntity
  8
LC-002-002-----0
 62
     7
370
    25
100
AcDbCircle
 10
960.859738
 20
1975.34
 30
0.0
 40
19.04999999999957
100
AcDbArc
 50
288.0
 51
324.0
  0
ARC
  5
50E
102
{ACAD_REACTORS
330
519
102
}
330
1F
100
AcDbEntity
  8
LC-002-002-----0
 62
     7
370
    25
100
AcDbCircle
 10
960.859738
 20
1975.34
 30
0.0
 40
19.0499999999995
100
AcDbArc
 50
0.0
 51
36.0
  0
ARC
  5
50F
102
{ACAD_REACTORS
330
519
102
}
330
1F
100
AcDbEntity
  8
LC-002-002-----0
 62
     7
370
    25
100
AcDbCircle
 10
1062.459738
 20
1975.34
 30
0.0
 40
19.05000000000014
100
AcDbArc
 50
72.0
 51
108.0
  0
ARC
  5
510
102
{ACAD_REACTORS
330
519
102
}
330
1F
100
AcDbEntity
  8
LC-002-002-----0
 62
     7
370
    25
100
AcDbCircle
 10
1062.459738
 20
1975.34
 30
0.0
 40
19.0500000000002
100
AcDbArc
 50
144.0
 51
180.0
  0
ARC
  5
511
102
{ACAD_REACTORS
330
519
102
}
330
1F
100
AcDbEntity
  8
LC-002-002-----0
 62
     7
370
    25
100
AcDbCircle
 10
1062.459738
 20
1975.34
 30
0.0
 40
19.05000000000012
100
AcDbArc
 50
216.0
 51
252.0
  0
ARC
  5
512
102
{ACAD_REACTORS
330
519
102
}
330
1F
100
AcDbEntity
  8
LC-002-002-----0
 62
     7
370
    25
100
AcDbCircle
 10
1062.459738
 20
1975.34
 30
0.0
 40
19.04999999999957
100
AcDbArc
 50
288.0
 51
324.0
  0
ARC
  5
513
102
{ACAD_REACTORS
330
519
102
}
330
1F
100
AcDbEntity
  8
LC-002-002-----0
 62
     7
370
    25
100
AcDbCircle
 10
1062.459738
 20
1975.34
 30
0.0
 40
19.0499999999995
100
AcDbArc
 50
0.0
 51
36.0
  0
ARC
  5
514
102
{ACAD_REACTORS
330
519
102
}
330
1F
100
AcDbEntity
  8
LC-002-002-----0
 62
     7
370
    25
100
AcDbCircle
 10
1164.059738
 20
1975.34
 30
0.0
 40
19.05000000000014
100
AcDbArc
 50
72.0
 51
108.0
  0
ARC
  5
515
102
{ACAD_REACTORS
330
519
102
}
330
1F
100
AcDbEntity
  8
LC-002-002-----0
 62
     7
370
    25
100
AcDbCircle
 10
1164.059738
 20
1975.34
 30
0.0
 40
19.0500000000002
100
AcDbArc
 50
144.0
 51
180.0
  0
ARC
  5
516
102
{ACAD_REACTORS
330
519
102
}
330
1F
100
AcDbEntity
  8
LC-002-002-----0
 62
     7
370
    25
100
AcDbCircle
 10
1164.059738
 20
1975.34
 30
0.0
 40
19.05000000000012
100
AcDbArc
 50
216.0
 51
252.0
  0
ARC
  5
517
102
{ACAD_REACTORS
330
519
102
}
330
1F
100
AcDbEntity
  8
LC-002-002-----0
 62
     7
370
    25
100
AcDbCircle
 10
1164.059738
 20
1975.34
 30
0.0
 40
19.04999999999957
100
AcDbArc
 50
288.0
 51
324.0
  0
ARC
  5
518
102
{ACAD_REACTORS
330
519
102
}
330
1F
100
AcDbEntity
  8
LC-002-002-----0
 62
     7
370
    25
100
AcDbCircle
 10
1164.059738
 20
1975.34
 30
0.0
 40
19.0499999999995
100
AcDbArc
 50
0.0
 51
36.0
  0
ENDSEC
  0
SECTION
  2
OBJECTS
  0
DICTIONARY
  5
C
330
0
100
AcDbDictionary
281
     1
  3
ACAD_GROUP
350
D
  3
ACAD_LAYOUT
350
1A
  3
ACAD_MLINESTYLE
350
17
  3
ACAD_PLOTSETTINGS
350
19
  3
ACAD_PLOTSTYLENAME
350
E
  0
DICTIONARY
  5
D
102
{ACAD_REACTORS
330
C
102
}
330
C
100
AcDbDictionary
281
     1
  3
LCGROUP1848
350
51D
  3
LCGROUP1934
350
519
  3
LCGROUP2026
350
51C
  3
LCGROUP2269
350
51A
  3
LCGROUP2284
350
51B
  0
DICTIONARY
  5
1A
102
{ACAD_REACTORS
330
C
102
}
330
C
100
AcDbDictionary
281
     1
  3
Layout1
350
1E
  3
Layout2
350
26
  3
Model
350
22
  0
DICTIONARY
  5
17
102
{ACAD_REACTORS
330
C
102
}
330
C
100
AcDbDictionary
281
     1
  3
Standard
350
18
  0
DICTIONARY
  5
19
102
{ACAD_REACTORS
330
C
102
}
330
C
100
AcDbDictionary
281
     1
  0
ACDBDICTIONARYWDFLT
  5
E
102
{ACAD_REACTORS
330
C
102
}
330
C
100
AcDbDictionary
281
     1
  3
Normal
350
F
100
AcDbDictionaryWithDefault
340
F
  0
GROUP
  5
51D
102
{ACAD_REACTORS
330
D
102
}
330
D
100
AcDbGroup
300
GRP1848
 70
     1
 71
     1
340
107
340
108
340
109
340
10A
340
10B
340
10D
340
10E
340
10F
340
110
340
111
340
112
340
113
340
114
340
115
340
116
340
117
340
118
340
119
340
11A
340
11B
340
11C
340
11D
340
11E
340
11F
340
120
340
121
340
122
340
123
340
124
340
125
340
126
340
127
340
128
340
129
340
12A
340
12B
340
12C
340
12D
340
12E
340
12F
340
130
340
131
340
132
340
133
340
134
340
135
340
136
340
137
340
138
340
139
340
13A
340
13B
340
13C
340
13D
340
13E
340
13F
340
140
340
141
340
142
340
143
340
144
340
145
340
146
340
147
340
148
340
149
340
14A
340
14B
340
14C
340
14D
340
14E
340
14F
340
150
340
151
340
152
340
153
340
154
340
155
340
156
  0
GROUP
  5
519
102
{ACAD_REACTORS
330
D
102
}
330
D
100
AcDbGroup
300
GRP1934
 70
     1
 71
     1
340
157
340
158
340
159
340
15A
340
15B
340
15C
340
15D
340
15E
340
15F
340
160
340
161
340
162
340
163
340
164
340
165
340
166
340
167
340
168
340
169
340
16A
340
16B
340
16C
340
16D
340
16E
340
16F
340
170
340
171
340
172
340
173
340
505
340
506
340
507
340
508
340
509
340
50A
340
50B
340
50C
340
50D
340
50E
340
50F
340
510
340
511
340
512
340
513
340
514
340
515
340
516
340
517
340
518
  0
GROUP
  5
51C
102
{ACAD_REACTORS
330
D
102
}
330
D
100
AcDbGroup
300
GRP2026
 70
     1
 71
     1
340
106
340
174
340
175
340
176
340
177
340
178
340
179
340
17A
340
17B
340
17C
340
17D
340
17E
340
17F
340
180
340
181
340
182
340
183
340
184
340
185
340
186
340
187
340
188
340
189
340
18A
340
18B
340
18C
340
18D
340
18E
340
18F
340
190
340
191
340
192
340
193
340
194
340
195
340
196
340
197
340
198
340
199
340
19A
340
19B
340
19C
340
19D
340
19E
340
19F
340
1A0
340
1A1
340
1A2
340
1A3
340
1A4
340
1A5
340
1A6
340
1A7
340
1A8
340
1A9
340
1AA
340
1AB
340
1AC
  0
GROUP
  5
51A
102
{ACAD_REACTORS
330
D
102
}
330
D
100
AcDbGroup
300
GRP2269
 70
     1
 71
     1
340
1AD
340
1AE
340
1AF
340
1B0
340
22B
340
22C
340
22D
340
22E
340
2A5
340
2A6
340
30D
340
30E
340
30F
340
376
  0
GROUP
  5
51B
102
{ACAD_REACTORS
330
D
102
}
330
D
100
AcDbGroup
300
Äquidistante
 70
     1
 71
     1
340
377
340
378
340
379
340
37A
340
37B
340
37C
340
37D
340
37E
  0
LAYOUT
  5
1E
102
{ACAD_REACTORS
330
1A
102
}
330
1A
100
AcDbPlotSettings
  1

  2

  4

  6

 40
0.0
 41
0.0
 42
0.0
 43
0.0
 44
0.0
 45
0.0
 46
0.0
 47
0.0
 48
0.0
 49
0.0
140
0.0
141
0.0
142
1.0
143
1.0
 70
   688
 72
     0
 73
     0
 74
     5
  7

 75
    16
 76
     0
 77
     2
 78
   300
147
1.0
148
0.0
149
0.0
100
AcDbLayout
  1
Layout1
 70
     1
 71
     1
 10
0.0
 20
0.0
 11
2100.0
 21
2970.0
 12
0.0
 22
0.0
 32
0.0
 14
0.0
 24
0.0
 34
0.0
 15
2100.0
 25
2970.0
 35
0.0
146
0.0
 13
0.0
 23
0.0
 33
0.0
 16
1.0
 26
0.0
 36
0.0
 17
0.0
 27
1.0
 37
0.0
 76
     0
330
1B
  0
LAYOUT
  5
26
102
{ACAD_REACTORS
330
1A
102
}
330
1A
100
AcDbPlotSettings
  1

  2

  4

  6

 40
0.0
 41
0.0
 42
0.0
 43
0.0
 44
0.0
 45
0.0
 46
0.0
 47
0.0
 48
0.0
 49
0.0
140
0.0
141
0.0
142
1.0
143
1.0
 70
   688
 72
     0
 73
     0
 74
     5
  7

 75
    16
 76
     0
 77
     2
 78
   300
147
1.0
148
0.0
149
0.0
100
AcDbLayout
  1
Layout2
 70
     1
 71
     2
 10
0.0
 20
0.0
 11
0.0
 21
0.0
 12
0.0
 22
0.0
 32
0.0
 14
0.0
 24
0.0
 34
0.0
 15
0.0
 25
0.0
 35
0.0
146
0.0
 13
0.0
 23
0.0
 33
0.0
 16
1.0
 26
0.0
 36
0.0
 17
0.0
 27
1.0
 37
0.0
 76
     0
330
23
  0
LAYOUT
  5
22
102
{ACAD_REACTORS
330
1A
102
}
330
1A
100
AcDbPlotSettings
  1

  2

  4

  6

 40
0.0
 41
0.0
 42
0.0
 43
0.0
 44
0.0
 45
0.0
 46
0.0
 47
0.0
 48
0.0
 49
0.0
140
0.0
141
0.0
142
1.0
143
1.0
 70
  1776
 72
     0
 73
     0
 74
     0
  7

 75
     0
 76
     0
 77
     2
 78
   300
147
1.0
148
0.0
149
0.0
100
AcDbLayout
  1
Model
 70
     1
 71
     0
 10
0.0
 20
0.0
 11
2100.0
 21
2970.0
 12
0.0
 22
0.0
 32
0.0
 14
0.0
 24
0.0
 34
0.0
 15
2100.0
 25
2970.0
 35
0.0
146
0.0
 13
0.0
 23
0.0
 33
0.0
 16
1.0
 26
0.0
 36
0.0
 17
0.0
 27
1.0
 37
0.0
 76
     0
330
1F
  0
MLINESTYLE
  5
18
102
{ACAD_REACTORS
330
17
102
}
330
17
100
AcDbMlineStyle
  2
Standard
 70
     0
  3

 62
   256
 51
90.0
 52
90.0
 71
     2
 49
0.5
 62
   256
  6
BYLAYER
 49
-0.5
 62
   256
  6
BYLAYER
  0
ACDBPLACEHOLDER
  5
F
102
{ACAD_REACTORS
330
E
102
}
330
E
  0
ENDSEC
  0
EOF
