  0
SECTION
  2
HEADER
  9
$ACADVER
  1
AC1018
  9
$ACADMAINTVER
 70
     0
  9
$DWGCODEPAGE
  3
ANSI_1252
  9
$INSBASE
 10
0.0
 20
0.0
 30
0.0
  9
$EXTMIN
 10
0.0
 20
0.0
 30
0.0
  9
$EXTMAX
 10
2100.0
 20
2970.0
 30
0.0
  9
$LIMMIN
 10
0.0
 20
0.0
  9
$LIMMAX
 10
2100.0
 20
2970.0
  9
$ORTHOMODE
 70
     0
  9
$REGENMODE
 70
     1
  9
$FILLMODE
 70
     1
  9
$QTEXTMODE
 70
     0
  9
$MIRRTEXT
 70
     1
  9
$LTSCALE
 40
10.0
  9
$ATTMODE
 70
     1
  9
$TEXTSIZE
 40
2.5
  9
$TRACEWID
 40
1.0
  9
$TEXTSTYLE
  7
Standard
  9
$CLAYER
  8
0
  9
$CELTYPE
  6
ByLayer
  9
$CECOLOR
 62
     7
  9
$CELTSCALE
 40
1.0
  9
$DISPSILH
 70
     0
  9
$DIMSCALE
 40
10.0
  9
$DIMASZ
 40
3.5
  9
$DIMEXO
 40
0.625
  9
$DIMDLI
 40
3.75
  9
$DIMRND
 40
0.0
  9
$DIMDLE
 40
0.0
  9
$DIMEXE
 40
1.25
  9
$DIMTP
 40
0.0
  9
$DIMTM
 40
0.0
  9
$DIMTXT
 40
3.5
  9
$DIMCEN
 40
2.5
  9
$DIMTSZ
 40
0.0
  9
$DIMTOL
 70
     0
  9
$DIMLIM
 70
     0
  9
$DIMTIH
 70
     0
  9
$DIMTOH
 70
     0
  9
$DIMSE1
 70
     0
  9
$DIMSE2
 70
     0
  9
$DIMTAD
 70
     1
  9
$DIMZIN
 70
     8
  9
$DIMBLK
  1

  9
$DIMASO
 70
     1
  9
$DIMSHO
 70
     1
  9
$DIMPOST
  1

  9
$DIMAPOST
  1

  9
$DIMALT
 70
     0
  9
$DIMALTD
 70
     3
  9
$DIMALTF
 40
0.03937
  9
$DIMLFAC
 40
1.0
  9
$DIMTOFL
 70
     1
  9
$DIMTVP
 40
0.0
  9
$DIMTIX
 70
     0
  9
$DIMSOXD
 70
     0
  9
$DIMSAH
 70
     0
  9
$DIMBLK1
  1

  9
$DIMBLK2
  1

  9
$DIMSTYLE
  2
ISO-25
  9
$DIMCLRD
 70
     0
  9
$DIMCLRE
 70
     0
  9
$DIMCLRT
 70
     0
  9
$DIMTFAC
 40
1.0
  9
$DIMGAP
 40
0.625
  9
$DIMJUST
 70
     0
  9
$DIMSD1
 70
     0
  9
$DIMSD2
 70
     0
  9
$DIMTOLJ
 70
     0
  9
$DIMTZIN
 70
     8
  9
$DIMALTZ
 70
     0
  9
$DIMALTTZ
 70
     0
  9
$DIMUPT
 70
     0
  9
$DIMDEC
 70
     2
  9
$DIMTDEC
 70
     2
  9
$DIMALTU
 70
     2
  9
$DIMALTTD
 70
     3
  9
$DIMTXSTY
  7
Standard
  9
$DIMAUNIT
 70
     0
  9
$DIMADEC
 70
     0
  9
$DIMALTRND
 40
0.0
  9
$DIMAZIN
 70
     0
  9
$DIMDSEP
 70
    44
  9
$DIMATFIT
 70
     3
  9
$DIMFRAC
 70
     0
  9
$DIMLDRBLK
  1

  9
$DIMLUNIT
 70
     2
  9
$DIMLWD
 70
    -2
  9
$DIMLWE
 70
    -2
  9
$DIMTMOVE
 70
     0
  9
$LUNITS
 70
     2
  9
$LUPREC
 70
     4
  9
$SKETCHINC
 40
1.0
  9
$FILLETRAD
 40
10.0
  9
$AUNITS
 70
     0
  9
$AUPREC
 70
     0
  9
$MENU
  1
.
  9
$ELEVATION
 40
0.0
  9
$PELEVATION
 40
0.0
  9
$THICKNESS
 40
0.0
  9
$LIMCHECK
 70
     0
  9
$CHAMFERA
 40
10.0
  9
$CHAMFERB
 40
10.0
  9
$CHAMFERC
 40
20.0
  9
$CHAMFERD
 40
0.0
  9
$SKPOLY
 70
     0
  9
$TDCREATE
 40
2455873.490570868
  9
$TDUCREATE
 40
2455873.448904201
  9
$TDUPDATE
 40
2455873.49057088
  9
$TDUUPDATE
 40
2455873.448904213
  9
$TDINDWG
 40
0.0000000116
  9
$TDUSRTIMER
 40
0.0000000116
  9
$USRTIMER
 70
     1
  9
$ANGBASE
 50
0.0
  9
$ANGDIR
 70
     0
  9
$PDMODE
 70
     0
  9
$PDSIZE
 40
0.0
  9
$PLINEWID
 40
0.0
  9
$SPLFRAME
 70
     0
  9
$SPLINETYPE
 70
     6
  9
$SPLINESEGS
 70
     8
  9
$HANDSEED
  5
537
  9
$SURFTAB1
 70
     6
  9
$SURFTAB2
 70
     6
  9
$SURFTYPE
 70
     6
  9
$SURFU
 70
     6
  9
$SURFV
 70
     6
  9
$UCSBASE
  2

  9
$UCSNAME
  2

  9
$UCSORG
 10
0.0
 20
0.0
 30
0.0
  9
$UCSXDIR
 10
1.0
 20
0.0
 30
0.0
  9
$UCSYDIR
 10
0.0
 20
1.0
 30
0.0
  9
$UCSORTHOREF
  2

  9
$UCSORTHOVIEW
 70
     0
  9
$UCSORGTOP
 10
0.0
 20
0.0
 30
0.0
  9
$UCSORGBOTTOM
 10
0.0
 20
0.0
 30
0.0
  9
$UCSORGLEFT
 10
0.0
 20
0.0
 30
0.0
  9
$UCSORGRIGHT
 10
0.0
 20
0.0
 30
0.0
  9
$UCSORGFRONT
 10
0.0
 20
0.0
 30
0.0
  9
$UCSORGBACK
 10
0.0
 20
0.0
 30
0.0
  9
$PUCSBASE
  2

  9
$PUCSNAME
  2

  9
$PUCSORG
 10
0.0
 20
0.0
 30
0.0
  9
$PUCSXDIR
 10
1.0
 20
0.0
 30
0.0
  9
$PUCSYDIR
 10
0.0
 20
1.0
 30
0.0
  9
$PUCSORTHOREF
  2

  9
$PUCSORTHOVIEW
 70
     0
  9
$PUCSORGTOP
 10
0.0
 20
0.0
 30
0.0
  9
$PUCSORGBOTTOM
 10
0.0
 20
0.0
 30
0.0
  9
$PUCSORGLEFT
 10
0.0
 20
0.0
 30
0.0
  9
$PUCSORGRIGHT
 10
0.0
 20
0.0
 30
0.0
  9
$PUCSORGFRONT
 10
0.0
 20
0.0
 30
0.0
  9
$PUCSORGBACK
 10
0.0
 20
0.0
 30
0.0
  9
$USERI1
 70
     0
  9
$USERI2
 70
     0
  9
$USERI3
 70
     0
  9
$USERI4
 70
     0
  9
$USERI5
 70
     0
  9
$USERR1
 40
0.0
  9
$USERR2
 40
0.0
  9
$USERR3
 40
0.0
  9
$USERR4
 40
0.0
  9
$USERR5
 40
0.0
  9
$WORLDVIEW
 70
     1
  9
$SHADEDGE
 70
     3
  9
$SHADEDIF
 70
    70
  9
$TILEMODE
 70
     1
  9
$MAXACTVP
 70
    64
  9
$PINSBASE
 10
0.0
 20
0.0
 30
0.0
  9
$PLIMCHECK
 70
     0
  9
$PEXTMIN
 10
0.0
 20
0.0
 30
0.0
  9
$PEXTMAX
 10
2100.0
 20
2970.0
 30
0.0
  9
$PLIMMIN
 10
0.0
 20
0.0
  9
$PLIMMAX
 10
2100.0
 20
2970.0
  9
$UNITMODE
 70
     0
  9
$VISRETAIN
 70
     1
  9
$PLINEGEN
 70
     0
  9
$PSLTSCALE
 70
     1
  9
$TREEDEPTH
 70
  3020
  9
$CMLSTYLE
  2
Standard
  9
$CMLJUST
 70
     0
  9
$CMLSCALE
 40
20.0
  9
$PROXYGRAPHICS
 70
     1
  9
$MEASUREMENT
 70
     1
  9
$CELWEIGHT
370
    -1
  9
$ENDCAPS
280
     0
  9
$JOINSTYLE
280
     0
  9
$LWDISPLAY
290
     0
  9
$INSUNITS
 70
     4
  9
$HYPERLINKBASE
  1

  9
$STYLESHEET
  1

  9
$XEDIT
290
     1
  9
$CEPSNTYPE
380
     0
  9
$PSTYLEMODE
290
     1
  9
$FINGERPRINTGUID
  2
{FAEB1C30-E019-11D5-929B-00C0DF256EC4}
  9
$VERSIONGUID
  2
{FAEB1C32-E019-11D5-929B-00C0DF256EC4}
  9
$EXTNAMES
290
     1
  9
$PSVPSCALE
 40
0.0
  9
$OLESTARTUP
290
     0
  9
$SORTENTS
280
   127
  9
$INDEXCTL
280
     0
  9
$HIDETEXT
280
     1
  9
$XCLIPFRAME
290
     0
  9
$HALOGAP
280
     0
  9
$OBSCOLOR
 70
   257
  9
$OBSLTYPE
280
     0
  9
$INTERSECTIONDISPLAY
280
     0
  9
$INTERSECTIONCOLOR
 70
   257
  9
$DIMASSOC
280
     2
  9
$PROJECTNAME
  1

  0
ENDSEC
  0
SECTION
  2
CLASSES
  0
CLASS
  1
ACDBDICTIONARYWDFLT
  2
AcDbDictionaryWithDefault
  3
ObjectDBX Classes
 90
        0
 91
        1
280
     0
281
     0
  0
ENDSEC
  0
SECTION
  2
TABLES
  0
TABLE
  2
VPORT
  5
8
330
0
100
AcDbSymbolTable
 70
     2
  0
VPORT
  5
29
330
8
100
AcDbSymbolTableRecord
100
AcDbViewportTableRecord
  2
*ACTIVE
 70
     0
 10
0.0
 20
0.0
 11
1.0
 21
1.0
 12
1050.0
 22
1485.0
 13
0.0
 23
0.0
 14
1.0
 24
1.0
 15
0.0
 25
0.0
 16
0.0
 26
0.0
 36
1.0
 17
0.0
 27
0.0
 37
0.0
 40
2970.0
 41
0.707071
 42
50.0
 43
0.0
 44
0.0
 50
0.0
 51
0.0
 71
    16
 72
   100
 73
     1
 74
     0
 75
     0
 76
     0
 77
     0
 78
     0
281
     0
 65
     0
110
0.0
120
0.0
130
0.0
111
1.0
121
0.0
131
0.0
112
0.0
122
1.0
132
0.0
 79
     0
146
0.0
  0
ENDTAB
  0
TABLE
  2
LTYPE
  5
5
330
0
100
AcDbSymbolTable
 70
     4
  0
LTYPE
  5
14
330
5
100
AcDbSymbolTableRecord
100
AcDbLinetypeTableRecord
  2
ByBlock
 70
     0
  3

 72
    65
 73
     0
 40
0.0
  0
LTYPE
  5
15
330
5
100
AcDbSymbolTableRecord
100
AcDbLinetypeTableRecord
  2
ByLayer
 70
     0
  3

 72
    65
 73
     0
 40
0.0
  0
LTYPE
  5
16
330
5
100
AcDbSymbolTableRecord
100
AcDbLinetypeTableRecord
  2
Continuous
 70
     0
  3
Solid line
 72
    65
 73
     0
 40
0.0
  0
LTYPE
  5
2A
330
5
100
AcDbSymbolTableRecord
100
AcDbLinetypeTableRecord
  2
DASHED
 70
     0
  3
__ __ __ __ __
 72
    65
 73
     2
 40
6.25
 49
5.0
 74
     4
 75
     0
340
0
 46
1.0
 50
0.0
 44
0.0
 45
0.0
 49
-1.25
 74
     4
 75
     0
340
0
 46
1.0
 50
0.0
 44
0.0
 45
0.0
  0
LTYPE
  5
113
330
5
100
AcDbSymbolTableRecord
100
AcDbLinetypeTableRecord
  2
DASHDOT
 70
     0
  3
__ . __ . __ . __ . __
 72
    65
 73
     4
 40
7.5
 49
5.0
 74
     4
 75
     0
340
0
 46
1.0
 50
0.0
 44
0.0
 45
0.0
 49
-1.25
 74
     4
 75
     0
340
0
 46
1.0
 50
0.0
 44
0.0
 45
0.0
 49
0.0
 74
     4
 75
     0
340
0
 46
1.0
 50
0.0
 44
0.0
 45
0.0
 49
-1.25
 74
     4
 75
     0
340
0
 46
1.0
 50
0.0
 44
0.0
 45
0.0
  0
LTYPE
  5
116
330
5
100
AcDbSymbolTableRecord
100
AcDbLinetypeTableRecord
  2
CENTER
 70
     0
  3
__ . __ . __ . __ . __
 72
    65
 73
     4
 40
7.5
 49
5.0
 74
     4
 75
     0
340
0
 46
1.0
 50
0.0
 44
0.0
 45
0.0
 49
-1.25
 74
     4
 75
     0
340
0
 46
1.0
 50
0.0
 44
0.0
 45
0.0
 49
0.0
 74
     4
 75
     0
340
0
 46
1.0
 50
0.0
 44
0.0
 45
0.0
 49
-1.25
 74
     4
 75
     0
340
0
 46
1.0
 50
0.0
 44
0.0
 45
0.0
  0
ENDTAB
  0
TABLE
  2
LAYER
  5
2
330
0
100
AcDbSymbolTable
 70
    15
  0
LAYER
  5
10
330
2
100
AcDbSymbolTableRecord
100
AcDbLayerTableRecord
  2
0
 70
     0
 62
     7
  6
Continuous
370
    -3
390
F
  0
LAYER
  5
2B
330
2
100
AcDbSymbolTableRecord
100
AcDbLayerTableRecord
  2
LC-INFO-1-10-mm-A4H-0
 70
     1
 62
     7
  6
ByBlock
370
    -3
390
F
  0
LAYER
  5
2C
330
2
100
AcDbSymbolTableRecord
100
AcDbLayerTableRecord
  2
LC-CUT-HIDDEN
 70
     0
 62
     7
  6
DASHED
370
    -3
390
F
  0
LAYER
  5
2D
330
2
100
AcDbSymbolTableRecord
100
AcDbLayerTableRecord
  2
LC-VIEWPORT
 70
     0
 62
     7
  6
ByBlock
370
    -3
390
F
  0
LAYER
  5
2E
330
2
100
AcDbSymbolTableRecord
100
AcDbLayerTableRecord
  2
LC-3D-HIDDEN
 70
     0
 62
     9
  6
DASHED
370
    -3
390
F
  0
LAYER
  5
33
330
2
100
AcDbSymbolTableRecord
100
AcDbLayerTableRecord
  2
LC-001-111-----0
 70
     0
 62
   253
  6
ByBlock
370
    -3
390
F
  0
LAYER
  5
A2
330
2
100
AcDbSymbolTableRecord
100
AcDbLayerTableRecord
  2
LC-002-002-----0
 70
     0
 62
     1
  6
ByBlock
370
    -3
390
F
  0
LAYER
  5
104
330
2
100
AcDbSymbolTableRecord
100
AcDbLayerTableRecord
  2
LC-003-230-ZVN-0
 70
     0
 62
     7
  6
Continuous
370
    -3
390
F
  0
LAYER
  5
109
330
2
100
AcDbSymbolTableRecord
100
AcDbLayerTableRecord
  2
LC-004-002-RND-0
 70
     0
 62
     1
  6
ByBlock
370
    -3
390
F
  0
LAYER
  5
117
330
2
100
AcDbSymbolTableRecord
100
AcDbLayerTableRecord
  2
LC-005-006-MLN-0
 70
     0
 62
     2
  6
CENTER
370
    -3
390
F
  0
LAYER
  5
15B
330
2
100
AcDbSymbolTableRecord
100
AcDbLayerTableRecord
  2
LC-006-100-D00-0
 70
     0
 62
    40
  6
ByBlock
370
    -3
390
F
  0
LAYER
  5
1E9
330
2
100
AcDbSymbolTableRecord
100
AcDbLayerTableRecord
  2
LC-007-003-----0
 70
     0
 62
     2
  6
ByBlock
370
    -3
390
F
  0
LAYER
  5
1EB
330
2
100
AcDbSymbolTableRecord
100
AcDbLayerTableRecord
  2
Defpoints
 70
     0
 62
     7
  6
Continuous
290
     0
370
    -3
390
F
  0
LAYER
  5
4A4
330
2
100
AcDbSymbolTableRecord
100
AcDbLayerTableRecord
  2
LC-008-004-----0
 70
     0
 62
     7
  6
ByBlock
370
    -3
390
F
  0
LAYER
  5
4D3
330
2
100
AcDbSymbolTableRecord
100
AcDbLayerTableRecord
  2
LC-009-005-----0
 70
     0
 62
     2
  6
ByBlock
370
    -3
390
F
  0
ENDTAB
  0
TABLE
  2
STYLE
  5
3
330
0
100
AcDbSymbolTable
 70
     2
  0
STYLE
  5
11
330
3
100
AcDbSymbolTableRecord
100
AcDbTextStyleTableRecord
  2
Standard
 70
     0
 40
0.0
 41
1.0
 50
0.0
 71
     0
 42
2.5
  3
txt
  4

  0
STYLE
  5
2F
330
3
100
AcDbSymbolTableRecord
100
AcDbTextStyleTableRecord
  2
LCTX0-400-0-0pDIN-Schrift
 70
     0
 40
0.0
 41
0.7
 50
0.0
 71
     0
 42
3.5
  3
TXT
  4

  0
ENDTAB
  0
TABLE
  2
VIEW
  5
6
330
0
100
AcDbSymbolTable
 70
     0
  0
ENDTAB
  0
TABLE
  2
UCS
  5
7
330
0
100
AcDbSymbolTable
 70
     0
  0
ENDTAB
  0
TABLE
  2
APPID
  5
9
330
0
100
AcDbSymbolTable
 70
     1
  0
APPID
  5
12
330
9
100
AcDbSymbolTableRecord
100
AcDbRegAppTableRecord
  2
ACAD
 70
     0
  0
ENDTAB
  0
TABLE
  2
DIMSTYLE
  5
A
330
0
100
AcDbSymbolTable
 70
     4
100
AcDbDimStyleTable
  0
DIMSTYLE
105
27
330
A
100
AcDbSymbolTableRecord
100
AcDbDimStyleTableRecord
  2
ISO-25
 70
     0
 41
2.5
 42
0.625
 43
3.75
 44
1.25
 73
     0
 74
     0
 77
     1
 78
     8
140
2.5
141
2.5
143
0.03937
147
0.625
171
     3
172
     1
271
     2
272
     2
274
     3
278
    44
283
     0
284
     8
340
11
  0
DIMSTYLE
105
1E8
102
{ACAD_REACTORS
330
1EA
330
1F8
330
205
330
3ED
102
}
330
A
100
AcDbSymbolTableRecord
100
AcDbDimStyleTableRecord
  2
LC-DIM-L-0025-00-02
 70
     0
 40
10.0
 41
2.5
 42
0.0
 43
7.5
 44
1.8
 73
     0
 74
     0
 77
     1
 78
     8
140
2.5
141
0.0
146
0.71
147
1.5
172
     1
176
     2
177
     2
178
     2
271
     0
278
    44
289
     1
340
2F
  0
DIMSTYLE
105
217
102
{ACAD_REACTORS
330
218
330
225
330
42C
330
439
330
446
330
453
330
460
330
4A7
330
4B4
330
4C3
330
4DD
330
505
330
512
102
}
330
A
100
AcDbSymbolTableRecord
100
AcDbDimStyleTableRecord
  2
LC-DIM-L-0025-02-02
 70
     0
 40
10.0
 41
2.5
 42
0.0
 43
7.5
 44
1.8
 73
     0
 74
     0
 77
     1
 78
     8
 79
     2
140
2.5
141
0.0
146
0.71
147
1.5
172
     1
176
     2
177
     2
178
     2
179
     2
271
     2
278
    44
289
     1
340
2F
  0
DIMSTYLE
105
46D
102
{ACAD_REACTORS
330
46E
330
477
330
480
330
489
330
492
330
49B
330
4EA
330
4F3
330
4FC
330
51F
102
}
330
A
100
AcDbSymbolTableRecord
100
AcDbDimStyleTableRecord
  2
LC-DIM-R-0025-02-02
 70
     0
 40
10.0
 41
2.5
 42
0.0
 43
7.5
 44
1.8
 73
     0
 74
     0
 77
     1
 78
     8
 79
     2
140
2.5
141
0.0
146
0.71
147
1.5
176
     2
177
     2
178
     2
179
     2
271
     2
278
    44
289
     1
340
2F
  0
ENDTAB
  0
TABLE
  2
BLOCK_RECORD
  5
1
330
0
100
AcDbSymbolTable
 70
    41
  0
BLOCK_RECORD
  5
1F
330
1
100
AcDbSymbolTableRecord
100
AcDbBlockTableRecord
  2
*Model_Space
340
22
  0
BLOCK_RECORD
  5
1B
330
1
100
AcDbSymbolTableRecord
100
AcDbBlockTableRecord
  2
*Paper_Space
340
1E
  0
BLOCK_RECORD
  5
23
330
1
100
AcDbSymbolTableRecord
100
AcDbBlockTableRecord
  2
*Paper_Space0
340
26
  0
BLOCK_RECORD
  5
30
330
1
100
AcDbSymbolTableRecord
100
AcDbBlockTableRecord
  2
SYM1
340
0
102
{BLKREFS
331
105
102
}
  0
BLOCK_RECORD
  5
1CB
330
1
100
AcDbSymbolTableRecord
100
AcDbBlockTableRecord
  2
KLON1
340
0
102
{BLKREFS
331
1D1
102
}
  0
BLOCK_RECORD
  5
1EC
330
1
100
AcDbSymbolTableRecord
100
AcDbBlockTableRecord
  2
*D3
340
0
  0
BLOCK_RECORD
  5
1F9
330
1
100
AcDbSymbolTableRecord
100
AcDbBlockTableRecord
  2
*D4
340
0
  0
BLOCK_RECORD
  5
206
330
1
100
AcDbSymbolTableRecord
100
AcDbBlockTableRecord
  2
*D5
340
0
  0
BLOCK_RECORD
  5
219
330
1
100
AcDbSymbolTableRecord
100
AcDbBlockTableRecord
  2
*D6
340
0
  0
BLOCK_RECORD
  5
226
330
1
100
AcDbSymbolTableRecord
100
AcDbBlockTableRecord
  2
*D7
340
0
  0
BLOCK_RECORD
  5
236
330
1
100
AcDbSymbolTableRecord
100
AcDbBlockTableRecord
  2
POLY1
340
0
102
{BLKREFS
331
23F
102
}
  0
BLOCK_RECORD
  5
276
330
1
100
AcDbSymbolTableRecord
100
AcDbBlockTableRecord
  2
POLY2
340
0
102
{BLKREFS
331
285
102
}
  0
BLOCK_RECORD
  5
286
330
1
100
AcDbSymbolTableRecord
100
AcDbBlockTableRecord
  2
POLY3
340
0
102
{BLKREFS
331
295
102
}
  0
BLOCK_RECORD
  5
297
330
1
100
AcDbSymbolTableRecord
100
AcDbBlockTableRecord
  2
POLY4
340
0
102
{BLKREFS
331
2A6
102
}
  0
BLOCK_RECORD
  5
34A
330
1
100
AcDbSymbolTableRecord
100
AcDbBlockTableRecord
  2
POLY5
340
0
102
{BLKREFS
331
359
102
}
  0
BLOCK_RECORD
  5
35B
330
1
100
AcDbSymbolTableRecord
100
AcDbBlockTableRecord
  2
POLY6
340
0
102
{BLKREFS
331
36A
102
}
  0
BLOCK_RECORD
  5
36C
330
1
100
AcDbSymbolTableRecord
100
AcDbBlockTableRecord
  2
POLY7
340
0
102
{BLKREFS
331
37B
102
}
  0
BLOCK_RECORD
  5
38F
330
1
100
AcDbSymbolTableRecord
100
AcDbBlockTableRecord
  2
POLY8
340
0
102
{BLKREFS
331
39E
102
}
  0
BLOCK_RECORD
  5
3A0
330
1
100
AcDbSymbolTableRecord
100
AcDbBlockTableRecord
  2
POLY9
340
0
102
{BLKREFS
331
3AF
102
}
  0
BLOCK_RECORD
  5
3B1
330
1
100
AcDbSymbolTableRecord
100
AcDbBlockTableRecord
  2
POLY10
340
0
102
{BLKREFS
331
3C0
102
}
  0
BLOCK_RECORD
  5
3EE
330
1
100
AcDbSymbolTableRecord
100
AcDbBlockTableRecord
  2
*D18
340
0
  0
BLOCK_RECORD
  5
42D
330
1
100
AcDbSymbolTableRecord
100
AcDbBlockTableRecord
  2
*D19
340
0
  0
BLOCK_RECORD
  5
43A
330
1
100
AcDbSymbolTableRecord
100
AcDbBlockTableRecord
  2
*D20
340
0
  0
BLOCK_RECORD
  5
447
330
1
100
AcDbSymbolTableRecord
100
AcDbBlockTableRecord
  2
*D21
340
0
  0
BLOCK_RECORD
  5
454
330
1
100
AcDbSymbolTableRecord
100
AcDbBlockTableRecord
  2
*D22
340
0
  0
BLOCK_RECORD
  5
461
330
1
100
AcDbSymbolTableRecord
100
AcDbBlockTableRecord
  2
*D23
340
0
  0
BLOCK_RECORD
  5
46F
330
1
100
AcDbSymbolTableRecord
100
AcDbBlockTableRecord
  2
*D24
340
0
  0
BLOCK_RECORD
  5
478
330
1
100
AcDbSymbolTableRecord
100
AcDbBlockTableRecord
  2
*D25
340
0
  0
BLOCK_RECORD
  5
481
330
1
100
AcDbSymbolTableRecord
100
AcDbBlockTableRecord
  2
*D26
340
0
  0
BLOCK_RECORD
  5
48A
330
1
100
AcDbSymbolTableRecord
100
AcDbBlockTableRecord
  2
*D27
340
0
  0
BLOCK_RECORD
  5
493
330
1
100
AcDbSymbolTableRecord
100
AcDbBlockTableRecord
  2
*D28
340
0
  0
BLOCK_RECORD
  5
49C
330
1
100
AcDbSymbolTableRecord
100
AcDbBlockTableRecord
  2
*D29
340
0
  0
BLOCK_RECORD
  5
4A8
330
1
100
AcDbSymbolTableRecord
100
AcDbBlockTableRecord
  2
*D30
340
0
  0
BLOCK_RECORD
  5
4B5
330
1
100
AcDbSymbolTableRecord
100
AcDbBlockTableRecord
  2
*D31
340
0
  0
BLOCK_RECORD
  5
4C4
330
1
100
AcDbSymbolTableRecord
100
AcDbBlockTableRecord
  2
*D32
340
0
  0
BLOCK_RECORD
  5
4D0
330
1
100
AcDbSymbolTableRecord
100
AcDbBlockTableRecord
  2
*X133
340
0
102
{BLKREFS
331
4DC
102
}
  0
BLOCK_RECORD
  5
4DE
330
1
100
AcDbSymbolTableRecord
100
AcDbBlockTableRecord
  2
*D34
340
0
  0
BLOCK_RECORD
  5
4EB
330
1
100
AcDbSymbolTableRecord
100
AcDbBlockTableRecord
  2
*D35
340
0
  0
BLOCK_RECORD
  5
4F4
330
1
100
AcDbSymbolTableRecord
100
AcDbBlockTableRecord
  2
*D36
340
0
  0
BLOCK_RECORD
  5
4FD
330
1
100
AcDbSymbolTableRecord
100
AcDbBlockTableRecord
  2
*D37
340
0
  0
BLOCK_RECORD
  5
506
330
1
100
AcDbSymbolTableRecord
100
AcDbBlockTableRecord
  2
*D38
340
0
  0
BLOCK_RECORD
  5
513
330
1
100
AcDbSymbolTableRecord
100
AcDbBlockTableRecord
  2
*D39
340
0
  0
BLOCK_RECORD
  5
520
330
1
100
AcDbSymbolTableRecord
100
AcDbBlockTableRecord
  2
*D40
340
0
  0
ENDTAB
  0
ENDSEC
  0
SECTION
  2
BLOCKS
  0
BLOCK
  5
20
330
1F
100
AcDbEntity
  8
0
100
AcDbBlockBegin
  2
*Model_Space
 70
     0
 71
     0
 10
0.0
 20
0.0
 30
0.0
  3
*Model_Space
  1

  0
ENDBLK
  5
21
330
1F
100
AcDbEntity
  8
0
100
AcDbBlockEnd
  0
BLOCK
  5
1C
330
1B
100
AcDbEntity
 67
     1
  8
0
100
AcDbBlockBegin
  2
*Paper_Space
 70
     0
 71
     0
 10
0.0
 20
0.0
 30
0.0
  3
*Paper_Space
  1

  0
ENDBLK
  5
1D
330
1B
100
AcDbEntity
 67
     1
  8
0
100
AcDbBlockEnd
  0
BLOCK
  5
24
330
23
100
AcDbEntity
  8
0
100
AcDbBlockBegin
  2
*Paper_Space0
 70
     0
 71
     0
 10
0.0
 20
0.0
 30
0.0
  3
*Paper_Space0
  1

  0
ENDBLK
  5
25
330
23
100
AcDbEntity
  8
0
100
AcDbBlockEnd
  0
BLOCK
  5
31
330
30
100
AcDbEntity
  8
0
100
AcDbBlockBegin
  2
SYM1
 70
     0
 71
     0
 10
0.0
 20
0.0
 30
0.0
  3
SYM1
  1

  4
SYM1
  0
LINE
  5
34
330
30
100
AcDbEntity
  8
LC-001-111-----0
 62
   253
370
    50
100
AcDbLine
 10
2050.0
 20
50.0
 30
0.0
 11
2050.0
 21
2920.0
 31
0.0
  0
LINE
  5
35
330
30
100
AcDbEntity
  8
LC-001-111-----0
 62
   253
370
    25
100
AcDbLine
 10
178.0
 20
220.0
 30
0.0
 11
724.0
 21
220.0
 31
0.0
  0
LINE
  5
36
330
30
100
AcDbEntity
  8
LC-001-111-----0
 62
   253
370
    35
100
AcDbLine
 10
724.0
 20
220.0
 30
0.0
 11
2050.0
 21
220.0
 31
0.0
  0
LINE
  5
37
330
30
100
AcDbEntity
  8
LC-001-111-----0
 62
   253
370
    50
100
AcDbLine
 10
178.0
 20
602.5
 30
0.0
 11
2050.0
 21
602.5
 31
0.0
  0
LINE
  5
38
330
30
100
AcDbEntity
  8
LC-001-111-----0
 62
   253
370
    25
100
AcDbLine
 10
178.0
 20
92.5
 30
0.0
 11
2050.0
 21
92.5
 31
0.0
  0
LINE
  5
39
330
30
100
AcDbEntity
  8
LC-001-111-----0
 62
   253
370
    25
100
AcDbLine
 10
178.0
 20
135.0
 30
0.0
 11
724.0
 21
135.0
 31
0.0
  0
LINE
  5
3A
330
30
100
AcDbEntity
  8
LC-001-111-----0
 62
   253
370
    25
100
AcDbLine
 10
178.0
 20
177.5
 30
0.0
 11
724.0
 21
177.5
 31
0.0
  0
LINE
  5
3B
330
30
100
AcDbEntity
  8
LC-001-111-----0
 62
   253
370
    25
100
AcDbLine
 10
178.0
 20
262.5
 30
0.0
 11
1166.0
 21
262.5
 31
0.0
  0
LINE
  5
3C
330
30
100
AcDbEntity
  8
LC-001-111-----0
 62
   253
370
    25
100
AcDbLine
 10
178.0
 20
305.0
 30
0.0
 11
1166.0
 21
305.0
 31
0.0
  0
LINE
  5
3D
330
30
100
AcDbEntity
  8
LC-001-111-----0
 62
   253
370
    25
100
AcDbLine
 10
178.0
 20
347.5
 30
0.0
 11
1166.0
 21
347.5
 31
0.0
  0
LINE
  5
3E
330
30
100
AcDbEntity
  8
LC-001-111-----0
 62
   253
370
    25
100
AcDbLine
 10
178.0
 20
390.0
 30
0.0
 11
1166.0
 21
390.0
 31
0.0
  0
LINE
  5
3F
330
30
100
AcDbEntity
  8
LC-001-111-----0
 62
   253
370
    35
100
AcDbLine
 10
178.0
 20
432.5
 30
0.0
 11
2050.0
 21
432.5
 31
0.0
  0
LINE
  5
40
330
30
100
AcDbEntity
  8
LC-001-111-----0
 62
   253
370
    25
100
AcDbLine
 10
828.0
 20
262.5
 30
0.0
 11
828.0
 21
432.5
 31
0.0
  0
LINE
  5
41
330
30
100
AcDbEntity
  8
LC-001-111-----0
 62
   253
370
    35
100
AcDbLine
 10
1920.0
 20
92.5
 30
0.0
 11
1920.0
 21
220.0
 31
0.0
  0
LINE
  5
42
330
30
100
AcDbEntity
  8
LC-001-111-----0
 62
   253
370
    25
100
AcDbLine
 10
1166.0
 20
538.75
 30
0.0
 11
2050.0
 21
538.75
 31
0.0
  0
LINE
  5
43
330
30
100
AcDbEntity
  8
LC-001-111-----0
 62
   253
370
    25
100
AcDbLine
 10
256.0
 20
50.0
 30
0.0
 11
256.0
 21
432.5
 31
0.0
  0
LINE
  5
44
330
30
100
AcDbEntity
  8
LC-001-111-----0
 62
   253
370
    25
100
AcDbLine
 10
516.0
 20
50.0
 30
0.0
 11
516.0
 21
432.5
 31
0.0
  0
LINE
  5
45
330
30
100
AcDbEntity
  8
LC-001-111-----0
 62
   253
370
    25
100
AcDbLine
 10
646.0
 20
50.0
 30
0.0
 11
646.0
 21
432.5
 31
0.0
  0
LINE
  5
46
330
30
100
AcDbEntity
  8
LC-001-111-----0
 62
   253
370
    35
100
AcDbLine
 10
724.0
 20
50.0
 30
0.0
 11
724.0
 21
602.5
 31
0.0
  0
LINE
  5
47
330
30
100
AcDbEntity
  8
LC-001-111-----0
 62
   253
370
    35
100
AcDbLine
 10
1166.0
 20
50.0
 30
0.0
 11
1166.0
 21
602.5
 31
0.0
  0
LINE
  5
48
330
30
100
AcDbEntity
  8
LC-001-111-----0
 62
   253
370
    25
100
AcDbLine
 10
1920.0
 20
135.0
 30
0.0
 11
2050.0
 21
135.0
 31
0.0
  0
LINE
  5
49
330
30
100
AcDbEntity
  8
LC-001-111-----0
 62
   253
370
    25
100
AcDbLine
 10
984.0
 20
220.0
 30
0.0
 11
984.0
 21
602.5
 31
0.0
  0
LINE
  5
4A
330
30
100
AcDbEntity
  8
LC-001-111-----0
 62
   253
370
    25
100
AcDbLine
 10
1686.0
 20
538.75
 30
0.0
 11
1686.0
 21
602.5
 31
0.0
  0
LINE
  5
4B
330
30
100
AcDbEntity
  8
LC-001-111-----0
 62
   253
370
    25
100
AcDbLine
 10
1608.0
 20
50.0
 30
0.0
 11
1608.0
 21
92.5
 31
0.0
  0
LINE
  5
4C
330
30
100
AcDbEntity
  8
LC-001-111-----0
 62
   253
370
    50
100
AcDbLine
 10
178.0
 20
50.0
 30
0.0
 11
178.0
 21
2920.0
 31
0.0
  0
LINE
  5
4D
330
30
100
AcDbEntity
  8
LC-001-111-----0
 62
   253
370
    50
100
AcDbLine
 10
178.0
 20
2920.0
 30
0.0
 11
2050.0
 21
2920.0
 31
0.0
  0
TEXT
  5
4E
330
30
100
AcDbEntity
  8
LC-001-111-----0
 62
     7
370
    25
100
AcDbText
 10
1471.410714
 20
558.125
 30
0.0
 40
25.0
  1
1:10
 41
0.75
  7
LCTX0-400-0-0pDIN-Schrift
 72
     1
 11
1504.0
 21
558.125
 31
0.0
100
AcDbText
  0
TEXT
  5
4F
330
30
100
AcDbEntity
  8
LC-001-111-----0
 62
     7
370
    25
100
AcDbText
 10
1947.410714
 20
101.25
 30
0.0
 40
25.0
  1
1
 41
0.75
  7
LCTX0-400-0-0pDIN-Schrift
 72
     1
 11
1955.0
 21
101.25
 31
0.0
100
AcDbText
  0
TEXT
  5
50
330
30
100
AcDbEntity
  8
LC-001-111-----0
 62
     7
370
    25
100
AcDbText
 10
740.285714
 20
398.75
 30
0.0
 40
25.0
  1
2008
 41
0.75
  7
LCTX0-400-0-0pDIN-Schrift
 72
     1
 11
776.0
 21
398.75
 31
0.0
100
AcDbText
  0
TEXT
  5
51
330
30
100
AcDbEntity
  8
LC-001-111-----0
 62
     7
370
    25
100
AcDbText
 10
861.803571
 20
356.25
 30
0.0
 40
25.0
  1
03.11.
 41
0.75
  7
LCTX0-400-0-0pDIN-Schrift
 72
     1
 11
906.0
 21
356.25
 31
0.0
100
AcDbText
  0
TEXT
  5
52
330
30
100
AcDbEntity
  8
LC-001-111-----0
 62
     7
370
    25
100
AcDbText
 10
1056.696429
 20
356.25
 30
0.0
 40
25.0
  1
HÄ
 41
0.75
  7
LCTX0-400-0-0pDIN-Schrift
 72
     1
 11
1075.0
 21
356.25
 31
0.0
100
AcDbText
  0
TEXT
  5
53
330
30
100
AcDbEntity
  8
LC-001-111-----0
 62
   253
370
    20
100
AcDbText
 10
1183.923077
 20
560.625
 30
0.0
 40
20.0
  1
Maßstab
 41
0.75
  7
LCTX0-400-0-0pDIN-Schrift
100
AcDbText
  0
TEXT
  5
54
330
30
100
AcDbEntity
  8
LC-001-111-----0
 62
   253
370
    20
100
AcDbText
 10
869.928571
 20
401.25
 30
0.0
 40
20.0
  1
Datum
 41
0.75
  7
LCTX0-400-0-0pDIN-Schrift
 72
     1
 11
906.0
 21
401.25
 31
0.0
100
AcDbText
  0
TEXT
  5
55
330
30
100
AcDbEntity
  8
LC-001-111-----0
 62
   253
370
    20
100
AcDbText
 10
1042.857143
 20
401.25
 30
0.0
 40
20.0
  1
Name
 41
0.75
  7
LCTX0-400-0-0pDIN-Schrift
 72
     1
 11
1075.0
 21
401.25
 31
0.0
100
AcDbText
  0
TEXT
  5
56
330
30
100
AcDbEntity
  8
LC-001-111-----0
 62
   253
370
    20
100
AcDbText
 10
741.923077
 20
358.75
 30
0.0
 40
20.0
  1
Bearb.
 41
0.75
  7
LCTX0-400-0-0pDIN-Schrift
100
AcDbText
  0
TEXT
  5
57
330
30
100
AcDbEntity
  8
LC-001-111-----0
 62
   253
370
    20
100
AcDbText
 10
741.923077
 20
316.25
 30
0.0
 40
20.0
  1
Gepr.
 41
0.75
  7
LCTX0-400-0-0pDIN-Schrift
100
AcDbText
  0
TEXT
  5
58
330
30
100
AcDbEntity
  8
LC-001-111-----0
 62
   253
370
    20
100
AcDbText
 10
741.923077
 20
273.75
 30
0.0
 40
20.0
  1
Norm
 41
0.75
  7
LCTX0-400-0-0pDIN-Schrift
100
AcDbText
  0
TEXT
  5
59
330
30
100
AcDbEntity
  8
LC-001-111-----0
 62
   253
370
    20
100
AcDbText
 10
1937.923077
 20
188.75
 30
0.0
 40
20.0
  1
Blatt
 41
0.75
  7
LCTX0-400-0-0pDIN-Schrift
100
AcDbText
  0
TEXT
  5
5A
330
30
100
AcDbEntity
  8
LC-001-111-----0
 62
   253
370
    20
100
AcDbText
 10
2012.076923
 20
103.75
 30
0.0
 40
20.0
  1
Bl.
 41
0.75
  7
LCTX0-400-0-0pDIN-Schrift
 72
     2
 11
2037.076923
 21
103.75
 31
0.0
100
AcDbText
  0
TEXT
  5
5B
330
30
100
AcDbEntity
  8
LC-001-111-----0
 62
   253
370
    20
100
AcDbText
 10
200.0
 20
61.25
 30
0.0
 40
20.0
  1
Zust.
 41
0.6
  7
LCTX0-400-0-0pDIN-Schrift
 72
     1
 11
222.0
 21
61.25
 31
0.0
100
AcDbText
  0
TEXT
  5
5C
330
30
100
AcDbEntity
  8
LC-001-111-----0
 62
   253
370
    20
100
AcDbText
 10
334.928571
 20
61.25
 30
0.0
 40
20.0
  1
Änderung
 41
0.75
  7
LCTX0-400-0-0pDIN-Schrift
 72
     1
 11
386.0
 21
61.25
 31
0.0
100
AcDbText
  0
TEXT
  5
5D
330
30
100
AcDbEntity
  8
LC-001-111-----0
 62
   253
370
    20
100
AcDbText
 10
544.928571
 20
61.25
 30
0.0
 40
20.0
  1
Datum
 41
0.75
  7
LCTX0-400-0-0pDIN-Schrift
 72
     1
 11
581.0
 21
61.25
 31
0.0
100
AcDbText
  0
TEXT
  5
5E
330
30
100
AcDbEntity
  8
LC-001-111-----0
 62
   253
370
    20
100
AcDbText
 10
652.857143
 20
61.25
 30
0.0
 40
20.0
  1
Name
 41
0.75
  7
LCTX0-400-0-0pDIN-Schrift
 72
     1
 11
685.0
 21
61.25
 31
0.0
100
AcDbText
  0
TEXT
  5
5F
330
30
100
AcDbEntity
  8
LC-001-111-----0
 62
     7
370
    50
100
AcDbText
 10
1380.321429
 20
343.75
 30
0.0
 40
50.0
  1
Madison N-175
 41
0.75
  7
LCTX0-400-0-0pDIN-Schrift
 72
     1
 11
1608.0
 21
343.75
 31
0.0
100
AcDbText
  0
TEXT
  5
60
330
30
100
AcDbEntity
  8
LC-001-111-----0
 62
     7
370
    50
100
AcDbText
 10
1482.107143
 20
258.75
 30
0.0
 40
50.0
  1
Unterbau
 41
0.75
  7
LCTX0-400-0-0pDIN-Schrift
 72
     1
 11
1608.0
 21
258.75
 31
0.0
100
AcDbText
  0
TEXT
  5
61
330
30
100
AcDbEntity
  8
LC-001-111-----0
 62
     7
370
    50
100
AcDbText
 10
1334.071429
 20
131.25
 30
0.0
 40
50.0
  1
4.08.742.04.01
 41
0.75
  7
LCTX0-400-0-0pDIN-Schrift
 72
     1
 11
1543.0
 21
131.25
 31
0.0
100
AcDbText
  0
ARC
  5
62
330
30
100
AcDbEntity
  8
LC-001-111-----0
 62
   253
370
    25
100
AcDbCircle
 10
758.903191
 20
174.567744
 30
0.0
 40
20.81533311668208
100
AcDbArc
 50
62.408264
 51
94.48185
  0
LINE
  5
63
330
30
100
AcDbEntity
  8
LC-001-111-----0
 62
   253
370
    50
100
AcDbLine
 10
178.0
 20
50.0
 30
0.0
 11
2050.0
 21
50.0
 31
0.0
  0
LINE
  5
64
330
30
100
AcDbEntity
  8
LC-001-111-----0
 62
   253
370
    25
100
AcDbLine
 10
50.0
 20
1485.0
 30
0.0
 11
0.0
 21
1485.0
 31
0.0
  0
LINE
  5
65
330
30
100
AcDbEntity
  8
LC-001-111-----0
 62
   253
370
    25
100
AcDbLine
 10
1063.835603
 20
195.169147
 30
0.0
 11
1063.835603
 21
157.149147
 31
0.0
  0
LINE
  5
66
330
30
100
AcDbEntity
  8
LC-001-111-----0
 62
   253
370
    25
100
AcDbLine
 10
2100.0
 20
2970.0
 30
0.0
 11
2100.0
 21
0.0
 31
0.0
  0
LINE
  5
67
330
30
100
AcDbEntity
  8
LC-001-111-----0
 62
   253
370
    25
100
AcDbLine
 10
2100.0
 20
0.0
 30
0.0
 11
0.0
 21
0.0
 31
0.0
  0
LINE
  5
68
330
30
100
AcDbEntity
  8
LC-001-111-----0
 62
   253
370
    25
100
AcDbLine
 10
0.0
 20
0.0
 30
0.0
 11
0.0
 21
2970.0
 31
0.0
  0
LINE
  5
69
330
30
100
AcDbEntity
  8
LC-001-111-----0
 62
   253
370
    25
100
AcDbLine
 10
2100.0
 20
2970.0
 30
0.0
 11
0.0
 21
2970.0
 31
0.0
  0
TEXT
  5
6A
330
30
100
AcDbEntity
  8
LC-001-111-----0
 62
   253
370
    20
100
AcDbText
 10
763.0
 20
111.159147
 30
0.0
 40
20.0
  1
Hofbauerstraße1 · D-94209 REGEN
 41
0.65
  7
LCTX0-400-0-0pDIN-Schrift
 72
     1
 11
945.0
 21
111.159147
 31
0.0
100
AcDbText
  0
ARC
  5
6B
330
30
100
AcDbEntity
  8
LC-001-111-----0
 62
   253
370
    25
100
AcDbCircle
 10
758.032826
 20
185.671748
 30
0.0
 40
9.677270814709853
100
AcDbArc
 50
94.48185
 51
252.731329
  0
ARC
  5
6C
330
30
100
AcDbEntity
  8
LC-001-111-----0
 62
   253
370
    25
100
AcDbCircle
 10
823.845603
 20
176.159147
 30
0.0
 40
19.01000000000008
100
AcDbArc
 50
74.719456
 51
285.280544
  0
LINE
  5
6D
330
30
100
AcDbEntity
  8
LC-001-111-----0
 62
   253
370
    25
100
AcDbLine
 10
828.855603
 20
157.821208
 30
0.0
 11
828.855603
 21
163.204148
 31
0.0
  0
ARC
  5
6E
330
30
100
AcDbEntity
  8
LC-001-111-----0
 62
   253
370
    25
100
AcDbCircle
 10
823.845603
 20
176.159147
 30
0.0
 40
13.88999999999995
100
AcDbArc
 50
68.857352
 51
291.142648
  0
ARC
  5
6F
330
30
100
AcDbEntity
  8
LC-001-111-----0
 62
   253
370
    25
100
AcDbCircle
 10
823.845603
 20
176.159147
 30
0.0
 40
12.39000000000002
100
AcDbArc
 50
58.303227
 51
301.696773
  0
ARC
  5
70
330
30
100
AcDbEntity
  8
LC-001-111-----0
 62
   253
370
    25
100
AcDbCircle
 10
1019.845603
 20
176.159147
 30
0.0
 40
19.01000000000008
100
AcDbArc
 50
74.719456
 51
285.280544
  0
LINE
  5
71
330
30
100
AcDbEntity
  8
LC-001-111-----0
 62
   253
370
    25
100
AcDbLine
 10
830.355603
 20
165.617231
 30
0.0
 11
830.355603
 21
156.709726
 31
0.0
  0
LINE
  5
72
330
30
100
AcDbEntity
  8
LC-001-111-----0
 62
   253
370
    25
100
AcDbLine
 10
755.160101
 20
176.430697
 30
0.0
 11
762.683613
 21
174.091896
 31
0.0
  0
ARC
  5
73
330
30
100
AcDbEntity
  8
LC-001-111-----0
 62
   253
370
    25
100
AcDbCircle
 10
823.845603
 20
176.159147
 30
0.0
 40
20.51000000000012
100
AcDbArc
 50
71.493868
 51
288.506132
  0
LINE
  5
74
330
30
100
AcDbEntity
  8
LC-001-111-----0
 62
   253
370
    25
100
AcDbLine
 10
1024.855603
 20
157.821208
 30
0.0
 11
1024.855603
 21
163.204148
 31
0.0
  0
LINE
  5
75
330
30
100
AcDbEntity
  8
LC-001-111-----0
 62
   253
370
    25
100
AcDbLine
 10
830.355603
 20
195.608569
 30
0.0
 11
830.355603
 21
186.701063
 31
0.0
  0
ARC
  5
76
330
30
100
AcDbEntity
  8
LC-001-111-----0
 62
   253
370
    25
100
AcDbCircle
 10
1019.845603
 20
176.159147
 30
0.0
 40
13.88999999999995
100
AcDbArc
 50
68.857352
 51
291.142648
  0
LINE
  5
77
330
30
100
AcDbEntity
  8
LC-001-111-----0
 62
   253
370
    25
100
AcDbLine
 10
862.835603
 20
155.649147
 30
0.0
 11
862.835603
 21
196.669147
 31
0.0
  0
LINE
  5
78
330
30
100
AcDbEntity
  8
LC-001-111-----0
 62
   253
370
    25
100
AcDbLine
 10
862.835603
 20
196.669147
 30
0.0
 11
872.355603
 21
196.669147
 31
0.0
  0
LINE
  5
79
330
30
100
AcDbEntity
  8
LC-001-111-----0
 62
   253
370
    25
100
AcDbLine
 10
872.355603
 20
196.669147
 30
0.0
 11
872.355603
 21
179.519147
 31
0.0
  0
LINE
  5
7A
330
30
100
AcDbEntity
  8
LC-001-111-----0
 62
   253
370
    25
100
AcDbLine
 10
872.355603
 20
179.519147
 30
0.0
 11
887.335603
 21
179.519147
 31
0.0
  0
LINE
  5
7B
330
30
100
AcDbEntity
  8
LC-001-111-----0
 62
   253
370
    25
100
AcDbLine
 10
887.335603
 20
179.519147
 30
0.0
 11
887.335603
 21
196.669147
 31
0.0
  0
LINE
  5
7C
330
30
100
AcDbEntity
  8
LC-001-111-----0
 62
   253
370
    25
100
AcDbLine
 10
887.335603
 20
196.669147
 30
0.0
 11
896.855603
 21
196.669147
 31
0.0
  0
LINE
  5
7D
330
30
100
AcDbEntity
  8
LC-001-111-----0
 62
   253
370
    25
100
AcDbLine
 10
896.855603
 20
196.669147
 30
0.0
 11
896.855603
 21
155.649147
 31
0.0
  0
LINE
  5
7E
330
30
100
AcDbEntity
  8
LC-001-111-----0
 62
   253
370
    25
100
AcDbLine
 10
896.855603
 20
155.649147
 30
0.0
 11
887.335603
 21
155.649147
 31
0.0
  0
LINE
  5
7F
330
30
100
AcDbEntity
  8
LC-001-111-----0
 62
   253
370
    25
100
AcDbLine
 10
887.335603
 20
155.649147
 30
0.0
 11
887.335603
 21
172.799147
 31
0.0
  0
LINE
  5
80
330
30
100
AcDbEntity
  8
LC-001-111-----0
 62
   253
370
    25
100
AcDbLine
 10
887.335603
 20
172.799147
 30
0.0
 11
872.355603
 21
172.799147
 31
0.0
  0
LINE
  5
81
330
30
100
AcDbEntity
  8
LC-001-111-----0
 62
   253
370
    25
100
AcDbLine
 10
872.355603
 20
172.799147
 30
0.0
 11
872.355603
 21
155.649147
 31
0.0
  0
LINE
  5
82
330
30
100
AcDbEntity
  8
LC-001-111-----0
 62
   253
370
    25
100
AcDbLine
 10
872.355603
 20
155.649147
 30
0.0
 11
862.835603
 21
155.649147
 31
0.0
  0
CIRCLE
  5
83
330
30
100
AcDbEntity
  8
LC-001-111-----0
 62
   253
370
    25
100
AcDbCircle
 10
946.345603
 20
176.159147
 30
0.0
 40
12.39000000000044
  0
CIRCLE
  5
84
330
30
100
AcDbEntity
  8
LC-001-111-----0
 62
   253
370
    25
100
AcDbCircle
 10
946.345603
 20
176.159147
 30
0.0
 40
20.51000000000049
  0
ARC
  5
85
330
30
100
AcDbEntity
  8
LC-001-111-----0
 62
   253
370
    25
100
AcDbCircle
 10
1019.845603
 20
176.159147
 30
0.0
 40
12.39000000000002
100
AcDbArc
 50
58.303227
 51
301.696773
  0
LINE
  5
86
330
30
100
AcDbEntity
  8
LC-001-111-----0
 62
   253
370
    25
100
AcDbLine
 10
864.335603
 20
195.169147
 30
0.0
 11
864.335603
 21
157.149147
 31
0.0
  0
LINE
  5
87
330
30
100
AcDbEntity
  8
LC-001-111-----0
 62
   253
370
    25
100
AcDbLine
 10
1026.355603
 20
165.617231
 30
0.0
 11
1026.355603
 21
156.709726
 31
0.0
  0
LINE
  5
88
330
30
100
AcDbEntity
  8
LC-001-111-----0
 62
   253
370
    25
100
AcDbLine
 10
864.335603
 20
157.149147
 30
0.0
 11
870.855603
 21
157.149147
 31
0.0
  0
LINE
  5
89
330
30
100
AcDbEntity
  8
LC-001-111-----0
 62
   253
370
    25
100
AcDbLine
 10
870.855603
 20
157.149147
 30
0.0
 11
870.855603
 21
174.299147
 31
0.0
  0
LINE
  5
8A
330
30
100
AcDbEntity
  8
LC-001-111-----0
 62
   253
370
    25
100
AcDbLine
 10
870.855603
 20
174.299147
 30
0.0
 11
888.835603
 21
174.299147
 31
0.0
  0
LINE
  5
8B
330
30
100
AcDbEntity
  8
LC-001-111-----0
 62
   253
370
    25
100
AcDbLine
 10
888.835603
 20
174.299147
 30
0.0
 11
888.835603
 21
157.149147
 31
0.0
  0
LINE
  5
8C
330
30
100
AcDbEntity
  8
LC-001-111-----0
 62
   253
370
    25
100
AcDbLine
 10
888.835603
 20
157.149147
 30
0.0
 11
895.355603
 21
157.149147
 31
0.0
  0
LINE
  5
8D
330
30
100
AcDbEntity
  8
LC-001-111-----0
 62
   253
370
    25
100
AcDbLine
 10
895.355603
 20
157.149147
 30
0.0
 11
895.355603
 21
195.169147
 31
0.0
  0
LINE
  5
8E
330
30
100
AcDbEntity
  8
LC-001-111-----0
 62
   253
370
    25
100
AcDbLine
 10
895.355603
 20
195.169147
 30
0.0
 11
888.835603
 21
195.169147
 31
0.0
  0
LINE
  5
8F
330
30
100
AcDbEntity
  8
LC-001-111-----0
 62
   253
370
    25
100
AcDbLine
 10
888.835603
 20
195.169147
 30
0.0
 11
888.835603
 21
178.019147
 31
0.0
  0
LINE
  5
90
330
30
100
AcDbEntity
  8
LC-001-111-----0
 62
   253
370
    25
100
AcDbLine
 10
888.835603
 20
178.019147
 30
0.0
 11
870.855603
 21
178.019147
 31
0.0
  0
LINE
  5
91
330
30
100
AcDbEntity
  8
LC-001-111-----0
 62
   253
370
    25
100
AcDbLine
 10
870.855603
 20
178.019147
 30
0.0
 11
870.855603
 21
195.169147
 31
0.0
  0
CIRCLE
  5
92
330
30
100
AcDbEntity
  8
LC-001-111-----0
 62
   253
370
    25
100
AcDbCircle
 10
946.345603
 20
176.159147
 30
0.0
 40
19.01000000000055
  0
ARC
  5
93
330
30
100
AcDbEntity
  8
LC-001-111-----0
 62
   253
370
    25
100
AcDbCircle
 10
760.836588
 20
168.15034
 30
0.0
 40
6.222024781007809
100
AcDbArc
 50
268.246912
 51
72.731329
  0
ARC
  5
94
330
30
100
AcDbEntity
  8
LC-001-111-----0
 62
   253
370
    25
100
AcDbCircle
 10
761.412387
 20
186.963179
 30
0.0
 40
25.04367341134793
100
AcDbArc
 50
239.19233
 51
268.246912
  0
LINE
  5
95
330
30
100
AcDbEntity
  8
LC-001-111-----0
 62
   253
370
    25
100
AcDbLine
 10
748.586073
 20
165.453385
 30
0.0
 11
748.586073
 21
160.350534
 31
0.0
  0
ARC
  5
96
330
30
100
AcDbEntity
  8
LC-001-111-----0
 62
   253
370
    25
100
AcDbCircle
 10
760.81067
 20
180.45076
 30
0.0
 40
23.52572762426598
100
AcDbArc
 50
238.692783
 51
274.343327
  0
ARC
  5
97
330
30
100
AcDbEntity
  8
LC-001-111-----0
 62
   253
370
    25
100
AcDbCircle
 10
1019.845603
 20
176.159147
 30
0.0
 40
20.51000000000012
100
AcDbArc
 50
71.493868
 51
288.506132
  0
ARC
  5
98
330
30
100
AcDbEntity
  8
LC-001-111-----0
 62
   253
370
    25
100
AcDbCircle
 10
761.779647
 20
167.692822
 30
0.0
 40
10.73104525444839
100
AcDbArc
 50
274.343327
 51
74.255463
  0
LINE
  5
99
330
30
100
AcDbEntity
  8
LC-001-111-----0
 62
   253
370
    25
100
AcDbLine
 10
1026.355603
 20
195.608569
 30
0.0
 11
1026.355603
 21
186.701063
 31
0.0
  0
LINE
  5
9A
330
30
100
AcDbEntity
  8
LC-001-111-----0
 62
   253
370
    25
100
AcDbLine
 10
764.691502
 20
178.02125
 30
0.0
 11
757.135251
 21
180.151556
 31
0.0
  0
LINE
  5
9B
330
30
100
AcDbEntity
  8
LC-001-111-----0
 62
   253
370
    25
100
AcDbLine
 10
1024.855603
 20
189.114146
 30
0.0
 11
1024.855603
 21
194.497086
 31
0.0
  0
ARC
  5
9C
330
30
100
AcDbEntity
  8
LC-001-111-----0
 62
   253
370
    25
100
AcDbCircle
 10
758.632108
 20
185.460948
 30
0.0
 40
5.51636013010035
100
AcDbArc
 50
90.951212
 51
254.255463
  0
ARC
  5
9D
330
30
100
AcDbEntity
  8
LC-001-111-----0
 62
   253
370
    25
100
AcDbCircle
 10
758.906662
 20
168.924866
 30
0.0
 40
22.05472179307849
100
AcDbArc
 50
64.088485
 51
90.951212
  0
LINE
  5
9E
330
30
100
AcDbEntity
  8
LC-001-111-----0
 62
   253
370
    25
100
AcDbLine
 10
768.544191
 20
188.762426
 30
0.0
 11
768.544191
 21
193.015758
 31
0.0
  0
LINE
  5
9F
330
30
100
AcDbEntity
  8
LC-001-111-----0
 62
   253
370
    25
100
AcDbLine
 10
1071.855603
 20
177.513832
 30
0.0
 11
1087.818366
 21
196.669147
 31
0.0
  0
LINE
  5
A0
330
30
100
AcDbEntity
  8
LC-001-111-----0
 62
   253
370
    25
100
AcDbLine
 10
1087.818366
 20
196.669147
 30
0.0
 11
1099.299433
 21
196.669147
 31
0.0
  0
LINE
  5
A1
330
30
100
AcDbEntity
  8
LC-001-111-----0
 62
   253
370
    25
100
AcDbLine
 10
1099.299433
 20
196.669147
 30
0.0
 11
1082.207766
 21
176.159147
 31
0.0
  0
LINE
  5
A3
330
30
100
AcDbEntity
  8
LC-002-002-----0
 62
     1
370
    25
100
AcDbLine
 10
1143.855603
 20
159.963432
 30
0.0
 11
1143.855603
 21
192.354862
 31
0.0
  0
LINE
  5
A4
330
30
100
AcDbEntity
  8
LC-002-002-----0
 62
     1
370
    25
100
AcDbLine
 10
1143.855603
 20
192.354862
 30
0.0
 11
1127.659888
 21
176.159147
 31
0.0
  0
LINE
  5
A5
330
30
100
AcDbEntity
  8
LC-002-002-----0
 62
     1
370
    25
100
AcDbLine
 10
1127.659888
 20
176.159147
 30
0.0
 11
1143.855603
 21
159.963432
 31
0.0
  0
LINE
  5
A6
330
30
100
AcDbEntity
  8
LC-002-002-----0
 62
     1
370
    25
100
AcDbLine
 10
1142.355603
 20
163.584752
 30
0.0
 11
1142.355603
 21
188.733542
 31
0.0
  0
LINE
  5
A7
330
30
100
AcDbEntity
  8
LC-001-111-----0
 62
   253
370
    25
100
AcDbLine
 10
1082.207766
 20
176.159147
 30
0.0
 11
1099.299433
 21
155.649147
 31
0.0
  0
LINE
  5
A8
330
30
100
AcDbEntity
  8
LC-001-111-----0
 62
   253
370
    25
100
AcDbLine
 10
1099.299433
 20
155.649147
 30
0.0
 11
1087.818366
 21
155.649147
 31
0.0
  0
LINE
  5
A9
330
30
100
AcDbEntity
  8
LC-001-111-----0
 62
   253
370
    25
100
AcDbLine
 10
1087.818366
 20
155.649147
 30
0.0
 11
1071.855603
 21
174.804462
 31
0.0
  0
LINE
  5
AA
330
30
100
AcDbEntity
  8
LC-001-111-----0
 62
   253
370
    25
100
AcDbLine
 10
1062.335603
 20
155.649147
 30
0.0
 11
1062.335603
 21
196.669147
 31
0.0
  0
LINE
  5
AB
330
30
100
AcDbEntity
  8
LC-001-111-----0
 62
   253
370
    25
100
AcDbLine
 10
828.855603
 20
189.114146
 30
0.0
 11
828.855603
 21
194.497086
 31
0.0
  0
ARC
  5
AC
330
30
100
AcDbEntity
  8
LC-001-111-----0
 62
   253
370
    25
100
AcDbCircle
 10
758.903191
 20
174.567744
 30
0.0
 40
19.31533311668209
100
AcDbArc
 50
65.072024
 51
94.48185
  0
LINE
  5
AD
330
30
100
AcDbEntity
  8
LC-001-111-----0
 62
   253
370
    25
100
AcDbLine
 10
1063.835603
 20
157.149147
 30
0.0
 11
1070.355603
 21
157.149147
 31
0.0
  0
LINE
  5
AE
330
30
100
AcDbEntity
  8
LC-001-111-----0
 62
   253
370
    25
100
AcDbLine
 10
1070.355603
 20
157.149147
 30
0.0
 11
1070.355603
 21
195.169147
 31
0.0
  0
LINE
  5
AF
330
30
100
AcDbEntity
  8
LC-001-111-----0
 62
   253
370
    25
100
AcDbLine
 10
1070.355603
 20
195.169147
 30
0.0
 11
1063.835603
 21
195.169147
 31
0.0
  0
LINE
  5
B0
330
30
100
AcDbEntity
  8
LC-001-111-----0
 62
   253
370
    25
100
AcDbLine
 10
1065.335603
 20
193.669147
 30
0.0
 11
1065.335603
 21
158.649147
 31
0.0
  0
LINE
  5
B1
330
30
100
AcDbEntity
  8
LC-002-002-----0
 62
     1
370
    25
100
AcDbLine
 10
1142.355603
 20
188.733542
 30
0.0
 11
1129.781208
 21
176.159147
 31
0.0
  0
LINE
  5
B2
330
30
100
AcDbEntity
  8
LC-002-002-----0
 62
     1
370
    25
100
AcDbLine
 10
1129.781208
 20
176.159147
 30
0.0
 11
1142.355603
 21
163.584752
 31
0.0
  0
LINE
  5
B3
330
30
100
AcDbEntity
  8
LC-001-111-----0
 62
   253
370
    25
100
AcDbLine
 10
1062.335603
 20
196.669147
 30
0.0
 11
1071.855603
 21
196.669147
 31
0.0
  0
LINE
  5
B4
330
30
100
AcDbEntity
  8
LC-001-111-----0
 62
   253
370
    25
100
AcDbLine
 10
1071.855603
 20
196.669147
 30
0.0
 11
1071.855603
 21
155.649147
 31
0.0
  0
LINE
  5
B5
330
30
100
AcDbEntity
  8
LC-001-111-----0
 62
   253
370
    25
100
AcDbLine
 10
1071.855603
 20
155.649147
 30
0.0
 11
1062.335603
 21
155.649147
 31
0.0
  0
ARC
  5
B6
330
30
100
AcDbEntity
  8
LC-001-111-----0
 62
   253
370
    25
100
AcDbCircle
 10
758.032826
 20
185.671748
 30
0.0
 40
8.177270814709827
100
AcDbArc
 50
94.48185
 51
252.731329
  0
LINE
  5
B7
330
30
100
AcDbEntity
  8
LC-001-111-----0
 62
   253
370
    25
100
AcDbLine
 10
755.60538
 20
177.863082
 30
0.0
 11
763.128892
 21
175.524281
 31
0.0
  0
ARC
  5
B8
330
30
100
AcDbEntity
  8
LC-001-111-----0
 62
   253
370
    25
100
AcDbCircle
 10
760.836588
 20
168.15034
 30
0.0
 40
7.72202478100773
100
AcDbArc
 50
268.246912
 51
72.731329
  0
LINE
  5
B9
330
30
100
AcDbEntity
  8
LC-001-111-----0
 62
   253
370
    25
100
AcDbLine
 10
827.355603
 20
191.143539
 30
0.0
 11
827.355603
 21
193.313738
 31
0.0
  0
ARC
  5
BA
330
30
100
AcDbEntity
  8
LC-001-111-----0
 62
   253
370
    25
100
AcDbCircle
 10
823.845603
 20
176.159147
 30
0.0
 40
17.50999999999996
100
AcDbArc
 50
78.436322
 51
281.563678
  0
LINE
  5
BB
330
30
100
AcDbEntity
  8
LC-001-111-----0
 62
   253
370
    25
100
AcDbLine
 10
827.355603
 20
159.004556
 30
0.0
 11
827.355603
 21
161.174755
 31
0.0
  0
LINE
  5
BC
330
30
100
AcDbEntity
  8
LC-002-002-----0
 62
     1
370
    25
100
AcDbLine
 10
1145.355603
 20
195.976182
 30
0.0
 11
1145.355603
 21
156.342112
 31
0.0
  0
LINE
  5
BD
330
30
100
AcDbEntity
  8
LC-002-002-----0
 62
     1
370
    25
100
AcDbLine
 10
1145.355603
 20
156.342112
 30
0.0
 11
1125.538568
 21
176.159147
 31
0.0
  0
LINE
  5
BE
330
30
100
AcDbEntity
  8
LC-002-002-----0
 62
     1
370
    25
100
AcDbLine
 10
1125.538568
 20
176.159147
 30
0.0
 11
1145.355603
 21
195.976182
 31
0.0
  0
LINE
  5
BF
330
30
100
AcDbEntity
  8
LC-001-111-----0
 62
   253
370
    25
100
AcDbLine
 10
1065.335603
 20
158.649147
 30
0.0
 11
1068.855603
 21
158.649147
 31
0.0
  0
LINE
  5
C0
330
30
100
AcDbEntity
  8
LC-001-111-----0
 62
   253
370
    25
100
AcDbLine
 10
1068.855603
 20
158.649147
 30
0.0
 11
1068.855603
 21
193.669147
 31
0.0
  0
LINE
  5
C1
330
30
100
AcDbEntity
  8
LC-001-111-----0
 62
   253
370
    25
100
AcDbLine
 10
1068.855603
 20
193.669147
 30
0.0
 11
1065.335603
 21
193.669147
 31
0.0
  0
LINE
  5
C2
330
30
100
AcDbEntity
  8
LC-001-111-----0
 62
   253
370
    25
100
AcDbLine
 10
1067.095603
 20
192.169147
 30
0.0
 11
1067.095603
 21
160.149147
 31
0.0
  0
ARC
  5
C3
330
30
100
AcDbEntity
  8
LC-001-111-----0
 62
   253
370
    25
100
AcDbCircle
 10
823.845603
 20
176.159147
 30
0.0
 40
15.38999999999992
100
AcDbArc
 50
76.816519
 51
283.183481
  0
LINE
  5
C4
330
30
100
AcDbEntity
  8
LC-001-111-----0
 62
   253
370
    25
100
AcDbLine
 10
870.855603
 20
195.169147
 30
0.0
 11
864.335603
 21
195.169147
 31
0.0
  0
LINE
  5
C5
330
30
100
AcDbEntity
  8
LC-001-111-----0
 62
   253
370
    25
100
AcDbLine
 10
1096.09687
 20
195.169147
 30
0.0
 11
1088.520928
 21
195.169147
 31
0.0
  0
LINE
  5
C6
330
30
100
AcDbEntity
  8
LC-001-111-----0
 62
   253
370
    25
100
AcDbLine
 10
865.835603
 20
158.649147
 30
0.0
 11
869.355603
 21
158.649147
 31
0.0
  0
LINE
  5
C7
330
30
100
AcDbEntity
  8
LC-001-111-----0
 62
   253
370
    25
100
AcDbLine
 10
1023.355603
 20
191.143539
 30
0.0
 11
1023.355603
 21
193.313738
 31
0.0
  0
LINE
  5
C8
330
30
100
AcDbEntity
  8
LC-001-111-----0
 62
   253
370
    25
100
AcDbLine
 10
892.095603
 20
192.169147
 30
0.0
 11
892.095603
 21
160.149147
 31
0.0
  0
TEXT
  5
C9
330
30
100
AcDbEntity
  8
LC-001-111-----0
 62
     1
370
    15
100
AcDbText
 10
1882.732143
 20
21.25
 30
0.0
 40
15.0
  1
Madison-N175-U
 41
0.75
  7
LCTX0-400-0-0pDIN-Schrift
 72
     1
 11
1958.0
 21
21.25
 31
0.0
100
AcDbText
  0
CIRCLE
  5
CA
330
30
100
AcDbEntity
  8
LC-001-111-----0
 62
   253
370
    25
100
AcDbCircle
 10
946.345603
 20
176.159147
 30
0.0
 40
17.51000000000047
  0
LINE
  5
CB
330
30
100
AcDbEntity
  8
LC-001-111-----0
 62
   253
370
    25
100
AcDbLine
 10
1088.520928
 20
195.169147
 30
0.0
 11
1072.679261
 21
176.159147
 31
0.0
  0
ARC
  5
CC
330
30
100
AcDbEntity
  8
LC-001-111-----0
 62
   253
370
    25
100
AcDbCircle
 10
1019.845603
 20
176.159147
 30
0.0
 40
17.50999999999996
100
AcDbArc
 50
78.436322
 51
281.563678
  0
ARC
  5
CD
330
30
100
AcDbEntity
  8
LC-001-111-----0
 62
   253
370
    25
100
AcDbCircle
 10
761.412387
 20
186.963179
 30
0.0
 40
26.54367341134783
100
AcDbArc
 50
244.741378
 51
268.246912
  0
LINE
  5
CE
330
30
100
AcDbEntity
  8
LC-001-111-----0
 62
   253
370
    25
100
AcDbLine
 10
1023.355603
 20
159.004556
 30
0.0
 11
1023.355603
 21
161.174755
 31
0.0
  0
LINE
  5
CF
330
30
100
AcDbEntity
  8
LC-002-002-----0
 62
     1
370
    25
100
AcDbLine
 10
1140.855603
 20
167.206073
 30
0.0
 11
1140.855603
 21
185.112221
 31
0.0
  0
LINE
  5
D0
330
30
100
AcDbEntity
  8
LC-002-002-----0
 62
     1
370
    25
100
AcDbLine
 10
1140.855603
 20
185.112221
 30
0.0
 11
1131.902529
 21
176.159147
 31
0.0
  0
LINE
  5
D1
330
30
100
AcDbEntity
  8
LC-002-002-----0
 62
     1
370
    25
100
AcDbLine
 10
1131.902529
 20
176.159147
 30
0.0
 11
1140.855603
 21
167.206073
 31
0.0
  0
CIRCLE
  5
D2
330
30
100
AcDbEntity
  8
LC-001-111-----0
 62
   253
370
    25
100
AcDbCircle
 10
946.345603
 20
176.159147
 30
0.0
 40
13.89000000000002
  0
LINE
  5
D3
330
30
100
AcDbEntity
  8
LC-001-111-----0
 62
   253
370
    25
100
AcDbLine
 10
890.335603
 20
158.649147
 30
0.0
 11
893.855603
 21
158.649147
 31
0.0
  0
LINE
  5
D4
330
30
100
AcDbEntity
  8
LC-001-111-----0
 62
   253
370
    25
100
AcDbLine
 10
893.855603
 20
158.649147
 30
0.0
 11
893.855603
 21
193.669147
 31
0.0
  0
ARC
  5
D5
330
30
100
AcDbEntity
  8
LC-001-111-----0
 62
   253
370
    25
100
AcDbCircle
 10
758.906662
 20
168.924866
 30
0.0
 40
20.55472179307891
100
AcDbArc
 50
57.190491
 51
90.951212
  0
ARC
  5
D6
330
30
100
AcDbEntity
  8
LC-001-111-----0
 62
   253
370
    25
100
AcDbCircle
 10
761.779647
 20
167.692822
 30
0.0
 40
12.23104525444841
100
AcDbArc
 50
274.343327
 51
74.255463
  0
LINE
  5
D7
330
30
100
AcDbEntity
  8
LC-001-111-----0
 62
   253
370
    25
100
AcDbLine
 10
893.855603
 20
193.669147
 30
0.0
 11
890.335603
 21
193.669147
 31
0.0
  0
LINE
  5
D8
330
30
100
AcDbEntity
  8
LC-001-111-----0
 62
   253
370
    25
100
AcDbLine
 10
890.335603
 20
193.669147
 30
0.0
 11
890.335603
 21
158.649147
 31
0.0
  0
LINE
  5
D9
330
30
100
AcDbEntity
  8
LC-001-111-----0
 62
   253
370
    25
100
AcDbLine
 10
890.335603
 20
176.159147
 30
0.0
 11
869.355603
 21
176.159147
 31
0.0
  0
TEXT
  5
DA
330
30
100
AcDbEntity
  8
LC-001-111-----0
 62
     7
370
    25
100
AcDbText
 10
1977.410714
 20
143.75
 30
0.0
 40
25.0
  1
1
 41
0.75
  7
LCTX0-400-0-0pDIN-Schrift
 72
     1
 11
1985.0
 21
143.75
 31
0.0
100
AcDbText
  0
LINE
  5
DB
330
30
100
AcDbEntity
  8
LC-001-111-----0
 62
   253
370
    25
100
AcDbLine
 10
869.355603
 20
158.649147
 30
0.0
 11
869.355603
 21
193.669147
 31
0.0
  0
LINE
  5
DC
330
30
100
AcDbEntity
  8
LC-001-111-----0
 62
   253
370
    25
100
AcDbLine
 10
869.355603
 20
193.669147
 30
0.0
 11
865.835603
 21
193.669147
 31
0.0
  0
LINE
  5
DD
330
30
100
AcDbEntity
  8
LC-001-111-----0
 62
   253
370
    25
100
AcDbLine
 10
865.835603
 20
193.669147
 30
0.0
 11
865.835603
 21
158.649147
 31
0.0
  0
LINE
  5
DE
330
30
100
AcDbEntity
  8
LC-001-111-----0
 62
   253
370
    25
100
AcDbLine
 10
867.595603
 20
192.169147
 30
0.0
 11
867.595603
 21
160.149147
 31
0.0
  0
CIRCLE
  5
DF
330
30
100
AcDbEntity
  8
LC-001-111-----0
 62
   253
370
    25
100
AcDbCircle
 10
946.345603
 20
176.159147
 30
0.0
 40
15.38999999999984
  0
LINE
  5
E0
330
30
100
AcDbEntity
  8
LC-001-111-----0
 62
   253
370
    25
100
AcDbLine
 10
1072.679261
 20
176.159147
 30
0.0
 11
1088.520928
 21
157.149147
 31
0.0
  0
LINE
  5
E1
330
30
100
AcDbEntity
  8
LC-001-111-----0
 62
   253
370
    25
100
AcDbLine
 10
1088.520928
 20
157.149147
 30
0.0
 11
1096.09687
 21
157.149147
 31
0.0
  0
LINE
  5
E2
330
30
100
AcDbEntity
  8
LC-001-111-----0
 62
   253
370
    25
100
AcDbLine
 10
1096.09687
 20
157.149147
 30
0.0
 11
1080.255204
 21
176.159147
 31
0.0
  0
LINE
  5
E3
330
30
100
AcDbEntity
  8
LC-001-111-----0
 62
   253
370
    25
100
AcDbLine
 10
770.044191
 20
186.20063
 30
0.0
 11
770.044191
 21
193.903002
 31
0.0
  0
ARC
  5
E4
330
30
100
AcDbEntity
  8
LC-001-111-----0
 62
   253
370
    25
100
AcDbCircle
 10
761.412387
 20
186.963179
 30
0.0
 40
23.54367341134796
100
AcDbArc
 50
232.518913
 51
268.246912
  0
ARC
  5
E5
330
30
100
AcDbEntity
  8
LC-001-111-----0
 62
   253
370
    25
100
AcDbCircle
 10
760.836588
 20
168.15034
 30
0.0
 40
4.722024781007908
100
AcDbArc
 50
268.246912
 51
72.731329
  0
LINE
  5
E6
330
30
100
AcDbEntity
  8
LC-001-111-----0
 62
   253
370
    25
100
AcDbLine
 10
757.542274
 20
181.595277
 30
0.0
 11
765.098525
 21
179.464972
 31
0.0
  0
ARC
  5
E7
330
30
100
AcDbEntity
  8
LC-001-111-----0
 62
   253
370
    25
100
AcDbCircle
 10
758.632108
 20
185.460948
 30
0.0
 40
4.016360130100384
100
AcDbArc
 50
90.951212
 51
254.255463
  0
ARC
  5
E8
330
30
100
AcDbEntity
  8
LC-001-111-----0
 62
   253
370
    25
100
AcDbCircle
 10
758.032826
 20
185.671748
 30
0.0
 40
11.17727081470983
100
AcDbArc
 50
94.48185
 51
252.731329
  0
LINE
  5
E9
330
30
100
AcDbEntity
  8
LC-001-111-----0
 62
   253
370
    25
100
AcDbLine
 10
762.238334
 20
172.659511
 30
0.0
 11
754.714822
 21
174.998312
 31
0.0
  0
LINE
  5
EA
330
30
100
AcDbEntity
  8
LC-001-111-----0
 62
   253
370
    25
100
AcDbLine
 10
747.086073
 20
168.279997
 30
0.0
 11
747.086073
 21
159.524163
 31
0.0
  0
ARC
  5
EB
330
30
100
AcDbEntity
  8
LC-001-111-----0
 62
   253
370
    25
100
AcDbCircle
 10
758.903191
 20
174.567744
 30
0.0
 40
22.31533311668187
100
AcDbArc
 50
60.049399
 51
94.48185
  0
ARC
  5
EC
330
30
100
AcDbEntity
  8
LC-001-111-----0
 62
   253
370
    25
100
AcDbCircle
 10
760.81067
 20
180.45076
 30
0.0
 40
25.02572762426604
100
AcDbArc
 50
236.741348
 51
274.343327
  0
LINE
  5
ED
330
30
100
AcDbEntity
  8
LC-001-111-----0
 62
   253
370
    25
100
AcDbLine
 10
1080.255204
 20
176.159147
 30
0.0
 11
1096.09687
 21
195.169147
 31
0.0
  0
LINE
  5
EE
330
30
100
AcDbEntity
  8
LC-001-111-----0
 62
   253
370
    25
100
AcDbLine
 10
750.086073
 20
162.957321
 30
0.0
 11
750.086073
 21
161.212369
 31
0.0
  0
LINE
  5
EF
330
30
100
AcDbEntity
  8
LC-001-111-----0
 62
   253
370
    25
100
AcDbLine
 10
1078.302641
 20
176.159147
 30
0.0
 11
1092.894308
 21
193.669147
 31
0.0
  0
LINE
  5
F0
330
30
100
AcDbEntity
  8
LC-002-002-----0
 62
     1
370
    25
100
AcDbLine
 10
1139.355603
 20
170.827393
 30
0.0
 11
1139.355603
 21
181.490901
 31
0.0
  0
LINE
  5
F1
330
30
100
AcDbEntity
  8
LC-002-002-----0
 62
     1
370
    25
100
AcDbLine
 10
1139.355603
 20
181.490901
 30
0.0
 11
1134.023849
 21
176.159147
 31
0.0
  0
LINE
  5
F2
330
30
100
AcDbEntity
  8
LC-002-002-----0
 62
     1
370
    25
100
AcDbLine
 10
1134.023849
 20
176.159147
 30
0.0
 11
1139.355603
 21
170.827393
 31
0.0
  0
LINE
  5
F3
330
30
100
AcDbEntity
  8
LC-002-002-----0
 62
     1
370
    25
100
AcDbLine
 10
1137.855603
 20
174.448713
 30
0.0
 11
1137.855603
 21
177.869581
 31
0.0
  0
LINE
  5
F4
330
30
100
AcDbEntity
  8
LC-002-002-----0
 62
     1
370
    25
100
AcDbLine
 10
1137.855603
 20
177.869581
 30
0.0
 11
1136.145169
 21
176.159147
 31
0.0
  0
LINE
  5
F5
330
30
100
AcDbEntity
  8
LC-002-002-----0
 62
     1
370
    25
100
AcDbLine
 10
1136.145169
 20
176.159147
 30
0.0
 11
1137.855603
 21
174.448713
 31
0.0
  0
LINE
  5
F6
330
30
100
AcDbEntity
  8
LC-001-111-----0
 62
   253
370
    25
100
AcDbLine
 10
1092.894308
 20
193.669147
 30
0.0
 11
1089.22349
 21
193.669147
 31
0.0
  0
LINE
  5
F7
330
30
100
AcDbEntity
  8
LC-001-111-----0
 62
   253
370
    25
100
AcDbLine
 10
1089.22349
 20
193.669147
 30
0.0
 11
1074.631824
 21
176.159147
 31
0.0
  0
ARC
  5
F8
330
30
100
AcDbEntity
  8
LC-001-111-----0
 62
   253
370
    25
100
AcDbCircle
 10
1019.845603
 20
176.159147
 30
0.0
 40
15.38999999999992
100
AcDbArc
 50
76.816519
 51
283.183481
  0
LINE
  5
F9
330
30
100
AcDbEntity
  8
LC-001-111-----0
 62
   253
370
    25
100
AcDbLine
 10
1074.631824
 20
176.159147
 30
0.0
 11
1089.22349
 21
158.649147
 31
0.0
  0
LINE
  5
FA
330
30
100
AcDbEntity
  8
LC-001-111-----0
 62
   253
370
    25
100
AcDbLine
 10
1089.22349
 20
158.649147
 30
0.0
 11
1092.894308
 21
158.649147
 31
0.0
  0
LINE
  5
FB
330
30
100
AcDbEntity
  8
LC-001-111-----0
 62
   253
370
    25
100
AcDbLine
 10
1092.894308
 20
158.649147
 30
0.0
 11
1078.302641
 21
176.159147
 31
0.0
  0
LINE
  5
FC
330
30
100
AcDbEntity
  8
LC-001-111-----0
 62
   253
370
    25
100
AcDbLine
 10
1076.467232
 20
176.159147
 30
0.0
 11
1090.098623
 21
192.516815
 31
0.0
  0
LINE
  5
FD
330
30
100
AcDbEntity
  8
LC-001-111-----0
 62
   253
370
    25
100
AcDbLine
 10
1076.467232
 20
176.159147
 30
0.0
 11
1090.098623
 21
159.801479
 31
0.0
  0
ARC
  5
FE
330
30
100
AcDbEntity
  8
LC-001-111-----0
 62
   253
370
    25
100
AcDbCircle
 10
760.81067
 20
180.45076
 30
0.0
 40
22.02572762426587
100
AcDbArc
 50
240.862164
 51
274.343327
  0
ARC
  5
FF
330
30
100
AcDbEntity
  8
LC-001-111-----0
 62
   253
370
    25
100
AcDbCircle
 10
761.779647
 20
167.692822
 30
0.0
 40
9.231045254448425
100
AcDbArc
 50
274.343327
 51
74.255463
  0
LINE
  5
100
330
30
100
AcDbEntity
  8
LC-001-111-----0
 62
   253
370
    25
100
AcDbLine
 10
764.284479
 20
176.577529
 30
0.0
 11
756.728228
 21
178.707834
 31
0.0
  0
ARC
  5
101
330
30
100
AcDbEntity
  8
LC-001-111-----0
 62
   253
370
    25
100
AcDbCircle
 10
758.632108
 20
185.460948
 30
0.0
 40
7.016360130100396
100
AcDbArc
 50
90.951212
 51
254.255463
  0
ARC
  5
102
330
30
100
AcDbEntity
  8
LC-001-111-----0
 62
   253
370
    25
100
AcDbCircle
 10
758.906662
 20
168.924866
 30
0.0
 40
23.55472179307856
100
AcDbArc
 50
69.789306
 51
90.951212
  0
LINE
  5
103
330
30
100
AcDbEntity
  8
LC-001-111-----0
 62
   253
370
    25
100
AcDbLine
 10
767.044191
 20
191.029289
 30
0.0
 11
767.044191
 21
192.083629
 31
0.0
  0
ENDBLK
  5
32
330
30
100
AcDbEntity
  8
0
100
AcDbBlockEnd
  0
BLOCK
  5
1CC
330
1CB
100
AcDbEntity
  8
0
100
AcDbBlockBegin
  2
KLON1
 70
     0
 71
     0
 10
0.0
 20
0.0
 30
0.0
  3
KLON1
  1

  4
KLON1
  0
LINE
  5
1CE
330
1CB
100
AcDbEntity
  8
LC-006-100-D00-0
 62
     7
370
    13
100
AcDbLine
 10
1839.805457
 20
1537.936733
 30
0.0
 11
1839.805457
 21
1537.936733
 31
0.0
  0
LINE
  5
1CF
330
1CB
100
AcDbEntity
  8
LC-006-100-D00-0
 62
     7
370
    13
100
AcDbLine
 10
1839.805462
 20
1537.936725
 30
0.0
 11
1839.808467
 21
1537.931813
 31
0.0
  0
LINE
  5
1D0
330
1CB
100
AcDbEntity
  8
LC-006-100-D00-0
 62
     7
370
    13
100
AcDbLine
 10
1839.808467
 20
1537.931813
 30
0.0
 11
1839.811004
 21
1537.92762
 31
0.0
  0
ENDBLK
  5
1CD
330
1CB
100
AcDbEntity
  8
0
100
AcDbBlockEnd
  0
BLOCK
  5
1F6
330
1EC
100
AcDbEntity
  8
0
100
AcDbBlockBegin
  2
*D3
 70
     1
 71
     0
 10
0.0
 20
0.0
 30
0.0
  3
*D3
  1

  0
LINE
  5
1ED
330
1EC
100
AcDbEntity
  8
LC-007-003-----0
 62
     2
370
    -2
100
AcDbLine
 10
430.37707
 20
2644.675779
 30
0.0
 11
430.37707
 21
2718.0
 31
0.0
  0
LINE
  5
1EE
330
1EC
100
AcDbEntity
  8
LC-007-003-----0
 62
     2
370
    -2
100
AcDbLine
 10
800.173638
 20
2626.675779
 30
0.0
 11
800.173638
 21
2718.0
 31
0.0
  0
LINE
  5
1EF
330
1EC
100
AcDbEntity
  8
LC-007-003-----0
 62
     2
370
    -2
100
AcDbLine
 10
455.37707
 20
2700.0
 30
0.0
 11
775.173638
 21
2700.0
 31
0.0
  0
SOLID
  5
1F0
330
1EC
100
AcDbEntity
  8
LC-007-003-----0
 62
     2
100
AcDbTrace
 10
455.37707
 20
2704.166667
 30
0.0
 11
455.37707
 21
2695.833333
 31
0.0
 12
430.37707
 22
2700.0
 32
0.0
 13
430.37707
 23
2700.0
 33
0.0
  0
SOLID
  5
1F1
330
1EC
100
AcDbEntity
  8
LC-007-003-----0
 62
     2
100
AcDbTrace
 10
775.173638
 20
2695.833333
 30
0.0
 11
775.173638
 21
2704.166667
 31
0.0
 12
800.173638
 22
2700.0
 32
0.0
 13
800.173638
 23
2700.0
 33
0.0
  0
MTEXT
  5
1F2
330
1EC
100
AcDbEntity
  8
LC-007-003-----0
 62
     2
100
AcDbMText
 10
609.88359
 20
2730.0
 30
0.0
 40
25.0
 41
0.0
 71
     5
 72
     1
  1
\A1;370
  7
LCTX0-400-0-0pDIN-Schrift
 73
     1
 44
1.0
  0
POINT
  5
1F3
330
1EC
100
AcDbEntity
  8
Defpoints
 62
     0
100
AcDbPoint
 10
430.37707
 20
2644.675779
 30
0.0
  0
POINT
  5
1F4
330
1EC
100
AcDbEntity
  8
Defpoints
 62
     0
100
AcDbPoint
 10
800.173638
 20
2626.675779
 30
0.0
  0
POINT
  5
1F5
330
1EC
100
AcDbEntity
  8
Defpoints
 62
     0
100
AcDbPoint
 10
800.173638
 20
2700.0
 30
0.0
  0
ENDBLK
  5
1F7
330
1EC
100
AcDbEntity
  8
0
100
AcDbBlockEnd
  0
BLOCK
  5
203
330
1F9
100
AcDbEntity
  8
0
100
AcDbBlockBegin
  2
*D4
 70
     1
 71
     0
 10
0.0
 20
0.0
 30
0.0
  3
*D4
  1

  0
LINE
  5
1FA
330
1F9
100
AcDbEntity
  8
LC-007-003-----0
 62
     2
370
    -2
100
AcDbLine
 10
829.972274
 20
2626.675779
 30
0.0
 11
829.972274
 21
2718.0
 31
0.0
  0
LINE
  5
1FB
330
1F9
100
AcDbEntity
  8
LC-007-003-----0
 62
     2
370
    -2
100
AcDbLine
 10
1199.778434
 20
2644.675779
 30
0.0
 11
1199.778434
 21
2718.0
 31
0.0
  0
LINE
  5
1FC
330
1F9
100
AcDbEntity
  8
LC-007-003-----0
 62
     2
370
    -2
100
AcDbLine
 10
854.972274
 20
2700.0
 30
0.0
 11
1174.778434
 21
2700.0
 31
0.0
  0
SOLID
  5
1FD
330
1F9
100
AcDbEntity
  8
LC-007-003-----0
 62
     2
100
AcDbTrace
 10
854.972274
 20
2704.166667
 30
0.0
 11
854.972274
 21
2695.833333
 31
0.0
 12
829.972274
 22
2700.0
 32
0.0
 13
829.972274
 23
2700.0
 33
0.0
  0
SOLID
  5
1FE
330
1F9
100
AcDbEntity
  8
LC-007-003-----0
 62
     2
100
AcDbTrace
 10
1174.778434
 20
2695.833333
 30
0.0
 11
1174.778434
 21
2704.166667
 31
0.0
 12
1199.778434
 22
2700.0
 32
0.0
 13
1199.778434
 23
2700.0
 33
0.0
  0
MTEXT
  5
1FF
330
1F9
100
AcDbEntity
  8
LC-007-003-----0
 62
     2
100
AcDbMText
 10
999.960548
 20
2730.0
 30
0.0
 40
25.0
 41
0.0
 71
     5
 72
     1
  1
\A1;370
  7
LCTX0-400-0-0pDIN-Schrift
 73
     1
 44
1.0
  0
POINT
  5
200
330
1F9
100
AcDbEntity
  8
Defpoints
 62
     0
100
AcDbPoint
 10
829.972274
 20
2626.675779
 30
0.0
  0
POINT
  5
201
330
1F9
100
AcDbEntity
  8
Defpoints
 62
     0
100
AcDbPoint
 10
1199.778434
 20
2644.675779
 30
0.0
  0
POINT
  5
202
330
1F9
100
AcDbEntity
  8
Defpoints
 62
     0
100
AcDbPoint
 10
1199.778434
 20
2700.0
 30
0.0
  0
ENDBLK
  5
204
330
1F9
100
AcDbEntity
  8
0
100
AcDbBlockEnd
  0
BLOCK
  5
210
330
206
100
AcDbEntity
  8
0
100
AcDbBlockBegin
  2
*D5
 70
     1
 71
     0
 10
0.0
 20
0.0
 30
0.0
  3
*D5
  1

  0
LINE
  5
207
330
206
100
AcDbEntity
  8
LC-007-003-----0
 62
     2
370
    -2
100
AcDbLine
 10
1013.970711
 20
2408.306446
 30
0.0
 11
1068.0
 21
2408.306446
 31
0.0
  0
LINE
  5
208
330
206
100
AcDbEntity
  8
LC-007-003-----0
 62
     2
370
    -2
100
AcDbLine
 10
1013.970711
 20
2649.24
 30
0.0
 11
1068.0
 21
2649.24
 31
0.0
  0
LINE
  5
209
330
206
100
AcDbEntity
  8
LC-007-003-----0
 62
     2
370
    -2
100
AcDbLine
 10
1050.0
 20
2433.306446
 30
0.0
 11
1050.0
 21
2624.24
 31
0.0
  0
SOLID
  5
20A
330
206
100
AcDbEntity
  8
LC-007-003-----0
 62
     2
100
AcDbTrace
 10
1045.833333
 20
2433.306446
 30
0.0
 11
1054.166667
 21
2433.306446
 31
0.0
 12
1050.0
 22
2408.306446
 32
0.0
 13
1050.0
 23
2408.306446
 33
0.0
  0
SOLID
  5
20B
330
206
100
AcDbEntity
  8
LC-007-003-----0
 62
     2
100
AcDbTrace
 10
1054.166667
 20
2624.24
 30
0.0
 11
1045.833333
 21
2624.24
 31
0.0
 12
1050.0
 22
2649.24
 32
0.0
 13
1050.0
 23
2649.24
 33
0.0
  0
MTEXT
  5
20C
330
206
100
AcDbEntity
  8
LC-007-003-----0
 62
     2
100
AcDbMText
 10
1020.0
 20
2534.99493
 30
0.0
 40
25.0
 41
0.0
 71
     5
 72
     1
  1
\A1;241
  7
LCTX0-400-0-0pDIN-Schrift
 11
6.123031769111886E-17
 21
1.0
 31
0.0
 73
     1
 44
1.0
  0
POINT
  5
20D
330
206
100
AcDbEntity
  8
Defpoints
 62
     0
100
AcDbPoint
 10
1013.970711
 20
2408.306446
 30
0.0
  0
POINT
  5
20E
330
206
100
AcDbEntity
  8
Defpoints
 62
     0
100
AcDbPoint
 10
1013.970711
 20
2649.24
 30
0.0
  0
POINT
  5
20F
330
206
100
AcDbEntity
  8
Defpoints
 62
     0
100
AcDbPoint
 10
1050.0
 20
2649.24
 30
0.0
  0
ENDBLK
  5
211
330
206
100
AcDbEntity
  8
0
100
AcDbBlockEnd
  0
BLOCK
  5
223
330
219
100
AcDbEntity
  8
0
100
AcDbBlockBegin
  2
*D6
 70
     1
 71
     0
 10
0.0
 20
0.0
 30
0.0
  3
*D6
  1

  0
LINE
  5
21A
330
219
100
AcDbEntity
  8
LC-007-003-----0
 62
     2
370
    -2
100
AcDbLine
 10
395.977752
 20
1536.69
 30
0.0
 11
395.977752
 21
1385.95
 31
0.0
  0
LINE
  5
21B
330
219
100
AcDbEntity
  8
LC-007-003-----0
 62
     2
370
    -2
100
AcDbLine
 10
1234.177752
 20
1536.69
 30
0.0
 11
1234.177752
 21
1385.95
 31
0.0
  0
LINE
  5
21C
330
219
100
AcDbEntity
  8
LC-007-003-----0
 62
     2
370
    -2
100
AcDbLine
 10
420.977752
 20
1403.95
 30
0.0
 11
1209.177752
 21
1403.95
 31
0.0
  0
SOLID
  5
21D
330
219
100
AcDbEntity
  8
LC-007-003-----0
 62
     2
100
AcDbTrace
 10
420.977752
 20
1408.116667
 30
0.0
 11
420.977752
 21
1399.783333
 31
0.0
 12
395.977752
 22
1403.95
 32
0.0
 13
395.977752
 23
1403.95
 33
0.0
  0
SOLID
  5
21E
330
219
100
AcDbEntity
  8
LC-007-003-----0
 62
     2
100
AcDbTrace
 10
1209.177752
 20
1399.783333
 30
0.0
 11
1209.177752
 21
1408.116667
 31
0.0
 12
1234.177752
 22
1403.95
 32
0.0
 13
1234.177752
 23
1403.95
 33
0.0
  0
MTEXT
  5
21F
330
219
100
AcDbEntity
  8
LC-007-003-----0
 62
     2
100
AcDbMText
 10
822.817929
 20
1433.95
 30
0.0
 40
25.0
 41
0.0
 71
     5
 72
     1
  1
\A1;838,2
  7
LCTX0-400-0-0pDIN-Schrift
 73
     1
 44
1.0
  0
POINT
  5
220
330
219
100
AcDbEntity
  8
Defpoints
 62
     0
100
AcDbPoint
 10
395.977752
 20
1536.69
 30
0.0
  0
POINT
  5
221
330
219
100
AcDbEntity
  8
Defpoints
 62
     0
100
AcDbPoint
 10
1234.177752
 20
1536.69
 30
0.0
  0
POINT
  5
222
330
219
100
AcDbEntity
  8
Defpoints
 62
     0
100
AcDbPoint
 10
1234.177752
 20
1403.95
 30
0.0
  0
ENDBLK
  5
224
330
219
100
AcDbEntity
  8
0
100
AcDbBlockEnd
  0
BLOCK
  5
230
330
226
100
AcDbEntity
  8
0
100
AcDbBlockBegin
  2
*D7
 70
     1
 71
     0
 10
0.0
 20
0.0
 30
0.0
  3
*D7
  1

  0
LINE
  5
227
330
226
100
AcDbEntity
  8
LC-007-003-----0
 62
     2
370
    -2
100
AcDbLine
 10
1852.347988
 20
1955.690682
 30
0.0
 11
1968.0
 21
1955.690682
 31
0.0
  0
LINE
  5
228
330
226
100
AcDbEntity
  8
LC-007-003-----0
 62
     2
370
    -2
100
AcDbLine
 10
1852.347988
 20
1545.689318
 30
0.0
 11
1968.0
 21
1545.689318
 31
0.0
  0
LINE
  5
229
330
226
100
AcDbEntity
  8
LC-007-003-----0
 62
     2
370
    -2
100
AcDbLine
 10
1950.0
 20
1930.690682
 30
0.0
 11
1950.0
 21
1570.689318
 31
0.0
  0
SOLID
  5
22A
330
226
100
AcDbEntity
  8
LC-007-003-----0
 62
     2
100
AcDbTrace
 10
1954.166667
 20
1930.690682
 30
0.0
 11
1945.833333
 21
1930.690682
 31
0.0
 12
1950.0
 22
1955.690682
 32
0.0
 13
1950.0
 23
1955.690682
 33
0.0
  0
SOLID
  5
22B
330
226
100
AcDbEntity
  8
LC-007-003-----0
 62
     2
100
AcDbTrace
 10
1945.833333
 20
1570.689318
 30
0.0
 11
1954.166667
 21
1570.689318
 31
0.0
 12
1950.0
 22
1545.689318
 32
0.0
 13
1950.0
 23
1545.689318
 33
0.0
  0
MTEXT
  5
22C
330
226
100
AcDbEntity
  8
LC-007-003-----0
 62
     2
100
AcDbMText
 10
1920.0
 20
1756.418514
 30
0.0
 40
25.0
 41
0.0
 71
     5
 72
     1
  1
\A1;410
  7
LCTX0-400-0-0pDIN-Schrift
 11
6.123031769111886E-17
 21
1.0
 31
0.0
 73
     1
 44
1.0
  0
POINT
  5
22D
330
226
100
AcDbEntity
  8
Defpoints
 62
     0
100
AcDbPoint
 10
1852.347988
 20
1955.690682
 30
0.0
  0
POINT
  5
22E
330
226
100
AcDbEntity
  8
Defpoints
 62
     0
100
AcDbPoint
 10
1852.347988
 20
1545.689318
 30
0.0
  0
POINT
  5
22F
330
226
100
AcDbEntity
  8
Defpoints
 62
     0
100
AcDbPoint
 10
1950.0
 20
1545.689318
 30
0.0
  0
ENDBLK
  5
231
330
226
100
AcDbEntity
  8
0
100
AcDbBlockEnd
  0
BLOCK
  5
237
330
236
100
AcDbEntity
  8
0
100
AcDbBlockBegin
  2
POLY1
 70
     0
 71
     0
 10
0.0
 20
0.0
 30
0.0
  3
POLY1
  1

  4
POLY1
  0
LINE
  5
239
330
236
100
AcDbEntity
  8
LC-006-100-D00-0
 62
     6
370
    25
100
AcDbLine
 10
994.262962
 20
2316.176165
 30
0.0
 11
994.262962
 21
2316.176165
 31
0.0
  0
LINE
  5
23A
330
236
100
AcDbEntity
  8
LC-006-100-D00-0
 62
     6
370
    25
100
AcDbLine
 10
994.262962
 20
2316.176165
 30
0.0
 11
994.264924
 21
2316.156415
 31
0.0
  0
LINE
  5
23B
330
236
100
AcDbEntity
  8
LC-006-100-D00-0
 62
     6
370
    25
100
AcDbLine
 10
994.264924
 20
2316.156415
 30
0.0
 11
994.264924
 21
2316.156415
 31
0.0
  0
LINE
  5
23C
330
236
100
AcDbEntity
  8
LC-006-100-D00-0
 62
     6
370
    25
100
AcDbLine
 10
994.264924
 20
2316.156415
 30
0.0
 11
994.264925
 21
2316.126919
 31
0.0
  0
LINE
  5
23D
330
236
100
AcDbEntity
  8
LC-006-100-D00-0
 62
     6
370
    25
100
AcDbLine
 10
994.264925
 20
2316.126919
 30
0.0
 11
994.264925
 21
2316.126919
 31
0.0
  0
LINE
  5
23E
330
236
100
AcDbEntity
  8
LC-006-100-D00-0
 62
     6
370
    25
100
AcDbLine
 10
994.264925
 20
2316.126919
 30
0.0
 11
994.262962
 21
2316.091012
 31
0.0
  0
ENDBLK
  5
238
330
236
100
AcDbEntity
  8
0
100
AcDbBlockEnd
  0
BLOCK
  5
277
330
276
100
AcDbEntity
  8
0
100
AcDbBlockBegin
  2
POLY2
 70
     0
 71
     0
 10
0.0
 20
0.0
 30
0.0
  3
POLY2
  1

  4
POLY2
  0
LINE
  5
279
330
276
100
AcDbEntity
  8
LC-002-002-----0
 62
     7
370
    25
100
AcDbLine
 10
947.066989
 20
2342.795384
 30
0.0
 11
947.066989
 21
2342.795384
 31
0.0
  0
LINE
  5
27A
330
276
100
AcDbEntity
  8
LC-002-002-----0
 62
     7
370
    25
100
AcDbLine
 10
947.066989
 20
2342.795384
 30
0.0
 11
946.552216
 21
2342.736445
 31
0.0
  0
LINE
  5
27B
330
276
100
AcDbEntity
  8
LC-002-002-----0
 62
     7
370
    25
100
AcDbLine
 10
946.552216
 20
2342.736445
 30
0.0
 11
946.552216
 21
2342.736445
 31
0.0
  0
LINE
  5
27C
330
276
100
AcDbEntity
  8
LC-002-002-----0
 62
     7
370
    25
100
AcDbLine
 10
946.552216
 20
2342.736445
 30
0.0
 11
946.070858
 21
2342.5629
 31
0.0
  0
LINE
  5
27D
330
276
100
AcDbEntity
  8
LC-002-002-----0
 62
     7
370
    25
100
AcDbLine
 10
946.070858
 20
2342.5629
 30
0.0
 11
946.070858
 21
2342.5629
 31
0.0
  0
LINE
  5
27E
330
276
100
AcDbEntity
  8
LC-002-002-----0
 62
     7
370
    25
100
AcDbLine
 10
946.070858
 20
2342.5629
 30
0.0
 11
945.657291
 21
2342.286765
 31
0.0
  0
LINE
  5
27F
330
276
100
AcDbEntity
  8
LC-002-002-----0
 62
     7
370
    25
100
AcDbLine
 10
945.657291
 20
2342.286765
 30
0.0
 11
945.657291
 21
2342.286765
 31
0.0
  0
LINE
  5
280
330
276
100
AcDbEntity
  8
LC-002-002-----0
 62
     7
370
    25
100
AcDbLine
 10
945.657291
 20
2342.286765
 30
0.0
 11
945.338346
 21
2341.925419
 31
0.0
  0
LINE
  5
281
330
276
100
AcDbEntity
  8
LC-002-002-----0
 62
     7
370
    25
100
AcDbLine
 10
945.338346
 20
2341.925419
 30
0.0
 11
945.338346
 21
2341.925419
 31
0.0
  0
LINE
  5
282
330
276
100
AcDbEntity
  8
LC-002-002-----0
 62
     7
370
    25
100
AcDbLine
 10
945.338346
 20
2341.925419
 30
0.0
 11
945.136383
 21
2341.502032
 31
0.0
  0
LINE
  5
283
330
276
100
AcDbEntity
  8
LC-002-002-----0
 62
     7
370
    25
100
AcDbLine
 10
945.136383
 20
2341.502032
 30
0.0
 11
945.136383
 21
2341.502032
 31
0.0
  0
LINE
  5
284
330
276
100
AcDbEntity
  8
LC-002-002-----0
 62
     7
370
    25
100
AcDbLine
 10
945.136383
 20
2341.502032
 30
0.0
 11
945.066989
 21
2341.04455
 31
0.0
  0
ENDBLK
  5
278
330
276
100
AcDbEntity
  8
0
100
AcDbBlockEnd
  0
BLOCK
  5
287
330
286
100
AcDbEntity
  8
0
100
AcDbBlockBegin
  2
POLY3
 70
     0
 71
     0
 10
0.0
 20
0.0
 30
0.0
  3
POLY3
  1

  4
POLY3
  0
LINE
  5
289
330
286
100
AcDbEntity
  8
LC-002-002-----0
 62
     7
370
    25
100
AcDbLine
 10
947.066989
 20
2296.370422
 30
0.0
 11
947.066989
 21
2296.370422
 31
0.0
  0
LINE
  5
28A
330
286
100
AcDbEntity
  8
LC-002-002-----0
 62
     7
370
    25
100
AcDbLine
 10
947.066989
 20
2296.370422
 30
0.0
 11
946.552216
 21
2296.42936
 31
0.0
  0
LINE
  5
28B
330
286
100
AcDbEntity
  8
LC-002-002-----0
 62
     7
370
    25
100
AcDbLine
 10
946.552216
 20
2296.42936
 30
0.0
 11
946.552216
 21
2296.42936
 31
0.0
  0
LINE
  5
28C
330
286
100
AcDbEntity
  8
LC-002-002-----0
 62
     7
370
    25
100
AcDbLine
 10
946.552216
 20
2296.42936
 30
0.0
 11
946.070858
 21
2296.602905
 31
0.0
  0
LINE
  5
28D
330
286
100
AcDbEntity
  8
LC-002-002-----0
 62
     7
370
    25
100
AcDbLine
 10
946.070858
 20
2296.602905
 30
0.0
 11
946.070858
 21
2296.602905
 31
0.0
  0
LINE
  5
28E
330
286
100
AcDbEntity
  8
LC-002-002-----0
 62
     7
370
    25
100
AcDbLine
 10
946.070858
 20
2296.602905
 30
0.0
 11
945.657291
 21
2296.879041
 31
0.0
  0
LINE
  5
28F
330
286
100
AcDbEntity
  8
LC-002-002-----0
 62
     7
370
    25
100
AcDbLine
 10
945.657291
 20
2296.879041
 30
0.0
 11
945.657291
 21
2296.879041
 31
0.0
  0
LINE
  5
290
330
286
100
AcDbEntity
  8
LC-002-002-----0
 62
     7
370
    25
100
AcDbLine
 10
945.657291
 20
2296.879041
 30
0.0
 11
945.338346
 21
2297.240386
 31
0.0
  0
LINE
  5
291
330
286
100
AcDbEntity
  8
LC-002-002-----0
 62
     7
370
    25
100
AcDbLine
 10
945.338346
 20
2297.240386
 30
0.0
 11
945.338346
 21
2297.240386
 31
0.0
  0
LINE
  5
292
330
286
100
AcDbEntity
  8
LC-002-002-----0
 62
     7
370
    25
100
AcDbLine
 10
945.338346
 20
2297.240386
 30
0.0
 11
945.136383
 21
2297.663773
 31
0.0
  0
LINE
  5
293
330
286
100
AcDbEntity
  8
LC-002-002-----0
 62
     7
370
    25
100
AcDbLine
 10
945.136383
 20
2297.663773
 30
0.0
 11
945.136383
 21
2297.663773
 31
0.0
  0
LINE
  5
294
330
286
100
AcDbEntity
  8
LC-002-002-----0
 62
     7
370
    25
100
AcDbLine
 10
945.136383
 20
2297.663773
 30
0.0
 11
945.066989
 21
2298.121255
 31
0.0
  0
ENDBLK
  5
288
330
286
100
AcDbEntity
  8
0
100
AcDbBlockEnd
  0
BLOCK
  5
298
330
297
100
AcDbEntity
  8
0
100
AcDbBlockBegin
  2
POLY4
 70
     0
 71
     0
 10
0.0
 20
0.0
 30
0.0
  3
POLY4
  1

  4
POLY4
  0
LINE
  5
29A
330
297
100
AcDbEntity
  8
LC-002-002-----0
 62
     7
370
    25
100
AcDbLine
 10
947.066989
 20
2319.582903
 30
0.0
 11
947.066989
 21
2319.582903
 31
0.0
  0
LINE
  5
29B
330
297
100
AcDbEntity
  8
LC-002-002-----0
 62
     7
370
    25
100
AcDbLine
 10
947.066989
 20
2319.582903
 30
0.0
 11
946.552202
 21
2319.582936
 31
0.0
  0
LINE
  5
29C
330
297
100
AcDbEntity
  8
LC-002-002-----0
 62
     7
370
    25
100
AcDbLine
 10
946.552202
 20
2319.582936
 30
0.0
 11
946.552202
 21
2319.582936
 31
0.0
  0
LINE
  5
29D
330
297
100
AcDbEntity
  8
LC-002-002-----0
 62
     7
370
    25
100
AcDbLine
 10
946.552202
 20
2319.582936
 30
0.0
 11
946.070832
 21
2319.5829
 31
0.0
  0
LINE
  5
29E
330
297
100
AcDbEntity
  8
LC-002-002-----0
 62
     7
370
    25
100
AcDbLine
 10
946.070832
 20
2319.5829
 30
0.0
 11
946.070832
 21
2319.5829
 31
0.0
  0
LINE
  5
29F
330
297
100
AcDbEntity
  8
LC-002-002-----0
 62
     7
370
    25
100
AcDbLine
 10
946.070832
 20
2319.5829
 30
0.0
 11
945.657261
 21
2319.582906
 31
0.0
  0
LINE
  5
2A0
330
297
100
AcDbEntity
  8
LC-002-002-----0
 62
     7
370
    25
100
AcDbLine
 10
945.657261
 20
2319.582906
 30
0.0
 11
945.657261
 21
2319.582906
 31
0.0
  0
LINE
  5
2A1
330
297
100
AcDbEntity
  8
LC-002-002-----0
 62
     7
370
    25
100
AcDbLine
 10
945.657261
 20
2319.582906
 30
0.0
 11
945.338325
 21
2319.582881
 31
0.0
  0
LINE
  5
2A2
330
297
100
AcDbEntity
  8
LC-002-002-----0
 62
     7
370
    25
100
AcDbLine
 10
945.338325
 20
2319.582881
 30
0.0
 11
945.338325
 21
2319.582881
 31
0.0
  0
LINE
  5
2A3
330
297
100
AcDbEntity
  8
LC-002-002-----0
 62
     7
370
    25
100
AcDbLine
 10
945.338325
 20
2319.582881
 30
0.0
 11
945.136368
 21
2319.582929
 31
0.0
  0
LINE
  5
2A4
330
297
100
AcDbEntity
  8
LC-002-002-----0
 62
     7
370
    25
100
AcDbLine
 10
945.136368
 20
2319.582929
 30
0.0
 11
945.136368
 21
2319.582929
 31
0.0
  0
LINE
  5
2A5
330
297
100
AcDbEntity
  8
LC-002-002-----0
 62
     7
370
    25
100
AcDbLine
 10
945.136368
 20
2319.582929
 30
0.0
 11
945.066989
 21
2319.582911
 31
0.0
  0
ENDBLK
  5
299
330
297
100
AcDbEntity
  8
0
100
AcDbBlockEnd
  0
BLOCK
  5
34B
330
34A
100
AcDbEntity
  8
0
100
AcDbBlockBegin
  2
POLY5
 70
     0
 71
     0
 10
0.0
 20
0.0
 30
0.0
  3
POLY5
  1

  4
POLY5
  0
LINE
  5
34D
330
34A
100
AcDbEntity
  8
LC-002-002-----0
 62
     7
370
    25
100
AcDbLine
 10
1550.467593
 20
2093.69
 30
0.0
 11
1550.467593
 21
2093.69
 31
0.0
  0
LINE
  5
34E
330
34A
100
AcDbEntity
  8
LC-002-002-----0
 62
     7
370
    25
100
AcDbLine
 10
1550.467593
 20
2093.69
 30
0.0
 11
1550.408655
 21
2093.175227
 31
0.0
  0
LINE
  5
34F
330
34A
100
AcDbEntity
  8
LC-002-002-----0
 62
     7
370
    25
100
AcDbLine
 10
1550.408655
 20
2093.175227
 30
0.0
 11
1550.408655
 21
2093.175227
 31
0.0
  0
LINE
  5
350
330
34A
100
AcDbEntity
  8
LC-002-002-----0
 62
     7
370
    25
100
AcDbLine
 10
1550.408655
 20
2093.175227
 30
0.0
 11
1550.23511
 21
2092.693869
 31
0.0
  0
LINE
  5
351
330
34A
100
AcDbEntity
  8
LC-002-002-----0
 62
     7
370
    25
100
AcDbLine
 10
1550.23511
 20
2092.693869
 30
0.0
 11
1550.23511
 21
2092.693869
 31
0.0
  0
LINE
  5
352
330
34A
100
AcDbEntity
  8
LC-002-002-----0
 62
     7
370
    25
100
AcDbLine
 10
1550.23511
 20
2092.693869
 30
0.0
 11
1549.958974
 21
2092.280302
 31
0.0
  0
LINE
  5
353
330
34A
100
AcDbEntity
  8
LC-002-002-----0
 62
     7
370
    25
100
AcDbLine
 10
1549.958974
 20
2092.280302
 30
0.0
 11
1549.958974
 21
2092.280302
 31
0.0
  0
LINE
  5
354
330
34A
100
AcDbEntity
  8
LC-002-002-----0
 62
     7
370
    25
100
AcDbLine
 10
1549.958974
 20
2092.280302
 30
0.0
 11
1549.597629
 21
2091.961356
 31
0.0
  0
LINE
  5
355
330
34A
100
AcDbEntity
  8
LC-002-002-----0
 62
     7
370
    25
100
AcDbLine
 10
1549.597629
 20
2091.961356
 30
0.0
 11
1549.597629
 21
2091.961356
 31
0.0
  0
LINE
  5
356
330
34A
100
AcDbEntity
  8
LC-002-002-----0
 62
     7
370
    25
100
AcDbLine
 10
1549.597629
 20
2091.961356
 30
0.0
 11
1549.174242
 21
2091.759393
 31
0.0
  0
LINE
  5
357
330
34A
100
AcDbEntity
  8
LC-002-002-----0
 62
     7
370
    25
100
AcDbLine
 10
1549.174242
 20
2091.759393
 30
0.0
 11
1549.174242
 21
2091.759393
 31
0.0
  0
LINE
  5
358
330
34A
100
AcDbEntity
  8
LC-002-002-----0
 62
     7
370
    25
100
AcDbLine
 10
1549.174242
 20
2091.759393
 30
0.0
 11
1548.716759
 21
2091.69
 31
0.0
  0
ENDBLK
  5
34C
330
34A
100
AcDbEntity
  8
0
100
AcDbBlockEnd
  0
BLOCK
  5
35C
330
35B
100
AcDbEntity
  8
0
100
AcDbBlockBegin
  2
POLY6
 70
     0
 71
     0
 10
0.0
 20
0.0
 30
0.0
  3
POLY6
  1

  4
POLY6
  0
LINE
  5
35E
330
35B
100
AcDbEntity
  8
LC-002-002-----0
 62
     7
370
    25
100
AcDbLine
 10
1527.255112
 20
2093.69
 30
0.0
 11
1527.255112
 21
2093.69
 31
0.0
  0
LINE
  5
35F
330
35B
100
AcDbEntity
  8
LC-002-002-----0
 62
     7
370
    25
100
AcDbLine
 10
1527.255112
 20
2093.69
 30
0.0
 11
1527.255146
 21
2093.175212
 31
0.0
  0
LINE
  5
360
330
35B
100
AcDbEntity
  8
LC-002-002-----0
 62
     7
370
    25
100
AcDbLine
 10
1527.255146
 20
2093.175212
 30
0.0
 11
1527.255146
 21
2093.175212
 31
0.0
  0
LINE
  5
361
330
35B
100
AcDbEntity
  8
LC-002-002-----0
 62
     7
370
    25
100
AcDbLine
 10
1527.255146
 20
2093.175212
 30
0.0
 11
1527.255109
 21
2092.693842
 31
0.0
  0
LINE
  5
362
330
35B
100
AcDbEntity
  8
LC-002-002-----0
 62
     7
370
    25
100
AcDbLine
 10
1527.255109
 20
2092.693842
 30
0.0
 11
1527.255109
 21
2092.693842
 31
0.0
  0
LINE
  5
363
330
35B
100
AcDbEntity
  8
LC-002-002-----0
 62
     7
370
    25
100
AcDbLine
 10
1527.255109
 20
2092.693842
 30
0.0
 11
1527.255116
 21
2092.280272
 31
0.0
  0
LINE
  5
364
330
35B
100
AcDbEntity
  8
LC-002-002-----0
 62
     7
370
    25
100
AcDbLine
 10
1527.255116
 20
2092.280272
 30
0.0
 11
1527.255116
 21
2092.280272
 31
0.0
  0
LINE
  5
365
330
35B
100
AcDbEntity
  8
LC-002-002-----0
 62
     7
370
    25
100
AcDbLine
 10
1527.255116
 20
2092.280272
 30
0.0
 11
1527.25509
 21
2091.961335
 31
0.0
  0
LINE
  5
366
330
35B
100
AcDbEntity
  8
LC-002-002-----0
 62
     7
370
    25
100
AcDbLine
 10
1527.25509
 20
2091.961335
 30
0.0
 11
1527.25509
 21
2091.961335
 31
0.0
  0
LINE
  5
367
330
35B
100
AcDbEntity
  8
LC-002-002-----0
 62
     7
370
    25
100
AcDbLine
 10
1527.25509
 20
2091.961335
 30
0.0
 11
1527.255139
 21
2091.759379
 31
0.0
  0
LINE
  5
368
330
35B
100
AcDbEntity
  8
LC-002-002-----0
 62
     7
370
    25
100
AcDbLine
 10
1527.255139
 20
2091.759379
 30
0.0
 11
1527.255139
 21
2091.759379
 31
0.0
  0
LINE
  5
369
330
35B
100
AcDbEntity
  8
LC-002-002-----0
 62
     7
370
    25
100
AcDbLine
 10
1527.255139
 20
2091.759379
 30
0.0
 11
1527.255121
 21
2091.69
 31
0.0
  0
ENDBLK
  5
35D
330
35B
100
AcDbEntity
  8
0
100
AcDbBlockEnd
  0
BLOCK
  5
36D
330
36C
100
AcDbEntity
  8
0
100
AcDbBlockBegin
  2
POLY7
 70
     0
 71
     0
 10
0.0
 20
0.0
 30
0.0
  3
POLY7
  1

  4
POLY7
  0
LINE
  5
36F
330
36C
100
AcDbEntity
  8
LC-002-002-----0
 62
     7
370
    25
100
AcDbLine
 10
1504.042631
 20
2093.69
 30
0.0
 11
1504.042631
 21
2093.69
 31
0.0
  0
LINE
  5
370
330
36C
100
AcDbEntity
  8
LC-002-002-----0
 62
     7
370
    25
100
AcDbLine
 10
1504.042631
 20
2093.69
 30
0.0
 11
1504.101569
 21
2093.175227
 31
0.0
  0
LINE
  5
371
330
36C
100
AcDbEntity
  8
LC-002-002-----0
 62
     7
370
    25
100
AcDbLine
 10
1504.101569
 20
2093.175227
 30
0.0
 11
1504.101569
 21
2093.175227
 31
0.0
  0
LINE
  5
372
330
36C
100
AcDbEntity
  8
LC-002-002-----0
 62
     7
370
    25
100
AcDbLine
 10
1504.101569
 20
2093.175227
 30
0.0
 11
1504.275115
 21
2092.693869
 31
0.0
  0
LINE
  5
373
330
36C
100
AcDbEntity
  8
LC-002-002-----0
 62
     7
370
    25
100
AcDbLine
 10
1504.275115
 20
2092.693869
 30
0.0
 11
1504.275115
 21
2092.693869
 31
0.0
  0
LINE
  5
374
330
36C
100
AcDbEntity
  8
LC-002-002-----0
 62
     7
370
    25
100
AcDbLine
 10
1504.275115
 20
2092.693869
 30
0.0
 11
1504.55125
 21
2092.280302
 31
0.0
  0
LINE
  5
375
330
36C
100
AcDbEntity
  8
LC-002-002-----0
 62
     7
370
    25
100
AcDbLine
 10
1504.55125
 20
2092.280302
 30
0.0
 11
1504.55125
 21
2092.280302
 31
0.0
  0
LINE
  5
376
330
36C
100
AcDbEntity
  8
LC-002-002-----0
 62
     7
370
    25
100
AcDbLine
 10
1504.55125
 20
2092.280302
 30
0.0
 11
1504.912596
 21
2091.961356
 31
0.0
  0
LINE
  5
377
330
36C
100
AcDbEntity
  8
LC-002-002-----0
 62
     7
370
    25
100
AcDbLine
 10
1504.912596
 20
2091.961356
 30
0.0
 11
1504.912596
 21
2091.961356
 31
0.0
  0
LINE
  5
378
330
36C
100
AcDbEntity
  8
LC-002-002-----0
 62
     7
370
    25
100
AcDbLine
 10
1504.912596
 20
2091.961356
 30
0.0
 11
1505.335983
 21
2091.759393
 31
0.0
  0
LINE
  5
379
330
36C
100
AcDbEntity
  8
LC-002-002-----0
 62
     7
370
    25
100
AcDbLine
 10
1505.335983
 20
2091.759393
 30
0.0
 11
1505.335983
 21
2091.759393
 31
0.0
  0
LINE
  5
37A
330
36C
100
AcDbEntity
  8
LC-002-002-----0
 62
     7
370
    25
100
AcDbLine
 10
1505.335983
 20
2091.759393
 30
0.0
 11
1505.793465
 21
2091.69
 31
0.0
  0
ENDBLK
  5
36E
330
36C
100
AcDbEntity
  8
0
100
AcDbBlockEnd
  0
BLOCK
  5
390
330
38F
100
AcDbEntity
  8
0
100
AcDbBlockBegin
  2
POLY8
 70
     0
 71
     0
 10
0.0
 20
0.0
 30
0.0
  3
POLY8
  1

  4
POLY8
  0
LINE
  5
392
330
38F
100
AcDbEntity
  8
LC-002-002-----0
 62
     7
370
    25
100
AcDbLine
 10
1550.467593
 20
1957.69
 30
0.0
 11
1550.467593
 21
1957.69
 31
0.0
  0
LINE
  5
393
330
38F
100
AcDbEntity
  8
LC-002-002-----0
 62
     7
370
    25
100
AcDbLine
 10
1550.467593
 20
1957.69
 30
0.0
 11
1550.408655
 21
1958.204773
 31
0.0
  0
LINE
  5
394
330
38F
100
AcDbEntity
  8
LC-002-002-----0
 62
     7
370
    25
100
AcDbLine
 10
1550.408655
 20
1958.204773
 30
0.0
 11
1550.408655
 21
1958.204773
 31
0.0
  0
LINE
  5
395
330
38F
100
AcDbEntity
  8
LC-002-002-----0
 62
     7
370
    25
100
AcDbLine
 10
1550.408655
 20
1958.204773
 30
0.0
 11
1550.23511
 21
1958.686131
 31
0.0
  0
LINE
  5
396
330
38F
100
AcDbEntity
  8
LC-002-002-----0
 62
     7
370
    25
100
AcDbLine
 10
1550.23511
 20
1958.686131
 30
0.0
 11
1550.23511
 21
1958.686131
 31
0.0
  0
LINE
  5
397
330
38F
100
AcDbEntity
  8
LC-002-002-----0
 62
     7
370
    25
100
AcDbLine
 10
1550.23511
 20
1958.686131
 30
0.0
 11
1549.958974
 21
1959.099698
 31
0.0
  0
LINE
  5
398
330
38F
100
AcDbEntity
  8
LC-002-002-----0
 62
     7
370
    25
100
AcDbLine
 10
1549.958974
 20
1959.099698
 30
0.0
 11
1549.958974
 21
1959.099698
 31
0.0
  0
LINE
  5
399
330
38F
100
AcDbEntity
  8
LC-002-002-----0
 62
     7
370
    25
100
AcDbLine
 10
1549.958974
 20
1959.099698
 30
0.0
 11
1549.597629
 21
1959.418644
 31
0.0
  0
LINE
  5
39A
330
38F
100
AcDbEntity
  8
LC-002-002-----0
 62
     7
370
    25
100
AcDbLine
 10
1549.597629
 20
1959.418644
 30
0.0
 11
1549.597629
 21
1959.418644
 31
0.0
  0
LINE
  5
39B
330
38F
100
AcDbEntity
  8
LC-002-002-----0
 62
     7
370
    25
100
AcDbLine
 10
1549.597629
 20
1959.418644
 30
0.0
 11
1549.174242
 21
1959.620607
 31
0.0
  0
LINE
  5
39C
330
38F
100
AcDbEntity
  8
LC-002-002-----0
 62
     7
370
    25
100
AcDbLine
 10
1549.174242
 20
1959.620607
 30
0.0
 11
1549.174242
 21
1959.620607
 31
0.0
  0
LINE
  5
39D
330
38F
100
AcDbEntity
  8
LC-002-002-----0
 62
     7
370
    25
100
AcDbLine
 10
1549.174242
 20
1959.620607
 30
0.0
 11
1548.716759
 21
1959.69
 31
0.0
  0
ENDBLK
  5
391
330
38F
100
AcDbEntity
  8
0
100
AcDbBlockEnd
  0
BLOCK
  5
3A1
330
3A0
100
AcDbEntity
  8
0
100
AcDbBlockBegin
  2
POLY9
 70
     0
 71
     0
 10
0.0
 20
0.0
 30
0.0
  3
POLY9
  1

  4
POLY9
  0
LINE
  5
3A3
330
3A0
100
AcDbEntity
  8
LC-002-002-----0
 62
     7
370
    25
100
AcDbLine
 10
1527.255112
 20
1957.69
 30
0.0
 11
1527.255112
 21
1957.69
 31
0.0
  0
LINE
  5
3A4
330
3A0
100
AcDbEntity
  8
LC-002-002-----0
 62
     7
370
    25
100
AcDbLine
 10
1527.255112
 20
1957.69
 30
0.0
 11
1527.255146
 21
1958.204788
 31
0.0
  0
LINE
  5
3A5
330
3A0
100
AcDbEntity
  8
LC-002-002-----0
 62
     7
370
    25
100
AcDbLine
 10
1527.255146
 20
1958.204788
 30
0.0
 11
1527.255146
 21
1958.204788
 31
0.0
  0
LINE
  5
3A6
330
3A0
100
AcDbEntity
  8
LC-002-002-----0
 62
     7
370
    25
100
AcDbLine
 10
1527.255146
 20
1958.204788
 30
0.0
 11
1527.255109
 21
1958.686158
 31
0.0
  0
LINE
  5
3A7
330
3A0
100
AcDbEntity
  8
LC-002-002-----0
 62
     7
370
    25
100
AcDbLine
 10
1527.255109
 20
1958.686158
 30
0.0
 11
1527.255109
 21
1958.686158
 31
0.0
  0
LINE
  5
3A8
330
3A0
100
AcDbEntity
  8
LC-002-002-----0
 62
     7
370
    25
100
AcDbLine
 10
1527.255109
 20
1958.686158
 30
0.0
 11
1527.255116
 21
1959.099728
 31
0.0
  0
LINE
  5
3A9
330
3A0
100
AcDbEntity
  8
LC-002-002-----0
 62
     7
370
    25
100
AcDbLine
 10
1527.255116
 20
1959.099728
 30
0.0
 11
1527.255116
 21
1959.099728
 31
0.0
  0
LINE
  5
3AA
330
3A0
100
AcDbEntity
  8
LC-002-002-----0
 62
     7
370
    25
100
AcDbLine
 10
1527.255116
 20
1959.099728
 30
0.0
 11
1527.25509
 21
1959.418665
 31
0.0
  0
LINE
  5
3AB
330
3A0
100
AcDbEntity
  8
LC-002-002-----0
 62
     7
370
    25
100
AcDbLine
 10
1527.25509
 20
1959.418665
 30
0.0
 11
1527.25509
 21
1959.418665
 31
0.0
  0
LINE
  5
3AC
330
3A0
100
AcDbEntity
  8
LC-002-002-----0
 62
     7
370
    25
100
AcDbLine
 10
1527.25509
 20
1959.418665
 30
0.0
 11
1527.255139
 21
1959.620621
 31
0.0
  0
LINE
  5
3AD
330
3A0
100
AcDbEntity
  8
LC-002-002-----0
 62
     7
370
    25
100
AcDbLine
 10
1527.255139
 20
1959.620621
 30
0.0
 11
1527.255139
 21
1959.620621
 31
0.0
  0
LINE
  5
3AE
330
3A0
100
AcDbEntity
  8
LC-002-002-----0
 62
     7
370
    25
100
AcDbLine
 10
1527.255139
 20
1959.620621
 30
0.0
 11
1527.255121
 21
1959.69
 31
0.0
  0
ENDBLK
  5
3A2
330
3A0
100
AcDbEntity
  8
0
100
AcDbBlockEnd
  0
BLOCK
  5
3B2
330
3B1
100
AcDbEntity
  8
0
100
AcDbBlockBegin
  2
POLY10
 70
     0
 71
     0
 10
0.0
 20
0.0
 30
0.0
  3
POLY10
  1

  4
POLY10
  0
LINE
  5
3B4
330
3B1
100
AcDbEntity
  8
LC-002-002-----0
 62
     7
370
    25
100
AcDbLine
 10
1504.042631
 20
1957.69
 30
0.0
 11
1504.042631
 21
1957.69
 31
0.0
  0
LINE
  5
3B5
330
3B1
100
AcDbEntity
  8
LC-002-002-----0
 62
     7
370
    25
100
AcDbLine
 10
1504.042631
 20
1957.69
 30
0.0
 11
1504.101569
 21
1958.204773
 31
0.0
  0
LINE
  5
3B6
330
3B1
100
AcDbEntity
  8
LC-002-002-----0
 62
     7
370
    25
100
AcDbLine
 10
1504.101569
 20
1958.204773
 30
0.0
 11
1504.101569
 21
1958.204773
 31
0.0
  0
LINE
  5
3B7
330
3B1
100
AcDbEntity
  8
LC-002-002-----0
 62
     7
370
    25
100
AcDbLine
 10
1504.101569
 20
1958.204773
 30
0.0
 11
1504.275115
 21
1958.686131
 31
0.0
  0
LINE
  5
3B8
330
3B1
100
AcDbEntity
  8
LC-002-002-----0
 62
     7
370
    25
100
AcDbLine
 10
1504.275115
 20
1958.686131
 30
0.0
 11
1504.275115
 21
1958.686131
 31
0.0
  0
LINE
  5
3B9
330
3B1
100
AcDbEntity
  8
LC-002-002-----0
 62
     7
370
    25
100
AcDbLine
 10
1504.275115
 20
1958.686131
 30
0.0
 11
1504.55125
 21
1959.099698
 31
0.0
  0
LINE
  5
3BA
330
3B1
100
AcDbEntity
  8
LC-002-002-----0
 62
     7
370
    25
100
AcDbLine
 10
1504.55125
 20
1959.099698
 30
0.0
 11
1504.55125
 21
1959.099698
 31
0.0
  0
LINE
  5
3BB
330
3B1
100
AcDbEntity
  8
LC-002-002-----0
 62
     7
370
    25
100
AcDbLine
 10
1504.55125
 20
1959.099698
 30
0.0
 11
1504.912596
 21
1959.418644
 31
0.0
  0
LINE
  5
3BC
330
3B1
100
AcDbEntity
  8
LC-002-002-----0
 62
     7
370
    25
100
AcDbLine
 10
1504.912596
 20
1959.418644
 30
0.0
 11
1504.912596
 21
1959.418644
 31
0.0
  0
LINE
  5
3BD
330
3B1
100
AcDbEntity
  8
LC-002-002-----0
 62
     7
370
    25
100
AcDbLine
 10
1504.912596
 20
1959.418644
 30
0.0
 11
1505.335983
 21
1959.620607
 31
0.0
  0
LINE
  5
3BE
330
3B1
100
AcDbEntity
  8
LC-002-002-----0
 62
     7
370
    25
100
AcDbLine
 10
1505.335983
 20
1959.620607
 30
0.0
 11
1505.335983
 21
1959.620607
 31
0.0
  0
LINE
  5
3BF
330
3B1
100
AcDbEntity
  8
LC-002-002-----0
 62
     7
370
    25
100
AcDbLine
 10
1505.335983
 20
1959.620607
 30
0.0
 11
1505.793465
 21
1959.69
 31
0.0
  0
ENDBLK
  5
3B3
330
3B1
100
AcDbEntity
  8
0
100
AcDbBlockEnd
  0
BLOCK
  5
3F8
330
3EE
100
AcDbEntity
  8
0
100
AcDbBlockBegin
  2
*D18
 70
     1
 71
     0
 10
0.0
 20
0.0
 30
0.0
  3
*D18
  1

  0
LINE
  5
3EF
330
3EE
100
AcDbEntity
  8
LC-007-003-----0
 62
     2
370
    -2
100
AcDbLine
 10
1848.91221
 20
1511.29
 30
0.0
 11
1848.91221
 21
1435.95
 31
0.0
  0
LINE
  5
3F0
330
3EE
100
AcDbEntity
  8
LC-007-003-----0
 62
     2
370
    -2
100
AcDbLine
 10
1499.550319
 20
1889.69
 30
0.0
 11
1499.550319
 21
1435.95
 31
0.0
  0
LINE
  5
3F1
330
3EE
100
AcDbEntity
  8
LC-007-003-----0
 62
     2
370
    -2
100
AcDbLine
 10
1823.91221
 20
1453.95
 30
0.0
 11
1524.550319
 21
1453.95
 31
0.0
  0
SOLID
  5
3F2
330
3EE
100
AcDbEntity
  8
LC-007-003-----0
 62
     2
100
AcDbTrace
 10
1823.91221
 20
1449.783333
 30
0.0
 11
1823.91221
 21
1458.116667
 31
0.0
 12
1848.91221
 22
1453.95
 32
0.0
 13
1848.91221
 23
1453.95
 33
0.0
  0
SOLID
  5
3F3
330
3EE
100
AcDbEntity
  8
LC-007-003-----0
 62
     2
100
AcDbTrace
 10
1524.550319
 20
1458.116667
 30
0.0
 11
1524.550319
 21
1449.783333
 31
0.0
 12
1499.550319
 22
1453.95
 32
0.0
 13
1499.550319
 23
1453.95
 33
0.0
  0
MTEXT
  5
3F4
330
3EE
100
AcDbEntity
  8
LC-007-003-----0
 62
     2
100
AcDbMText
 10
1665.96443
 20
1483.95
 30
0.0
 40
25.0
 41
0.0
 71
     5
 72
     1
  1
\A1;349
  7
LCTX0-400-0-0pDIN-Schrift
 73
     1
 44
1.0
  0
POINT
  5
3F5
330
3EE
100
AcDbEntity
  8
Defpoints
 62
     0
100
AcDbPoint
 10
1848.91221
 20
1511.29
 30
0.0
  0
POINT
  5
3F6
330
3EE
100
AcDbEntity
  8
Defpoints
 62
     0
100
AcDbPoint
 10
1499.550319
 20
1889.69
 30
0.0
  0
POINT
  5
3F7
330
3EE
100
AcDbEntity
  8
Defpoints
 62
     0
100
AcDbPoint
 10
1499.550319
 20
1453.95
 30
0.0
  0
ENDBLK
  5
3F9
330
3EE
100
AcDbEntity
  8
0
100
AcDbBlockEnd
  0
BLOCK
  5
437
330
42D
100
AcDbEntity
  8
0
100
AcDbBlockBegin
  2
*D19
 70
     1
 71
     0
 10
0.0
 20
0.0
 30
0.0
  3
*D19
  1

  0
LINE
  5
42E
330
42D
100
AcDbEntity
  8
LC-007-003-----0
 62
     2
370
    -2
100
AcDbLine
 10
1852.347988
 20
1545.689318
 30
0.0
 11
2018.0
 21
1545.689318
 31
0.0
  0
LINE
  5
42F
330
42D
100
AcDbEntity
  8
LC-007-003-----0
 62
     2
370
    -2
100
AcDbLine
 10
1852.347988
 20
2006.690682
 30
0.0
 11
2018.0
 21
2006.690682
 31
0.0
  0
LINE
  5
430
330
42D
100
AcDbEntity
  8
LC-007-003-----0
 62
     2
370
    -2
100
AcDbLine
 10
2000.0
 20
1570.689318
 30
0.0
 11
2000.0
 21
1981.690682
 31
0.0
  0
SOLID
  5
431
330
42D
100
AcDbEntity
  8
LC-007-003-----0
 62
     2
100
AcDbTrace
 10
1995.833333
 20
1570.689318
 30
0.0
 11
2004.166667
 21
1570.689318
 31
0.0
 12
2000.0
 22
1545.689318
 32
0.0
 13
2000.0
 23
1545.689318
 33
0.0
  0
SOLID
  5
432
330
42D
100
AcDbEntity
  8
LC-007-003-----0
 62
     2
100
AcDbTrace
 10
2004.166667
 20
1981.690682
 30
0.0
 11
1995.833333
 21
1981.690682
 31
0.0
 12
2000.0
 22
2006.690682
 32
0.0
 13
2000.0
 23
2006.690682
 33
0.0
  0
MTEXT
  5
433
330
42D
100
AcDbEntity
  8
LC-007-003-----0
 62
     2
100
AcDbMText
 10
1970.0
 20
1767.203699
 30
0.0
 40
25.0
 41
0.0
 71
     5
 72
     1
  1
\A1;461
  7
LCTX0-400-0-0pDIN-Schrift
 11
6.123031769111886E-17
 21
1.0
 31
0.0
 73
     1
 44
1.0
  0
POINT
  5
434
330
42D
100
AcDbEntity
  8
Defpoints
 62
     0
100
AcDbPoint
 10
1852.347988
 20
1545.689318
 30
0.0
  0
POINT
  5
435
330
42D
100
AcDbEntity
  8
Defpoints
 62
     0
100
AcDbPoint
 10
1852.347988
 20
2006.690682
 30
0.0
  0
POINT
  5
436
330
42D
100
AcDbEntity
  8
Defpoints
 62
     0
100
AcDbPoint
 10
2000.0
 20
2006.690682
 30
0.0
  0
ENDBLK
  5
438
330
42D
100
AcDbEntity
  8
0
100
AcDbBlockEnd
  0
BLOCK
  5
444
330
43A
100
AcDbEntity
  8
0
100
AcDbBlockBegin
  2
*D20
 70
     1
 71
     0
 10
0.0
 20
0.0
 30
0.0
  3
*D20
  1

  0
LINE
  5
43B
330
43A
100
AcDbEntity
  8
LC-007-003-----0
 62
     2
370
    -2
100
AcDbLine
 10
579.391322
 20
821.931092
 30
0.0
 11
579.391322
 21
721.659741
 31
0.0
  0
LINE
  5
43C
330
43A
100
AcDbEntity
  8
LC-007-003-----0
 62
     2
370
    -2
100
AcDbLine
 10
972.391322
 20
821.931092
 30
0.0
 11
972.391322
 21
721.659741
 31
0.0
  0
LINE
  5
43D
330
43A
100
AcDbEntity
  8
LC-007-003-----0
 62
     2
370
    -2
100
AcDbLine
 10
604.391322
 20
739.659741
 30
0.0
 11
947.391322
 21
739.659741
 31
0.0
  0
SOLID
  5
43E
330
43A
100
AcDbEntity
  8
LC-007-003-----0
 62
     2
100
AcDbTrace
 10
604.391322
 20
743.826408
 30
0.0
 11
604.391322
 21
735.493075
 31
0.0
 12
579.391322
 22
739.659741
 32
0.0
 13
579.391322
 23
739.659741
 33
0.0
  0
SOLID
  5
43F
330
43A
100
AcDbEntity
  8
LC-007-003-----0
 62
     2
100
AcDbTrace
 10
947.391322
 20
735.493075
 30
0.0
 11
947.391322
 21
743.826408
 31
0.0
 12
972.391322
 22
739.659741
 32
0.0
 13
972.391322
 23
739.659741
 33
0.0
  0
MTEXT
  5
440
330
43A
100
AcDbEntity
  8
LC-007-003-----0
 62
     2
100
AcDbMText
 10
765.765941
 20
769.659741
 30
0.0
 40
25.0
 41
0.0
 71
     5
 72
     1
  1
\A1;786
  7
LCTX0-400-0-0pDIN-Schrift
 73
     1
 44
1.0
  0
POINT
  5
441
330
43A
100
AcDbEntity
  8
Defpoints
 62
     0
100
AcDbPoint
 10
579.391322
 20
821.931092
 30
0.0
  0
POINT
  5
442
330
43A
100
AcDbEntity
  8
Defpoints
 62
     0
100
AcDbPoint
 10
972.391322
 20
821.931092
 30
0.0
  0
POINT
  5
443
330
43A
100
AcDbEntity
  8
Defpoints
 62
     0
100
AcDbPoint
 10
972.391322
 20
739.659741
 30
0.0
  0
ENDBLK
  5
445
330
43A
100
AcDbEntity
  8
0
100
AcDbBlockEnd
  0
BLOCK
  5
451
330
447
100
AcDbEntity
  8
0
100
AcDbBlockBegin
  2
*D21
 70
     1
 71
     0
 10
0.0
 20
0.0
 30
0.0
  3
*D21
  1

  0
LINE
  5
448
330
447
100
AcDbEntity
  8
LC-007-003-----0
 62
     2
370
    -2
100
AcDbLine
 10
579.391322
 20
1032.931092
 30
0.0
 11
579.391322
 21
1107.659741
 31
0.0
  0
LINE
  5
449
330
447
100
AcDbEntity
  8
LC-007-003-----0
 62
     2
370
    -2
100
AcDbLine
 10
773.391322
 20
1032.931092
 30
0.0
 11
773.391322
 21
1107.659741
 31
0.0
  0
LINE
  5
44A
330
447
100
AcDbEntity
  8
LC-007-003-----0
 62
     2
370
    -2
100
AcDbLine
 10
604.391322
 20
1089.659741
 30
0.0
 11
748.391322
 21
1089.659741
 31
0.0
  0
SOLID
  5
44B
330
447
100
AcDbEntity
  8
LC-007-003-----0
 62
     2
100
AcDbTrace
 10
604.391322
 20
1093.826408
 30
0.0
 11
604.391322
 21
1085.493075
 31
0.0
 12
579.391322
 22
1089.659741
 32
0.0
 13
579.391322
 23
1089.659741
 33
0.0
  0
SOLID
  5
44C
330
447
100
AcDbEntity
  8
LC-007-003-----0
 62
     2
100
AcDbTrace
 10
748.391322
 20
1085.493075
 30
0.0
 11
748.391322
 21
1093.826408
 31
0.0
 12
773.391322
 22
1089.659741
 32
0.0
 13
773.391322
 23
1089.659741
 33
0.0
  0
MTEXT
  5
44D
330
447
100
AcDbEntity
  8
LC-007-003-----0
 62
     2
100
AcDbMText
 10
673.398551
 20
1119.659741
 30
0.0
 40
25.0
 41
0.0
 71
     5
 72
     1
  1
\A1;388
  7
LCTX0-400-0-0pDIN-Schrift
 73
     1
 44
1.0
  0
POINT
  5
44E
330
447
100
AcDbEntity
  8
Defpoints
 62
     0
100
AcDbPoint
 10
579.391322
 20
1032.931092
 30
0.0
  0
POINT
  5
44F
330
447
100
AcDbEntity
  8
Defpoints
 62
     0
100
AcDbPoint
 10
773.391322
 20
1032.931092
 30
0.0
  0
POINT
  5
450
330
447
100
AcDbEntity
  8
Defpoints
 62
     0
100
AcDbPoint
 10
773.391322
 20
1089.659741
 30
0.0
  0
ENDBLK
  5
452
330
447
100
AcDbEntity
  8
0
100
AcDbBlockEnd
  0
BLOCK
  5
45E
330
454
100
AcDbEntity
  8
0
100
AcDbBlockBegin
  2
*D22
 70
     1
 71
     0
 10
0.0
 20
0.0
 30
0.0
  3
*D22
  1

  0
LINE
  5
455
330
454
100
AcDbEntity
  8
LC-007-003-----0
 62
     2
370
    -2
100
AcDbLine
 10
958.391322
 20
1021.431092
 30
0.0
 11
1081.016165
 21
1021.431092
 31
0.0
  0
LINE
  5
456
330
454
100
AcDbEntity
  8
LC-007-003-----0
 62
     2
370
    -2
100
AcDbLine
 10
958.391322
 20
807.931092
 30
0.0
 11
1081.016165
 21
807.931092
 31
0.0
  0
LINE
  5
457
330
454
100
AcDbEntity
  8
LC-007-003-----0
 62
     2
370
    -2
100
AcDbLine
 10
1063.016165
 20
996.431092
 30
0.0
 11
1063.016165
 21
832.931092
 31
0.0
  0
SOLID
  5
458
330
454
100
AcDbEntity
  8
LC-007-003-----0
 62
     2
100
AcDbTrace
 10
1067.182832
 20
996.431092
 30
0.0
 11
1058.849499
 21
996.431092
 31
0.0
 12
1063.016165
 22
1021.431092
 32
0.0
 13
1063.016165
 23
1021.431092
 33
0.0
  0
SOLID
  5
459
330
454
100
AcDbEntity
  8
LC-007-003-----0
 62
     2
100
AcDbTrace
 10
1058.849499
 20
832.931092
 30
0.0
 11
1067.182832
 21
832.931092
 31
0.0
 12
1063.016165
 22
807.931092
 32
0.0
 13
1063.016165
 23
807.931092
 33
0.0
  0
MTEXT
  5
45A
330
454
100
AcDbEntity
  8
LC-007-003-----0
 62
     2
100
AcDbMText
 10
1033.016165
 20
910.809549
 30
0.0
 40
25.0
 41
0.0
 71
     5
 72
     1
  1
\A1;427
  7
LCTX0-400-0-0pDIN-Schrift
 11
6.123031769111886E-17
 21
1.0
 31
0.0
 73
     1
 44
1.0
  0
POINT
  5
45B
330
454
100
AcDbEntity
  8
Defpoints
 62
     0
100
AcDbPoint
 10
958.391322
 20
1021.431092
 30
0.0
  0
POINT
  5
45C
330
454
100
AcDbEntity
  8
Defpoints
 62
     0
100
AcDbPoint
 10
958.391322
 20
807.931092
 30
0.0
  0
POINT
  5
45D
330
454
100
AcDbEntity
  8
Defpoints
 62
     0
100
AcDbPoint
 10
1063.016165
 20
807.931092
 30
0.0
  0
ENDBLK
  5
45F
330
454
100
AcDbEntity
  8
0
100
AcDbBlockEnd
  0
BLOCK
  5
46B
330
461
100
AcDbEntity
  8
0
100
AcDbBlockBegin
  2
*D23
 70
     1
 71
     0
 10
0.0
 20
0.0
 30
0.0
  3
*D23
  1

  0
LINE
  5
462
330
461
100
AcDbEntity
  8
LC-007-003-----0
 62
     2
370
    -2
100
AcDbLine
 10
593.391322
 20
1046.931092
 30
0.0
 11
498.029796
 21
1046.931092
 31
0.0
  0
LINE
  5
463
330
461
100
AcDbEntity
  8
LC-007-003-----0
 62
     2
370
    -2
100
AcDbLine
 10
593.391322
 20
807.931092
 30
0.0
 11
498.029796
 21
807.931092
 31
0.0
  0
LINE
  5
464
330
461
100
AcDbEntity
  8
LC-007-003-----0
 62
     2
370
    -2
100
AcDbLine
 10
516.029796
 20
1021.931092
 30
0.0
 11
516.029796
 21
832.931092
 31
0.0
  0
SOLID
  5
465
330
461
100
AcDbEntity
  8
LC-007-003-----0
 62
     2
100
AcDbTrace
 10
520.196463
 20
1021.931092
 30
0.0
 11
511.863129
 21
1021.931092
 31
0.0
 12
516.029796
 22
1046.931092
 32
0.0
 13
516.029796
 23
1046.931092
 33
0.0
  0
SOLID
  5
466
330
461
100
AcDbEntity
  8
LC-007-003-----0
 62
     2
100
AcDbTrace
 10
511.863129
 20
832.931092
 30
0.0
 11
520.196463
 21
832.931092
 31
0.0
 12
516.029796
 22
807.931092
 32
0.0
 13
516.029796
 23
807.931092
 33
0.0
  0
MTEXT
  5
467
330
461
100
AcDbEntity
  8
LC-007-003-----0
 62
     2
100
AcDbMText
 10
486.029796
 20
942.750985
 30
0.0
 40
25.0
 41
0.0
 71
     5
 72
     1
  1
\A1;478
  7
LCTX0-400-0-0pDIN-Schrift
 11
6.123031769111886E-17
 21
1.0
 31
0.0
 73
     1
 44
1.0
  0
POINT
  5
468
330
461
100
AcDbEntity
  8
Defpoints
 62
     0
100
AcDbPoint
 10
593.391322
 20
1046.931092
 30
0.0
  0
POINT
  5
469
330
461
100
AcDbEntity
  8
Defpoints
 62
     0
100
AcDbPoint
 10
593.391322
 20
807.931092
 30
0.0
  0
POINT
  5
46A
330
461
100
AcDbEntity
  8
Defpoints
 62
     0
100
AcDbPoint
 10
516.029796
 20
807.931092
 30
0.0
  0
ENDBLK
  5
46C
330
461
100
AcDbEntity
  8
0
100
AcDbBlockEnd
  0
BLOCK
  5
475
330
46F
100
AcDbEntity
  8
0
100
AcDbBlockBegin
  2
*D24
 70
     1
 71
     0
 10
0.0
 20
0.0
 30
0.0
  3
*D24
  1

  0
LINE
  5
470
330
46F
100
AcDbEntity
  8
LC-007-003-----0
 62
     2
370
    -2
100
AcDbLine
 10
588.147947
 20
1044.105333
 30
0.0
 11
588.718568
 21
1042.889273
 31
0.0
  0
MTEXT
  5
471
330
46F
100
AcDbEntity
  8
LC-007-003-----0
 62
     2
100
AcDbMText
 10
623.999992
 20
1019.505238
 30
0.0
 40
25.0
 41
0.0
 71
     5
 72
     1
  1
\A1;R28
  7
LCTX0-400-0-0pDIN-Schrift
 11
0.4247958296702402
 21
-0.9052891820268109
 31
0.0
 73
     1
 44
1.0
  0
SOLID
  5
472
330
46F
100
AcDbEntity
  8
LC-007-003-----0
 62
     2
100
AcDbTrace
 10
584.946529
 20
1041.119291
 30
0.0
 11
592.490606
 21
1044.659256
 31
0.0
 12
599.338463
 22
1020.257044
 32
0.0
 13
599.338463
 23
1020.257044
 33
0.0
  0
POINT
  5
473
330
46F
100
AcDbEntity
  8
Defpoints
 62
     0
100
AcDbPoint
 10
599.338463
 20
1020.257044
 30
0.0
  0
POINT
  5
474
330
46F
100
AcDbEntity
  8
Defpoints
 62
     0
100
AcDbPoint
 10
593.391322
 20
1032.931092
 30
0.0
  0
ENDBLK
  5
476
330
46F
100
AcDbEntity
  8
0
100
AcDbBlockEnd
  0
BLOCK
  5
47E
330
478
100
AcDbEntity
  8
0
100
AcDbBlockBegin
  2
*D25
 70
     1
 71
     0
 10
0.0
 20
0.0
 30
0.0
  3
*D25
  1

  0
LINE
  5
479
330
478
100
AcDbEntity
  8
LC-007-003-----0
 62
     2
370
    -2
100
AcDbLine
 10
744.452715
 20
1024.292129
 30
0.0
 11
725.630192
 21
1013.407104
 31
0.0
  0
MTEXT
  5
47A
330
478
100
AcDbEntity
  8
LC-007-003-----0
 62
     2
100
AcDbMText
 10
705.897942
 20
1016.053686
 30
0.0
 40
25.0
 41
0.0
 71
     5
 72
     1
  1
\A1;R28
  7
LCTX0-400-0-0pDIN-Schrift
 11
0.8656699998000403
 21
0.5006150731312415
 31
0.0
 73
     1
 44
1.0
  0
SOLID
  5
47B
330
478
100
AcDbEntity
  8
LC-007-003-----0
 62
     2
100
AcDbTrace
 10
766.827796
 20
1042.044816
 30
0.0
 11
770.999588
 21
1034.8309
 31
0.0
 12
747.271942
 22
1025.922481
 32
0.0
 13
747.271942
 23
1025.922481
 33
0.0
  0
POINT
  5
47C
330
478
100
AcDbEntity
  8
Defpoints
 62
     0
100
AcDbPoint
 10
747.271942
 20
1025.922481
 30
0.0
  0
POINT
  5
47D
330
478
100
AcDbEntity
  8
Defpoints
 62
     0
100
AcDbPoint
 10
759.391322
 20
1032.931092
 30
0.0
  0
ENDBLK
  5
47F
330
478
100
AcDbEntity
  8
0
100
AcDbBlockEnd
  0
BLOCK
  5
487
330
481
100
AcDbEntity
  8
0
100
AcDbBlockBegin
  2
*D26
 70
     1
 71
     0
 10
0.0
 20
0.0
 30
0.0
  3
*D26
  1

  0
LINE
  5
482
330
481
100
AcDbEntity
  8
LC-007-003-----0
 62
     2
370
    -2
100
AcDbLine
 10
770.631762
 20
1011.883537
 30
0.0
 11
764.159196
 21
1001.508887
 31
0.0
  0
MTEXT
  5
483
330
481
100
AcDbEntity
  8
LC-007-003-----0
 62
     2
100
AcDbMText
 10
735.516097
 20
989.592001
 30
0.0
 40
25.0
 41
0.0
 71
     5
 72
     1
  1
\A1;R17
  7
LCTX0-400-0-0pDIN-Schrift
 11
0.5293171766580012
 21
0.8484240251753851
 31
0.0
 73
     1
 44
1.0
  0
SOLID
  5
484
330
481
100
AcDbEntity
  8
LC-007-003-----0
 62
     2
100
AcDbTrace
 10
787.089955
 20
1046.135577
 30
0.0
 11
794.160155
 21
1041.7246
 31
0.0
 12
777.392126
 22
1022.719488
 32
0.0
 13
777.392126
 23
1022.719488
 33
0.0
  0
POINT
  5
485
330
481
100
AcDbEntity
  8
Defpoints
 62
     0
100
AcDbPoint
 10
777.392126
 20
1022.719488
 30
0.0
  0
POINT
  5
486
330
481
100
AcDbEntity
  8
Defpoints
 62
     0
100
AcDbPoint
 10
781.891322
 20
1029.931092
 30
0.0
  0
ENDBLK
  5
488
330
481
100
AcDbEntity
  8
0
100
AcDbBlockEnd
  0
BLOCK
  5
490
330
48A
100
AcDbEntity
  8
0
100
AcDbBlockBegin
  2
*D27
 70
     1
 71
     0
 10
0.0
 20
0.0
 30
0.0
  3
*D27
  1

  0
LINE
  5
48B
330
48A
100
AcDbEntity
  8
LC-007-003-----0
 62
     2
370
    -2
100
AcDbLine
 10
955.975953
 20
1004.338415
 30
0.0
 11
965.16204
 21
1016.100428
 31
0.0
  0
MTEXT
  5
48C
330
48A
100
AcDbEntity
  8
LC-007-003-----0
 62
     2
100
AcDbMText
 10
917.794934
 20
986.576144
 30
0.0
 40
25.0
 41
0.0
 71
     5
 72
     1
  1
\A1;R28
  7
LCTX0-400-0-0pDIN-Schrift
 11
0.6155198041948184
 21
0.7881214187192049
 31
0.0
 73
     1
 44
1.0
  0
SOLID
  5
48D
330
48A
100
AcDbEntity
  8
LC-007-003-----0
 62
     2
100
AcDbTrace
 10
937.669889
 20
974.129691
 30
0.0
 11
931.10221
 21
979.259023
 31
0.0
 12
949.774045
 22
996.397392
 32
0.0
 13
949.774045
 23
996.397392
 33
0.0
  0
POINT
  5
48E
330
48A
100
AcDbEntity
  8
Defpoints
 62
     0
100
AcDbPoint
 10
949.774045
 20
996.397392
 30
0.0
  0
POINT
  5
48F
330
48A
100
AcDbEntity
  8
Defpoints
 62
     0
100
AcDbPoint
 10
958.391322
 20
1007.431092
 30
0.0
  0
ENDBLK
  5
491
330
48A
100
AcDbEntity
  8
0
100
AcDbBlockEnd
  0
BLOCK
  5
499
330
493
100
AcDbEntity
  8
0
100
AcDbBlockBegin
  2
*D28
 70
     1
 71
     0
 10
0.0
 20
0.0
 30
0.0
  3
*D28
  1

  0
LINE
  5
494
330
493
100
AcDbEntity
  8
LC-007-003-----0
 62
     2
370
    -2
100
AcDbLine
 10
957.068298
 20
823.527047
 30
0.0
 11
965.411597
 21
813.462578
 31
0.0
  0
MTEXT
  5
495
330
493
100
AcDbEntity
  8
LC-007-003-----0
 62
     2
100
AcDbMText
 10
918.727938
 20
840.453288
 30
0.0
 40
25.0
 41
0.0
 71
     5
 72
     1
  1
\A1;R28
  7
LCTX0-400-0-0pDIN-Schrift
 11
0.6382068407812037
 21
-0.7698649416489072
 31
0.0
 73
     1
 44
1.0
  0
SOLID
  5
496
330
493
100
AcDbEntity
  8
LC-007-003-----0
 62
     2
100
AcDbTrace
 10
930.293484
 20
849.29663
 30
0.0
 11
936.709026
 21
854.61502
 31
0.0
 12
949.456426
 22
832.709201
 32
0.0
 13
949.456426
 23
832.709201
 33
0.0
  0
POINT
  5
497
330
493
100
AcDbEntity
  8
Defpoints
 62
     0
100
AcDbPoint
 10
949.456426
 20
832.709201
 30
0.0
  0
POINT
  5
498
330
493
100
AcDbEntity
  8
Defpoints
 62
     0
100
AcDbPoint
 10
958.391322
 20
821.931092
 30
0.0
  0
ENDBLK
  5
49A
330
493
100
AcDbEntity
  8
0
100
AcDbBlockEnd
  0
BLOCK
  5
4A2
330
49C
100
AcDbEntity
  8
0
100
AcDbBlockBegin
  2
*D29
 70
     1
 71
     0
 10
0.0
 20
0.0
 30
0.0
  3
*D29
  1

  0
LINE
  5
49D
330
49C
100
AcDbEntity
  8
LC-007-003-----0
 62
     2
370
    -2
100
AcDbLine
 10
602.171231
 20
831.059396
 30
0.0
 11
585.76591
 21
814.003098
 31
0.0
  0
MTEXT
  5
49E
330
49C
100
AcDbEntity
  8
LC-007-003-----0
 62
     2
100
AcDbMText
 10
640.794063
 20
845.941471
 30
0.0
 40
25.0
 41
0.0
 71
     5
 72
     1
  1
\A1;R28
  7
LCTX0-400-0-0pDIN-Schrift
 11
0.6932192318235406
 21
0.7207267836219078
 31
0.0
 73
     1
 44
1.0
  0
SOLID
  5
49F
330
49C
100
AcDbEntity
  8
LC-007-003-----0
 62
     2
100
AcDbTrace
 10
617.423844
 20
852.92785
 30
0.0
 11
623.4299
 21
847.151023
 31
0.0
 12
603.096391
 22
832.021267
 32
0.0
 13
603.096391
 23
832.021267
 33
0.0
  0
POINT
  5
4A0
330
49C
100
AcDbEntity
  8
Defpoints
 62
     0
100
AcDbPoint
 10
603.096391
 20
832.021267
 30
0.0
  0
POINT
  5
4A1
330
49C
100
AcDbEntity
  8
Defpoints
 62
     0
100
AcDbPoint
 10
593.391322
 20
821.931092
 30
0.0
  0
ENDBLK
  5
4A3
330
49C
100
AcDbEntity
  8
0
100
AcDbBlockEnd
  0
BLOCK
  5
4B2
330
4A8
100
AcDbEntity
  8
0
100
AcDbBlockBegin
  2
*D30
 70
     1
 71
     0
 10
0.0
 20
0.0
 30
0.0
  3
*D30
  1

  0
LINE
  5
4A9
330
4A8
100
AcDbEntity
  8
LC-007-003-----0
 62
     2
370
    -2
100
AcDbLine
 10
1234.177752
 20
1981.19
 30
0.0
 11
1347.531297
 21
1981.19
 31
0.0
  0
LINE
  5
4AA
330
4A8
100
AcDbEntity
  8
LC-007-003-----0
 62
     2
370
    -2
100
AcDbLine
 10
1208.777752
 20
1511.29
 30
0.0
 11
1347.531297
 21
1511.29
 31
0.0
  0
LINE
  5
4AB
330
4A8
100
AcDbEntity
  8
LC-007-003-----0
 62
     2
370
    -2
100
AcDbLine
 10
1329.531297
 20
1956.19
 30
0.0
 11
1329.531297
 21
1536.29
 31
0.0
  0
SOLID
  5
4AC
330
4A8
100
AcDbEntity
  8
LC-007-003-----0
 62
     2
100
AcDbTrace
 10
1333.697964
 20
1956.19
 30
0.0
 11
1325.364631
 21
1956.19
 31
0.0
 12
1329.531297
 22
1981.19
 32
0.0
 13
1329.531297
 23
1981.19
 33
0.0
  0
SOLID
  5
4AD
330
4A8
100
AcDbEntity
  8
LC-007-003-----0
 62
     2
100
AcDbTrace
 10
1325.364631
 20
1536.29
 30
0.0
 11
1333.697964
 21
1536.29
 31
0.0
 12
1329.531297
 22
1511.29
 32
0.0
 13
1329.531297
 23
1511.29
 33
0.0
  0
MTEXT
  5
4AE
330
4A8
100
AcDbEntity
  8
LC-007-003-----0
 62
     2
100
AcDbMText
 10
1299.531297
 20
1717.851677
 30
0.0
 40
25.0
 41
0.0
 71
     5
 72
     1
  1
\A1;469,9
  7
LCTX0-400-0-0pDIN-Schrift
 11
6.123031769111886E-17
 21
1.0
 31
0.0
 73
     1
 44
1.0
  0
POINT
  5
4AF
330
4A8
100
AcDbEntity
  8
Defpoints
 62
     0
100
AcDbPoint
 10
1234.177752
 20
1981.19
 30
0.0
  0
POINT
  5
4B0
330
4A8
100
AcDbEntity
  8
Defpoints
 62
     0
100
AcDbPoint
 10
1208.777752
 20
1511.29
 30
0.0
  0
POINT
  5
4B1
330
4A8
100
AcDbEntity
  8
Defpoints
 62
     0
100
AcDbPoint
 10
1329.531297
 20
1511.29
 30
0.0
  0
ENDBLK
  5
4B3
330
4A8
100
AcDbEntity
  8
0
100
AcDbBlockEnd
  0
BLOCK
  5
4BF
330
4B5
100
AcDbEntity
  8
0
100
AcDbBlockBegin
  2
*D31
 70
     1
 71
     0
 10
0.0
 20
0.0
 30
0.0
  3
*D31
  1

  0
LINE
  5
4B6
330
4B5
100
AcDbEntity
  8
LC-007-003-----0
 62
     2
370
    -2
100
AcDbLine
 10
365.077752
 20
2466.484971
 30
0.0
 11
365.077752
 21
2195.730996
 31
0.0
  0
LINE
  5
4B7
330
4B5
100
AcDbEntity
  8
LC-007-003-----0
 62
     2
370
    -2
100
AcDbLine
 10
1265.077752
 20
2466.484971
 30
0.0
 11
1265.077752
 21
2195.730996
 31
0.0
  0
LINE
  5
4B8
330
4B5
100
AcDbEntity
  8
LC-007-003-----0
 62
     2
370
    -2
100
AcDbLine
 10
390.077752
 20
2213.730996
 30
0.0
 11
1240.077752
 21
2213.730996
 31
0.0
  0
SOLID
  5
4B9
330
4B5
100
AcDbEntity
  8
LC-007-003-----0
 62
     2
100
AcDbTrace
 10
390.077752
 20
2217.897663
 30
0.0
 11
390.077752
 21
2209.56433
 31
0.0
 12
365.077752
 22
2213.730996
 32
0.0
 13
365.077752
 23
2213.730996
 33
0.0
  0
SOLID
  5
4BA
330
4B5
100
AcDbEntity
  8
LC-007-003-----0
 62
     2
100
AcDbTrace
 10
1240.077752
 20
2209.56433
 30
0.0
 11
1240.077752
 21
2217.897663
 31
0.0
 12
1265.077752
 22
2213.730996
 32
0.0
 13
1265.077752
 23
2213.730996
 33
0.0
  0
MTEXT
  5
4BB
330
4B5
100
AcDbEntity
  8
LC-007-003-----0
 62
     2
100
AcDbMText
 10
822.827907
 20
2243.730996
 30
0.0
 40
25.0
 41
0.0
 71
     5
 72
     1
  1
\A1;900
  7
LCTX0-400-0-0pDIN-Schrift
 73
     1
 44
1.0
  0
POINT
  5
4BC
330
4B5
100
AcDbEntity
  8
Defpoints
 62
     0
100
AcDbPoint
 10
365.077752
 20
2466.484971
 30
0.0
  0
POINT
  5
4BD
330
4B5
100
AcDbEntity
  8
Defpoints
 62
     0
100
AcDbPoint
 10
1265.077752
 20
2466.484971
 30
0.0
  0
POINT
  5
4BE
330
4B5
100
AcDbEntity
  8
Defpoints
 62
     0
100
AcDbPoint
 10
1265.077752
 20
2213.730996
 30
0.0
  0
ENDBLK
  5
4C0
330
4B5
100
AcDbEntity
  8
0
100
AcDbBlockEnd
  0
BLOCK
  5
4CE
330
4C4
100
AcDbEntity
  8
0
100
AcDbBlockBegin
  2
*D32
 70
     1
 71
     0
 10
0.0
 20
0.0
 30
0.0
  3
*D32
  1

  0
LINE
  5
4C5
330
4C4
100
AcDbEntity
  8
LC-007-003-----0
 62
     2
370
    -2
100
AcDbLine
 10
550.891322
 20
759.620084
 30
0.0
 11
550.891322
 21
666.025351
 31
0.0
  0
LINE
  5
4C6
330
4C4
100
AcDbEntity
  8
LC-007-003-----0
 62
     2
370
    -2
100
AcDbLine
 10
1000.891322
 20
759.620084
 30
0.0
 11
1000.891322
 21
666.025351
 31
0.0
  0
LINE
  5
4C7
330
4C4
100
AcDbEntity
  8
LC-007-003-----0
 62
     2
370
    -2
100
AcDbLine
 10
575.891322
 20
684.025351
 30
0.0
 11
975.891322
 21
684.025351
 31
0.0
  0
SOLID
  5
4C8
330
4C4
100
AcDbEntity
  8
LC-007-003-----0
 62
     2
100
AcDbTrace
 10
575.891322
 20
688.192018
 30
0.0
 11
575.891322
 21
679.858684
 31
0.0
 12
550.891322
 22
684.025351
 32
0.0
 13
550.891322
 23
684.025351
 33
0.0
  0
SOLID
  5
4C9
330
4C4
100
AcDbEntity
  8
LC-007-003-----0
 62
     2
100
AcDbTrace
 10
975.891322
 20
679.858684
 30
0.0
 11
975.891322
 21
688.192018
 31
0.0
 12
1000.891322
 22
684.025351
 32
0.0
 13
1000.891322
 23
684.025351
 33
0.0
  0
MTEXT
  5
4CA
330
4C4
100
AcDbEntity
  8
LC-007-003-----0
 62
     2
100
AcDbMText
 10
754.626224
 20
714.025351
 30
0.0
 40
25.0
 41
0.0
 71
     5
 72
     1
  1
\A1;900
  7
LCTX0-400-0-0pDIN-Schrift
 73
     1
 44
1.0
  0
POINT
  5
4CB
330
4C4
100
AcDbEntity
  8
Defpoints
 62
     0
100
AcDbPoint
 10
550.891322
 20
759.620084
 30
0.0
  0
POINT
  5
4CC
330
4C4
100
AcDbEntity
  8
Defpoints
 62
     0
100
AcDbPoint
 10
1000.891322
 20
759.620084
 30
0.0
  0
POINT
  5
4CD
330
4C4
100
AcDbEntity
  8
Defpoints
 62
     0
100
AcDbPoint
 10
1000.891322
 20
684.025351
 30
0.0
  0
ENDBLK
  5
4CF
330
4C4
100
AcDbEntity
  8
0
100
AcDbBlockEnd
  0
BLOCK
  5
4D1
330
4D0
100
AcDbEntity
  8
0
100
AcDbBlockBegin
  2
*X133
 70
     1
 71
     0
 10
0.0
 20
0.0
 30
0.0
  3
*X133
  1

  4
*X1
  0
LINE
  5
4D4
330
4D0
100
AcDbEntity
  8
LC-009-005-----0
 62
     7
370
    25
100
AcDbLine
 10
1263.310709
 20
2649.24
 30
0.0
 11
1282.44678
 21
2668.376071
 31
0.0
  0
LINE
  5
4D5
330
4D0
100
AcDbEntity
  8
LC-009-005-----0
 62
     7
370
    25
100
AcDbLine
 10
1235.026438
 20
2649.24
 30
0.0
 11
1273.026438
 21
2687.24
 31
0.0
  0
LINE
  5
4D6
330
4D0
100
AcDbEntity
  8
LC-009-005-----0
 62
     7
370
    25
100
AcDbLine
 10
1208.077752
 20
2650.575586
 30
0.0
 11
1244.742166
 21
2687.24
 31
0.0
  0
LINE
  5
4D7
330
4D0
100
AcDbEntity
  8
LC-009-005-----0
 62
     7
370
    25
100
AcDbLine
 10
1208.077752
 20
2678.859857
 30
0.0
 11
1216.457895
 21
2687.24
 31
0.0
  0
LINE
  5
4D8
330
4D0
100
AcDbEntity
  8
LC-009-005-----0
 62
     7
370
    25
100
AcDbLine
 10
414.782571
 20
2649.24
 30
0.0
 11
422.077752
 21
2656.53518
 31
0.0
  0
LINE
  5
4D9
330
4D0
100
AcDbEntity
  8
LC-009-005-----0
 62
     7
370
    25
100
AcDbLine
 10
386.4983
 20
2649.24
 30
0.0
 11
422.077752
 21
2684.819452
 31
0.0
  0
LINE
  5
4DA
330
4D0
100
AcDbEntity
  8
LC-009-005-----0
 62
     7
370
    25
100
AcDbLine
 10
358.214029
 20
2649.24
 30
0.0
 11
396.214029
 21
2687.24
 31
0.0
  0
LINE
  5
4DB
330
4D0
100
AcDbEntity
  8
LC-009-005-----0
 62
     7
370
    25
100
AcDbLine
 10
347.328239
 20
2666.638482
 30
0.0
 11
367.929758
 21
2687.24
 31
0.0
  0
ENDBLK
  5
4D2
330
4D0
100
AcDbEntity
  8
0
100
AcDbBlockEnd
  0
BLOCK
  5
4E8
330
4DE
100
AcDbEntity
  8
0
100
AcDbBlockBegin
  2
*D34
 70
     1
 71
     0
 10
0.0
 20
0.0
 30
0.0
  3
*D34
  1

  0
LINE
  5
4DF
330
4DE
100
AcDbEntity
  8
LC-007-003-----0
 62
     2
370
    -2
100
AcDbLine
 10
422.077752
 20
2687.24
 30
0.0
 11
422.077752
 21
2768.0
 31
0.0
  0
LINE
  5
4E0
330
4DE
100
AcDbEntity
  8
LC-007-003-----0
 62
     2
370
    -2
100
AcDbLine
 10
1208.077752
 20
2687.24
 30
0.0
 11
1208.077752
 21
2768.0
 31
0.0
  0
LINE
  5
4E1
330
4DE
100
AcDbEntity
  8
LC-007-003-----0
 62
     2
370
    -2
100
AcDbLine
 10
447.077752
 20
2750.0
 30
0.0
 11
1183.077752
 21
2750.0
 31
0.0
  0
SOLID
  5
4E2
330
4DE
100
AcDbEntity
  8
LC-007-003-----0
 62
     2
100
AcDbTrace
 10
447.077752
 20
2754.166667
 30
0.0
 11
447.077752
 21
2745.833333
 31
0.0
 12
422.077752
 22
2750.0
 32
0.0
 13
422.077752
 23
2750.0
 33
0.0
  0
SOLID
  5
4E3
330
4DE
100
AcDbEntity
  8
LC-007-003-----0
 62
     2
100
AcDbTrace
 10
1183.077752
 20
2745.833333
 30
0.0
 11
1183.077752
 21
2754.166667
 31
0.0
 12
1208.077752
 22
2750.0
 32
0.0
 13
1208.077752
 23
2750.0
 33
0.0
  0
MTEXT
  5
4E4
330
4DE
100
AcDbEntity
  8
LC-007-003-----0
 62
     2
100
AcDbMText
 10
815.620667
 20
2780.0
 30
0.0
 40
25.0
 41
0.0
 71
     5
 72
     1
  1
\A1;786
  7
LCTX0-400-0-0pDIN-Schrift
 73
     1
 44
1.0
  0
POINT
  5
4E5
330
4DE
100
AcDbEntity
  8
Defpoints
 62
     0
100
AcDbPoint
 10
422.077752
 20
2687.24
 30
0.0
  0
POINT
  5
4E6
330
4DE
100
AcDbEntity
  8
Defpoints
 62
     0
100
AcDbPoint
 10
1208.077752
 20
2687.24
 30
0.0
  0
POINT
  5
4E7
330
4DE
100
AcDbEntity
  8
Defpoints
 62
     0
100
AcDbPoint
 10
1208.077752
 20
2750.0
 30
0.0
  0
ENDBLK
  5
4E9
330
4DE
100
AcDbEntity
  8
0
100
AcDbBlockEnd
  0
BLOCK
  5
4F1
330
4EB
100
AcDbEntity
  8
0
100
AcDbBlockBegin
  2
*D35
 70
     1
 71
     0
 10
0.0
 20
0.0
 30
0.0
  3
*D35
  1

  0
LINE
  5
4EC
330
4EB
100
AcDbEntity
  8
LC-007-003-----0
 62
     2
370
    -2
100
AcDbLine
 10
489.526948
 20
1597.812465
 30
0.0
 11
484.735072
 21
1593.871965
 31
0.0
  0
MTEXT
  5
4ED
330
4EB
100
AcDbEntity
  8
LC-007-003-----0
 62
     2
100
AcDbMText
 10
528.298056
 20
1609.705285
 30
0.0
 40
25.0
 41
0.0
 71
     5
 72
     1
  1
\A1;R20
  7
LCTX0-400-0-0pDIN-Schrift
 11
0.7723848880188768
 21
0.6351547722878786
 31
0.0
 73
     1
 44
1.0
  0
SOLID
  5
4EE
330
4EB
100
AcDbEntity
  8
LC-007-003-----0
 62
     2
100
AcDbTrace
 10
482.088594
 20
1597.090235
 30
0.0
 11
487.38155
 21
1590.653694
 31
0.0
 12
465.42545
 22
1577.993095
 32
0.0
 13
465.42545
 23
1577.993095
 33
0.0
  0
POINT
  5
4EF
330
4EB
100
AcDbEntity
  8
Defpoints
 62
     0
100
AcDbPoint
 10
465.42545
 20
1577.993095
 30
0.0
  0
POINT
  5
4F0
330
4EB
100
AcDbEntity
  8
Defpoints
 62
     0
100
AcDbPoint
 10
449.977752
 20
1565.29
 30
0.0
  0
ENDBLK
  5
4F2
330
4EB
100
AcDbEntity
  8
0
100
AcDbBlockEnd
  0
BLOCK
  5
4FA
330
4F4
100
AcDbEntity
  8
0
100
AcDbBlockBegin
  2
*D36
 70
     1
 71
     0
 10
0.0
 20
0.0
 30
0.0
  3
*D36
  1

  0
LINE
  5
4F5
330
4F4
100
AcDbEntity
  8
LC-007-003-----0
 62
     2
370
    -2
100
AcDbLine
 10
782.052549
 20
1914.071447
 30
0.0
 11
799.234658
 21
1939.60676
 31
0.0
  0
MTEXT
  5
4F6
330
4F4
100
AcDbEntity
  8
LC-007-003-----0
 62
     2
100
AcDbMText
 10
744.384953
 20
1894.218108
 30
0.0
 40
25.0
 41
0.0
 71
     5
 72
     1
  1
\A1;R25
  7
LCTX0-400-0-0pDIN-Schrift
 11
0.5582618704688286
 21
0.8296648021825711
 31
0.0
 73
     1
 44
1.0
  0
SOLID
  5
4F7
330
4F4
100
AcDbEntity
  8
LC-007-003-----0
 62
     2
100
AcDbTrace
 10
802.691595
 20
1937.280669
 30
0.0
 11
795.777722
 21
1941.932851
 31
0.0
 12
813.191205
 22
1960.34838
 32
0.0
 13
813.191205
 23
1960.34838
 33
0.0
  0
POINT
  5
4F8
330
4F4
100
AcDbEntity
  8
Defpoints
 62
     0
100
AcDbPoint
 10
813.191205
 20
1960.34838
 30
0.0
  0
POINT
  5
4F9
330
4F4
100
AcDbEntity
  8
Defpoints
 62
     0
100
AcDbPoint
 10
827.147752
 20
1981.09
 30
0.0
  0
ENDBLK
  5
4FB
330
4F4
100
AcDbEntity
  8
0
100
AcDbBlockEnd
  0
BLOCK
  5
503
330
4FD
100
AcDbEntity
  8
0
100
AcDbBlockBegin
  2
*D37
 70
     1
 71
     0
 10
0.0
 20
0.0
 30
0.0
  3
*D37
  1

  0
LINE
  5
4FE
330
4FD
100
AcDbEntity
  8
LC-007-003-----0
 62
     2
370
    -2
100
AcDbLine
 10
378.030833
 20
1484.613532
 30
0.0
 11
389.134474
 21
1497.953312
 31
0.0
  0
MTEXT
  5
4FF
330
4FD
100
AcDbEntity
  8
LC-007-003-----0
 62
     2
100
AcDbMText
 10
324.661049
 20
1463.440241
 30
0.0
 40
25.0
 41
0.0
 71
     5
 72
     1
  1
\A1;R25,4
  7
LCTX0-400-0-0pDIN-Schrift
 11
0.6397475849880829
 21
0.7685850814984088
 31
0.0
 73
     1
 44
1.0
  0
SOLID
  5
500
330
4FD
100
AcDbEntity
  8
LC-007-003-----0
 62
     2
100
AcDbTrace
 10
392.336911
 20
1495.287697
 30
0.0
 11
385.932036
 21
1500.618927
 31
0.0
 12
405.128163
 22
1517.167939
 32
0.0
 13
405.128163
 23
1517.167939
 33
0.0
  0
POINT
  5
501
330
4FD
100
AcDbEntity
  8
Defpoints
 62
     0
100
AcDbPoint
 10
405.128163
 20
1517.167939
 30
0.0
  0
POINT
  5
502
330
4FD
100
AcDbEntity
  8
Defpoints
 62
     0
100
AcDbPoint
 10
421.377752
 20
1536.69
 30
0.0
  0
ENDBLK
  5
504
330
4FD
100
AcDbEntity
  8
0
100
AcDbBlockEnd
  0
BLOCK
  5
510
330
506
100
AcDbEntity
  8
0
100
AcDbBlockBegin
  2
*D38
 70
     1
 71
     0
 10
0.0
 20
0.0
 30
0.0
  3
*D38
  1

  0
LINE
  5
507
330
506
100
AcDbEntity
  8
LC-007-003-----0
 62
     2
370
    -2
100
AcDbLine
 10
421.377752
 20
1511.29
 30
0.0
 11
282.0
 21
1511.29
 31
0.0
  0
LINE
  5
508
330
506
100
AcDbEntity
  8
LC-007-003-----0
 62
     2
370
    -2
100
AcDbLine
 10
395.977752
 20
2031.99
 30
0.0
 11
282.0
 21
2031.99
 31
0.0
  0
LINE
  5
509
330
506
100
AcDbEntity
  8
LC-007-003-----0
 62
     2
370
    -2
100
AcDbLine
 10
300.0
 20
1536.29
 30
0.0
 11
300.0
 21
2006.99
 31
0.0
  0
SOLID
  5
50A
330
506
100
AcDbEntity
  8
LC-007-003-----0
 62
     2
100
AcDbTrace
 10
295.833333
 20
1536.29
 30
0.0
 11
304.166667
 21
1536.29
 31
0.0
 12
300.0
 22
1511.29
 32
0.0
 13
300.0
 23
1511.29
 33
0.0
  0
SOLID
  5
50B
330
506
100
AcDbEntity
  8
LC-007-003-----0
 62
     2
100
AcDbTrace
 10
304.166667
 20
2006.99
 30
0.0
 11
295.833333
 21
2006.99
 31
0.0
 12
300.0
 22
2031.99
 32
0.0
 13
300.0
 23
2031.99
 33
0.0
  0
MTEXT
  5
50C
330
506
100
AcDbEntity
  8
LC-007-003-----0
 62
     2
100
AcDbMText
 10
270.0
 20
1781.492958
 30
0.0
 40
25.0
 41
0.0
 71
     5
 72
     1
  1
\A1;520,7
  7
LCTX0-400-0-0pDIN-Schrift
 11
6.123031769111886E-17
 21
1.0
 31
0.0
 73
     1
 44
1.0
  0
POINT
  5
50D
330
506
100
AcDbEntity
  8
Defpoints
 62
     0
100
AcDbPoint
 10
421.377752
 20
1511.29
 30
0.0
  0
POINT
  5
50E
330
506
100
AcDbEntity
  8
Defpoints
 62
     0
100
AcDbPoint
 10
395.977752
 20
2031.99
 30
0.0
  0
POINT
  5
50F
330
506
100
AcDbEntity
  8
Defpoints
 62
     0
100
AcDbPoint
 10
300.0
 20
2031.99
 30
0.0
  0
ENDBLK
  5
511
330
506
100
AcDbEntity
  8
0
100
AcDbBlockEnd
  0
BLOCK
  5
51D
330
513
100
AcDbEntity
  8
0
100
AcDbBlockBegin
  2
*D39
 70
     1
 71
     0
 10
0.0
 20
0.0
 30
0.0
  3
*D39
  1

  0
LINE
  5
514
330
513
100
AcDbEntity
  8
LC-007-003-----0
 62
     2
370
    -2
100
AcDbLine
 10
395.977752
 20
2031.99
 30
0.0
 11
395.977752
 21
2118.0
 31
0.0
  0
LINE
  5
515
330
513
100
AcDbEntity
  8
LC-007-003-----0
 62
     2
370
    -2
100
AcDbLine
 10
830.277752
 20
2031.99
 30
0.0
 11
830.277752
 21
2118.0
 31
0.0
  0
LINE
  5
516
330
513
100
AcDbEntity
  8
LC-007-003-----0
 62
     2
370
    -2
100
AcDbLine
 10
420.977752
 20
2100.0
 30
0.0
 11
805.277752
 21
2100.0
 31
0.0
  0
SOLID
  5
517
330
513
100
AcDbEntity
  8
LC-007-003-----0
 62
     2
100
AcDbTrace
 10
420.977752
 20
2104.166667
 30
0.0
 11
420.977752
 21
2095.833333
 31
0.0
 12
395.977752
 22
2100.0
 32
0.0
 13
395.977752
 23
2100.0
 33
0.0
  0
SOLID
  5
518
330
513
100
AcDbEntity
  8
LC-007-003-----0
 62
     2
100
AcDbTrace
 10
805.277752
 20
2095.833333
 30
0.0
 11
805.277752
 21
2104.166667
 31
0.0
 12
830.277752
 22
2100.0
 32
0.0
 13
830.277752
 23
2100.0
 33
0.0
  0
MTEXT
  5
519
330
513
100
AcDbEntity
  8
LC-007-003-----0
 62
     2
100
AcDbMText
 10
609.517836
 20
2130.0
 30
0.0
 40
25.0
 41
0.0
 71
     5
 72
     1
  1
\A1;434,3
  7
LCTX0-400-0-0pDIN-Schrift
 73
     1
 44
1.0
  0
POINT
  5
51A
330
513
100
AcDbEntity
  8
Defpoints
 62
     0
100
AcDbPoint
 10
395.977752
 20
2031.99
 30
0.0
  0
POINT
  5
51B
330
513
100
AcDbEntity
  8
Defpoints
 62
     0
100
AcDbPoint
 10
830.277752
 20
2031.99
 30
0.0
  0
POINT
  5
51C
330
513
100
AcDbEntity
  8
Defpoints
 62
     0
100
AcDbPoint
 10
830.277752
 20
2100.0
 30
0.0
  0
ENDBLK
  5
51E
330
513
100
AcDbEntity
  8
0
100
AcDbBlockEnd
  0
BLOCK
  5
526
330
520
100
AcDbEntity
  8
0
100
AcDbBlockBegin
  2
*D40
 70
     1
 71
     0
 10
0.0
 20
0.0
 30
0.0
  3
*D40
  1

  0
LINE
  5
521
330
520
100
AcDbEntity
  8
LC-007-003-----0
 62
     2
370
    -2
100
AcDbLine
 10
871.622623
 20
2016.288169
 30
0.0
 11
877.079951
 21
2020.451495
 31
0.0
  0
MTEXT
  5
522
330
520
100
AcDbEntity
  8
LC-007-003-----0
 62
     2
100
AcDbMText
 10
909.239476
 20
2028.806002
 30
0.0
 40
25.0
 41
0.0
 71
     5
 72
     1
  1
\A1;R15
  7
LCTX0-400-0-0pDIN-Schrift
 11
0.7950549729136045
 21
0.6065373772863035
 31
0.0
 73
     1
 44
1.0
  0
SOLID
  5
523
330
520
100
AcDbEntity
  8
LC-007-003-----0
 62
     2
100
AcDbTrace
 10
839.854441
 20
1986.811897
 30
0.0
 11
834.799963
 21
1993.437355
 31
0.0
 12
857.203576
 22
2005.288061
 32
0.0
 13
857.203576
 23
2005.288061
 33
0.0
  0
POINT
  5
524
330
520
100
AcDbEntity
  8
Defpoints
 62
     0
100
AcDbPoint
 10
857.203576
 20
2005.288061
 30
0.0
  0
POINT
  5
525
330
520
100
AcDbEntity
  8
Defpoints
 62
     0
100
AcDbPoint
 10
845.277752
 20
1996.19
 30
0.0
  0
ENDBLK
  5
527
330
520
100
AcDbEntity
  8
0
100
AcDbBlockEnd
  0
ENDSEC
  0
SECTION
  2
ENTITIES
  0
INSERT
  5
105
330
1F
100
AcDbEntity
  8
LC-003-230-ZVN-0
  6
ByBlock
 62
     0
370
    -2
100
AcDbBlockReference
  2
SYM1
 10
0.0
 20
0.0
 30
0.0
  0
LINE
  5
106
330
1F
100
AcDbEntity
  8
LC-002-002-----0
 62
     7
370
    50
100
AcDbLine
 10
1847.41221
 20
2031.99
 30
0.0
 11
1856.91221
 21
2031.99
 31
0.0
  0
LINE
  5
107
330
1F
100
AcDbEntity
  8
LC-002-002-----0
 62
     7
370
    50
100
AcDbLine
 10
395.977752
 20
2031.99
 30
0.0
 11
830.277752
 21
2031.99
 31
0.0
  0
LINE
  5
108
102
{ACAD_REACTORS
330
52A
102
}
330
1F
100
AcDbEntity
  8
LC-002-002-----0
 62
     7
370
    50
100
AcDbLine
 10
1208.077752
 20
2687.24
 30
0.0
 11
1278.316093
 21
2687.24
 31
0.0
  0
ARC
  5
10A
330
1F
100
AcDbEntity
  8
LC-004-002-RND-0
 62
     7
370
    50
100
AcDbCircle
 10
845.277752
 20
1996.19
 30
0.0
 40
15.0
100
AcDbArc
 50
180.0
 51
270.0
  0
LINE
  5
10B
102
{ACAD_REACTORS
330
52A
102
}
330
1F
100
AcDbEntity
  8
LC-002-002-----0
 62
     7
370
    50
100
AcDbLine
 10
1208.077752
 20
2687.24
 30
0.0
 11
1208.077752
 21
2649.24
 31
0.0
  0
LINE
  5
10C
102
{ACAD_REACTORS
330
52A
102
}
330
1F
100
AcDbEntity
  8
LC-002-002-----0
 62
     7
370
    50
100
AcDbLine
 10
1208.077752
 20
2649.24
 30
0.0
 11
1278.316093
 21
2649.24
 31
0.0
  0
LINE
  5
10D
102
{ACAD_REACTORS
330
52A
102
}
330
1F
100
AcDbEntity
  8
LC-002-002-----0
 62
     7
370
    25
100
AcDbLine
 10
1278.316093
 20
2687.24
 30
0.0
 11
1282.82907
 21
2666.630234
 31
0.0
  0
LINE
  5
10E
102
{ACAD_REACTORS
330
52A
102
}
330
1F
100
AcDbEntity
  8
LC-002-002-----0
 62
     7
370
    25
100
AcDbLine
 10
1282.82907
 20
2666.630234
 30
0.0
 11
1278.316093
 21
2649.24
 31
0.0
  0
LINE
  5
10F
102
{ACAD_REACTORS
330
532
102
}
330
1F
100
AcDbEntity
  8
LC-002-002-----0
 62
     7
370
    25
100
AcDbLine
 10
1505.255112
 20
1839.69
 30
0.0
 11
1505.255112
 21
1865.245748
 31
0.0
  0
LINE
  5
110
102
{ACAD_REACTORS
330
52A
102
}
330
1F
100
AcDbEntity
  8
LC-002-002-----0
 62
     7
370
    50
100
AcDbLine
 10
1265.077752
 20
2466.484971
 30
0.0
 11
1265.077752
 21
2649.24
 31
0.0
  0
LINE
  5
111
330
1F
100
AcDbEntity
  8
LC-002-002-----0
 62
     7
370
    50
100
AcDbLine
 10
830.277752
 20
1996.19
 30
0.0
 11
830.277752
 21
2031.99
 31
0.0
  0
LINE
  5
112
102
{ACAD_REACTORS
330
52A
102
}
330
1F
100
AcDbEntity
  8
LC-002-002-----0
 62
     7
370
    50
100
AcDbLine
 10
365.077752
 20
2466.484971
 30
0.0
 11
365.077752
 21
2649.24
 31
0.0
  0
LINE
  5
114
330
1F
100
AcDbEntity
  8
LC-002-002-----0
  6
DASHDOT
 62
     7
370
    50
100
AcDbLine
 10
1000.891322
 20
1076.905018
 30
0.0
 11
1000.891322
 21
759.620084
 31
0.0
  0
LINE
  5
115
102
{ACAD_REACTORS
330
52A
102
}
330
1F
100
AcDbEntity
  8
LC-002-002-----0
 62
     7
370
    50
100
AcDbLine
 10
1246.077752
 20
2466.484971
 30
0.0
 11
1246.077752
 21
2649.24
 31
0.0
  0
LINE
  5
118
102
{ACAD_REACTORS
330
529
102
}
330
1F
100
AcDbEntity
  8
LC-005-006-MLN-0
 62
     7
370
    25
100
AcDbLine
 10
1598.857341
 20
1890.69
 30
0.0
 11
1630.456488
 21
1890.69
 31
0.0
  0
LINE
  5
119
102
{ACAD_REACTORS
330
52A
102
}
330
1F
100
AcDbEntity
  8
LC-002-002-----0
 62
     7
370
    50
100
AcDbLine
 10
384.077752
 20
2466.484971
 30
0.0
 11
384.077752
 21
2649.24
 31
0.0
  0
LINE
  5
11A
102
{ACAD_REACTORS
330
529
102
}
330
1F
100
AcDbEntity
  8
LC-002-002-----0
 62
     7
370
    50
100
AcDbLine
 10
1601.857341
 20
1935.69
 30
0.0
 11
1611.738976
 21
1935.69
 31
0.0
  0
LINE
  5
11B
330
1F
100
AcDbEntity
  8
LC-002-002-----0
 62
     7
370
    25
100
AcDbLine
 10
1847.41221
 20
1981.19
 30
0.0
 11
1856.91221
 21
1981.19
 31
0.0
  0
LINE
  5
11C
102
{ACAD_REACTORS
330
529
102
}
330
1F
100
AcDbEntity
  8
LC-002-002-----0
 62
     7
370
    50
100
AcDbLine
 10
1601.857341
 20
1935.69
 30
0.0
 11
1601.857341
 21
1845.69
 31
0.0
  0
LINE
  5
11D
102
{ACAD_REACTORS
330
529
102
}
330
1F
100
AcDbEntity
  8
LC-002-002-----0
 62
     7
370
    50
100
AcDbLine
 10
1601.857341
 20
1845.69
 30
0.0
 11
1611.738976
 21
1845.69
 31
0.0
  0
LINE
  5
11E
102
{ACAD_REACTORS
330
529
102
}
330
1F
100
AcDbEntity
  8
LC-002-002-----0
 62
     7
370
    50
100
AcDbLine
 10
1611.738976
 20
1935.69
 30
0.0
 11
1611.738976
 21
1845.69
 31
0.0
  0
LINE
  5
11F
102
{ACAD_REACTORS
330
529
102
}
330
1F
100
AcDbEntity
  8
LC-002-002-----0
 62
     7
370
    25
100
AcDbLine
 10
1615.91221
 20
1948.19
 30
0.0
 11
1615.91221
 21
1833.19
 31
0.0
  0
LINE
  5
120
102
{ACAD_REACTORS
330
528
102
}
330
1F
100
AcDbEntity
  8
LC-002-002-----0
 62
     7
370
    25
100
AcDbLine
 10
1601.857341
 20
1777.964141
 30
0.0
 11
1601.857341
 21
1820.777073
 31
0.0
  0
LINE
  5
121
330
1F
100
AcDbEntity
  8
LC-002-002-----0
  6
DASHDOT
 62
     7
370
    50
100
AcDbLine
 10
991.391322
 20
1076.905018
 30
0.0
 11
991.391322
 21
762.814227
 31
0.0
  0
LINE
  5
122
102
{ACAD_REACTORS
330
52C
102
}
330
1F
100
AcDbEntity
  8
LC-002-002-----0
 62
     7
370
    50
100
AcDbLine
 10
579.391322
 20
821.931092
 30
0.0
 11
579.391322
 21
1032.931092
 31
0.0
  0
ARC
  5
123
102
{ACAD_REACTORS
330
52C
102
}
330
1F
100
AcDbEntity
  8
LC-004-002-RND-0
 62
     7
370
    50
100
AcDbCircle
 10
781.891322
 20
1029.931092
 30
0.0
 40
8.5
100
AcDbArc
 50
180.0
 51
270.0
  0
LINE
  5
124
102
{ACAD_REACTORS
330
52C
102
}
330
1F
100
AcDbEntity
  8
LC-002-002-----0
 62
     7
370
    50
100
AcDbLine
 10
972.391322
 20
821.931092
 30
0.0
 11
972.391322
 21
1007.431092
 31
0.0
  0
ARC
  5
125
102
{ACAD_REACTORS
330
52C
102
}
330
1F
100
AcDbEntity
  8
LC-004-002-RND-0
 62
     7
370
    50
100
AcDbCircle
 10
593.391322
 20
1032.931092
 30
0.0
 40
14.0
100
AcDbArc
 50
90.0
 51
180.0
  0
LINE
  5
126
102
{ACAD_REACTORS
330
52C
102
}
330
1F
100
AcDbEntity
  8
LC-002-002-----0
 62
     7
370
    50
100
AcDbLine
 10
593.391322
 20
807.931092
 30
0.0
 11
958.391322
 21
807.931092
 31
0.0
  0
LINE
  5
127
102
{ACAD_REACTORS
330
52C
102
}
330
1F
100
AcDbEntity
  8
LC-002-002-----0
 62
     7
370
    50
100
AcDbLine
 10
593.391322
 20
1046.931092
 30
0.0
 11
759.391322
 21
1046.931092
 31
0.0
  0
LINE
  5
128
102
{ACAD_REACTORS
330
52C
102
}
330
1F
100
AcDbEntity
  8
LC-002-002-----0
 62
     7
370
    50
100
AcDbLine
 10
781.891322
 20
1021.431092
 30
0.0
 11
958.391322
 21
1021.431092
 31
0.0
  0
ARC
  5
129
102
{ACAD_REACTORS
330
52C
102
}
330
1F
100
AcDbEntity
  8
LC-004-002-RND-0
 62
     7
370
    50
100
AcDbCircle
 10
593.391322
 20
821.931092
 30
0.0
 40
14.0
100
AcDbArc
 50
180.0
 51
270.0
  0
LINE
  5
12A
102
{ACAD_REACTORS
330
52C
102
}
330
1F
100
AcDbEntity
  8
LC-002-002-----0
 62
     7
370
    50
100
AcDbLine
 10
773.391322
 20
1029.931092
 30
0.0
 11
773.391322
 21
1032.931092
 31
0.0
  0
ARC
  5
12B
102
{ACAD_REACTORS
330
52C
102
}
330
1F
100
AcDbEntity
  8
LC-004-002-RND-0
 62
     7
370
    50
100
AcDbCircle
 10
958.391322
 20
821.931092
 30
0.0
 40
14.0
100
AcDbArc
 50
270.0
 51
0.0
  0
ARC
  5
12C
102
{ACAD_REACTORS
330
52C
102
}
330
1F
100
AcDbEntity
  8
LC-004-002-RND-0
 62
     7
370
    50
100
AcDbCircle
 10
958.391322
 20
1007.431092
 30
0.0
 40
14.0
100
AcDbArc
 50
0.0
 51
90.0
  0
ARC
  5
12D
102
{ACAD_REACTORS
330
52C
102
}
330
1F
100
AcDbEntity
  8
LC-004-002-RND-0
 62
     7
370
    50
100
AcDbCircle
 10
759.391322
 20
1032.931092
 30
0.0
 40
14.0
100
AcDbArc
 50
0.0
 51
90.0
  0
LINE
  5
12E
102
{ACAD_REACTORS
330
52F
102
}
330
1F
100
AcDbEntity
  8
LC-002-002-----0
 62
     7
370
    25
100
AcDbLine
 10
885.637866
 20
1937.420387
 30
0.0
 11
1142.538272
 21
1937.420387
 31
0.0
  0
LINE
  5
12F
102
{ACAD_REACTORS
330
52F
102
}
330
1F
100
AcDbEntity
  8
LC-002-002-----0
 62
     7
370
    25
100
AcDbLine
 10
883.836095
 20
1913.158753
 30
0.0
 11
1144.339887
 21
1913.158753
 31
0.0
  0
LINE
  5
130
102
{ACAD_REACTORS
330
52F
102
}
330
1F
100
AcDbEntity
  8
LC-005-006-MLN-0
 62
     7
370
    25
100
AcDbLine
 10
616.077752
 20
1951.19
 30
0.0
 11
616.077752
 21
1830.19
 31
0.0
  0
LINE
  5
131
102
{ACAD_REACTORS
330
52F
102
}
330
1F
100
AcDbEntity
  8
LC-005-006-MLN-0
 62
     7
370
    25
100
AcDbLine
 10
555.577752
 20
1890.69
 30
0.0
 11
676.577752
 21
1890.69
 31
0.0
  0
LINE
  5
132
102
{ACAD_REACTORS
330
52F
102
}
330
1F
100
AcDbEntity
  8
LC-005-006-MLN-0
 62
     7
370
    25
100
AcDbLine
 10
1014.077752
 20
1900.19
 30
0.0
 11
1014.077752
 21
1779.19
 31
0.0
  0
LINE
  5
133
102
{ACAD_REACTORS
330
52F
102
}
330
1F
100
AcDbEntity
  8
LC-005-006-MLN-0
 62
     7
370
    25
100
AcDbLine
 10
953.577752
 20
1839.69
 30
0.0
 11
1074.577752
 21
1839.69
 31
0.0
  0
CIRCLE
  5
134
102
{ACAD_REACTORS
330
52F
102
}
330
1F
100
AcDbEntity
  8
LC-002-002-----0
 62
     7
370
    50
100
AcDbCircle
 10
616.077752
 20
1890.69
 30
0.0
 40
57.5
  0
CIRCLE
  5
135
102
{ACAD_REACTORS
330
52F
102
}
330
1F
100
AcDbEntity
  8
LC-002-002-----0
 62
     7
370
    50
100
AcDbCircle
 10
616.077752
 20
1890.69
 30
0.0
 40
46.0
  0
CIRCLE
  5
136
102
{ACAD_REACTORS
330
52F
102
}
330
1F
100
AcDbEntity
  8
LC-002-002-----0
 62
     7
370
    50
100
AcDbCircle
 10
1014.077752
 20
1839.69
 30
0.0
 40
57.5
  0
LINE
  5
137
102
{ACAD_REACTORS
330
52F
102
}
330
1F
100
AcDbEntity
  8
LC-002-002-----0
 62
     7
370
    25
100
AcDbLine
 10
846.637936
 20
1898.49452
 30
0.0
 11
846.075134
 21
1602.415754
 31
0.0
  0
LINE
  5
138
102
{ACAD_REACTORS
330
52F
102
}
330
1F
100
AcDbEntity
  8
LC-002-002-----0
 62
     7
370
    25
100
AcDbLine
 10
870.336095
 20
1899.660183
 30
0.0
 11
870.30441
 21
1600.585075
 31
0.0
  0
LINE
  5
139
102
{ACAD_REACTORS
330
52F
102
}
330
1F
100
AcDbEntity
  8
LC-002-002-----0
 62
     7
370
    25
100
AcDbLine
 10
1157.839887
 20
1899.660188
 30
0.0
 11
1157.871683
 21
1600.585067
 31
0.0
  0
LINE
  5
13A
102
{ACAD_REACTORS
330
52F
102
}
330
1F
100
AcDbEntity
  8
LC-002-002-----0
 62
     7
370
    25
100
AcDbLine
 10
1181.538202
 20
1898.494506
 30
0.0
 11
1182.100898
 21
1602.415623
 31
0.0
  0
LINE
  5
13B
102
{ACAD_REACTORS
330
52F
102
}
330
1F
100
AcDbEntity
  8
LC-002-002-----0
 62
     7
370
    25
100
AcDbLine
 10
1144.371682
 20
1587.083632
 30
0.0
 11
883.804409
 21
1587.083645
 31
0.0
  0
LINE
  5
13C
102
{ACAD_REACTORS
330
52F
102
}
330
1F
100
AcDbEntity
  8
LC-002-002-----0
 62
     7
370
    25
100
AcDbLine
 10
885.075046
 20
1563.341621
 30
0.0
 11
1143.100951
 21
1563.341504
 31
0.0
  0
LINE
  5
13D
102
{ACAD_REACTORS
330
52F
102
}
330
1F
100
AcDbEntity
  8
LC-002-002-----0
 62
     7
370
    25
100
AcDbLine
 10
783.508237
 20
1949.506845
 30
0.0
 11
784.27715
 21
1602.21502
 31
0.0
  0
LINE
  5
13E
102
{ACAD_REACTORS
330
52F
102
}
330
1F
100
AcDbEntity
  8
LC-002-002-----0
 62
     7
370
    25
100
AcDbLine
 10
759.954778
 20
1600.336816
 30
0.0
 11
759.809703
 21
1950.664351
 31
0.0
  0
LINE
  5
13F
102
{ACAD_REACTORS
330
52F
102
}
330
1F
100
AcDbEntity
  8
LC-002-002-----0
 62
     7
370
    25
100
AcDbLine
 10
487.617062
 20
1988.420618
 30
0.0
 11
744.50835
 21
1988.420498
 31
0.0
  0
LINE
  5
140
102
{ACAD_REACTORS
330
52F
102
}
330
1F
100
AcDbEntity
  8
LC-002-002-----0
 62
     7
370
    25
100
AcDbLine
 10
746.309704
 20
1964.15876
 30
0.0
 11
485.815635
 21
1964.158768
 31
0.0
  0
LINE
  5
141
102
{ACAD_REACTORS
330
52F
102
}
330
1F
100
AcDbEntity
  8
LC-002-002-----0
 62
     7
370
    25
100
AcDbLine
 10
448.617139
 20
1949.506965
 30
0.0
 11
447.848228
 21
1602.214904
 31
0.0
  0
LINE
  5
142
102
{ACAD_REACTORS
330
52F
102
}
330
1F
100
AcDbEntity
  8
LC-002-002-----0
 62
     7
370
    25
100
AcDbLine
 10
472.170496
 20
1600.336794
 30
0.0
 11
472.315636
 21
1950.664361
 31
0.0
  0
LINE
  5
143
102
{ACAD_REACTORS
330
52F
102
}
330
1F
100
AcDbEntity
  8
LC-002-002-----0
 62
     7
370
    25
100
AcDbLine
 10
485.670496
 20
1586.831201
 30
0.0
 11
746.45478
 21
1586.831226
 31
0.0
  0
LINE
  5
144
102
{ACAD_REACTORS
330
52F
102
}
330
1F
100
AcDbEntity
  8
LC-002-002-----0
 62
     7
370
    25
100
AcDbLine
 10
486.84815
 20
1563.128557
 30
0.0
 11
745.277263
 21
1563.128674
 31
0.0
  0
ARC
  5
145
102
{ACAD_REACTORS
330
52F
102
}
330
1F
100
AcDbEntity
  8
LC-004-002-RND-0
 62
     7
370
    25
100
AcDbCircle
 10
487.617044
 20
1949.420618
 30
0.0
 40
38.99999999999994
100
AcDbArc
 50
89.999973
 51
179.873146
  0
ARC
  5
146
102
{ACAD_REACTORS
330
52F
102
}
330
1F
100
AcDbEntity
  8
LC-004-002-RND-0
 62
     7
370
    25
100
AcDbCircle
 10
485.815635
 20
1950.658768
 30
0.0
 40
13.50000000000001
100
AcDbArc
 50
89.999998
 51
179.976262
  0
ARC
  5
147
102
{ACAD_REACTORS
330
52F
102
}
330
1F
100
AcDbEntity
  8
LC-004-002-RND-0
 62
     7
370
    25
100
AcDbCircle
 10
883.836095
 20
1899.658753
 30
0.0
 40
13.5
100
AcDbArc
 50
90.0
 51
179.99393
  0
ARC
  5
148
102
{ACAD_REACTORS
330
52F
102
}
330
1F
100
AcDbEntity
  8
LC-004-002-RND-0
 62
     7
370
    25
100
AcDbCircle
 10
885.637866
 20
1898.420387
 30
0.0
 40
39.0
100
AcDbArc
 50
90.0
 51
179.891089
  0
ARC
  5
149
102
{ACAD_REACTORS
330
52F
102
}
330
1F
100
AcDbEntity
  8
LC-004-002-RND-0
 62
     7
370
    25
100
AcDbCircle
 10
744.508332
 20
1949.420498
 30
0.0
 40
38.99999999999989
100
AcDbArc
 50
0.126854
 51
89.999973
  0
ARC
  5
14A
102
{ACAD_REACTORS
330
52F
102
}
330
1F
100
AcDbEntity
  8
LC-004-002-RND-0
 62
     7
370
    25
100
AcDbCircle
 10
1142.538272
 20
1898.420387
 30
0.0
 40
39.00000000000008
100
AcDbArc
 50
0.10889
 51
90.0
  0
ARC
  5
14B
102
{ACAD_REACTORS
330
52F
102
}
330
1F
100
AcDbEntity
  8
LC-004-002-RND-0
 62
     7
370
    25
100
AcDbCircle
 10
1143.100969
 20
1602.341504
 30
0.0
 40
38.99999999999994
100
AcDbArc
 50
269.999974
 51
0.10889
  0
ARC
  5
14C
102
{ACAD_REACTORS
330
52F
102
}
330
1F
100
AcDbEntity
  8
LC-004-002-RND-0
 62
     7
370
    25
100
AcDbCircle
 10
885.075063
 20
1602.341621
 30
0.0
 40
39.00000000000001
100
AcDbArc
 50
179.891089
 51
269.999974
  0
ARC
  5
14D
102
{ACAD_REACTORS
330
52F
102
}
330
1F
100
AcDbEntity
  8
LC-004-002-RND-0
 62
     7
370
    25
100
AcDbCircle
 10
745.277246
 20
1602.128674
 30
0.0
 40
39.00000000000008
100
AcDbArc
 50
270.000026
 51
0.126854
  0
ARC
  5
14E
102
{ACAD_REACTORS
330
52F
102
}
330
1F
100
AcDbEntity
  8
LC-004-002-RND-0
 62
     7
370
    25
100
AcDbCircle
 10
486.848132
 20
1602.128557
 30
0.0
 40
38.99999999999995
100
AcDbArc
 50
179.873146
 51
270.000026
  0
ARC
  5
14F
102
{ACAD_REACTORS
330
52F
102
}
330
1F
100
AcDbEntity
  8
LC-004-002-RND-0
 62
     7
370
    25
100
AcDbCircle
 10
746.309704
 20
1950.65876
 30
0.0
 40
13.49999999999995
100
AcDbArc
 50
0.023727
 51
89.999998
  0
ARC
  5
150
102
{ACAD_REACTORS
330
52F
102
}
330
1F
100
AcDbEntity
  8
LC-004-002-RND-0
 62
     7
370
    25
100
AcDbCircle
 10
746.454779
 20
1600.331226
 30
0.0
 40
13.50000000000006
100
AcDbArc
 50
270.000005
 51
0.023727
  0
ARC
  5
151
102
{ACAD_REACTORS
330
52F
102
}
330
1F
100
AcDbEntity
  8
LC-004-002-RND-0
 62
     7
370
    25
100
AcDbCircle
 10
485.670495
 20
1600.331201
 30
0.0
 40
13.5
100
AcDbArc
 50
179.976262
 51
270.000005
  0
ARC
  5
152
102
{ACAD_REACTORS
330
52F
102
}
330
1F
100
AcDbEntity
  8
LC-004-002-RND-0
 62
     7
370
    25
100
AcDbCircle
 10
883.80441
 20
1600.583645
 30
0.0
 40
13.50000000000006
100
AcDbArc
 50
179.99393
 51
269.999997
  0
ARC
  5
153
102
{ACAD_REACTORS
330
52F
102
}
330
1F
100
AcDbEntity
  8
LC-004-002-RND-0
 62
     7
370
    25
100
AcDbCircle
 10
1144.371683
 20
1600.583632
 30
0.0
 40
13.49999999999979
100
AcDbArc
 50
269.999997
 51
0.006091
  0
ARC
  5
154
102
{ACAD_REACTORS
330
52F
102
}
330
1F
100
AcDbEntity
  8
LC-004-002-RND-0
 62
     7
370
    25
100
AcDbCircle
 10
1144.339887
 20
1899.658753
 30
0.0
 40
13.49999999999998
100
AcDbArc
 50
0.006091
 51
90.0
  0
CIRCLE
  5
155
102
{ACAD_REACTORS
330
52F
102
}
330
1F
100
AcDbEntity
  8
LC-002-002-----0
 62
     7
370
    50
100
AcDbCircle
 10
1014.077752
 20
1839.69
 30
0.0
 40
46.0
  0
LINE
  5
156
102
{ACAD_REACTORS
330
52F
102
}
330
1F
100
AcDbEntity
  8
LC-002-002-----0
 62
     7
370
    50
100
AcDbLine
 10
1180.177752
 20
1545.29
 30
0.0
 11
802.147752
 21
1545.29
 31
0.0
  0
LINE
  5
157
102
{ACAD_REACTORS
330
52F
102
}
330
1F
100
AcDbEntity
  8
LC-002-002-----0
 62
     7
370
    50
100
AcDbLine
 10
1200.177752
 20
1936.09
 30
0.0
 11
1200.177752
 21
1565.29
 31
0.0
  0
LINE
  5
158
102
{ACAD_REACTORS
330
52F
102
}
330
1F
100
AcDbEntity
  8
LC-002-002-----0
 62
     7
370
    50
100
AcDbLine
 10
827.147752
 20
1956.09
 30
0.0
 11
1180.177752
 21
1956.09
 31
0.0
  0
LINE
  5
159
102
{ACAD_REACTORS
330
52F
102
}
330
1F
100
AcDbEntity
  8
LC-002-002-----0
 62
     7
370
    50
100
AcDbLine
 10
802.147752
 20
1981.09
 30
0.0
 11
802.147752
 21
1987.09
 31
0.0
  0
LINE
  5
15A
102
{ACAD_REACTORS
330
52F
102
}
330
1F
100
AcDbEntity
  8
LC-002-002-----0
 62
     7
370
    50
100
AcDbLine
 10
782.147752
 20
2007.09
 30
0.0
 11
449.977752
 21
2007.09
 31
0.0
  0
LINE
  5
15C
102
{ACAD_REACTORS
330
52F
102
}
330
1F
100
AcDbEntity
  8
LC-006-100-D00-0
 62
    40
370
    -2
100
AcDbLine
 10
800.572956
 20
1565.29
 30
0.0
 11
800.572956
 21
1954.515204
 31
0.0
  0
LINE
  5
15D
102
{ACAD_REACTORS
330
52F
102
}
330
1F
100
AcDbEntity
  8
LC-002-002-----0
 62
     7
370
    50
100
AcDbLine
 10
829.572956
 20
1954.515204
 30
0.0
 11
829.572956
 21
1565.29
 31
0.0
  0
LINE
  5
15E
102
{ACAD_REACTORS
330
52F
102
}
330
1F
100
AcDbEntity
  8
LC-002-002-----0
 62
     7
370
    50
100
AcDbLine
 10
449.977752
 20
1545.29
 30
0.0
 11
802.147752
 21
1545.29
 31
0.0
  0
LINE
  5
15F
102
{ACAD_REACTORS
330
52F
102
}
330
1F
100
AcDbEntity
  8
LC-002-002-----0
 62
     7
370
    50
100
AcDbLine
 10
429.977752
 20
1987.09
 30
0.0
 11
429.977752
 21
1565.29
 31
0.0
  0
ARC
  5
160
102
{ACAD_REACTORS
330
52F
102
}
330
1F
100
AcDbEntity
  8
LC-002-002-----0
 62
     7
370
    50
100
AcDbCircle
 10
849.572956
 20
1565.29
 30
0.0
 40
20.0
100
AcDbArc
 50
180.0
 51
270.0
  0
ARC
  5
161
102
{ACAD_REACTORS
330
52F
102
}
330
1F
100
AcDbEntity
  8
LC-002-002-----0
 62
     7
370
    50
100
AcDbCircle
 10
1180.177752
 20
1565.29
 30
0.0
 40
20.0
100
AcDbArc
 50
270.0
 51
0.0
  0
ARC
  5
162
102
{ACAD_REACTORS
330
52F
102
}
330
1F
100
AcDbEntity
  8
LC-002-002-----0
 62
     7
370
    50
100
AcDbCircle
 10
1180.177752
 20
1936.09
 30
0.0
 40
20.0
100
AcDbArc
 50
0.0
 51
90.0
  0
ARC
  5
163
102
{ACAD_REACTORS
330
52F
102
}
330
1F
100
AcDbEntity
  8
LC-002-002-----0
 62
     7
370
    50
100
AcDbCircle
 10
827.147752
 20
1981.09
 30
0.0
 40
25.0
100
AcDbArc
 50
180.0
 51
270.0
  0
ARC
  5
164
102
{ACAD_REACTORS
330
52F
102
}
330
1F
100
AcDbEntity
  8
LC-002-002-----0
 62
     7
370
    50
100
AcDbCircle
 10
782.147752
 20
1987.09
 30
0.0
 40
20.0
100
AcDbArc
 50
0.0
 51
90.0
  0
ARC
  5
165
102
{ACAD_REACTORS
330
52F
102
}
330
1F
100
AcDbEntity
  8
LC-002-002-----0
 62
     7
370
    50
100
AcDbCircle
 10
780.572956
 20
1565.29
 30
0.0
 40
20.0
100
AcDbArc
 50
270.0
 51
0.0
  0
ARC
  5
166
102
{ACAD_REACTORS
330
52F
102
}
330
1F
100
AcDbEntity
  8
LC-002-002-----0
 62
     7
370
    50
100
AcDbCircle
 10
449.977752
 20
1565.29
 30
0.0
 40
20.0
100
AcDbArc
 50
180.0
 51
270.0
  0
ARC
  5
167
102
{ACAD_REACTORS
330
52F
102
}
330
1F
100
AcDbEntity
  8
LC-002-002-----0
 62
     7
370
    50
100
AcDbCircle
 10
449.977752
 20
1987.09
 30
0.0
 40
20.0
100
AcDbArc
 50
90.0
 51
180.0
  0
LINE
  5
168
102
{ACAD_REACTORS
330
52F
102
}
330
1F
100
AcDbEntity
  8
LC-002-002-----0
 62
     7
370
    50
100
AcDbLine
 10
800.572956
 20
1565.29
 30
0.0
 11
800.572956
 21
1954.515204
 31
0.0
  0
LINE
  5
169
102
{ACAD_REACTORS
330
52F
102
}
330
1F
100
AcDbEntity
  8
LC-002-002-----0
 62
     7
370
    50
100
AcDbLine
 10
1234.177752
 20
1536.69
 30
0.0
 11
1234.177752
 21
1981.19
 31
0.0
  0
ARC
  5
16A
102
{ACAD_REACTORS
330
52F
102
}
330
1F
100
AcDbEntity
  8
LC-002-002-----0
 62
     7
370
    50
100
AcDbCircle
 10
1208.777752
 20
1536.69
 30
0.0
 40
25.39999999999986
100
AcDbArc
 50
270.0
 51
0.0
  0
LINE
  5
16B
102
{ACAD_REACTORS
330
52F
102
}
330
1F
100
AcDbEntity
  8
LC-002-002-----0
 62
     7
370
    50
100
AcDbLine
 10
421.377752
 20
1511.29
 30
0.0
 11
1208.777752
 21
1511.29
 31
0.0
  0
ARC
  5
16C
102
{ACAD_REACTORS
330
52F
102
}
330
1F
100
AcDbEntity
  8
LC-002-002-----0
 62
     7
370
    50
100
AcDbCircle
 10
421.377752
 20
1536.69
 30
0.0
 40
25.39999999999998
100
AcDbArc
 50
180.0
 51
270.0
  0
LINE
  5
16D
102
{ACAD_REACTORS
330
52F
102
}
330
1F
100
AcDbEntity
  8
LC-002-002-----0
 62
     7
370
    50
100
AcDbLine
 10
395.977752
 20
2031.99
 30
0.0
 11
395.977752
 21
1536.69
 31
0.0
  0
LINE
  5
16E
102
{ACAD_REACTORS
330
534
102
}
330
1F
100
AcDbEntity
  8
LC-002-002-----0
 62
     7
370
    50
100
AcDbLine
 10
395.977752
 20
2641.24
 30
0.0
 11
409.977752
 21
2641.24
 31
0.0
  0
LINE
  5
16F
102
{ACAD_REACTORS
330
534
102
}
330
1F
100
AcDbEntity
  8
LC-002-002-----0
 62
     7
370
    50
100
AcDbLine
 10
1234.177752
 20
2641.24
 30
0.0
 11
1220.177752
 21
2641.24
 31
0.0
  0
LINE
  5
170
102
{ACAD_REACTORS
330
534
102
}
330
1F
100
AcDbEntity
  8
LC-002-002-----0
 62
     7
370
    50
100
AcDbLine
 10
409.977752
 20
2639.74
 30
0.0
 11
409.977752
 21
2641.24
 31
0.0
  0
LINE
  5
171
102
{ACAD_REACTORS
330
534
102
}
330
1F
100
AcDbEntity
  8
LC-002-002-----0
 62
     7
370
    50
100
AcDbLine
 10
1220.177752
 20
2639.74
 30
0.0
 11
1220.177752
 21
2641.24
 31
0.0
  0
ARC
  5
172
102
{ACAD_REACTORS
330
534
102
}
330
1F
100
AcDbEntity
  8
LC-004-002-RND-0
 62
     7
370
    50
100
AcDbCircle
 10
758.547299
 20
2437.727374
 30
0.0
 40
25.00000000000002
100
AcDbArc
 50
273.0
 51
355.0
  0
ARC
  5
173
102
{ACAD_REACTORS
330
534
102
}
330
1F
100
AcDbEntity
  8
LC-004-002-RND-0
 62
     7
370
    50
100
AcDbCircle
 10
758.459287
 20
2436.721389
 30
0.0
 40
33.00000000000006
100
AcDbArc
 50
273.0
 51
355.0
  0
LINE
  5
174
102
{ACAD_REACTORS
330
534
102
}
330
1F
100
AcDbEntity
  8
LC-005-006-MLN-0
 62
     7
370
    25
100
AcDbLine
 10
1013.970711
 20
2391.185131
 30
0.0
 11
1013.970711
 21
2411.306446
 31
0.0
  0
LINE
  5
175
102
{ACAD_REACTORS
330
534
102
}
330
1F
100
AcDbEntity
  8
LC-002-002-----0
 62
     7
370
    50
100
AcDbLine
 10
1059.970711
 20
2394.185131
 30
0.0
 11
1059.970711
 21
2404.224219
 31
0.0
  0
LINE
  5
176
102
{ACAD_REACTORS
330
534
102
}
330
1F
100
AcDbEntity
  8
LC-002-002-----0
 62
     7
370
    50
100
AcDbLine
 10
967.970711
 20
2404.261967
 30
0.0
 11
1059.970711
 21
2404.261967
 31
0.0
  0
LINE
  5
177
102
{ACAD_REACTORS
330
534
102
}
330
1F
100
AcDbEntity
  8
LC-002-002-----0
 62
     7
370
    50
100
AcDbLine
 10
967.970711
 20
2394.185131
 30
0.0
 11
967.970711
 21
2404.261967
 31
0.0
  0
LINE
  5
178
102
{ACAD_REACTORS
330
534
102
}
330
1F
100
AcDbEntity
  8
LC-005-006-MLN-0
 62
     7
370
    25
100
AcDbLine
 10
615.886999
 20
2391.185131
 30
0.0
 11
615.886999
 21
2411.306446
 31
0.0
  0
LINE
  5
179
102
{ACAD_REACTORS
330
534
102
}
330
1F
100
AcDbEntity
  8
LC-002-002-----0
 62
     7
370
    50
100
AcDbLine
 10
615.886999
 20
2649.24
 30
0.0
 11
1013.970711
 21
2649.24
 31
0.0
  0
LINE
  5
17A
102
{ACAD_REACTORS
330
534
102
}
330
1F
100
AcDbEntity
  8
LC-002-002-----0
 62
     7
370
    50
100
AcDbLine
 10
661.886999
 20
2394.185131
 30
0.0
 11
661.886999
 21
2404.209458
 31
0.0
  0
LINE
  5
17B
102
{ACAD_REACTORS
330
534
102
}
330
1F
100
AcDbEntity
  8
LC-002-002-----0
 62
     7
370
    50
100
AcDbLine
 10
569.886999
 20
2404.276728
 30
0.0
 11
661.886999
 21
2404.276728
 31
0.0
  0
LINE
  5
17C
102
{ACAD_REACTORS
330
534
102
}
330
1F
100
AcDbEntity
  8
LC-002-002-----0
 62
     7
370
    50
100
AcDbLine
 10
569.886999
 20
2394.185131
 30
0.0
 11
569.886999
 21
2404.276728
 31
0.0
  0
LINE
  5
17D
102
{ACAD_REACTORS
330
534
102
}
330
1F
100
AcDbEntity
  8
LC-002-002-----0
 62
     7
370
    50
100
AcDbLine
 10
570.077752
 20
2394.185131
 30
0.0
 11
662.077752
 21
2394.185131
 31
0.0
  0
LINE
  5
17E
102
{ACAD_REACTORS
330
534
102
}
330
1F
100
AcDbEntity
  8
LC-002-002-----0
 62
     7
370
    50
100
AcDbLine
 10
1060.077752
 20
2394.185131
 30
0.0
 11
968.077752
 21
2394.185131
 31
0.0
  0
LINE
  5
17F
102
{ACAD_REACTORS
330
534
102
}
330
1F
100
AcDbEntity
  8
LC-002-002-----0
 62
     7
370
    25
100
AcDbLine
 10
1071.090298
 20
2408.306446
 30
0.0
 11
956.851123
 21
2408.306446
 31
0.0
  0
LINE
  5
180
102
{ACAD_REACTORS
330
534
102
}
330
1F
100
AcDbEntity
  8
LC-002-002-----0
 62
     7
370
    25
100
AcDbLine
 10
673.265395
 20
2408.306446
 30
0.0
 11
558.508604
 21
2408.306446
 31
0.0
  0
LINE
  5
181
102
{ACAD_REACTORS
330
534
102
}
330
1F
100
AcDbEntity
  8
LC-002-002-----0
 62
     7
370
    50
100
AcDbLine
 10
1205.159408
 20
2649.24
 30
0.0
 11
1013.970711
 21
2649.24
 31
0.0
  0
LINE
  5
182
102
{ACAD_REACTORS
330
534
102
}
330
1F
100
AcDbEntity
  8
LC-002-002-----0
 62
     7
370
    50
100
AcDbLine
 10
430.37707
 20
2644.675779
 30
0.0
 11
448.673199
 21
2435.55006
 31
0.0
  0
ARC
  5
183
102
{ACAD_REACTORS
330
534
102
}
330
1F
100
AcDbEntity
  8
LC-002-002-----0
 62
     7
370
    50
100
AcDbCircle
 10
473.578067
 20
2437.728953
 30
0.0
 40
25.00000000000004
100
AcDbArc
 50
185.00077
 51
266.998293
  0
LINE
  5
184
102
{ACAD_REACTORS
330
534
102
}
330
1F
100
AcDbEntity
  8
LC-002-002-----0
 62
     7
370
    50
100
AcDbLine
 10
472.269668
 20
2412.763215
 30
0.0
 11
557.536037
 21
2408.294594
 31
0.0
  0
ARC
  5
185
102
{ACAD_REACTORS
330
534
102
}
330
1F
100
AcDbEntity
  8
LC-002-002-----0
 62
     7
370
    50
100
AcDbCircle
 10
557.473234
 20
2407.096238
 30
0.0
 40
1.199999999999933
100
AcDbArc
 50
5.0
 51
87.0
  0
LINE
  5
186
102
{ACAD_REACTORS
330
534
102
}
330
1F
100
AcDbEntity
  8
LC-002-002-----0
 62
     7
370
    50
100
AcDbLine
 10
558.668668
 20
2407.200825
 30
0.0
 11
558.685852
 21
2407.004407
 31
0.0
  0
ARC
  5
187
102
{ACAD_REACTORS
330
534
102
}
330
1F
100
AcDbEntity
  8
LC-002-002-----0
 62
     7
370
    50
100
AcDbCircle
 10
559.682047
 20
2407.091563
 30
0.0
 40
0.9999999999999896
100
AcDbArc
 50
185.0
 51
260.0
  0
LINE
  5
188
102
{ACAD_REACTORS
330
534
102
}
330
1F
100
AcDbEntity
  8
LC-002-002-----0
 62
     7
370
    50
100
AcDbLine
 10
559.508399
 20
2406.106755
 30
0.0
 11
569.886999
 21
2404.276728
 31
0.0
  0
LINE
  5
189
102
{ACAD_REACTORS
330
534
102
}
330
1F
100
AcDbEntity
  8
LC-002-002-----0
 62
     7
370
    50
100
AcDbLine
 10
672.647105
 20
2406.106755
 30
0.0
 11
661.886999
 21
2404.209458
 31
0.0
  0
ARC
  5
18A
102
{ACAD_REACTORS
330
534
102
}
330
1F
100
AcDbEntity
  8
LC-002-002-----0
 62
     7
370
    50
100
AcDbCircle
 10
672.473457
 20
2407.091563
 30
0.0
 40
0.9999999999999827
100
AcDbArc
 50
280.0
 51
355.0
  0
LINE
  5
18B
102
{ACAD_REACTORS
330
534
102
}
330
1F
100
AcDbEntity
  8
LC-002-002-----0
 62
     7
370
    50
100
AcDbLine
 10
673.486836
 20
2407.200825
 30
0.0
 11
673.469652
 21
2407.004407
 31
0.0
  0
ARC
  5
18C
102
{ACAD_REACTORS
330
534
102
}
330
1F
100
AcDbEntity
  8
LC-002-002-----0
 62
     7
370
    50
100
AcDbCircle
 10
674.68227
 20
2407.096238
 30
0.0
 40
1.199999999999712
100
AcDbArc
 50
93.0
 51
175.0
  0
LINE
  5
18D
102
{ACAD_REACTORS
330
534
102
}
330
1F
100
AcDbEntity
  8
LC-002-002-----0
 62
     7
370
    50
100
AcDbLine
 10
759.855698
 20
2412.761635
 30
0.0
 11
674.619466
 21
2408.294594
 31
0.0
  0
LINE
  5
18E
102
{ACAD_REACTORS
330
534
102
}
330
1F
100
AcDbEntity
  8
LC-002-002-----0
 62
     7
370
    50
100
AcDbLine
 10
760.186373
 20
2403.766614
 30
0.0
 11
685.226019
 21
2399.838109
 31
0.0
  0
ARC
  5
18F
102
{ACAD_REACTORS
330
534
102
}
330
1F
100
AcDbEntity
  8
LC-002-002-----0
 62
     7
370
    50
100
AcDbCircle
 10
685.540035
 20
2393.846331
 30
0.0
 40
5.999999999999963
100
AcDbArc
 50
93.0
 51
155.0
  0
LINE
  5
190
102
{ACAD_REACTORS
330
534
102
}
330
1F
100
AcDbEntity
  8
LC-002-002-----0
 62
     7
370
    50
100
AcDbLine
 10
680.102188
 20
2396.382041
 30
0.0
 11
679.616227
 21
2395.339894
 31
0.0
  0
ARC
  5
191
102
{ACAD_REACTORS
330
534
102
}
330
1F
100
AcDbEntity
  8
LC-002-002-----0
 62
     7
370
    50
100
AcDbCircle
 10
677.803611
 20
2396.185131
 30
0.0
 40
2.0
100
AcDbArc
 50
270.0
 51
335.0
  0
LINE
  5
192
102
{ACAD_REACTORS
330
534
102
}
330
1F
100
AcDbEntity
  8
LC-002-002-----0
 62
     7
370
    50
100
AcDbLine
 10
554.351892
 20
2394.185131
 30
0.0
 11
677.803611
 21
2394.185131
 31
0.0
  0
ARC
  5
193
102
{ACAD_REACTORS
330
534
102
}
330
1F
100
AcDbEntity
  8
LC-002-002-----0
 62
     7
370
    50
100
AcDbCircle
 10
554.351892
 20
2396.185131
 30
0.0
 40
2.000000000000321
100
AcDbArc
 50
205.0
 51
270.0
  0
LINE
  5
194
102
{ACAD_REACTORS
330
534
102
}
330
1F
100
AcDbEntity
  8
LC-002-002-----0
 62
     7
370
    50
100
AcDbLine
 10
552.053316
 20
2396.382041
 30
0.0
 11
552.539277
 21
2395.339894
 31
0.0
  0
ARC
  5
195
102
{ACAD_REACTORS
330
534
102
}
330
1F
100
AcDbEntity
  8
LC-002-002-----0
 62
     7
370
    50
100
AcDbCircle
 10
546.615469
 20
2393.846331
 30
0.0
 40
5.999999999999981
100
AcDbArc
 50
25.0
 51
87.0
  0
LINE
  5
196
102
{ACAD_REACTORS
330
534
102
}
330
1F
100
AcDbEntity
  8
LC-002-002-----0
 62
     7
370
    50
100
AcDbLine
 10
471.938992
 20
2403.768194
 30
0.0
 11
546.929485
 21
2399.838109
 31
0.0
  0
ARC
  5
197
102
{ACAD_REACTORS
330
534
102
}
330
1F
100
AcDbEntity
  8
LC-002-002-----0
 62
     7
370
    50
100
AcDbCircle
 10
473.666079
 20
2436.722968
 30
0.0
 40
33.00000000000001
100
AcDbArc
 50
185.000542
 51
266.998549
  0
LINE
  5
198
102
{ACAD_REACTORS
330
534
102
}
330
1F
100
AcDbEntity
  8
LC-002-002-----0
 62
     7
370
    50
100
AcDbLine
 10
423.177653
 20
2635.175779
 30
0.0
 11
440.791654
 21
2433.846829
 31
0.0
  0
ARC
  5
199
102
{ACAD_REACTORS
330
534
102
}
330
1F
100
AcDbEntity
  8
LC-002-002-----0
 62
     7
370
    50
100
AcDbCircle
 10
418.19668
 20
2634.74
 30
0.0
 40
5.000000000000034
100
AcDbArc
 50
5.0
 51
90.0
  0
LINE
  5
19A
102
{ACAD_REACTORS
330
534
102
}
330
1F
100
AcDbEntity
  8
LC-002-002-----0
 62
     7
370
    50
100
AcDbLine
 10
409.977752
 20
2639.74
 30
0.0
 11
418.19668
 21
2639.74
 31
0.0
  0
LINE
  5
19B
102
{ACAD_REACTORS
330
534
102
}
330
1F
100
AcDbEntity
  8
LC-002-002-----0
 62
     7
370
    50
100
AcDbLine
 10
395.977752
 20
2641.24
 30
0.0
 11
396.276971
 21
2645.519026
 31
0.0
  0
ARC
  5
19C
102
{ACAD_REACTORS
330
534
102
}
330
1F
100
AcDbEntity
  8
LC-002-002-----0
 62
     7
370
    50
100
AcDbCircle
 10
400.267227
 20
2645.24
 30
0.0
 40
4.0
100
AcDbArc
 50
90.0
 51
176.0
  0
LINE
  5
19D
102
{ACAD_REACTORS
330
534
102
}
330
1F
100
AcDbEntity
  8
LC-002-002-----0
 62
     7
370
    50
100
AcDbLine
 10
400.267227
 20
2649.24
 30
0.0
 11
425.396096
 21
2649.24
 31
0.0
  0
ARC
  5
19E
102
{ACAD_REACTORS
330
534
102
}
330
1F
100
AcDbEntity
  8
LC-002-002-----0
 62
     7
370
    50
100
AcDbCircle
 10
425.396096
 20
2644.24
 30
0.0
 40
5.000000000000034
100
AcDbArc
 50
5.0
 51
90.0
  0
LINE
  5
19F
102
{ACAD_REACTORS
330
534
102
}
330
1F
100
AcDbEntity
  8
LC-002-002-----0
 62
     7
370
    50
100
AcDbLine
 10
800.173638
 20
2626.675779
 30
0.0
 11
783.452166
 21
2435.54848
 31
0.0
  0
ARC
  5
1A0
102
{ACAD_REACTORS
330
534
102
}
330
1F
100
AcDbEntity
  8
LC-002-002-----0
 62
     7
370
    50
100
AcDbCircle
 10
805.154612
 20
2626.24
 30
0.0
 40
5.0
100
AcDbArc
 50
90.0
 51
175.0
  0
LINE
  5
1A1
102
{ACAD_REACTORS
330
534
102
}
330
1F
100
AcDbEntity
  8
LC-002-002-----0
 62
     7
370
    50
100
AcDbLine
 10
805.154612
 20
2631.24
 30
0.0
 11
824.9913
 21
2631.24
 31
0.0
  0
ARC
  5
1A2
102
{ACAD_REACTORS
330
534
102
}
330
1F
100
AcDbEntity
  8
LC-002-002-----0
 62
     7
370
    50
100
AcDbCircle
 10
824.9913
 20
2626.24
 30
0.0
 40
4.99999999999992
100
AcDbArc
 50
5.0
 51
90.0
  0
LINE
  5
1A3
102
{ACAD_REACTORS
330
534
102
}
330
1F
100
AcDbEntity
  8
LC-002-002-----0
 62
     7
370
    50
100
AcDbLine
 10
829.972274
 20
2626.675779
 30
0.0
 11
846.693701
 21
2435.548985
 31
0.0
  0
ARC
  5
1A4
102
{ACAD_REACTORS
330
534
102
}
330
1F
100
AcDbEntity
  8
LC-002-002-----0
 62
     7
370
    50
100
AcDbCircle
 10
871.598569
 20
2437.727879
 30
0.0
 40
24.99999999999987
100
AcDbArc
 50
185.000766
 51
266.998289
  0
LINE
  5
1A5
102
{ACAD_REACTORS
330
534
102
}
330
1F
100
AcDbEntity
  8
LC-002-002-----0
 62
     7
370
    50
100
AcDbLine
 10
870.29017
 20
2412.76214
 30
0.0
 11
955.536037
 21
2408.294594
 31
0.0
  0
ARC
  5
1A6
102
{ACAD_REACTORS
330
534
102
}
330
1F
100
AcDbEntity
  8
LC-002-002-----0
 62
     7
370
    50
100
AcDbCircle
 10
955.473234
 20
2407.096238
 30
0.0
 40
1.199999999999819
100
AcDbArc
 50
5.0
 51
87.0
  0
LINE
  5
1A7
102
{ACAD_REACTORS
330
534
102
}
330
1F
100
AcDbEntity
  8
LC-002-002-----0
 62
     7
370
    50
100
AcDbLine
 10
956.668668
 20
2407.200825
 30
0.0
 11
956.685852
 21
2407.004407
 31
0.0
  0
ARC
  5
1A8
102
{ACAD_REACTORS
330
534
102
}
330
1F
100
AcDbEntity
  8
LC-002-002-----0
 62
     7
370
    50
100
AcDbCircle
 10
957.682047
 20
2407.091563
 30
0.0
 40
1.000000000000103
100
AcDbArc
 50
185.0
 51
260.0
  0
LINE
  5
1A9
102
{ACAD_REACTORS
330
534
102
}
330
1F
100
AcDbEntity
  8
LC-002-002-----0
 62
     7
370
    50
100
AcDbLine
 10
957.508399
 20
2406.106755
 30
0.0
 11
967.970711
 21
2404.261967
 31
0.0
  0
LINE
  5
1AA
102
{ACAD_REACTORS
330
534
102
}
330
1F
100
AcDbEntity
  8
LC-002-002-----0
 62
     7
370
    50
100
AcDbLine
 10
1070.647105
 20
2406.106755
 30
0.0
 11
1059.970711
 21
2404.224219
 31
0.0
  0
ARC
  5
1AB
102
{ACAD_REACTORS
330
534
102
}
330
1F
100
AcDbEntity
  8
LC-002-002-----0
 62
     7
370
    50
100
AcDbCircle
 10
1070.473457
 20
2407.091563
 30
0.0
 40
0.9999999999999629
100
AcDbArc
 50
280.0
 51
355.0
  0
LINE
  5
1AC
102
{ACAD_REACTORS
330
534
102
}
330
1F
100
AcDbEntity
  8
LC-002-002-----0
 62
     7
370
    50
100
AcDbLine
 10
1071.486836
 20
2407.200825
 30
0.0
 11
1071.469652
 21
2407.004407
 31
0.0
  0
ARC
  5
1AD
102
{ACAD_REACTORS
330
534
102
}
330
1F
100
AcDbEntity
  8
LC-002-002-----0
 62
     7
370
    50
100
AcDbCircle
 10
1072.68227
 20
2407.096238
 30
0.0
 40
1.199999999999598
100
AcDbArc
 50
93.0
 51
175.0
  0
LINE
  5
1AE
102
{ACAD_REACTORS
330
534
102
}
330
1F
100
AcDbEntity
  8
LC-002-002-----0
 62
     7
370
    50
100
AcDbLine
 10
1157.885836
 20
2412.763215
 30
0.0
 11
1072.619466
 21
2408.294594
 31
0.0
  0
ARC
  5
1AF
102
{ACAD_REACTORS
330
534
102
}
330
1F
100
AcDbEntity
  8
LC-002-002-----0
 62
     7
370
    50
100
AcDbCircle
 10
1156.577437
 20
2437.728953
 30
0.0
 40
24.99999999999985
100
AcDbArc
 50
273.001117
 51
354.999166
  0
LINE
  5
1B0
102
{ACAD_REACTORS
330
534
102
}
330
1F
100
AcDbEntity
  8
LC-002-002-----0
 62
     7
370
    50
100
AcDbLine
 10
1199.778434
 20
2644.675779
 30
0.0
 11
1181.482305
 21
2435.55006
 31
0.0
  0
ARC
  5
1B1
102
{ACAD_REACTORS
330
534
102
}
330
1F
100
AcDbEntity
  8
LC-002-002-----0
 62
     7
370
    50
100
AcDbCircle
 10
1204.759408
 20
2644.24
 30
0.0
 40
5.0
100
AcDbArc
 50
90.0
 51
175.0
  0
LINE
  5
1B2
102
{ACAD_REACTORS
330
534
102
}
330
1F
100
AcDbEntity
  8
LC-002-002-----0
 62
     7
370
    50
100
AcDbLine
 10
1229.888277
 20
2649.24
 30
0.0
 11
1204.759408
 21
2649.24
 31
0.0
  0
ARC
  5
1B3
102
{ACAD_REACTORS
330
534
102
}
330
1F
100
AcDbEntity
  8
LC-002-002-----0
 62
     7
370
    50
100
AcDbCircle
 10
1229.888277
 20
2645.24
 30
0.0
 40
4.000000000000019
100
AcDbArc
 50
4.0
 51
90.0
  0
LINE
  5
1B4
102
{ACAD_REACTORS
330
534
102
}
330
1F
100
AcDbEntity
  8
LC-002-002-----0
 62
     7
370
    50
100
AcDbLine
 10
1234.177752
 20
2641.24
 30
0.0
 11
1233.878533
 21
2645.519026
 31
0.0
  0
LINE
  5
1B5
102
{ACAD_REACTORS
330
534
102
}
330
1F
100
AcDbEntity
  8
LC-002-002-----0
 62
     7
370
    50
100
AcDbLine
 10
1220.177752
 20
2639.74
 30
0.0
 11
1211.958824
 21
2639.74
 31
0.0
  0
ARC
  5
1B6
102
{ACAD_REACTORS
330
534
102
}
330
1F
100
AcDbEntity
  8
LC-002-002-----0
 62
     7
370
    50
100
AcDbCircle
 10
1211.958824
 20
2634.74
 30
0.0
 40
5.0
100
AcDbArc
 50
90.0
 51
175.0
  0
LINE
  5
1B7
102
{ACAD_REACTORS
330
534
102
}
330
1F
100
AcDbEntity
  8
LC-002-002-----0
 62
     7
370
    50
100
AcDbLine
 10
1206.977851
 20
2635.175779
 30
0.0
 11
1189.36385
 21
2433.846829
 31
0.0
  0
ARC
  5
1B8
102
{ACAD_REACTORS
330
534
102
}
330
1F
100
AcDbEntity
  8
LC-002-002-----0
 62
     7
370
    50
100
AcDbCircle
 10
1156.489425
 20
2436.722968
 30
0.0
 40
33.00000000000034
100
AcDbArc
 50
273.00077
 51
354.999478
  0
LINE
  5
1B9
102
{ACAD_REACTORS
330
534
102
}
330
1F
100
AcDbEntity
  8
LC-002-002-----0
 62
     7
370
    50
100
AcDbLine
 10
1158.216511
 20
2403.768194
 30
0.0
 11
1083.226019
 21
2399.838109
 31
0.0
  0
ARC
  5
1BA
102
{ACAD_REACTORS
330
534
102
}
330
1F
100
AcDbEntity
  8
LC-002-002-----0
 62
     7
370
    50
100
AcDbCircle
 10
1083.540035
 20
2393.846331
 30
0.0
 40
5.99999999999979
100
AcDbArc
 50
93.0
 51
155.0
  0
LINE
  5
1BB
102
{ACAD_REACTORS
330
534
102
}
330
1F
100
AcDbEntity
  8
LC-002-002-----0
 62
     7
370
    50
100
AcDbLine
 10
1078.102188
 20
2396.382041
 30
0.0
 11
1077.616227
 21
2395.339894
 31
0.0
  0
ARC
  5
1BC
102
{ACAD_REACTORS
330
534
102
}
330
1F
100
AcDbEntity
  8
LC-002-002-----0
 62
     7
370
    50
100
AcDbCircle
 10
1075.803611
 20
2396.185131
 30
0.0
 40
2.0
100
AcDbArc
 50
270.0
 51
335.0
  0
LINE
  5
1BD
102
{ACAD_REACTORS
330
534
102
}
330
1F
100
AcDbEntity
  8
LC-002-002-----0
 62
     7
370
    50
100
AcDbLine
 10
952.351892
 20
2394.185131
 30
0.0
 11
1075.803611
 21
2394.185131
 31
0.0
  0
ARC
  5
1BE
102
{ACAD_REACTORS
330
534
102
}
330
1F
100
AcDbEntity
  8
LC-002-002-----0
 62
     7
370
    50
100
AcDbCircle
 10
952.351892
 20
2396.185131
 30
0.0
 40
2.000000000000308
100
AcDbArc
 50
205.0
 51
270.0
  0
LINE
  5
1BF
102
{ACAD_REACTORS
330
534
102
}
330
1F
100
AcDbEntity
  8
LC-002-002-----0
 62
     7
370
    50
100
AcDbLine
 10
950.053316
 20
2396.382041
 30
0.0
 11
950.539277
 21
2395.339894
 31
0.0
  0
ARC
  5
1C0
102
{ACAD_REACTORS
330
534
102
}
330
1F
100
AcDbEntity
  8
LC-002-002-----0
 62
     7
370
    50
100
AcDbCircle
 10
944.615469
 20
2393.846331
 30
0.0
 40
5.999999999999844
100
AcDbArc
 50
25.0
 51
87.0
  0
LINE
  5
1C1
102
{ACAD_REACTORS
330
534
102
}
330
1F
100
AcDbEntity
  8
LC-002-002-----0
 62
     7
370
    50
100
AcDbLine
 10
869.959494
 20
2403.767119
 30
0.0
 11
944.929485
 21
2399.838109
 31
0.0
  0
ARC
  5
1C2
102
{ACAD_REACTORS
330
534
102
}
330
1F
100
AcDbEntity
  8
LC-002-002-----0
 62
     7
370
    50
100
AcDbCircle
 10
871.686581
 20
2436.721894
 30
0.0
 40
32.99999999999989
100
AcDbArc
 50
185.000539
 51
266.998544
  0
LINE
  5
1C3
102
{ACAD_REACTORS
330
534
102
}
330
1F
100
AcDbEntity
  8
LC-002-002-----0
 62
     7
370
    50
100
AcDbLine
 10
822.641624
 20
2618.675779
 30
0.0
 11
838.812156
 21
2433.845754
 31
0.0
  0
ARC
  5
1C4
102
{ACAD_REACTORS
330
534
102
}
330
1F
100
AcDbEntity
  8
LC-002-002-----0
 62
     7
370
    50
100
AcDbCircle
 10
817.660651
 20
2618.24
 30
0.0
 40
4.99999999999992
100
AcDbArc
 50
5.0
 51
90.0
  0
LINE
  5
1C5
102
{ACAD_REACTORS
330
534
102
}
330
1F
100
AcDbEntity
  8
LC-002-002-----0
 62
     7
370
    50
100
AcDbLine
 10
812.485261
 20
2623.24
 30
0.0
 11
817.660651
 21
2623.24
 31
0.0
  0
ARC
  5
1C6
102
{ACAD_REACTORS
330
534
102
}
330
1F
100
AcDbEntity
  8
LC-002-002-----0
 62
     7
370
    50
100
AcDbCircle
 10
812.485261
 20
2618.24
 30
0.0
 40
5.0
100
AcDbArc
 50
90.0
 51
175.0
  0
LINE
  5
1C7
102
{ACAD_REACTORS
330
534
102
}
330
1F
100
AcDbEntity
  8
LC-002-002-----0
 62
     7
370
    50
100
AcDbLine
 10
807.504288
 20
2618.675779
 30
0.0
 11
791.333712
 21
2433.845249
 31
0.0
  0
LINE
  5
1C8
102
{ACAD_REACTORS
330
534
102
}
330
1F
100
AcDbEntity
  8
LC-002-002-----0
 62
     7
370
    50
100
AcDbLine
 10
615.886999
 20
2649.24
 30
0.0
 11
424.996096
 21
2649.24
 31
0.0
  0
LINE
  5
1C9
102
{ACAD_REACTORS
330
535
102
}
330
1F
100
AcDbEntity
  8
LC-006-100-D00-0
 62
     7
370
    25
100
AcDbLine
 10
1856.912209
 20
1935.227995
 30
0.0
 11
1856.91221
 21
1936.091457
 31
0.0
  0
ARC
  5
1CA
102
{ACAD_REACTORS
330
535
102
}
330
1F
100
AcDbEntity
  8
LC-002-002-----0
 62
     7
370
    25
100
AcDbCircle
 10
1851.91221
 20
1960.671657
 30
0.0
 40
5.000000000000026
100
AcDbArc
 50
274.999999
 51
359.999991
  0
INSERT
  5
1D1
102
{ACAD_REACTORS
330
535
102
}
330
1F
100
AcDbEntity
  8
LC-006-100-D00-0
 62
     7
370
    25
100
AcDbBlockReference
  2
KLON1
 10
0.0
 20
0.0
 30
0.0
  0
LINE
  5
1D2
102
{ACAD_REACTORS
330
528
102
}
330
1F
100
AcDbEntity
  8
LC-002-002-----0
 62
     7
370
    50
100
AcDbLine
 10
1848.91221
 20
1511.29
 30
0.0
 11
1848.91221
 21
1525.29
 31
0.0
  0
LINE
  5
1D3
102
{ACAD_REACTORS
330
528
102
}
330
1F
100
AcDbEntity
  8
LC-002-002-----0
 62
     7
370
    50
100
AcDbLine
 10
1848.91221
 20
1525.29
 30
0.0
 11
1847.41221
 21
1525.29
 31
0.0
  0
LINE
  5
1D4
102
{ACAD_REACTORS
330
528
102
}
330
1F
100
AcDbEntity
  8
LC-002-002-----0
 62
     7
370
    50
100
AcDbLine
 10
1856.91221
 20
1960.671656
 30
0.0
 11
1856.91221
 21
1540.708344
 31
0.0
  0
LINE
  5
1D5
102
{ACAD_REACTORS
330
528
102
}
330
1F
100
AcDbEntity
  8
LC-002-002-----0
 62
     7
370
    25
100
AcDbLine
 10
1607.603108
 20
1793.69
 30
0.0
 11
1601.857341
 21
1793.69
 31
0.0
  0
LINE
  5
1D6
102
{ACAD_REACTORS
330
528
102
}
330
1F
100
AcDbEntity
  8
LC-002-002-----0
 62
     7
370
    50
100
AcDbLine
 10
1852.347988
 20
1545.689318
 30
0.0
 11
1651.609284
 21
1563.251679
 31
0.0
  0
ARC
  5
1D7
102
{ACAD_REACTORS
330
528
102
}
330
1F
100
AcDbEntity
  8
LC-002-002-----0
 62
     7
370
    25
100
AcDbCircle
 10
1641.731515
 20
1912.168633
 30
0.0
 40
24.99999999999986
100
AcDbArc
 50
95.0
 51
153.476123
  0
LINE
  5
1D8
102
{ACAD_REACTORS
330
528
102
}
330
1F
100
AcDbEntity
  8
LC-002-002-----0
 62
     7
370
    25
100
AcDbLine
 10
1852.347988
 20
1955.690682
 30
0.0
 11
1639.552622
 21
1937.0735
 31
0.0
  0
LINE
  5
1D9
102
{ACAD_REACTORS
330
528
102
}
330
1F
100
AcDbEntity
  8
LC-002-002-----0
 62
     7
370
    50
100
AcDbLine
 10
1856.91221
 20
1960.671656
 30
0.0
 11
1856.91221
 21
2031.99
 31
0.0
  0
LINE
  5
1DA
102
{ACAD_REACTORS
330
528
102
}
330
1F
100
AcDbEntity
  8
LC-002-002-----0
 62
     7
370
    25
100
AcDbLine
 10
1847.41221
 20
1967.871072
 30
0.0
 11
1847.41221
 21
1981.19
 31
0.0
  0
ARC
  5
1DB
102
{ACAD_REACTORS
330
528
102
}
330
1F
100
AcDbEntity
  8
LC-002-002-----0
 62
     7
370
    25
100
AcDbCircle
 10
1842.41221
 20
1967.871072
 30
0.0
 40
5.000000000000107
100
AcDbArc
 50
275.0
 51
0.0
  0
LINE
  5
1DC
102
{ACAD_REACTORS
330
528
102
}
330
1F
100
AcDbEntity
  8
LC-002-002-----0
 62
     7
370
    25
100
AcDbLine
 10
1842.847988
 20
1962.890099
 30
0.0
 11
1637.849391
 21
1944.955045
 31
0.0
  0
ARC
  5
1DD
102
{ACAD_REACTORS
330
528
102
}
330
1F
100
AcDbEntity
  8
LC-002-002-----0
 62
     7
370
    25
100
AcDbCircle
 10
1640.725531
 20
1912.08062
 30
0.0
 40
32.99999999999994
100
AcDbArc
 50
95.0
 51
131.986717
  0
ARC
  5
1DE
102
{ACAD_REACTORS
330
528
102
}
330
1F
100
AcDbEntity
  8
LC-002-002-----0
 62
     7
370
    25
100
AcDbCircle
 10
1603.857341
 20
1777.964141
 30
0.0
 40
2.0
100
AcDbArc
 50
180.0
 51
245.0
  0
LINE
  5
1DF
102
{ACAD_REACTORS
330
528
102
}
330
1F
100
AcDbEntity
  8
LC-002-002-----0
 62
     7
370
    25
100
AcDbLine
 10
1603.012104
 20
1776.151525
 30
0.0
 11
1604.054251
 21
1775.665564
 31
0.0
  0
ARC
  5
1E0
102
{ACAD_REACTORS
330
528
102
}
330
1F
100
AcDbEntity
  8
LC-002-002-----0
 62
     7
370
    25
100
AcDbCircle
 10
1601.518541
 20
1770.227717
 30
0.0
 40
5.999999999999862
100
AcDbArc
 50
3.0
 51
65.0
  0
LINE
  5
1E1
102
{ACAD_REACTORS
330
528
102
}
330
1F
100
AcDbEntity
  8
LC-002-002-----0
 62
     7
370
    50
100
AcDbLine
 10
1842.847988
 20
1538.489901
 30
0.0
 11
1649.906054
 21
1555.370133
 31
0.0
  0
ARC
  5
1E2
102
{ACAD_REACTORS
330
528
102
}
330
1F
100
AcDbEntity
  8
LC-002-002-----0
 62
     7
370
    50
100
AcDbCircle
 10
1842.41221
 20
1533.508928
 30
0.0
 40
5.0
100
AcDbArc
 50
0.0
 51
85.0
  0
LINE
  5
1E3
102
{ACAD_REACTORS
330
528
102
}
330
1F
100
AcDbEntity
  8
LC-002-002-----0
 62
     7
370
    50
100
AcDbLine
 10
1847.41221
 20
1525.29
 30
0.0
 11
1847.41221
 21
1533.508928
 31
0.0
  0
LINE
  5
1E4
102
{ACAD_REACTORS
330
528
102
}
330
1F
100
AcDbEntity
  8
LC-002-002-----0
 62
     7
370
    50
100
AcDbLine
 10
1848.91221
 20
1511.29
 30
0.0
 11
1853.191236
 21
1511.589219
 31
0.0
  0
ARC
  5
1E5
102
{ACAD_REACTORS
330
528
102
}
330
1F
100
AcDbEntity
  8
LC-002-002-----0
 62
     7
370
    50
100
AcDbCircle
 10
1852.91221
 20
1515.579475
 30
0.0
 40
3.999999999999987
100
AcDbArc
 50
274.0
 51
0.0
  0
LINE
  5
1E6
102
{ACAD_REACTORS
330
528
102
}
330
1F
100
AcDbEntity
  8
LC-002-002-----0
 62
     7
370
    50
100
AcDbLine
 10
1856.91221
 20
1515.579475
 30
0.0
 11
1856.91221
 21
1540.708344
 31
0.0
  0
ARC
  5
1E7
102
{ACAD_REACTORS
330
528
102
}
330
1F
100
AcDbEntity
  8
LC-002-002-----0
 62
     7
370
    50
100
AcDbCircle
 10
1851.91221
 20
1540.708344
 30
0.0
 40
5.0
100
AcDbArc
 50
0.0
 51
85.0
  0
DIMENSION
  5
1EA
102
{ACAD_REACTORS
330
534
102
}
330
1F
100
AcDbEntity
  8
LC-007-003-----0
 62
     7
370
    25
100
AcDbDimension
  2
*D3
 10
800.173638
 20
2700.0
 30
0.0
 11
609.88359
 21
2730.0
 31
0.0
 70
   160
 71
     5
 42
369.796569
  3
LC-DIM-L-0025-00-02
100
AcDbAlignedDimension
 13
430.37707
 23
2644.675779
 33
0.0
 14
800.173638
 24
2626.675779
 34
0.0
100
AcDbRotatedDimension
  0
DIMENSION
  5
1F8
102
{ACAD_REACTORS
330
534
102
}
330
1F
100
AcDbEntity
  8
LC-007-003-----0
 62
     7
370
    25
100
AcDbDimension
  2
*D4
 10
1199.778434
 20
2700.0
 30
0.0
 11
999.960548
 21
2730.0
 31
0.0
 70
   160
 71
     5
 42
369.806161
  3
LC-DIM-L-0025-00-02
100
AcDbAlignedDimension
 13
829.972274
 23
2626.675779
 33
0.0
 14
1199.778434
 24
2644.675779
 34
0.0
100
AcDbRotatedDimension
  0
DIMENSION
  5
205
102
{ACAD_REACTORS
330
534
102
}
330
1F
100
AcDbEntity
  8
LC-007-003-----0
 62
     7
370
    25
100
AcDbDimension
  2
*D5
 10
1050.0
 20
2649.24
 30
0.0
 11
1020.0
 21
2534.99493
 31
0.0
 70
   160
 71
     5
 42
240.933554
 53
90.0
  3
LC-DIM-L-0025-00-02
100
AcDbAlignedDimension
 13
1013.970711
 23
2408.306446
 33
0.0
 14
1013.970711
 24
2649.24
 34
0.0
 50
90.0
100
AcDbRotatedDimension
  0
LINE
  5
212
102
{ACAD_REACTORS
330
52A
102
}
330
1F
100
AcDbEntity
  8
LC-002-002-----0
 62
     7
370
    50
100
AcDbLine
 10
422.077752
 20
2687.24
 30
0.0
 11
351.839411
 21
2687.24
 31
0.0
  0
LINE
  5
213
102
{ACAD_REACTORS
330
52A
102
}
330
1F
100
AcDbEntity
  8
LC-002-002-----0
 62
     7
370
    25
100
AcDbLine
 10
351.839411
 20
2687.24
 30
0.0
 11
347.326433
 21
2666.630234
 31
0.0
  0
LINE
  5
214
102
{ACAD_REACTORS
330
52A
102
}
330
1F
100
AcDbEntity
  8
LC-002-002-----0
 62
     7
370
    25
100
AcDbLine
 10
347.326433
 20
2666.630234
 30
0.0
 11
351.839411
 21
2649.24
 31
0.0
  0
LINE
  5
215
102
{ACAD_REACTORS
330
52A
102
}
330
1F
100
AcDbEntity
  8
LC-002-002-----0
 62
     7
370
    50
100
AcDbLine
 10
422.077752
 20
2649.24
 30
0.0
 11
351.839411
 21
2649.24
 31
0.0
  0
LINE
  5
216
102
{ACAD_REACTORS
330
52A
102
}
330
1F
100
AcDbEntity
  8
LC-002-002-----0
 62
     7
370
    50
100
AcDbLine
 10
422.077752
 20
2687.24
 30
0.0
 11
422.077752
 21
2649.24
 31
0.0
  0
DIMENSION
  5
218
102
{ACAD_REACTORS
330
52F
102
}
330
1F
100
AcDbEntity
  8
LC-007-003-----0
 62
     7
370
    25
100
AcDbDimension
  2
*D6
 10
1234.177752
 20
1403.95
 30
0.0
 11
822.817929
 21
1433.95
 31
0.0
 70
   160
 71
     5
 42
838.2
  3
LC-DIM-L-0025-02-02
100
AcDbAlignedDimension
 13
395.977752
 23
1536.69
 33
0.0
 14
1234.177752
 24
1536.69
 34
0.0
100
AcDbRotatedDimension
  0
DIMENSION
  5
225
102
{ACAD_REACTORS
330
528
102
}
330
1F
100
AcDbEntity
  8
LC-007-003-----0
 62
     7
370
    25
100
AcDbDimension
  2
*D7
 10
1950.0
 20
1545.689318
 30
0.0
 11
1920.0
 21
1756.418514
 31
0.0
 70
   160
 71
     5
 42
410.001365
 53
90.0
  3
LC-DIM-L-0025-02-02
100
AcDbAlignedDimension
 13
1852.347988
 23
1955.690682
 33
0.0
 14
1852.347988
 24
1545.689318
 34
0.0
 50
90.0
100
AcDbRotatedDimension
  0
LINE
  5
232
102
{ACAD_REACTORS
330
530
102
}
330
1F
100
AcDbEntity
  8
LC-002-002-----0
 62
     7
370
    25
100
AcDbLine
 10
964.066989
 20
2297.791762
 30
0.0
 11
989.766989
 21
2297.791762
 31
0.0
  0
LINE
  5
233
102
{ACAD_REACTORS
330
530
102
}
330
1F
100
AcDbEntity
  8
LC-002-002-----0
 62
     7
370
    25
100
AcDbLine
 10
992.166989
 20
2300.191762
 30
0.0
 11
994.183361
 21
2300.191762
 31
0.0
  0
LINE
  5
234
102
{ACAD_REACTORS
330
530
102
}
330
1F
100
AcDbEntity
  8
LC-002-002-----0
 62
     7
370
    25
100
AcDbLine
 10
964.066989
 20
2341.374043
 30
0.0
 11
985.635537
 21
2341.374043
 31
0.0
  0
LINE
  5
235
102
{ACAD_REACTORS
330
530
102
}
330
1F
100
AcDbEntity
  8
LC-002-002-----0
 62
     7
370
    25
100
AcDbLine
 10
989.7671
 20
2297.791872
 30
0.0
 11
992.167035
 21
2300.191808
 31
0.0
  0
INSERT
  5
23F
102
{ACAD_REACTORS
330
531
102
}
330
1F
100
AcDbEntity
  8
LC-006-100-D00-0
 62
     6
370
    25
100
AcDbBlockReference
  2
POLY1
 10
0.0
 20
0.0
 30
0.0
  0
LINE
  5
240
102
{ACAD_REACTORS
330
531
102
}
330
1F
100
AcDbEntity
  8
LC-002-002-----0
 62
     7
370
    25
100
AcDbLine
 10
1037.850505
 20
2281.353449
 30
0.0
 11
1036.370303
 21
2282.123993
 31
0.0
  0
LINE
  5
241
102
{ACAD_REACTORS
330
531
102
}
330
1F
100
AcDbEntity
  8
LC-002-002-----0
 62
     7
370
    25
100
AcDbLine
 10
1037.850617
 20
2282.894269
 30
0.0
 11
1036.370198
 21
2283.664927
 31
0.0
  0
LINE
  5
242
102
{ACAD_REACTORS
330
531
102
}
330
1F
100
AcDbEntity
  8
LC-002-002-----0
 62
     7
370
    25
100
AcDbLine
 10
1037.850505
 20
2284.435206
 30
0.0
 11
1036.370518
 21
2285.205638
 31
0.0
  0
LINE
  5
243
102
{ACAD_REACTORS
330
531
102
}
330
1F
100
AcDbEntity
  8
LC-002-002-----0
 62
     7
370
    25
100
AcDbLine
 10
1037.850505
 20
2285.976084
 30
0.0
 11
1036.370518
 21
2286.746517
 31
0.0
  0
LINE
  5
244
102
{ACAD_REACTORS
330
531
102
}
330
1F
100
AcDbEntity
  8
LC-002-002-----0
 62
     7
370
    25
100
AcDbLine
 10
1037.850505
 20
2287.516963
 30
0.0
 11
1036.370518
 21
2288.287395
 31
0.0
  0
LINE
  5
245
102
{ACAD_REACTORS
330
531
102
}
330
1F
100
AcDbEntity
  8
LC-002-002-----0
 62
     7
370
    25
100
AcDbLine
 10
1037.850505
 20
2289.057841
 30
0.0
 11
1036.370518
 21
2289.828274
 31
0.0
  0
LINE
  5
246
102
{ACAD_REACTORS
330
531
102
}
330
1F
100
AcDbEntity
  8
LC-002-002-----0
 62
     7
370
    25
100
AcDbLine
 10
1037.850505
 20
2290.59872
 30
0.0
 11
1036.370518
 21
2291.369152
 31
0.0
  0
LINE
  5
247
102
{ACAD_REACTORS
330
531
102
}
330
1F
100
AcDbEntity
  8
LC-002-002-----0
 62
     7
370
    25
100
AcDbLine
 10
1037.084435
 20
2293.369178
 30
0.0
 11
1033.970687
 21
2296.482927
 31
0.0
  0
LINE
  5
248
102
{ACAD_REACTORS
330
531
102
}
330
1F
100
AcDbEntity
  8
LC-002-002-----0
 62
     7
370
    25
100
AcDbLine
 10
1036.370711
 20
2279.582903
 30
0.0
 11
991.570711
 21
2279.582903
 31
0.0
  0
LINE
  5
249
102
{ACAD_REACTORS
330
531
102
}
330
1F
100
AcDbEntity
  8
LC-002-002-----0
 62
     7
370
    25
100
AcDbLine
 10
993.970711
 20
2296.482903
 30
0.0
 11
993.970711
 21
2300.191762
 31
0.0
  0
LINE
  5
24A
102
{ACAD_REACTORS
330
531
102
}
330
1F
100
AcDbEntity
  8
LC-002-002-----0
 62
     7
370
    25
100
AcDbLine
 10
1037.084435
 20
2293.369178
 30
0.0
 11
1022.937106
 21
2293.369178
 31
0.0
  0
LINE
  5
24B
102
{ACAD_REACTORS
330
531
102
}
330
1F
100
AcDbEntity
  8
LC-002-002-----0
 62
     7
370
    25
100
AcDbLine
 10
1033.970711
 20
2296.482903
 30
0.0
 11
1033.970711
 21
2300.411164
 31
0.0
  0
LINE
  5
24C
102
{ACAD_REACTORS
330
531
102
}
330
1F
100
AcDbEntity
  8
LC-002-002-----0
 62
     7
370
    25
100
AcDbLine
 10
1036.370711
 20
2279.582903
 30
0.0
 11
1036.370711
 21
2280.582903
 31
0.0
  0
LINE
  5
24D
102
{ACAD_REACTORS
330
531
102
}
330
1F
100
AcDbEntity
  8
LC-002-002-----0
 62
     7
370
    25
100
AcDbLine
 10
1036.370711
 20
2291.369052
 30
0.0
 11
1036.370711
 21
2293.369052
 31
0.0
  0
LINE
  5
24E
102
{ACAD_REACTORS
330
531
102
}
330
1F
100
AcDbEntity
  8
LC-002-002-----0
 62
     7
370
    25
100
AcDbLine
 10
990.856987
 20
2293.369178
 30
0.0
 11
993.970735
 21
2296.482927
 31
0.0
  0
LINE
  5
24F
102
{ACAD_REACTORS
330
531
102
}
330
1F
100
AcDbEntity
  8
LC-002-002-----0
 62
     7
370
    25
100
AcDbLine
 10
1036.370623
 20
2289.828128
 30
0.0
 11
1037.850617
 21
2290.598564
 31
0.0
  0
LINE
  5
250
102
{ACAD_REACTORS
330
531
102
}
330
1F
100
AcDbEntity
  8
LC-002-002-----0
 62
     7
370
    25
100
AcDbLine
 10
1036.370623
 20
2288.287249
 30
0.0
 11
1037.850617
 21
2289.057685
 31
0.0
  0
LINE
  5
251
102
{ACAD_REACTORS
330
531
102
}
330
1F
100
AcDbEntity
  8
LC-002-002-----0
 62
     7
370
    25
100
AcDbLine
 10
1036.370623
 20
2286.746371
 30
0.0
 11
1037.850617
 21
2287.516807
 31
0.0
  0
LINE
  5
252
102
{ACAD_REACTORS
330
531
102
}
330
1F
100
AcDbEntity
  8
LC-002-002-----0
 62
     7
370
    25
100
AcDbLine
 10
1036.370623
 20
2285.205492
 30
0.0
 11
1037.850617
 21
2285.975928
 31
0.0
  0
LINE
  5
253
102
{ACAD_REACTORS
330
531
102
}
330
1F
100
AcDbEntity
  8
LC-002-002-----0
 62
     7
370
    25
100
AcDbLine
 10
1036.370303
 20
2283.664447
 30
0.0
 11
1037.850617
 21
2284.43505
 31
0.0
  0
LINE
  5
254
102
{ACAD_REACTORS
330
531
102
}
330
1F
100
AcDbEntity
  8
LC-002-002-----0
 62
     7
370
    25
100
AcDbLine
 10
1036.370198
 20
2282.123514
 30
0.0
 11
1037.850505
 21
2282.894113
 31
0.0
  0
LINE
  5
255
102
{ACAD_REACTORS
330
531
102
}
330
1F
100
AcDbEntity
  8
LC-002-002-----0
 62
     7
370
    25
100
AcDbLine
 10
1036.370303
 20
2280.58269
 30
0.0
 11
1037.850617
 21
2281.353293
 31
0.0
  0
LINE
  5
256
102
{ACAD_REACTORS
330
531
102
}
330
1F
100
AcDbEntity
  8
LC-002-002-----0
 62
     7
370
    25
100
AcDbLine
 10
990.090917
 20
2281.353449
 30
0.0
 11
991.571119
 21
2282.123993
 31
0.0
  0
LINE
  5
257
102
{ACAD_REACTORS
330
531
102
}
330
1F
100
AcDbEntity
  8
LC-002-002-----0
 62
     7
370
    25
100
AcDbLine
 10
990.090804
 20
2282.894269
 30
0.0
 11
991.571224
 21
2283.664927
 31
0.0
  0
LINE
  5
258
102
{ACAD_REACTORS
330
531
102
}
330
1F
100
AcDbEntity
  8
LC-002-002-----0
 62
     7
370
    25
100
AcDbLine
 10
990.090917
 20
2284.435206
 30
0.0
 11
991.570904
 21
2285.205638
 31
0.0
  0
LINE
  5
259
102
{ACAD_REACTORS
330
531
102
}
330
1F
100
AcDbEntity
  8
LC-002-002-----0
 62
     7
370
    25
100
AcDbLine
 10
990.090917
 20
2285.976084
 30
0.0
 11
991.570904
 21
2286.746517
 31
0.0
  0
LINE
  5
25A
102
{ACAD_REACTORS
330
531
102
}
330
1F
100
AcDbEntity
  8
LC-002-002-----0
 62
     7
370
    25
100
AcDbLine
 10
990.090917
 20
2287.516963
 30
0.0
 11
991.570904
 21
2288.287395
 31
0.0
  0
LINE
  5
25B
102
{ACAD_REACTORS
330
531
102
}
330
1F
100
AcDbEntity
  8
LC-002-002-----0
 62
     7
370
    25
100
AcDbLine
 10
990.090917
 20
2289.057841
 30
0.0
 11
991.570904
 21
2289.828274
 31
0.0
  0
LINE
  5
25C
102
{ACAD_REACTORS
330
531
102
}
330
1F
100
AcDbEntity
  8
LC-002-002-----0
 62
     7
370
    25
100
AcDbLine
 10
990.090917
 20
2290.59872
 30
0.0
 11
991.570904
 21
2291.369152
 31
0.0
  0
LINE
  5
25D
102
{ACAD_REACTORS
330
531
102
}
330
1F
100
AcDbEntity
  8
LC-002-002-----0
 62
     7
370
    25
100
AcDbLine
 10
991.570711
 20
2279.582903
 30
0.0
 11
991.570711
 21
2280.582903
 31
0.0
  0
LINE
  5
25E
102
{ACAD_REACTORS
330
531
102
}
330
1F
100
AcDbEntity
  8
LC-002-002-----0
 62
     7
370
    25
100
AcDbLine
 10
991.570711
 20
2291.369052
 30
0.0
 11
991.570711
 21
2293.369052
 31
0.0
  0
LINE
  5
25F
102
{ACAD_REACTORS
330
531
102
}
330
1F
100
AcDbEntity
  8
LC-002-002-----0
 62
     7
370
    25
100
AcDbLine
 10
991.570799
 20
2289.828128
 30
0.0
 11
990.090804
 21
2290.598564
 31
0.0
  0
LINE
  5
260
102
{ACAD_REACTORS
330
531
102
}
330
1F
100
AcDbEntity
  8
LC-002-002-----0
 62
     7
370
    25
100
AcDbLine
 10
991.570799
 20
2288.287249
 30
0.0
 11
990.090804
 21
2289.057685
 31
0.0
  0
LINE
  5
261
102
{ACAD_REACTORS
330
531
102
}
330
1F
100
AcDbEntity
  8
LC-002-002-----0
 62
     7
370
    25
100
AcDbLine
 10
991.570799
 20
2286.746371
 30
0.0
 11
990.090804
 21
2287.516807
 31
0.0
  0
LINE
  5
262
102
{ACAD_REACTORS
330
531
102
}
330
1F
100
AcDbEntity
  8
LC-002-002-----0
 62
     7
370
    25
100
AcDbLine
 10
991.570799
 20
2285.205492
 30
0.0
 11
990.090804
 21
2285.975928
 31
0.0
  0
LINE
  5
263
102
{ACAD_REACTORS
330
531
102
}
330
1F
100
AcDbEntity
  8
LC-002-002-----0
 62
     7
370
    25
100
AcDbLine
 10
991.571119
 20
2283.664447
 30
0.0
 11
990.090804
 21
2284.43505
 31
0.0
  0
LINE
  5
264
102
{ACAD_REACTORS
330
531
102
}
330
1F
100
AcDbEntity
  8
LC-002-002-----0
 62
     7
370
    25
100
AcDbLine
 10
991.571224
 20
2282.123514
 30
0.0
 11
990.090917
 21
2282.894113
 31
0.0
  0
LINE
  5
265
102
{ACAD_REACTORS
330
531
102
}
330
1F
100
AcDbEntity
  8
LC-002-002-----0
 62
     7
370
    25
100
AcDbLine
 10
991.571119
 20
2280.58269
 30
0.0
 11
990.090804
 21
2281.353293
 31
0.0
  0
LINE
  5
266
102
{ACAD_REACTORS
330
530
102
}
330
1F
100
AcDbEntity
  8
LC-002-002-----0
 62
     7
370
    25
100
AcDbLine
 10
961.566989
 20
2291.878109
 30
0.0
 11
964.066989
 21
2291.878109
 31
0.0
  0
LINE
  5
267
102
{ACAD_REACTORS
330
530
102
}
330
1F
100
AcDbEntity
  8
LC-002-002-----0
 62
     7
370
    25
100
AcDbLine
 10
960.566989
 20
2292.628109
 30
0.0
 11
960.816989
 21
2292.628109
 31
0.0
  0
LINE
  5
268
102
{ACAD_REACTORS
330
530
102
}
330
1F
100
AcDbEntity
  8
LC-002-002-----0
 62
     7
370
    25
100
AcDbLine
 10
960.566989
 20
2293.782903
 30
0.0
 11
947.066989
 21
2293.782903
 31
0.0
  0
LINE
  5
269
102
{ACAD_REACTORS
330
530
102
}
330
1F
100
AcDbEntity
  8
LC-002-002-----0
 62
     7
370
    25
100
AcDbLine
 10
960.566989
 20
2345.382903
 30
0.0
 11
947.066989
 21
2345.382903
 31
0.0
  0
LINE
  5
26A
102
{ACAD_REACTORS
330
530
102
}
330
1F
100
AcDbEntity
  8
LC-002-002-----0
 62
     7
370
    25
100
AcDbLine
 10
960.566989
 20
2346.537696
 30
0.0
 11
960.816989
 21
2346.537696
 31
0.0
  0
LINE
  5
26B
102
{ACAD_REACTORS
330
530
102
}
330
1F
100
AcDbEntity
  8
LC-002-002-----0
 62
     7
370
    25
100
AcDbLine
 10
961.566989
 20
2347.287696
 30
0.0
 11
964.066989
 21
2347.287696
 31
0.0
  0
LINE
  5
26C
102
{ACAD_REACTORS
330
530
102
}
330
1F
100
AcDbEntity
  8
LC-002-002-----0
 62
     7
370
    25
100
AcDbLine
 10
960.816988
 20
2292.62811
 30
0.0
 11
961.566988
 21
2291.87811
 31
0.0
  0
LINE
  5
26D
102
{ACAD_REACTORS
330
530
102
}
330
1F
100
AcDbEntity
  8
LC-002-002-----0
 62
     7
370
    25
100
AcDbLine
 10
945.066989
 20
2343.382903
 30
0.0
 11
945.066989
 21
2295.782903
 31
0.0
  0
LINE
  5
26E
102
{ACAD_REACTORS
330
530
102
}
330
1F
100
AcDbEntity
  8
LC-002-002-----0
 62
     7
370
    25
100
AcDbLine
 10
960.566989
 20
2346.537678
 30
0.0
 11
960.566989
 21
2345.382903
 31
0.0
  0
LINE
  5
26F
102
{ACAD_REACTORS
330
530
102
}
330
1F
100
AcDbEntity
  8
LC-002-002-----0
 62
     7
370
    25
100
AcDbLine
 10
964.066989
 20
2347.287696
 30
0.0
 11
964.066989
 21
2291.878109
 31
0.0
  0
LINE
  5
270
102
{ACAD_REACTORS
330
530
102
}
330
1F
100
AcDbEntity
  8
LC-002-002-----0
 62
     7
370
    25
100
AcDbLine
 10
960.816988
 20
2346.537695
 30
0.0
 11
961.566988
 21
2347.287695
 31
0.0
  0
ARC
  5
271
102
{ACAD_REACTORS
330
530
102
}
330
1F
100
AcDbEntity
  8
LC-002-002-----0
 62
     7
370
    25
100
AcDbCircle
 10
947.066989
 20
2343.382903
 30
0.0
 40
2.0
100
AcDbArc
 50
90.0
 51
180.0
  0
ARC
  5
272
102
{ACAD_REACTORS
330
530
102
}
330
1F
100
AcDbEntity
  8
LC-002-002-----0
 62
     7
370
    25
100
AcDbCircle
 10
947.066989
 20
2295.782903
 30
0.0
 40
2.0
100
AcDbArc
 50
180.0
 51
270.0
  0
LINE
  5
273
102
{ACAD_REACTORS
330
531
102
}
330
1F
100
AcDbEntity
  8
LC-002-002-----0
 62
     7
370
    25
100
AcDbLine
 10
1029.266138
 20
2296.483001
 30
0.0
 11
1033.970613
 21
2296.483001
 31
0.0
  0
LINE
  5
274
102
{ACAD_REACTORS
330
531
102
}
330
1F
100
AcDbEntity
  8
LC-002-002-----0
 62
     7
370
    25
100
AcDbLine
 10
1005.004316
 20
2293.369178
 30
0.0
 11
990.856987
 21
2293.369178
 31
0.0
  0
LINE
  5
275
102
{ACAD_REACTORS
330
530
102
}
330
1F
100
AcDbEntity
  8
LC-002-002-----0
 62
     7
370
    25
100
AcDbLine
 10
960.566989
 20
2342.795289
 30
0.0
 11
947.066989
 21
2342.795289
 31
0.0
  0
INSERT
  5
285
102
{ACAD_REACTORS
330
530
102
}
330
1F
100
AcDbEntity
  8
LC-002-002-----0
 62
     7
370
    25
100
AcDbBlockReference
  2
POLY2
 10
0.0
 20
0.0
 30
0.0
  0
INSERT
  5
295
102
{ACAD_REACTORS
330
530
102
}
330
1F
100
AcDbEntity
  8
LC-002-002-----0
 62
     7
370
    25
100
AcDbBlockReference
  2
POLY3
 10
0.0
 20
0.0
 30
0.0
  0
LINE
  5
296
102
{ACAD_REACTORS
330
530
102
}
330
1F
100
AcDbEntity
  8
LC-002-002-----0
 62
     7
370
    25
100
AcDbLine
 10
947.066989
 20
2296.370408
 30
0.0
 11
960.566989
 21
2296.370408
 31
0.0
  0
INSERT
  5
2A6
102
{ACAD_REACTORS
330
530
102
}
330
1F
100
AcDbEntity
  8
LC-002-002-----0
 62
     7
370
    25
100
AcDbBlockReference
  2
POLY4
 10
0.0
 20
0.0
 30
0.0
  0
LINE
  5
2A7
102
{ACAD_REACTORS
330
530
102
}
330
1F
100
AcDbEntity
  8
LC-002-002-----0
 62
     7
370
    25
100
AcDbLine
 10
960.566989
 20
2319.58145
 30
0.0
 11
947.066989
 21
2319.58145
 31
0.0
  0
ARC
  5
2A8
102
{ACAD_REACTORS
330
531
102
}
330
1F
100
AcDbEntity
  8
LC-002-002-----0
 62
     7
370
    25
100
AcDbCircle
 10
1013.970711
 20
2319.582903
 30
0.0
 40
22.0
100
AcDbArc
 50
180.0
 51
0.0
  0
LINE
  5
2A9
102
{ACAD_REACTORS
330
531
102
}
330
1F
100
AcDbEntity
  8
LC-002-002-----0
 62
     7
370
    25
100
AcDbLine
 10
991.970711
 20
2319.582903
 30
0.0
 11
991.970711
 21
2333.274087
 31
0.0
  0
LINE
  5
2AA
102
{ACAD_REACTORS
330
531
102
}
330
1F
100
AcDbEntity
  8
LC-002-002-----0
 62
     7
370
    25
100
AcDbLine
 10
1035.970711
 20
2319.582903
 30
0.0
 11
1035.970711
 21
2333.274087
 31
0.0
  0
LINE
  5
2AB
102
{ACAD_REACTORS
330
531
102
}
330
1F
100
AcDbEntity
  8
LC-002-002-----0
 62
     7
370
    25
100
AcDbLine
 10
1051.470711
 20
2351.54245
 30
0.0
 11
1049.468848
 21
2351.54245
 31
0.0
  0
LINE
  5
2AC
102
{ACAD_REACTORS
330
531
102
}
330
1F
100
AcDbEntity
  8
LC-002-002-----0
 62
     7
370
    25
100
AcDbLine
 10
1049.468848
 20
2350.839205
 30
0.0
 11
1049.468848
 21
2351.54245
 31
0.0
  0
LINE
  5
2AD
102
{ACAD_REACTORS
330
531
102
}
330
1F
100
AcDbEntity
  8
LC-002-002-----0
 62
     7
370
    25
100
AcDbLine
 10
1051.470711
 20
2354.04245
 30
0.0
 11
1051.470711
 21
2351.54245
 31
0.0
  0
LINE
  5
2AE
102
{ACAD_REACTORS
330
531
102
}
330
1F
100
AcDbEntity
  8
LC-002-002-----0
 62
     7
370
    25
100
AcDbLine
 10
1042.25965
 20
2341.084069
 30
0.0
 11
1042.738096
 21
2343.702933
 31
0.0
  0
ARC
  5
2AF
102
{ACAD_REACTORS
330
531
102
}
330
1F
100
AcDbEntity
  8
LC-002-002-----0
 62
     7
370
    25
100
AcDbCircle
 10
1035.865486
 20
2342.25226
 30
0.0
 40
6.500000000000005
100
AcDbArc
 50
289.07704
 51
349.645823
  0
ARC
  5
2B0
102
{ACAD_REACTORS
330
531
102
}
330
1F
100
AcDbEntity
  8
LC-002-002-----0
 62
     7
370
    25
100
AcDbCircle
 10
1038.970711
 20
2333.274087
 30
0.0
 40
3.000000000000295
100
AcDbArc
 50
109.055448
 51
180.0
  0
ARC
  5
2B1
102
{ACAD_REACTORS
330
531
102
}
330
1F
100
AcDbEntity
  8
LC-002-002-----0
 62
     7
370
    25
100
AcDbCircle
 10
1047.468848
 20
2350.839205
 30
0.0
 40
1.999999999999772
100
AcDbArc
 50
334.152631
 51
0.0
  0
ARC
  5
2B2
102
{ACAD_REACTORS
330
531
102
}
330
1F
100
AcDbEntity
  8
LC-002-002-----0
 62
     7
370
    25
100
AcDbCircle
 10
1043.868915
 20
2352.582903
 30
0.0
 40
5.999999999999909
100
AcDbArc
 50
286.283517
 51
334.155028
  0
ARC
  5
2B3
102
{ACAD_REACTORS
330
531
102
}
330
1F
100
AcDbEntity
  8
LC-002-002-----0
 62
     7
370
    25
100
AcDbCircle
 10
1046.672974
 20
2342.984087
 30
0.0
 40
4.000000000000306
100
AcDbArc
 50
106.281751
 51
169.647048
  0
LINE
  5
2B4
102
{ACAD_REACTORS
330
531
102
}
330
1F
100
AcDbEntity
  8
LC-002-002-----0
 62
     7
370
    25
100
AcDbLine
 10
978.472573
 20
2350.839205
 30
0.0
 11
978.472573
 21
2351.54245
 31
0.0
  0
LINE
  5
2B5
102
{ACAD_REACTORS
330
531
102
}
330
1F
100
AcDbEntity
  8
LC-002-002-----0
 62
     7
370
    25
100
AcDbLine
 10
976.470711
 20
2354.04245
 30
0.0
 11
976.470711
 21
2351.54245
 31
0.0
  0
LINE
  5
2B6
102
{ACAD_REACTORS
330
531
102
}
330
1F
100
AcDbEntity
  8
LC-002-002-----0
 62
     7
370
    25
100
AcDbLine
 10
985.681772
 20
2341.084069
 30
0.0
 11
985.203326
 21
2343.702933
 31
0.0
  0
ARC
  5
2B7
102
{ACAD_REACTORS
330
531
102
}
330
1F
100
AcDbEntity
  8
LC-002-002-----0
 62
     7
370
    25
100
AcDbCircle
 10
992.075936
 20
2342.25226
 30
0.0
 40
6.499999999999891
100
AcDbArc
 50
190.354177
 51
250.92296
  0
ARC
  5
2B8
102
{ACAD_REACTORS
330
531
102
}
330
1F
100
AcDbEntity
  8
LC-002-002-----0
 62
     7
370
    25
100
AcDbCircle
 10
988.970711
 20
2333.274087
 30
0.0
 40
2.999999995699682
100
AcDbArc
 50
0.0
 51
70.944552
  0
ARC
  5
2B9
102
{ACAD_REACTORS
330
531
102
}
330
1F
100
AcDbEntity
  8
LC-002-002-----0
 62
     7
370
    25
100
AcDbCircle
 10
980.472573
 20
2350.839205
 30
0.0
 40
1.999999999999773
100
AcDbArc
 50
180.0
 51
205.847369
  0
ARC
  5
2BA
102
{ACAD_REACTORS
330
531
102
}
330
1F
100
AcDbEntity
  8
LC-002-002-----0
 62
     7
370
    25
100
AcDbCircle
 10
984.072507
 20
2352.582903
 30
0.0
 40
5.999999999999802
100
AcDbArc
 50
205.844972
 51
253.716483
  0
ARC
  5
2BB
102
{ACAD_REACTORS
330
531
102
}
330
1F
100
AcDbEntity
  8
LC-002-002-----0
 62
     7
370
    25
100
AcDbCircle
 10
981.268448
 20
2342.984087
 30
0.0
 40
3.999999999999939
100
AcDbArc
 50
10.352952
 51
73.718249
  0
ARC
  5
2BC
102
{ACAD_REACTORS
330
531
102
}
330
1F
100
AcDbEntity
  8
LC-002-002-----0
 62
     7
370
    25
100
AcDbCircle
 10
1013.970711
 20
2319.582903
 30
0.0
 40
27.70479324130034
100
AcDbArc
 50
145.394244
 51
34.605756
  0
LINE
  5
2BD
102
{ACAD_REACTORS
330
531
102
}
330
1F
100
AcDbEntity
  8
LC-002-002-----0
 62
     7
370
    25
100
AcDbLine
 10
958.970711
 20
2394.185131
 30
0.0
 11
1068.970711
 21
2394.185131
 31
0.0
  0
LINE
  5
2BE
102
{ACAD_REACTORS
330
531
102
}
330
1F
100
AcDbEntity
  8
LC-002-002-----0
 62
     7
370
    25
100
AcDbLine
 10
1068.970711
 20
2390.185131
 30
0.0
 11
1068.970711
 21
2394.185131
 31
0.0
  0
LINE
  5
2BF
102
{ACAD_REACTORS
330
531
102
}
330
1F
100
AcDbEntity
  8
LC-002-002-----0
 62
     7
370
    25
100
AcDbLine
 10
1053.475675
 20
2354.04245
 30
0.0
 11
1051.470711
 21
2354.04245
 31
0.0
  0
LINE
  5
2C0
102
{ACAD_REACTORS
330
531
102
}
330
1F
100
AcDbEntity
  8
LC-002-002-----0
 62
     7
370
    25
100
AcDbLine
 10
1056.720101
 20
2358.372224
 30
0.0
 11
1058.470076
 21
2359.382573
 31
0.0
  0
LINE
  5
2C1
102
{ACAD_REACTORS
330
531
102
}
330
1F
100
AcDbEntity
  8
LC-002-002-----0
 62
     7
370
    25
100
AcDbLine
 10
1061.470711
 20
2364.579092
 30
0.0
 11
1061.470711
 21
2380.04245
 31
0.0
  0
LINE
  5
2C2
102
{ACAD_REACTORS
330
531
102
}
330
1F
100
AcDbEntity
  8
LC-002-002-----0
 62
     7
370
    25
100
AcDbLine
 10
1068.970711
 20
2389.724908
 30
0.0
 11
1068.970711
 21
2390.185131
 31
0.0
  0
ARC
  5
2C3
102
{ACAD_REACTORS
330
531
102
}
330
1F
100
AcDbEntity
  8
LC-002-002-----0
 62
     7
370
    25
100
AcDbCircle
 10
1065.470711
 20
2380.04245
 30
0.0
 40
3.999999999999812
100
AcDbArc
 50
104.492147
 51
180.0
  0
ARC
  5
2C4
102
{ACAD_REACTORS
330
531
102
}
330
1F
100
AcDbEntity
  8
LC-002-002-----0
 62
     7
370
    25
100
AcDbCircle
 10
1062.970711
 20
2389.724908
 30
0.0
 40
5.999999999999658
100
AcDbArc
 50
284.469452
 51
0.0
  0
ARC
  5
2C5
102
{ACAD_REACTORS
330
531
102
}
330
1F
100
AcDbEntity
  8
LC-002-002-----0
 62
     7
370
    25
100
AcDbCircle
 10
1055.470711
 20
2364.579092
 30
0.0
 40
5.999999999999977
100
AcDbArc
 50
299.988476
 51
0.0
  0
ARC
  5
2C6
102
{ACAD_REACTORS
330
531
102
}
330
1F
100
AcDbEntity
  8
LC-002-002-----0
 62
     7
370
    25
100
AcDbCircle
 10
1059.220711
 20
2354.04245
 30
0.0
 40
4.999999999999906
100
AcDbArc
 50
120.016153
 51
172.072225
  0
ARC
  5
2C7
102
{ACAD_REACTORS
330
531
102
}
330
1F
100
AcDbEntity
  8
LC-002-002-----0
 62
     7
370
    25
100
AcDbCircle
 10
968.720711
 20
2354.04245
 30
0.0
 40
4.999999999999969
100
AcDbArc
 50
7.927775
 51
33.954632
  0
ARC
  5
2C8
102
{ACAD_REACTORS
330
531
102
}
330
1F
100
AcDbEntity
  8
LC-002-002-----0
 62
     7
370
    25
100
AcDbCircle
 10
1053.476148
 20
2354.84245
 30
0.0
 40
0.7999999999997272
100
AcDbArc
 50
270.0
 51
352.062606
  0
ARC
  5
2C9
102
{ACAD_REACTORS
330
531
102
}
330
1F
100
AcDbEntity
  8
LC-002-002-----0
 62
     7
370
    25
100
AcDbCircle
 10
974.465273
 20
2354.84245
 30
0.0
 40
0.7999999999998813
100
AcDbArc
 50
187.937394
 51
270.0
  0
LINE
  5
2CA
102
{ACAD_REACTORS
330
530
102
}
330
1F
100
AcDbEntity
  8
LC-002-002-----0
 62
     7
370
    25
100
AcDbLine
 10
635.058738
 20
2299.582903
 30
0.0
 11
945.066989
 21
2299.582903
 31
0.0
  0
LINE
  5
2CB
102
{ACAD_REACTORS
330
530
102
}
330
1F
100
AcDbEntity
  8
LC-002-002-----0
 62
     7
370
    25
100
AcDbLine
 10
643.70837
 20
2339.582903
 30
0.0
 11
945.066989
 21
2339.582903
 31
0.0
  0
ARC
  5
2CC
102
{ACAD_REACTORS
330
536
102
}
330
1F
100
AcDbEntity
  8
LC-002-002-----0
 62
     7
370
    25
100
AcDbCircle
 10
615.886999
 20
2319.582903
 30
0.0
 40
22.00000000000023
100
AcDbArc
 50
180.0
 51
0.0
  0
LINE
  5
2CD
102
{ACAD_REACTORS
330
536
102
}
330
1F
100
AcDbEntity
  8
LC-002-002-----0
 62
     7
370
    25
100
AcDbLine
 10
593.886999
 20
2319.582903
 30
0.0
 11
593.886999
 21
2333.274087
 31
0.0
  0
LINE
  5
2CE
102
{ACAD_REACTORS
330
536
102
}
330
1F
100
AcDbEntity
  8
LC-002-002-----0
 62
     7
370
    25
100
AcDbLine
 10
637.886999
 20
2319.582903
 30
0.0
 11
637.886999
 21
2333.274087
 31
0.0
  0
LINE
  5
2CF
102
{ACAD_REACTORS
330
536
102
}
330
1F
100
AcDbEntity
  8
LC-002-002-----0
 62
     7
370
    25
100
AcDbLine
 10
560.886999
 20
2394.185131
 30
0.0
 11
670.886999
 21
2394.185131
 31
0.0
  0
LINE
  5
2D0
102
{ACAD_REACTORS
330
536
102
}
330
1F
100
AcDbEntity
  8
LC-002-002-----0
 62
     7
370
    25
100
AcDbLine
 10
670.886999
 20
2390.185131
 30
0.0
 11
670.886999
 21
2394.185131
 31
0.0
  0
LINE
  5
2D1
102
{ACAD_REACTORS
330
536
102
}
330
1F
100
AcDbEntity
  8
LC-002-002-----0
 62
     7
370
    25
100
AcDbLine
 10
653.386999
 20
2351.54245
 30
0.0
 11
651.385137
 21
2351.54245
 31
0.0
  0
LINE
  5
2D2
102
{ACAD_REACTORS
330
536
102
}
330
1F
100
AcDbEntity
  8
LC-002-002-----0
 62
     7
370
    25
100
AcDbLine
 10
655.391963
 20
2354.04245
 30
0.0
 11
653.386999
 21
2354.04245
 31
0.0
  0
LINE
  5
2D3
102
{ACAD_REACTORS
330
536
102
}
330
1F
100
AcDbEntity
  8
LC-002-002-----0
 62
     7
370
    25
100
AcDbLine
 10
658.636389
 20
2358.372224
 30
0.0
 11
660.386364
 21
2359.382573
 31
0.0
  0
LINE
  5
2D4
102
{ACAD_REACTORS
330
536
102
}
330
1F
100
AcDbEntity
  8
LC-002-002-----0
 62
     7
370
    25
100
AcDbLine
 10
651.385137
 20
2350.839205
 30
0.0
 11
651.385137
 21
2351.54245
 31
0.0
  0
LINE
  5
2D5
102
{ACAD_REACTORS
330
536
102
}
330
1F
100
AcDbEntity
  8
LC-002-002-----0
 62
     7
370
    25
100
AcDbLine
 10
653.386999
 20
2354.04245
 30
0.0
 11
653.386999
 21
2351.54245
 31
0.0
  0
LINE
  5
2D6
102
{ACAD_REACTORS
330
536
102
}
330
1F
100
AcDbEntity
  8
LC-002-002-----0
 62
     7
370
    25
100
AcDbLine
 10
663.386999
 20
2364.579092
 30
0.0
 11
663.386999
 21
2380.04245
 31
0.0
  0
LINE
  5
2D7
102
{ACAD_REACTORS
330
536
102
}
330
1F
100
AcDbEntity
  8
LC-002-002-----0
 62
     7
370
    25
100
AcDbLine
 10
644.175938
 20
2341.084069
 30
0.0
 11
644.654385
 21
2343.702933
 31
0.0
  0
LINE
  5
2D8
102
{ACAD_REACTORS
330
536
102
}
330
1F
100
AcDbEntity
  8
LC-002-002-----0
 62
     7
370
    25
100
AcDbLine
 10
670.886999
 20
2389.724908
 30
0.0
 11
670.886999
 21
2390.185131
 31
0.0
  0
ARC
  5
2D9
102
{ACAD_REACTORS
330
536
102
}
330
1F
100
AcDbEntity
  8
LC-002-002-----0
 62
     7
370
    25
100
AcDbCircle
 10
667.386999
 20
2380.04245
 30
0.0
 40
3.999999999999372
100
AcDbArc
 50
104.492147
 51
180.0
  0
ARC
  5
2DA
102
{ACAD_REACTORS
330
536
102
}
330
1F
100
AcDbEntity
  8
LC-002-002-----0
 62
     7
370
    25
100
AcDbCircle
 10
664.886999
 20
2389.724908
 30
0.0
 40
6.000000000000098
100
AcDbArc
 50
284.469452
 51
0.0
  0
ARC
  5
2DB
102
{ACAD_REACTORS
330
536
102
}
330
1F
100
AcDbEntity
  8
LC-002-002-----0
 62
     7
370
    25
100
AcDbCircle
 10
657.386999
 20
2364.579092
 30
0.0
 40
5.999999999999977
100
AcDbArc
 50
299.988476
 51
0.0
  0
ARC
  5
2DC
102
{ACAD_REACTORS
330
536
102
}
330
1F
100
AcDbEntity
  8
LC-002-002-----0
 62
     7
370
    25
100
AcDbCircle
 10
661.136999
 20
2354.04245
 30
0.0
 40
5.0000000000003
100
AcDbArc
 50
120.016153
 51
172.072225
  0
ARC
  5
2DD
102
{ACAD_REACTORS
330
536
102
}
330
1F
100
AcDbEntity
  8
LC-002-002-----0
 62
     7
370
    25
100
AcDbCircle
 10
655.392437
 20
2354.84245
 30
0.0
 40
0.7999999999997272
100
AcDbArc
 50
270.0
 51
352.062606
  0
ARC
  5
2DE
102
{ACAD_REACTORS
330
536
102
}
330
1F
100
AcDbEntity
  8
LC-002-002-----0
 62
     7
370
    25
100
AcDbCircle
 10
637.781775
 20
2342.25226
 30
0.0
 40
6.499999999999931
100
AcDbArc
 50
289.07704
 51
349.645823
  0
ARC
  5
2DF
102
{ACAD_REACTORS
330
536
102
}
330
1F
100
AcDbEntity
  8
LC-002-002-----0
 62
     7
370
    25
100
AcDbCircle
 10
640.886999
 20
2333.274087
 30
0.0
 40
3.00000000000037
100
AcDbArc
 50
109.055448
 51
180.0
  0
ARC
  5
2E0
102
{ACAD_REACTORS
330
536
102
}
330
1F
100
AcDbEntity
  8
LC-002-002-----0
 62
     7
370
    25
100
AcDbCircle
 10
649.385137
 20
2350.839205
 30
0.0
 40
1.999999999999766
100
AcDbArc
 50
334.152631
 51
360.0
  0
ARC
  5
2E1
102
{ACAD_REACTORS
330
536
102
}
330
1F
100
AcDbEntity
  8
LC-002-002-----0
 62
     7
370
    25
100
AcDbCircle
 10
645.785204
 20
2352.582903
 30
0.0
 40
5.999999999999909
100
AcDbArc
 50
286.283517
 51
334.155028
  0
ARC
  5
2E2
102
{ACAD_REACTORS
330
536
102
}
330
1F
100
AcDbEntity
  8
LC-002-002-----0
 62
     7
370
    25
100
AcDbCircle
 10
648.589262
 20
2342.984087
 30
0.0
 40
4.000000000000306
100
AcDbArc
 50
106.281751
 51
169.647048
  0
LINE
  5
2E3
102
{ACAD_REACTORS
330
536
102
}
330
1F
100
AcDbEntity
  8
LC-002-002-----0
 62
     7
370
    25
100
AcDbLine
 10
560.886999
 20
2390.185131
 30
0.0
 11
560.886999
 21
2394.185131
 31
0.0
  0
LINE
  5
2E4
102
{ACAD_REACTORS
330
536
102
}
330
1F
100
AcDbEntity
  8
LC-002-002-----0
 62
     7
370
    25
100
AcDbLine
 10
573.13761
 20
2358.372224
 30
0.0
 11
571.387635
 21
2359.382573
 31
0.0
  0
LINE
  5
2E5
102
{ACAD_REACTORS
330
536
102
}
330
1F
100
AcDbEntity
  8
LC-002-002-----0
 62
     7
370
    25
100
AcDbLine
 10
580.388862
 20
2350.839205
 30
0.0
 11
580.388862
 21
2351.54245
 31
0.0
  0
LINE
  5
2E6
102
{ACAD_REACTORS
330
536
102
}
330
1F
100
AcDbEntity
  8
LC-002-002-----0
 62
     7
370
    25
100
AcDbLine
 10
578.386999
 20
2354.04245
 30
0.0
 11
578.386999
 21
2351.54245
 31
0.0
  0
LINE
  5
2E7
102
{ACAD_REACTORS
330
536
102
}
330
1F
100
AcDbEntity
  8
LC-002-002-----0
 62
     7
370
    25
100
AcDbLine
 10
568.386999
 20
2364.579092
 30
0.0
 11
568.386999
 21
2380.04245
 31
0.0
  0
LINE
  5
2E8
102
{ACAD_REACTORS
330
536
102
}
330
1F
100
AcDbEntity
  8
LC-002-002-----0
 62
     7
370
    25
100
AcDbLine
 10
587.59806
 20
2341.084069
 30
0.0
 11
587.119614
 21
2343.702933
 31
0.0
  0
LINE
  5
2E9
102
{ACAD_REACTORS
330
536
102
}
330
1F
100
AcDbEntity
  8
LC-002-002-----0
 62
     7
370
    25
100
AcDbLine
 10
560.886999
 20
2389.724908
 30
0.0
 11
560.886999
 21
2390.185131
 31
0.0
  0
ARC
  5
2EA
102
{ACAD_REACTORS
330
536
102
}
330
1F
100
AcDbEntity
  8
LC-002-002-----0
 62
     7
370
    25
100
AcDbCircle
 10
564.386999
 20
2380.04245
 30
0.0
 40
4.0
100
AcDbArc
 50
0.0
 51
75.507853
  0
ARC
  5
2EB
102
{ACAD_REACTORS
330
536
102
}
330
1F
100
AcDbEntity
  8
LC-002-002-----0
 62
     7
370
    25
100
AcDbCircle
 10
566.886999
 20
2389.724908
 30
0.0
 40
6.0
100
AcDbArc
 50
180.0
 51
255.530548
  0
ARC
  5
2EC
102
{ACAD_REACTORS
330
536
102
}
330
1F
100
AcDbEntity
  8
LC-002-002-----0
 62
     7
370
    25
100
AcDbCircle
 10
574.386999
 20
2364.579092
 30
0.0
 40
6.0
100
AcDbArc
 50
180.0
 51
240.011524
  0
ARC
  5
2ED
102
{ACAD_REACTORS
330
536
102
}
330
1F
100
AcDbEntity
  8
LC-002-002-----0
 62
     7
370
    25
100
AcDbCircle
 10
570.636999
 20
2354.04245
 30
0.0
 40
5.000000000000132
100
AcDbArc
 50
7.927775
 51
59.983847
  0
ARC
  5
2EE
102
{ACAD_REACTORS
330
536
102
}
330
1F
100
AcDbEntity
  8
LC-002-002-----0
 62
     7
370
    25
100
AcDbCircle
 10
576.381562
 20
2354.84245
 30
0.0
 40
0.799999999999944
100
AcDbArc
 50
187.937394
 51
270.0
  0
ARC
  5
2EF
102
{ACAD_REACTORS
330
536
102
}
330
1F
100
AcDbEntity
  8
LC-002-002-----0
 62
     7
370
    25
100
AcDbCircle
 10
593.992224
 20
2342.25226
 30
0.0
 40
6.499999999999973
100
AcDbArc
 50
190.354177
 51
250.92296
  0
ARC
  5
2F0
102
{ACAD_REACTORS
330
536
102
}
330
1F
100
AcDbEntity
  8
LC-002-002-----0
 62
     7
370
    25
100
AcDbCircle
 10
590.886999
 20
2333.274087
 30
0.0
 40
2.999999995699682
100
AcDbArc
 50
0.0
 51
70.944552
  0
ARC
  5
2F1
102
{ACAD_REACTORS
330
536
102
}
330
1F
100
AcDbEntity
  8
LC-002-002-----0
 62
     7
370
    25
100
AcDbCircle
 10
582.388862
 20
2350.839205
 30
0.0
 40
1.999999999999773
100
AcDbArc
 50
180.0
 51
205.847369
  0
ARC
  5
2F2
102
{ACAD_REACTORS
330
536
102
}
330
1F
100
AcDbEntity
  8
LC-002-002-----0
 62
     7
370
    25
100
AcDbCircle
 10
585.988795
 20
2352.582903
 30
0.0
 40
6.000000000000001
100
AcDbArc
 50
205.844972
 51
253.716483
  0
ARC
  5
2F3
102
{ACAD_REACTORS
330
536
102
}
330
1F
100
AcDbEntity
  8
LC-002-002-----0
 62
     7
370
    25
100
AcDbCircle
 10
583.184737
 20
2342.984087
 30
0.0
 40
4.00000000000002
100
AcDbArc
 50
10.352952
 51
73.718249
  0
ARC
  5
2F4
102
{ACAD_REACTORS
330
536
102
}
330
1F
100
AcDbEntity
  8
LC-002-002-----0
 62
     7
370
    25
100
AcDbCircle
 10
615.886999
 20
2319.582903
 30
0.0
 40
27.70479324130015
100
AcDbArc
 50
145.394244
 51
34.605756
  0
LINE
  5
2F5
102
{ACAD_REACTORS
330
530
102
}
330
1F
100
AcDbEntity
  8
LC-002-002-----0
 62
     7
370
    25
100
AcDbLine
 10
960.566989
 20
2293.782903
 30
0.0
 11
960.566989
 21
2292.628127
 31
0.0
  0
LINE
  5
2F6
102
{ACAD_REACTORS
330
536
102
}
330
1F
100
AcDbEntity
  8
LC-002-002-----0
 62
     7
370
    25
100
AcDbLine
 10
578.386999
 20
2354.04245
 30
0.0
 11
576.381562
 21
2354.04245
 31
0.0
  0
LINE
  5
2F7
102
{ACAD_REACTORS
330
536
102
}
330
1F
100
AcDbEntity
  8
LC-002-002-----0
 62
     7
370
    25
100
AcDbLine
 10
580.388862
 20
2351.54245
 30
0.0
 11
578.386999
 21
2351.54245
 31
0.0
  0
LINE
  5
2F8
102
{ACAD_REACTORS
330
531
102
}
330
1F
100
AcDbEntity
  8
LC-002-002-----0
 62
     7
370
    25
100
AcDbLine
 10
976.470711
 20
2354.04245
 30
0.0
 11
974.465747
 21
2354.04245
 31
0.0
  0
LINE
  5
2F9
102
{ACAD_REACTORS
330
531
102
}
330
1F
100
AcDbEntity
  8
LC-002-002-----0
 62
     7
370
    25
100
AcDbLine
 10
978.472573
 20
2351.54245
 30
0.0
 11
976.470711
 21
2351.54245
 31
0.0
  0
LINE
  5
2FA
102
{ACAD_REACTORS
330
531
102
}
330
1F
100
AcDbEntity
  8
LC-002-002-----0
 62
     7
370
    25
100
AcDbLine
 10
958.970711
 20
2390.185131
 30
0.0
 11
958.970711
 21
2394.185131
 31
0.0
  0
LINE
  5
2FB
102
{ACAD_REACTORS
330
531
102
}
330
1F
100
AcDbEntity
  8
LC-002-002-----0
 62
     7
370
    25
100
AcDbLine
 10
971.221321
 20
2358.372224
 30
0.0
 11
969.471346
 21
2359.382573
 31
0.0
  0
LINE
  5
2FC
102
{ACAD_REACTORS
330
531
102
}
330
1F
100
AcDbEntity
  8
LC-002-002-----0
 62
     7
370
    25
100
AcDbLine
 10
966.470711
 20
2364.579092
 30
0.0
 11
966.470711
 21
2380.04245
 31
0.0
  0
LINE
  5
2FD
102
{ACAD_REACTORS
330
52B
102
}
330
1F
100
AcDbEntity
  8
LC-002-002-----0
 62
     7
370
    25
100
AcDbLine
 10
958.970711
 20
2264.984908
 30
0.0
 11
958.970711
 21
2265.445131
 31
0.0
  0
ARC
  5
2FE
102
{ACAD_REACTORS
330
531
102
}
330
1F
100
AcDbEntity
  8
LC-002-002-----0
 62
     7
370
    25
100
AcDbCircle
 10
962.470711
 20
2380.04245
 30
0.0
 40
3.999999999999773
100
AcDbArc
 50
0.0
 51
75.507853
  0
ARC
  5
2FF
102
{ACAD_REACTORS
330
531
102
}
330
1F
100
AcDbEntity
  8
LC-002-002-----0
 62
     7
370
    25
100
AcDbCircle
 10
964.970711
 20
2389.724908
 30
0.0
 40
5.999999999999659
100
AcDbArc
 50
180.0
 51
255.530548
  0
ARC
  5
300
102
{ACAD_REACTORS
330
531
102
}
330
1F
100
AcDbEntity
  8
LC-002-002-----0
 62
     7
370
    25
100
AcDbCircle
 10
972.470711
 20
2364.579092
 30
0.0
 40
6.0
100
AcDbArc
 50
180.0
 51
240.011524
  0
ARC
  5
301
102
{ACAD_REACTORS
330
531
102
}
330
1F
100
AcDbEntity
  8
LC-002-002-----0
 62
     7
370
    25
100
AcDbCircle
 10
968.720711
 20
2354.04245
 30
0.0
 40
4.999999999999856
100
AcDbArc
 50
7.927775
 51
59.983847
  0
LINE
  5
302
102
{ACAD_REACTORS
330
52D
102
}
330
1F
100
AcDbEntity
  8
LC-002-002-----0
 62
     7
370
    25
100
AcDbLine
 10
1489.025659
 20
2136.715419
 30
0.0
 11
1489.796203
 21
2138.195621
 31
0.0
  0
LINE
  5
303
102
{ACAD_REACTORS
330
52D
102
}
330
1F
100
AcDbEntity
  8
LC-002-002-----0
 62
     7
370
    25
100
AcDbLine
 10
1490.566479
 20
2136.715307
 30
0.0
 11
1491.337136
 21
2138.195727
 31
0.0
  0
LINE
  5
304
102
{ACAD_REACTORS
330
52D
102
}
330
1F
100
AcDbEntity
  8
LC-002-002-----0
 62
     7
370
    25
100
AcDbLine
 10
1492.107416
 20
2136.715419
 30
0.0
 11
1492.877848
 21
2138.195406
 31
0.0
  0
LINE
  5
305
102
{ACAD_REACTORS
330
52D
102
}
330
1F
100
AcDbEntity
  8
LC-002-002-----0
 62
     7
370
    25
100
AcDbLine
 10
1493.648294
 20
2136.715419
 30
0.0
 11
1494.418727
 21
2138.195406
 31
0.0
  0
LINE
  5
306
102
{ACAD_REACTORS
330
52D
102
}
330
1F
100
AcDbEntity
  8
LC-002-002-----0
 62
     7
370
    25
100
AcDbLine
 10
1495.189173
 20
2136.715419
 30
0.0
 11
1495.959605
 21
2138.195406
 31
0.0
  0
LINE
  5
307
102
{ACAD_REACTORS
330
52D
102
}
330
1F
100
AcDbEntity
  8
LC-002-002-----0
 62
     7
370
    25
100
AcDbLine
 10
1496.730051
 20
2136.715419
 30
0.0
 11
1497.500484
 21
2138.195406
 31
0.0
  0
LINE
  5
308
102
{ACAD_REACTORS
330
52D
102
}
330
1F
100
AcDbEntity
  8
LC-002-002-----0
 62
     7
370
    25
100
AcDbLine
 10
1498.270929
 20
2136.715419
 30
0.0
 11
1499.041362
 21
2138.195406
 31
0.0
  0
LINE
  5
309
102
{ACAD_REACTORS
330
52D
102
}
330
1F
100
AcDbEntity
  8
LC-002-002-----0
 62
     7
370
    25
100
AcDbLine
 10
1501.041388
 20
2137.481489
 30
0.0
 11
1504.155137
 21
2140.595238
 31
0.0
  0
LINE
  5
30A
102
{ACAD_REACTORS
330
52D
102
}
330
1F
100
AcDbEntity
  8
LC-002-002-----0
 62
     7
370
    25
100
AcDbLine
 10
1487.255112
 20
2138.195213
 30
0.0
 11
1487.255112
 21
2182.995213
 31
0.0
  0
LINE
  5
30B
102
{ACAD_REACTORS
330
52D
102
}
330
1F
100
AcDbEntity
  8
LC-002-002-----0
 62
     7
370
    25
100
AcDbLine
 10
1505.255233
 20
2132.69012
 30
0.0
 11
1507.255137
 21
2134.690024
 31
0.0
  0
LINE
  5
30C
102
{ACAD_REACTORS
330
52D
102
}
330
1F
100
AcDbEntity
  8
LC-002-002-----0
 62
     7
370
    25
100
AcDbLine
 10
1504.155112
 20
2180.595213
 30
0.0
 11
1507.255112
 21
2180.595213
 31
0.0
  0
LINE
  5
30D
102
{ACAD_REACTORS
330
52D
102
}
330
1F
100
AcDbEntity
  8
LC-002-002-----0
 62
     7
370
    25
100
AcDbLine
 10
1499.550319
 20
2108.19
 30
0.0
 11
1499.550319
 21
2110.69
 31
0.0
  0
LINE
  5
30E
102
{ACAD_REACTORS
330
52D
102
}
330
1F
100
AcDbEntity
  8
LC-002-002-----0
 62
     7
370
    25
100
AcDbLine
 10
1500.300319
 20
2107.19
 30
0.0
 11
1500.300319
 21
2107.44
 31
0.0
  0
LINE
  5
30F
102
{ACAD_REACTORS
330
52D
102
}
330
1F
100
AcDbEntity
  8
LC-002-002-----0
 62
     7
370
    25
100
AcDbLine
 10
1501.041388
 20
2137.481489
 30
0.0
 11
1501.041388
 21
2183.708938
 31
0.0
  0
LINE
  5
310
102
{ACAD_REACTORS
330
52D
102
}
330
1F
100
AcDbEntity
  8
LC-002-002-----0
 62
     7
370
    25
100
AcDbLine
 10
1501.455112
 20
2107.19
 30
0.0
 11
1501.455112
 21
2093.69
 31
0.0
  0
LINE
  5
311
102
{ACAD_REACTORS
330
52D
102
}
330
1F
100
AcDbEntity
  8
LC-002-002-----0
 62
     7
370
    25
100
AcDbLine
 10
1504.855112
 20
2112.69
 30
0.0
 11
1504.855112
 21
2112.476149
 31
0.0
  0
LINE
  5
312
102
{ACAD_REACTORS
330
52D
102
}
330
1F
100
AcDbEntity
  8
LC-002-002-----0
 62
     7
370
    25
100
AcDbLine
 10
1505.255112
 20
2112.69
 30
0.0
 11
1505.255112
 21
2132.69
 31
0.0
  0
LINE
  5
313
102
{ACAD_REACTORS
330
52D
102
}
330
1F
100
AcDbEntity
  8
LC-002-002-----0
 62
     7
370
    25
100
AcDbLine
 10
1507.255112
 20
2034.861739
 30
0.0
 11
1507.255112
 21
2091.69
 31
0.0
  0
LINE
  5
314
102
{ACAD_REACTORS
330
52D
102
}
330
1F
100
AcDbEntity
  8
LC-002-002-----0
 62
     7
370
    25
100
AcDbLine
 10
1507.255112
 20
2140.090598
 30
0.0
 11
1507.255112
 21
2134.69
 31
0.0
  0
LINE
  5
315
102
{ACAD_REACTORS
330
52D
102
}
330
1F
100
AcDbEntity
  8
LC-002-002-----0
 62
     7
370
    25
100
AcDbLine
 10
1504.8552
 20
2112.476195
 30
0.0
 11
1503.375318
 21
2111.705817
 31
0.0
  0
LINE
  5
316
102
{ACAD_REACTORS
330
52D
102
}
330
1F
100
AcDbEntity
  8
LC-002-002-----0
 62
     7
370
    25
100
AcDbLine
 10
1504.8552
 20
2110.935317
 30
0.0
 11
1504.383951
 21
2110.69
 31
0.0
  0
LINE
  5
317
102
{ACAD_REACTORS
330
52D
102
}
330
1F
100
AcDbEntity
  8
LC-002-002-----0
 62
     7
370
    25
100
AcDbLine
 10
1547.255112
 20
2034.861739
 30
0.0
 11
1547.255112
 21
2091.69
 31
0.0
  0
LINE
  5
318
102
{ACAD_REACTORS
330
52D
102
}
330
1F
100
AcDbEntity
  8
LC-002-002-----0
 62
     7
370
    25
100
AcDbLine
 10
1547.255112
 20
2140.595213
 30
0.0
 11
1547.255112
 21
2134.69
 31
0.0
  0
LINE
  5
319
102
{ACAD_REACTORS
330
52D
102
}
330
1F
100
AcDbEntity
  8
LC-002-002-----0
 62
     7
370
    25
100
AcDbLine
 10
1549.255112
 20
2112.69
 30
0.0
 11
1549.255112
 21
2132.69
 31
0.0
  0
LINE
  5
31A
102
{ACAD_REACTORS
330
52D
102
}
330
1F
100
AcDbEntity
  8
LC-002-002-----0
 62
     7
370
    25
100
AcDbLine
 10
1549.655112
 20
2112.69
 30
0.0
 11
1549.655112
 21
2112.476149
 31
0.0
  0
LINE
  5
31B
102
{ACAD_REACTORS
330
52D
102
}
330
1F
100
AcDbEntity
  8
LC-002-002-----0
 62
     7
370
    25
100
AcDbLine
 10
1554.209904
 20
2107.439999
 30
0.0
 11
1554.959904
 21
2108.189999
 31
0.0
  0
LINE
  5
31C
102
{ACAD_REACTORS
330
52D
102
}
330
1F
100
AcDbEntity
  8
LC-002-002-----0
 62
     7
370
    25
100
AcDbLine
 10
1551.135019
 20
2111.705661
 30
0.0
 11
1549.654919
 21
2110.93517
 31
0.0
  0
LINE
  5
31D
102
{ACAD_REACTORS
330
52D
102
}
330
1F
100
AcDbEntity
  8
LC-002-002-----0
 62
     7
370
    25
100
AcDbLine
 10
1504.155112
 20
2140.595213
 30
0.0
 11
1506.750497
 21
2140.595213
 31
0.0
  0
LINE
  5
31E
102
{ACAD_REACTORS
330
52D
102
}
330
1F
100
AcDbEntity
  8
LC-002-002-----0
 62
     7
370
    25
100
AcDbLine
 10
1487.255112
 20
2138.195213
 30
0.0
 11
1488.255112
 21
2138.195213
 31
0.0
  0
LINE
  5
31F
102
{ACAD_REACTORS
330
52D
102
}
330
1F
100
AcDbEntity
  8
LC-002-002-----0
 62
     7
370
    25
100
AcDbLine
 10
1499.041262
 20
2138.195213
 30
0.0
 11
1501.041262
 21
2138.195213
 31
0.0
  0
LINE
  5
320
102
{ACAD_REACTORS
330
52D
102
}
330
1F
100
AcDbEntity
  8
LC-002-002-----0
 62
     7
370
    25
100
AcDbLine
 10
1553.055112
 20
2107.19
 30
0.0
 11
1553.055112
 21
2093.69
 31
0.0
  0
LINE
  5
321
102
{ACAD_REACTORS
330
52D
102
}
330
1F
100
AcDbEntity
  8
LC-002-002-----0
 62
     7
370
    25
100
AcDbLine
 10
1554.209906
 20
2107.19
 30
0.0
 11
1554.209906
 21
2107.44
 31
0.0
  0
LINE
  5
322
102
{ACAD_REACTORS
330
52D
102
}
330
1F
100
AcDbEntity
  8
LC-002-002-----0
 62
     7
370
    25
100
AcDbLine
 10
1554.959906
 20
2108.19
 30
0.0
 11
1554.959906
 21
2110.69
 31
0.0
  0
LINE
  5
323
102
{ACAD_REACTORS
330
52D
102
}
330
1F
100
AcDbEntity
  8
LC-002-002-----0
 62
     7
370
    25
100
AcDbLine
 10
1504.855112
 20
2112.69
 30
0.0
 11
1505.255112
 21
2112.69
 31
0.0
  0
LINE
  5
324
102
{ACAD_REACTORS
330
52D
102
}
330
1F
100
AcDbEntity
  8
LC-002-002-----0
 62
     7
370
    25
100
AcDbLine
 10
1499.550319
 20
2110.69
 30
0.0
 11
1554.959906
 21
2110.69
 31
0.0
  0
LINE
  5
325
102
{ACAD_REACTORS
330
52D
102
}
330
1F
100
AcDbEntity
  8
LC-002-002-----0
 62
     7
370
    25
100
AcDbLine
 10
1554.209906
 20
2107.19
 30
0.0
 11
1500.300319
 21
2107.19
 31
0.0
  0
LINE
  5
326
102
{ACAD_REACTORS
330
52D
102
}
330
1F
100
AcDbEntity
  8
LC-002-002-----0
 62
     7
370
    25
100
AcDbLine
 10
1551.055232
 20
2091.69
 30
0.0
 11
1503.455112
 21
2091.69
 31
0.0
  0
LINE
  5
327
102
{ACAD_REACTORS
330
52D
102
}
330
1F
100
AcDbEntity
  8
LC-002-002-----0
 62
     7
370
    25
100
AcDbLine
 10
1549.655025
 20
2112.476195
 30
0.0
 11
1551.134907
 21
2111.705817
 31
0.0
  0
LINE
  5
328
102
{ACAD_REACTORS
330
52D
102
}
330
1F
100
AcDbEntity
  8
LC-002-002-----0
 62
     7
370
    25
100
AcDbLine
 10
1549.655025
 20
2110.935317
 30
0.0
 11
1550.126273
 21
2110.69
 31
0.0
  0
LINE
  5
329
102
{ACAD_REACTORS
330
52D
102
}
330
1F
100
AcDbEntity
  8
LC-002-002-----0
 62
     7
370
    25
100
AcDbLine
 10
1503.375206
 20
2111.705661
 30
0.0
 11
1504.855305
 21
2110.93517
 31
0.0
  0
LINE
  5
32A
102
{ACAD_REACTORS
330
52D
102
}
330
1F
100
AcDbEntity
  8
LC-002-002-----0
 62
     7
370
    25
100
AcDbLine
 10
1501.041388
 20
2183.708938
 30
0.0
 11
1504.155137
 21
2180.595189
 31
0.0
  0
LINE
  5
32B
102
{ACAD_REACTORS
330
52D
102
}
330
1F
100
AcDbEntity
  8
LC-002-002-----0
 62
     7
370
    25
100
AcDbLine
 10
1549.254992
 20
2132.69012
 30
0.0
 11
1547.255055
 21
2134.690058
 31
0.0
  0
LINE
  5
32C
102
{ACAD_REACTORS
330
52D
102
}
330
1F
100
AcDbEntity
  8
LC-002-002-----0
 62
     7
370
    25
100
AcDbLine
 10
1500.30032
 20
2107.439999
 30
0.0
 11
1499.55032
 21
2108.189999
 31
0.0
  0
LINE
  5
32D
102
{ACAD_REACTORS
330
52D
102
}
330
1F
100
AcDbEntity
  8
LC-002-002-----0
 62
     7
370
    25
100
AcDbLine
 10
1497.500337
 20
2138.195301
 30
0.0
 11
1498.270774
 21
2136.715307
 31
0.0
  0
LINE
  5
32E
102
{ACAD_REACTORS
330
52D
102
}
330
1F
100
AcDbEntity
  8
LC-002-002-----0
 62
     7
370
    25
100
AcDbLine
 10
1495.959459
 20
2138.195301
 30
0.0
 11
1496.729895
 21
2136.715307
 31
0.0
  0
LINE
  5
32F
102
{ACAD_REACTORS
330
52D
102
}
330
1F
100
AcDbEntity
  8
LC-002-002-----0
 62
     7
370
    25
100
AcDbLine
 10
1494.41858
 20
2138.195301
 30
0.0
 11
1495.189017
 21
2136.715307
 31
0.0
  0
LINE
  5
330
102
{ACAD_REACTORS
330
52D
102
}
330
1F
100
AcDbEntity
  8
LC-002-002-----0
 62
     7
370
    25
100
AcDbLine
 10
1492.877702
 20
2138.195301
 30
0.0
 11
1493.648138
 21
2136.715307
 31
0.0
  0
LINE
  5
331
102
{ACAD_REACTORS
330
52D
102
}
330
1F
100
AcDbEntity
  8
LC-002-002-----0
 62
     7
370
    25
100
AcDbLine
 10
1491.336657
 20
2138.195621
 30
0.0
 11
1492.10726
 21
2136.715307
 31
0.0
  0
LINE
  5
332
102
{ACAD_REACTORS
330
52D
102
}
330
1F
100
AcDbEntity
  8
LC-002-002-----0
 62
     7
370
    25
100
AcDbLine
 10
1489.795724
 20
2138.195727
 30
0.0
 11
1490.566323
 21
2136.715419
 31
0.0
  0
LINE
  5
333
102
{ACAD_REACTORS
330
52D
102
}
330
1F
100
AcDbEntity
  8
LC-002-002-----0
 62
     7
370
    25
100
AcDbLine
 10
1488.2549
 20
2138.195621
 30
0.0
 11
1489.025503
 21
2136.715307
 31
0.0
  0
ARC
  5
334
102
{ACAD_REACTORS
330
52D
102
}
330
1F
100
AcDbEntity
  8
LC-002-002-----0
 62
     7
370
    25
100
AcDbCircle
 10
1507.255112
 20
2140.595213
 30
0.0
 40
39.99972357249999
100
AcDbArc
 50
0.0
 51
90.0
  0
ARC
  5
335
102
{ACAD_REACTORS
330
52D
102
}
330
1F
100
AcDbEntity
  8
LC-002-002-----0
 62
     7
370
    25
100
AcDbCircle
 10
1503.455112
 20
2093.69
 30
0.0
 40
2.0
100
AcDbArc
 50
180.0
 51
270.0
  0
ARC
  5
336
102
{ACAD_REACTORS
330
52D
102
}
330
1F
100
AcDbEntity
  8
LC-002-002-----0
 62
     7
370
    25
100
AcDbCircle
 10
1551.055112
 20
2093.69
 30
0.0
 40
2.0
100
AcDbArc
 50
270.0
 51
360.0
  0
LINE
  5
337
102
{ACAD_REACTORS
330
52D
102
}
330
1F
100
AcDbEntity
  8
LC-002-002-----0
 62
     7
370
    25
100
AcDbLine
 10
1506.750497
 20
2140.595213
 30
0.0
 11
1507.108666
 21
2140.448767
 31
0.0
  0
LINE
  5
338
102
{ACAD_REACTORS
330
52D
102
}
330
1F
100
AcDbEntity
  8
LC-002-002-----0
 62
     7
370
    25
100
AcDbLine
 10
1507.108666
 20
2140.448767
 30
0.0
 11
1507.255112
 21
2140.090598
 31
0.0
  0
LINE
  5
339
102
{ACAD_REACTORS
330
52D
102
}
330
1F
100
AcDbEntity
  8
LC-002-002-----0
 62
     7
370
    25
100
AcDbLine
 10
1489.025659
 20
2184.475008
 30
0.0
 11
1489.796203
 21
2182.994805
 31
0.0
  0
LINE
  5
33A
102
{ACAD_REACTORS
330
52D
102
}
330
1F
100
AcDbEntity
  8
LC-002-002-----0
 62
     7
370
    25
100
AcDbLine
 10
1490.566479
 20
2184.47512
 30
0.0
 11
1491.337136
 21
2182.9947
 31
0.0
  0
LINE
  5
33B
102
{ACAD_REACTORS
330
52D
102
}
330
1F
100
AcDbEntity
  8
LC-002-002-----0
 62
     7
370
    25
100
AcDbLine
 10
1492.107416
 20
2184.475008
 30
0.0
 11
1492.877848
 21
2182.99502
 31
0.0
  0
LINE
  5
33C
102
{ACAD_REACTORS
330
52D
102
}
330
1F
100
AcDbEntity
  8
LC-002-002-----0
 62
     7
370
    25
100
AcDbLine
 10
1493.648294
 20
2184.475008
 30
0.0
 11
1494.418727
 21
2182.99502
 31
0.0
  0
LINE
  5
33D
102
{ACAD_REACTORS
330
52D
102
}
330
1F
100
AcDbEntity
  8
LC-002-002-----0
 62
     7
370
    25
100
AcDbLine
 10
1495.189173
 20
2184.475008
 30
0.0
 11
1495.959605
 21
2182.99502
 31
0.0
  0
LINE
  5
33E
102
{ACAD_REACTORS
330
52D
102
}
330
1F
100
AcDbEntity
  8
LC-002-002-----0
 62
     7
370
    25
100
AcDbLine
 10
1496.730051
 20
2184.475008
 30
0.0
 11
1497.500484
 21
2182.99502
 31
0.0
  0
LINE
  5
33F
102
{ACAD_REACTORS
330
52D
102
}
330
1F
100
AcDbEntity
  8
LC-002-002-----0
 62
     7
370
    25
100
AcDbLine
 10
1498.270929
 20
2184.475008
 30
0.0
 11
1499.041362
 21
2182.99502
 31
0.0
  0
LINE
  5
340
102
{ACAD_REACTORS
330
52D
102
}
330
1F
100
AcDbEntity
  8
LC-002-002-----0
 62
     7
370
    25
100
AcDbLine
 10
1487.255112
 20
2182.995213
 30
0.0
 11
1488.255112
 21
2182.995213
 31
0.0
  0
LINE
  5
341
102
{ACAD_REACTORS
330
52D
102
}
330
1F
100
AcDbEntity
  8
LC-002-002-----0
 62
     7
370
    25
100
AcDbLine
 10
1499.041262
 20
2182.995213
 30
0.0
 11
1501.041262
 21
2182.995213
 31
0.0
  0
LINE
  5
342
102
{ACAD_REACTORS
330
52D
102
}
330
1F
100
AcDbEntity
  8
LC-002-002-----0
 62
     7
370
    25
100
AcDbLine
 10
1497.500337
 20
2182.995126
 30
0.0
 11
1498.270774
 21
2184.47512
 31
0.0
  0
LINE
  5
343
102
{ACAD_REACTORS
330
52D
102
}
330
1F
100
AcDbEntity
  8
LC-002-002-----0
 62
     7
370
    25
100
AcDbLine
 10
1495.959459
 20
2182.995126
 30
0.0
 11
1496.729895
 21
2184.47512
 31
0.0
  0
LINE
  5
344
102
{ACAD_REACTORS
330
52D
102
}
330
1F
100
AcDbEntity
  8
LC-002-002-----0
 62
     7
370
    25
100
AcDbLine
 10
1494.41858
 20
2182.995126
 30
0.0
 11
1495.189017
 21
2184.47512
 31
0.0
  0
LINE
  5
345
102
{ACAD_REACTORS
330
52D
102
}
330
1F
100
AcDbEntity
  8
LC-002-002-----0
 62
     7
370
    25
100
AcDbLine
 10
1492.877702
 20
2182.995126
 30
0.0
 11
1493.648138
 21
2184.47512
 31
0.0
  0
LINE
  5
346
102
{ACAD_REACTORS
330
52D
102
}
330
1F
100
AcDbEntity
  8
LC-002-002-----0
 62
     7
370
    25
100
AcDbLine
 10
1491.336657
 20
2182.994805
 30
0.0
 11
1492.10726
 21
2184.47512
 31
0.0
  0
LINE
  5
347
102
{ACAD_REACTORS
330
52D
102
}
330
1F
100
AcDbEntity
  8
LC-002-002-----0
 62
     7
370
    25
100
AcDbLine
 10
1489.795724
 20
2182.9947
 30
0.0
 11
1490.566323
 21
2184.475008
 31
0.0
  0
LINE
  5
348
102
{ACAD_REACTORS
330
52D
102
}
330
1F
100
AcDbEntity
  8
LC-002-002-----0
 62
     7
370
    25
100
AcDbLine
 10
1488.2549
 20
2182.994805
 30
0.0
 11
1489.025503
 21
2184.47512
 31
0.0
  0
LINE
  5
349
102
{ACAD_REACTORS
330
52D
102
}
330
1F
100
AcDbEntity
  8
LC-002-002-----0
 62
     7
370
    25
100
AcDbLine
 10
1550.467499
 20
2107.19
 30
0.0
 11
1550.467499
 21
2093.69
 31
0.0
  0
INSERT
  5
359
102
{ACAD_REACTORS
330
52D
102
}
330
1F
100
AcDbEntity
  8
LC-002-002-----0
 62
     7
370
    25
100
AcDbBlockReference
  2
POLY5
 10
0.0
 20
0.0
 30
0.0
  0
LINE
  5
35A
102
{ACAD_REACTORS
330
52D
102
}
330
1F
100
AcDbEntity
  8
LC-002-002-----0
 62
     7
370
    25
100
AcDbLine
 10
1527.25366
 20
2107.19
 30
0.0
 11
1527.25366
 21
2093.69
 31
0.0
  0
INSERT
  5
36A
102
{ACAD_REACTORS
330
52D
102
}
330
1F
100
AcDbEntity
  8
LC-002-002-----0
 62
     7
370
    25
100
AcDbBlockReference
  2
POLY6
 10
0.0
 20
0.0
 30
0.0
  0
LINE
  5
36B
102
{ACAD_REACTORS
330
52D
102
}
330
1F
100
AcDbEntity
  8
LC-002-002-----0
 62
     7
370
    25
100
AcDbLine
 10
1504.042618
 20
2093.69
 30
0.0
 11
1504.042618
 21
2107.19
 31
0.0
  0
INSERT
  5
37B
102
{ACAD_REACTORS
330
52D
102
}
330
1F
100
AcDbEntity
  8
LC-002-002-----0
 62
     7
370
    25
100
AcDbBlockReference
  2
POLY7
 10
0.0
 20
0.0
 30
0.0
  0
LINE
  5
37C
102
{ACAD_REACTORS
330
533
102
}
330
1F
100
AcDbEntity
  8
LC-002-002-----0
 62
     7
370
    25
100
AcDbLine
 10
1504.855112
 20
1917.19
 30
0.0
 11
1504.855112
 21
1940.69
 31
0.0
  0
LINE
  5
37D
102
{ACAD_REACTORS
330
52E
102
}
330
1F
100
AcDbEntity
  8
LC-002-002-----0
 62
     7
370
    25
100
AcDbLine
 10
1507.255112
 20
1959.69
 30
0.0
 11
1507.255112
 21
2015.69
 31
0.0
  0
LINE
  5
37E
102
{ACAD_REACTORS
330
52E
102
}
330
1F
100
AcDbEntity
  8
LC-002-002-----0
 62
     7
370
    25
100
AcDbLine
 10
1547.255112
 20
1959.69
 30
0.0
 11
1547.255112
 21
2015.69
 31
0.0
  0
LINE
  5
37F
102
{ACAD_REACTORS
330
533
102
}
330
1F
100
AcDbEntity
  8
LC-002-002-----0
 62
     7
370
    25
100
AcDbLine
 10
1549.655112
 20
1919.143149
 30
0.0
 11
1549.655112
 21
1940.69
 31
0.0
  0
ARC
  5
380
102
{ACAD_REACTORS
330
52E
102
}
330
1F
100
AcDbEntity
  8
LC-002-002-----0
 62
     7
370
    25
100
AcDbCircle
 10
1527.255112
 20
2015.69
 30
0.0
 40
20.0
100
AcDbArc
 50
0.0
 51
180.0
  0
LINE
  5
381
102
{ACAD_REACTORS
330
533
102
}
330
1F
100
AcDbEntity
  8
LC-002-002-----0
 62
     7
370
    25
100
AcDbLine
 10
1499.550319
 20
1943.19
 30
0.0
 11
1499.550319
 21
1940.69
 31
0.0
  0
LINE
  5
382
102
{ACAD_REACTORS
330
533
102
}
330
1F
100
AcDbEntity
  8
LC-002-002-----0
 62
     7
370
    25
100
AcDbLine
 10
1500.300319
 20
1944.19
 30
0.0
 11
1500.300319
 21
1943.94
 31
0.0
  0
LINE
  5
383
102
{ACAD_REACTORS
330
533
102
}
330
1F
100
AcDbEntity
  8
LC-002-002-----0
 62
     7
370
    25
100
AcDbLine
 10
1501.455112
 20
1944.19
 30
0.0
 11
1501.455112
 21
1957.69
 31
0.0
  0
LINE
  5
384
102
{ACAD_REACTORS
330
533
102
}
330
1F
100
AcDbEntity
  8
LC-002-002-----0
 62
     7
370
    25
100
AcDbLine
 10
1553.055112
 20
1944.19
 30
0.0
 11
1553.055112
 21
1957.69
 31
0.0
  0
LINE
  5
385
102
{ACAD_REACTORS
330
533
102
}
330
1F
100
AcDbEntity
  8
LC-002-002-----0
 62
     7
370
    25
100
AcDbLine
 10
1554.209906
 20
1944.19
 30
0.0
 11
1554.209906
 21
1943.94
 31
0.0
  0
LINE
  5
386
102
{ACAD_REACTORS
330
533
102
}
330
1F
100
AcDbEntity
  8
LC-002-002-----0
 62
     7
370
    25
100
AcDbLine
 10
1554.959906
 20
1943.19
 30
0.0
 11
1554.959906
 21
1940.69
 31
0.0
  0
LINE
  5
387
102
{ACAD_REACTORS
330
533
102
}
330
1F
100
AcDbEntity
  8
LC-002-002-----0
 62
     7
370
    25
100
AcDbLine
 10
1500.30032
 20
1943.940001
 30
0.0
 11
1499.55032
 21
1943.190001
 31
0.0
  0
LINE
  5
388
102
{ACAD_REACTORS
330
533
102
}
330
1F
100
AcDbEntity
  8
LC-002-002-----0
 62
     7
370
    25
100
AcDbLine
 10
1551.055112
 20
1959.69
 30
0.0
 11
1503.455112
 21
1959.69
 31
0.0
  0
LINE
  5
389
102
{ACAD_REACTORS
330
533
102
}
330
1F
100
AcDbEntity
  8
LC-002-002-----0
 62
     7
370
    25
100
AcDbLine
 10
1554.209888
 20
1944.19
 30
0.0
 11
1553.055112
 21
1944.19
 31
0.0
  0
LINE
  5
38A
102
{ACAD_REACTORS
330
533
102
}
330
1F
100
AcDbEntity
  8
LC-002-002-----0
 62
     7
370
    25
100
AcDbLine
 10
1554.959906
 20
1940.69
 30
0.0
 11
1499.550319
 21
1940.69
 31
0.0
  0
LINE
  5
38B
102
{ACAD_REACTORS
330
533
102
}
330
1F
100
AcDbEntity
  8
LC-002-002-----0
 62
     7
370
    25
100
AcDbLine
 10
1554.209904
 20
1943.940001
 30
0.0
 11
1554.959904
 21
1943.190001
 31
0.0
  0
ARC
  5
38C
102
{ACAD_REACTORS
330
533
102
}
330
1F
100
AcDbEntity
  8
LC-002-002-----0
 62
     7
370
    25
100
AcDbCircle
 10
1551.055112
 20
1957.69
 30
0.0
 40
2.0
100
AcDbArc
 50
0.0
 51
90.0
  0
ARC
  5
38D
102
{ACAD_REACTORS
330
533
102
}
330
1F
100
AcDbEntity
  8
LC-002-002-----0
 62
     7
370
    25
100
AcDbCircle
 10
1503.455112
 20
1957.69
 30
0.0
 40
2.0
100
AcDbArc
 50
90.0
 51
180.0
  0
LINE
  5
38E
102
{ACAD_REACTORS
330
533
102
}
330
1F
100
AcDbEntity
  8
LC-002-002-----0
 62
     7
370
    25
100
AcDbLine
 10
1550.467499
 20
1944.19
 30
0.0
 11
1550.467499
 21
1957.69
 31
0.0
  0
INSERT
  5
39E
102
{ACAD_REACTORS
330
533
102
}
330
1F
100
AcDbEntity
  8
LC-002-002-----0
 62
     7
370
    25
100
AcDbBlockReference
  2
POLY8
 10
0.0
 20
0.0
 30
0.0
  0
LINE
  5
39F
102
{ACAD_REACTORS
330
533
102
}
330
1F
100
AcDbEntity
  8
LC-002-002-----0
 62
     7
370
    25
100
AcDbLine
 10
1527.25366
 20
1944.19
 30
0.0
 11
1527.25366
 21
1957.69
 31
0.0
  0
INSERT
  5
3AF
102
{ACAD_REACTORS
330
533
102
}
330
1F
100
AcDbEntity
  8
LC-002-002-----0
 62
     7
370
    25
100
AcDbBlockReference
  2
POLY9
 10
0.0
 20
0.0
 30
0.0
  0
LINE
  5
3B0
102
{ACAD_REACTORS
330
533
102
}
330
1F
100
AcDbEntity
  8
LC-002-002-----0
 62
     7
370
    25
100
AcDbLine
 10
1504.042618
 20
1957.69
 30
0.0
 11
1504.042618
 21
1944.19
 31
0.0
  0
INSERT
  5
3C0
102
{ACAD_REACTORS
330
533
102
}
330
1F
100
AcDbEntity
  8
LC-002-002-----0
 62
     7
370
    25
100
AcDbBlockReference
  2
POLY10
 10
0.0
 20
0.0
 30
0.0
  0
ARC
  5
3C1
102
{ACAD_REACTORS
330
52E
102
}
330
1F
100
AcDbEntity
  8
LC-002-002-----0
 62
     7
370
    25
100
AcDbCircle
 10
1527.255112
 20
2015.69
 30
0.0
 40
27.70479324130114
100
AcDbArc
 50
316.211302
 51
223.788698
  0
LINE
  5
3C2
102
{ACAD_REACTORS
330
533
102
}
330
1F
100
AcDbEntity
  8
LC-002-002-----0
 62
     7
370
    25
100
AcDbLine
 10
1505.255112
 20
1890.69
 30
0.0
 11
1505.255112
 21
1916.79
 31
0.0
  0
ARC
  5
3C3
102
{ACAD_REACTORS
330
533
102
}
330
1F
100
AcDbEntity
  8
LC-004-002-RND-0
 62
     7
370
    25
100
AcDbCircle
 10
1527.255112
 20
1890.69
 30
0.0
 40
22.0
100
AcDbArc
 50
180.0
 51
270.0
  0
LINE
  5
3C4
102
{ACAD_REACTORS
330
533
102
}
330
1F
100
AcDbEntity
  8
LC-002-002-----0
 62
     7
370
    25
100
AcDbLine
 10
1559.214659
 20
1853.19
 30
0.0
 11
1559.214659
 21
1855.191863
 31
0.0
  0
LINE
  5
3C5
102
{ACAD_REACTORS
330
533
102
}
330
1F
100
AcDbEntity
  8
LC-002-002-----0
 62
     7
370
    25
100
AcDbLine
 10
1549.655112
 20
1919.143149
 30
0.0
 11
1551.375143
 21
1919.457385
 31
0.0
  0
LINE
  5
3C6
102
{ACAD_REACTORS
330
533
102
}
330
1F
100
AcDbEntity
  8
LC-002-002-----0
 62
     7
370
    25
100
AcDbLine
 10
1561.71466
 20
1928.19
 30
0.0
 11
1559.214659
 21
1928.19
 31
0.0
  0
LINE
  5
3C7
102
{ACAD_REACTORS
330
533
102
}
330
1F
100
AcDbEntity
  8
LC-002-002-----0
 62
     7
370
    25
100
AcDbLine
 10
1558.511415
 20
1926.188137
 30
0.0
 11
1559.214659
 21
1926.188137
 31
0.0
  0
LINE
  5
3C8
102
{ACAD_REACTORS
330
533
102
}
330
1F
100
AcDbEntity
  8
LC-002-002-----0
 62
     7
370
    25
100
AcDbLine
 10
1527.255112
 20
1868.69
 30
0.0
 11
1540.946297
 21
1868.69
 31
0.0
  0
LINE
  5
3C9
102
{ACAD_REACTORS
330
533
102
}
330
1F
100
AcDbEntity
  8
LC-002-002-----0
 62
     7
370
    25
100
AcDbLine
 10
1558.511415
 20
1855.191863
 30
0.0
 11
1559.214659
 21
1855.191863
 31
0.0
  0
LINE
  5
3CA
102
{ACAD_REACTORS
330
533
102
}
330
1F
100
AcDbEntity
  8
LC-002-002-----0
 62
     7
370
    25
100
AcDbLine
 10
1561.71466
 20
1853.19
 30
0.0
 11
1559.214659
 21
1853.19
 31
0.0
  0
LINE
  5
3CB
102
{ACAD_REACTORS
330
533
102
}
330
1F
100
AcDbEntity
  8
LC-002-002-----0
 62
     7
370
    25
100
AcDbLine
 10
1548.756279
 20
1862.401061
 30
0.0
 11
1551.375143
 21
1861.922615
 31
0.0
  0
LINE
  5
3CC
102
{ACAD_REACTORS
330
533
102
}
330
1F
100
AcDbEntity
  8
LC-002-002-----0
 62
     7
370
    25
100
AcDbLine
 10
1504.85514
 20
1917.189973
 30
0.0
 11
1505.25522
 21
1916.789892
 31
0.0
  0
ARC
  5
3CD
102
{ACAD_REACTORS
330
533
102
}
330
1F
100
AcDbEntity
  8
LC-002-002-----0
 62
     7
370
    25
100
AcDbCircle
 10
1549.924469
 20
1868.795225
 30
0.0
 40
6.500000000000005
100
AcDbArc
 50
199.07704
 51
259.645823
  0
ARC
  5
3CE
102
{ACAD_REACTORS
330
533
102
}
330
1F
100
AcDbEntity
  8
LC-002-002-----0
 62
     7
370
    25
100
AcDbCircle
 10
1540.946297
 20
1865.69
 30
0.0
 40
3.000000000000295
100
AcDbArc
 50
19.055448
 51
90.0
  0
ARC
  5
3CF
102
{ACAD_REACTORS
330
533
102
}
330
1F
100
AcDbEntity
  8
LC-002-002-----0
 62
     7
370
    25
100
AcDbCircle
 10
1558.511415
 20
1857.191863
 30
0.0
 40
2.000000000000076
100
AcDbArc
 50
244.152631
 51
270.0
  0
ARC
  5
3D0
102
{ACAD_REACTORS
330
533
102
}
330
1F
100
AcDbEntity
  8
LC-002-002-----0
 62
     7
370
    25
100
AcDbCircle
 10
1558.511415
 20
1924.188137
 30
0.0
 40
2.0
100
AcDbArc
 50
90.0
 51
115.847369
  0
ARC
  5
3D1
102
{ACAD_REACTORS
330
533
102
}
330
1F
100
AcDbEntity
  8
LC-002-002-----0
 62
     7
370
    25
100
AcDbCircle
 10
1560.255112
 20
1860.791796
 30
0.0
 40
5.999999999999973
100
AcDbArc
 50
196.283517
 51
244.155028
  0
ARC
  5
3D2
102
{ACAD_REACTORS
330
533
102
}
330
1F
100
AcDbEntity
  8
LC-002-002-----0
 62
     7
370
    25
100
AcDbCircle
 10
1560.255112
 20
1920.588204
 30
0.0
 40
6.000000000000001
100
AcDbArc
 50
115.844972
 51
163.716483
  0
ARC
  5
3D3
102
{ACAD_REACTORS
330
533
102
}
330
1F
100
AcDbEntity
  8
LC-002-002-----0
 62
     7
370
    25
100
AcDbCircle
 10
1550.656297
 20
1857.987737
 30
0.0
 40
4.000000000000152
100
AcDbArc
 50
16.281751
 51
79.647048
  0
ARC
  5
3D4
102
{ACAD_REACTORS
330
533
102
}
330
1F
100
AcDbEntity
  8
LC-002-002-----0
 62
     7
370
    25
100
AcDbCircle
 10
1550.656297
 20
1923.392263
 30
0.0
 40
4.00000000000002
100
AcDbArc
 50
280.352952
 51
343.718249
  0
LINE
  5
3D5
102
{ACAD_REACTORS
330
533
102
}
330
1F
100
AcDbEntity
  8
LC-002-002-----0
 62
     7
370
    25
100
AcDbLine
 10
1601.857341
 20
1945.69
 30
0.0
 11
1601.857341
 21
1835.69
 31
0.0
  0
LINE
  5
3D6
102
{ACAD_REACTORS
330
533
102
}
330
1F
100
AcDbEntity
  8
LC-002-002-----0
 62
     7
370
    25
100
AcDbLine
 10
1597.857341
 20
1835.69
 30
0.0
 11
1601.857341
 21
1835.69
 31
0.0
  0
LINE
  5
3D7
102
{ACAD_REACTORS
330
533
102
}
330
1F
100
AcDbEntity
  8
LC-002-002-----0
 62
     7
370
    25
100
AcDbLine
 10
1561.71466
 20
1851.185036
 30
0.0
 11
1561.71466
 21
1853.19
 31
0.0
  0
LINE
  5
3D8
102
{ACAD_REACTORS
330
533
102
}
330
1F
100
AcDbEntity
  8
LC-002-002-----0
 62
     7
370
    25
100
AcDbLine
 10
1566.044434
 20
1847.94061
 30
0.0
 11
1567.054783
 21
1846.190635
 31
0.0
  0
LINE
  5
3D9
102
{ACAD_REACTORS
330
533
102
}
330
1F
100
AcDbEntity
  8
LC-002-002-----0
 62
     7
370
    25
100
AcDbLine
 10
1572.251302
 20
1843.19
 30
0.0
 11
1587.714659
 21
1843.19
 31
0.0
  0
LINE
  5
3DA
102
{ACAD_REACTORS
330
533
102
}
330
1F
100
AcDbEntity
  8
LC-002-002-----0
 62
     7
370
    25
100
AcDbLine
 10
1597.397118
 20
1835.69
 30
0.0
 11
1597.857341
 21
1835.69
 31
0.0
  0
ARC
  5
3DB
102
{ACAD_REACTORS
330
533
102
}
330
1F
100
AcDbEntity
  8
LC-002-002-----0
 62
     7
370
    25
100
AcDbCircle
 10
1587.714659
 20
1839.19
 30
0.0
 40
3.999999999999755
100
AcDbArc
 50
14.492147
 51
90.0
  0
ARC
  5
3DC
102
{ACAD_REACTORS
330
533
102
}
330
1F
100
AcDbEntity
  8
LC-002-002-----0
 62
     7
370
    25
100
AcDbCircle
 10
1597.397118
 20
1841.69
 30
0.0
 40
5.999999999999878
100
AcDbArc
 50
194.469452
 51
270.0
  0
ARC
  5
3DD
102
{ACAD_REACTORS
330
533
102
}
330
1F
100
AcDbEntity
  8
LC-002-002-----0
 62
     7
370
    25
100
AcDbCircle
 10
1572.251302
 20
1849.19
 30
0.0
 40
6.000000000000091
100
AcDbArc
 50
209.988476
 51
270.0
  0
ARC
  5
3DE
102
{ACAD_REACTORS
330
533
102
}
330
1F
100
AcDbEntity
  8
LC-002-002-----0
 62
     7
370
    25
100
AcDbCircle
 10
1561.714659
 20
1845.44
 30
0.0
 40
4.999999999999792
100
AcDbArc
 50
30.016153
 51
82.072225
  0
ARC
  5
3DF
102
{ACAD_REACTORS
330
533
102
}
330
1F
100
AcDbEntity
  8
LC-002-002-----0
 62
     7
370
    25
100
AcDbCircle
 10
1562.514659
 20
1851.184563
 30
0.0
 40
0.7999999999997272
100
AcDbArc
 50
180.0
 51
262.062606
  0
LINE
  5
3E0
102
{ACAD_REACTORS
330
533
102
}
330
1F
100
AcDbEntity
  8
LC-002-002-----0
 62
     7
370
    25
100
AcDbLine
 10
1597.857341
 20
1945.69
 30
0.0
 11
1601.857341
 21
1945.69
 31
0.0
  0
LINE
  5
3E1
102
{ACAD_REACTORS
330
533
102
}
330
1F
100
AcDbEntity
  8
LC-002-002-----0
 62
     7
370
    25
100
AcDbLine
 10
1566.044434
 20
1933.43939
 30
0.0
 11
1567.054783
 21
1935.189365
 31
0.0
  0
LINE
  5
3E2
102
{ACAD_REACTORS
330
533
102
}
330
1F
100
AcDbEntity
  8
LC-002-002-----0
 62
     7
370
    25
100
AcDbLine
 10
1572.251302
 20
1938.19
 30
0.0
 11
1587.714659
 21
1938.19
 31
0.0
  0
LINE
  5
3E3
102
{ACAD_REACTORS
330
533
102
}
330
1F
100
AcDbEntity
  8
LC-002-002-----0
 62
     7
370
    25
100
AcDbLine
 10
1597.397118
 20
1945.69
 30
0.0
 11
1597.857341
 21
1945.69
 31
0.0
  0
ARC
  5
3E4
102
{ACAD_REACTORS
330
533
102
}
330
1F
100
AcDbEntity
  8
LC-002-002-----0
 62
     7
370
    25
100
AcDbCircle
 10
1587.714659
 20
1942.19
 30
0.0
 40
4.0
100
AcDbArc
 50
270.0
 51
345.507853
  0
ARC
  5
3E5
102
{ACAD_REACTORS
330
533
102
}
330
1F
100
AcDbEntity
  8
LC-002-002-----0
 62
     7
370
    25
100
AcDbCircle
 10
1597.397118
 20
1939.69
 30
0.0
 40
6.0
100
AcDbArc
 50
90.0
 51
165.530548
  0
ARC
  5
3E6
102
{ACAD_REACTORS
330
533
102
}
330
1F
100
AcDbEntity
  8
LC-002-002-----0
 62
     7
370
    25
100
AcDbCircle
 10
1572.251302
 20
1932.19
 30
0.0
 40
6.0
100
AcDbArc
 50
90.0
 51
150.011524
  0
ARC
  5
3E7
102
{ACAD_REACTORS
330
533
102
}
330
1F
100
AcDbEntity
  8
LC-002-002-----0
 62
     7
370
    25
100
AcDbCircle
 10
1561.714659
 20
1935.94
 30
0.0
 40
5.000000000000194
100
AcDbArc
 50
277.927775
 51
329.983847
  0
ARC
  5
3E8
102
{ACAD_REACTORS
330
533
102
}
330
1F
100
AcDbEntity
  8
LC-002-002-----0
 62
     7
370
    25
100
AcDbCircle
 10
1562.514659
 20
1930.195437
 30
0.0
 40
0.7999999999999126
100
AcDbArc
 50
97.937394
 51
180.0
  0
LINE
  5
3E9
102
{ACAD_REACTORS
330
52D
102
}
330
1F
100
AcDbEntity
  8
LC-002-002-----0
 62
     7
370
    25
100
AcDbLine
 10
1549.255112
 20
2112.69
 30
0.0
 11
1549.655112
 21
2112.69
 31
0.0
  0
LINE
  5
3EA
102
{ACAD_REACTORS
330
533
102
}
330
1F
100
AcDbEntity
  8
LC-002-002-----0
 62
     7
370
    25
100
AcDbLine
 10
1501.455112
 20
1944.19
 30
0.0
 11
1500.300337
 21
1944.19
 31
0.0
  0
LINE
  5
3EB
102
{ACAD_REACTORS
330
533
102
}
330
1F
100
AcDbEntity
  8
LC-002-002-----0
 62
     7
370
    25
100
AcDbLine
 10
1561.71466
 20
1928.19
 30
0.0
 11
1561.71466
 21
1930.195437
 31
0.0
  0
LINE
  5
3EC
102
{ACAD_REACTORS
330
533
102
}
330
1F
100
AcDbEntity
  8
LC-002-002-----0
 62
     7
370
    25
100
AcDbLine
 10
1559.214659
 20
1926.188137
 30
0.0
 11
1559.214659
 21
1928.19
 31
0.0
  0
DIMENSION
  5
3ED
102
{ACAD_REACTORS
330
529
102
}
330
1F
100
AcDbEntity
  8
LC-007-003-----0
 62
     7
370
    25
100
AcDbDimension
  2
*D18
 10
1499.550319
 20
1453.95
 30
0.0
 11
1665.96443
 21
1483.95
 31
0.0
 70
   160
 71
     5
 42
349.361891
  3
LC-DIM-L-0025-00-02
100
AcDbAlignedDimension
 13
1848.91221
 23
1511.29
 33
0.0
 14
1499.550319
 24
1889.69
 34
0.0
100
AcDbRotatedDimension
  0
LINE
  5
3FA
102
{ACAD_REACTORS
330
529
102
}
330
1F
100
AcDbEntity
  8
LC-002-002-----0
 62
     7
370
    50
100
AcDbLine
 10
1842.847988
 20
2013.890099
 30
0.0
 11
1637.849391
 21
1995.955045
 31
0.0
  0
LINE
  5
3FB
102
{ACAD_REACTORS
330
529
102
}
330
1F
100
AcDbEntity
  8
LC-002-002-----0
 62
     7
370
    50
100
AcDbLine
 10
1852.347988
 20
2006.690682
 30
0.0
 11
1639.552622
 21
1988.0735
 31
0.0
  0
ARC
  5
3FC
102
{ACAD_REACTORS
330
529
102
}
330
1F
100
AcDbEntity
  8
LC-002-002-----0
 62
     7
370
    50
100
AcDbCircle
 10
1842.41221
 20
2018.871072
 30
0.0
 40
4.99999999999988
100
AcDbArc
 50
275.0
 51
0.0
  0
ARC
  5
3FD
102
{ACAD_REACTORS
330
529
102
}
330
1F
100
AcDbEntity
  8
LC-002-002-----0
 62
     7
370
    50
100
AcDbCircle
 10
1851.91221
 20
2011.671656
 30
0.0
 40
5.000000000000107
100
AcDbArc
 50
275.0
 51
0.0
  0
ARC
  5
3FE
102
{ACAD_REACTORS
330
529
102
}
330
1F
100
AcDbEntity
  8
LC-002-002-----0
 62
     7
370
    50
100
AcDbCircle
 10
1640.72553
 20
1963.08062
 30
0.0
 40
33.00000000000016
100
AcDbArc
 50
95.0
 51
177.0
  0
ARC
  5
3FF
102
{ACAD_REACTORS
330
529
102
}
330
1F
100
AcDbEntity
  8
LC-002-002-----0
 62
     7
370
    50
100
AcDbCircle
 10
1641.731515
 20
1963.168633
 30
0.0
 40
24.99999999999986
100
AcDbArc
 50
95.0
 51
177.0
  0
LINE
  5
400
102
{ACAD_REACTORS
330
529
102
}
330
1F
100
AcDbEntity
  8
LC-002-002-----0
 62
     7
370
    50
100
AcDbLine
 10
1615.966804
 20
1949.231714
 30
0.0
 11
1616.765777
 21
1964.477032
 31
0.0
  0
ARC
  5
401
102
{ACAD_REACTORS
330
529
102
}
330
1F
100
AcDbEntity
  8
LC-002-002-----0
 62
     7
370
    50
100
AcDbCircle
 10
1614.768448
 20
1949.294518
 30
0.0
 40
1.199999999999929
100
AcDbArc
 50
275.0
 51
357.0
  0
LINE
  5
402
102
{ACAD_REACTORS
330
529
102
}
330
1F
100
AcDbEntity
  8
LC-002-002-----0
 62
     7
370
    50
100
AcDbLine
 10
1614.676617
 20
1948.0819
 30
0.0
 11
1615.91221
 21
1948.19
 31
0.0
  0
ARC
  5
403
102
{ACAD_REACTORS
330
529
102
}
330
1F
100
AcDbEntity
  8
LC-002-002-----0
 62
     7
370
    50
100
AcDbCircle
 10
1614.763773
 20
1947.085705
 30
0.0
 40
0.9999999999998402
100
AcDbArc
 50
95.0
 51
170.0
  0
LINE
  5
404
102
{ACAD_REACTORS
330
529
102
}
330
1F
100
AcDbEntity
  8
LC-002-002-----0
 62
     7
370
    50
100
AcDbLine
 10
1611.738976
 20
1935.69
 30
0.0
 11
1613.778965
 21
1947.259353
 31
0.0
  0
LINE
  5
405
102
{ACAD_REACTORS
330
529
102
}
330
1F
100
AcDbEntity
  8
LC-002-002-----0
 62
     7
370
    50
100
AcDbLine
 10
1611.738976
 20
1845.69
 30
0.0
 11
1613.778965
 21
1834.120647
 31
0.0
  0
ARC
  5
406
102
{ACAD_REACTORS
330
529
102
}
330
1F
100
AcDbEntity
  8
LC-002-002-----0
 62
     7
370
    50
100
AcDbCircle
 10
1614.763773
 20
1834.294295
 30
0.0
 40
1.000000000000125
100
AcDbArc
 50
190.0
 51
265.0
  0
LINE
  5
407
102
{ACAD_REACTORS
330
529
102
}
330
1F
100
AcDbEntity
  8
LC-002-002-----0
 62
     7
370
    50
100
AcDbLine
 10
1614.676617
 20
1833.2981
 30
0.0
 11
1614.873035
 21
1833.280916
 31
0.0
  0
ARC
  5
408
102
{ACAD_REACTORS
330
529
102
}
330
1F
100
AcDbEntity
  8
LC-002-002-----0
 62
     7
370
    50
100
AcDbCircle
 10
1614.768448
 20
1832.085482
 30
0.0
 40
1.199999999999707
100
AcDbArc
 50
3.0
 51
85.0
  0
ARC
  5
409
102
{ACAD_REACTORS
330
529
102
}
330
1F
100
AcDbEntity
  8
LC-002-002-----0
 62
     7
370
    50
100
AcDbCircle
 10
1601.518541
 20
1821.227717
 30
0.0
 40
5.999999999999874
100
AcDbArc
 50
3.0
 51
65.0
  0
LINE
  5
40A
102
{ACAD_REACTORS
330
529
102
}
330
1F
100
AcDbEntity
  8
LC-002-002-----0
 62
     7
370
    50
100
AcDbLine
 10
1603.012104
 20
1827.151525
 30
0.0
 11
1604.054251
 21
1826.665564
 31
0.0
  0
ARC
  5
40B
102
{ACAD_REACTORS
330
529
102
}
330
1F
100
AcDbEntity
  8
LC-002-002-----0
 62
     7
370
    50
100
AcDbCircle
 10
1603.857341
 20
1828.964141
 30
0.0
 40
2.0
100
AcDbArc
 50
180.0
 51
245.0
  0
LINE
  5
40C
102
{ACAD_REACTORS
330
529
102
}
330
1F
100
AcDbEntity
  8
LC-002-002-----0
 62
     7
370
    50
100
AcDbLine
 10
1601.857341
 20
1828.964141
 30
0.0
 11
1601.857341
 21
1845.69
 31
0.0
  0
ARC
  5
40D
102
{ACAD_REACTORS
330
529
102
}
330
1F
100
AcDbEntity
  8
LC-002-002-----0
 62
     7
370
    50
100
AcDbCircle
 10
1603.857341
 20
1952.415859
 30
0.0
 40
2.000000000000123
100
AcDbArc
 50
115.0
 51
180.0
  0
LINE
  5
40E
102
{ACAD_REACTORS
330
529
102
}
330
1F
100
AcDbEntity
  8
LC-002-002-----0
 62
     7
370
    50
100
AcDbLine
 10
1603.012104
 20
1954.228475
 30
0.0
 11
1604.054251
 21
1954.714436
 31
0.0
  0
ARC
  5
40F
102
{ACAD_REACTORS
330
529
102
}
330
1F
100
AcDbEntity
  8
LC-002-002-----0
 62
     7
370
    50
100
AcDbCircle
 10
1601.518541
 20
1960.152283
 30
0.0
 40
5.999999999999779
100
AcDbArc
 50
295.0
 51
357.0
  0
LINE
  5
410
102
{ACAD_REACTORS
330
529
102
}
330
1F
100
AcDbEntity
  8
LC-002-002-----0
 62
     7
370
    50
100
AcDbLine
 10
1607.510318
 20
1959.838267
 30
0.0
 11
1607.770756
 21
1964.807707
 31
0.0
  0
LINE
  5
411
102
{ACAD_REACTORS
330
529
102
}
330
1F
100
AcDbEntity
  8
LC-002-002-----0
 62
     7
370
    50
100
AcDbLine
 10
1607.510318
 20
1821.541733
 30
0.0
 11
1619.827418
 21
1586.517472
 31
0.0
  0
LINE
  5
412
102
{ACAD_REACTORS
330
529
102
}
330
1F
100
AcDbEntity
  8
LC-002-002-----0
 62
     7
370
    50
100
AcDbLine
 10
1615.966804
 20
1832.148286
 30
0.0
 11
1628.822439
 21
1586.848147
 31
0.0
  0
ARC
  5
413
102
{ACAD_REACTORS
330
529
102
}
330
1F
100
AcDbEntity
  8
LC-002-002-----0
 62
     7
370
    50
100
AcDbCircle
 10
1653.788178
 20
1588.156546
 30
0.0
 40
24.99999999999977
100
AcDbArc
 50
183.0
 51
265.0
  0
ARC
  5
414
102
{ACAD_REACTORS
330
529
102
}
330
1F
100
AcDbEntity
  8
LC-002-002-----0
 62
     7
370
    50
100
AcDbCircle
 10
1652.782193
 20
1588.244558
 30
0.0
 40
32.99999999999997
100
AcDbArc
 50
183.0
 51
265.0
  0
LINE
  5
415
102
{ACAD_REACTORS
330
529
102
}
330
1F
100
AcDbEntity
  8
LC-002-002-----0
 62
     7
370
    50
100
AcDbLine
 10
1601.857341
 20
1935.69
 30
0.0
 11
1601.857341
 21
1952.415859
 31
0.0
  0
LINE
  5
416
102
{ACAD_REACTORS
330
528
102
}
330
1F
100
AcDbEntity
  8
LC-002-002-----0
 62
     7
370
    50
100
AcDbLine
 10
1847.41221
 20
2018.871072
 30
0.0
 11
1847.41221
 21
2031.99
 31
0.0
  0
ARC
  5
417
102
{ACAD_REACTORS
330
532
102
}
330
1F
100
AcDbEntity
  8
LC-004-002-RND-0
 62
     7
370
    25
100
AcDbCircle
 10
1527.255112
 20
1839.69
 30
0.0
 40
22.0
100
AcDbArc
 50
180.0
 51
270.0
  0
LINE
  5
418
102
{ACAD_REACTORS
330
532
102
}
330
1F
100
AcDbEntity
  8
LC-002-002-----0
 62
     7
370
    25
100
AcDbLine
 10
1559.214659
 20
1802.19
 30
0.0
 11
1559.214659
 21
1804.191863
 31
0.0
  0
LINE
  5
419
102
{ACAD_REACTORS
330
532
102
}
330
1F
100
AcDbEntity
  8
LC-002-002-----0
 62
     7
370
    25
100
AcDbLine
 10
1527.255112
 20
1817.69
 30
0.0
 11
1540.946297
 21
1817.69
 31
0.0
  0
LINE
  5
41A
102
{ACAD_REACTORS
330
532
102
}
330
1F
100
AcDbEntity
  8
LC-002-002-----0
 62
     7
370
    25
100
AcDbLine
 10
1558.511415
 20
1804.191863
 30
0.0
 11
1559.214659
 21
1804.191863
 31
0.0
  0
LINE
  5
41B
102
{ACAD_REACTORS
330
532
102
}
330
1F
100
AcDbEntity
  8
LC-002-002-----0
 62
     7
370
    25
100
AcDbLine
 10
1561.71466
 20
1802.19
 30
0.0
 11
1559.214659
 21
1802.19
 31
0.0
  0
LINE
  5
41C
102
{ACAD_REACTORS
330
532
102
}
330
1F
100
AcDbEntity
  8
LC-002-002-----0
 62
     7
370
    25
100
AcDbLine
 10
1548.756279
 20
1811.401061
 30
0.0
 11
1551.375143
 21
1810.922615
 31
0.0
  0
ARC
  5
41D
102
{ACAD_REACTORS
330
532
102
}
330
1F
100
AcDbEntity
  8
LC-002-002-----0
 62
     7
370
    25
100
AcDbCircle
 10
1549.924469
 20
1817.795225
 30
0.0
 40
6.500000000000005
100
AcDbArc
 50
199.07704
 51
259.645823
  0
ARC
  5
41E
102
{ACAD_REACTORS
330
532
102
}
330
1F
100
AcDbEntity
  8
LC-002-002-----0
 62
     7
370
    25
100
AcDbCircle
 10
1540.946297
 20
1814.69
 30
0.0
 40
3.000000000000295
100
AcDbArc
 50
19.055448
 51
90.0
  0
ARC
  5
41F
102
{ACAD_REACTORS
330
532
102
}
330
1F
100
AcDbEntity
  8
LC-002-002-----0
 62
     7
370
    25
100
AcDbCircle
 10
1558.511415
 20
1806.191863
 30
0.0
 40
2.000000000000076
100
AcDbArc
 50
244.152631
 51
270.0
  0
ARC
  5
420
102
{ACAD_REACTORS
330
532
102
}
330
1F
100
AcDbEntity
  8
LC-002-002-----0
 62
     7
370
    25
100
AcDbCircle
 10
1560.255112
 20
1809.791796
 30
0.0
 40
5.999999999999973
100
AcDbArc
 50
196.283517
 51
244.155028
  0
ARC
  5
421
102
{ACAD_REACTORS
330
532
102
}
330
1F
100
AcDbEntity
  8
LC-002-002-----0
 62
     7
370
    25
100
AcDbCircle
 10
1550.656297
 20
1806.987737
 30
0.0
 40
4.000000000000152
100
AcDbArc
 50
16.281751
 51
79.647048
  0
LINE
  5
422
102
{ACAD_REACTORS
330
532
102
}
330
1F
100
AcDbEntity
  8
LC-002-002-----0
 62
     7
370
    25
100
AcDbLine
 10
1597.857341
 20
1784.69
 30
0.0
 11
1601.857341
 21
1784.69
 31
0.0
  0
LINE
  5
423
102
{ACAD_REACTORS
330
532
102
}
330
1F
100
AcDbEntity
  8
LC-002-002-----0
 62
     7
370
    25
100
AcDbLine
 10
1561.71466
 20
1800.185036
 30
0.0
 11
1561.71466
 21
1802.19
 31
0.0
  0
LINE
  5
424
102
{ACAD_REACTORS
330
532
102
}
330
1F
100
AcDbEntity
  8
LC-002-002-----0
 62
     7
370
    25
100
AcDbLine
 10
1566.044434
 20
1796.94061
 30
0.0
 11
1567.054783
 21
1795.190635
 31
0.0
  0
LINE
  5
425
102
{ACAD_REACTORS
330
532
102
}
330
1F
100
AcDbEntity
  8
LC-002-002-----0
 62
     7
370
    25
100
AcDbLine
 10
1572.251302
 20
1792.19
 30
0.0
 11
1587.714659
 21
1792.19
 31
0.0
  0
LINE
  5
426
102
{ACAD_REACTORS
330
532
102
}
330
1F
100
AcDbEntity
  8
LC-002-002-----0
 62
     7
370
    25
100
AcDbLine
 10
1597.397118
 20
1784.69
 30
0.0
 11
1597.857341
 21
1784.69
 31
0.0
  0
ARC
  5
427
102
{ACAD_REACTORS
330
532
102
}
330
1F
100
AcDbEntity
  8
LC-002-002-----0
 62
     7
370
    25
100
AcDbCircle
 10
1587.714659
 20
1788.19
 30
0.0
 40
3.999999999999755
100
AcDbArc
 50
14.492147
 51
90.0
  0
ARC
  5
428
102
{ACAD_REACTORS
330
532
102
}
330
1F
100
AcDbEntity
  8
LC-002-002-----0
 62
     7
370
    25
100
AcDbCircle
 10
1597.397118
 20
1790.69
 30
0.0
 40
5.999999999999878
100
AcDbArc
 50
194.469452
 51
270.0
  0
ARC
  5
429
102
{ACAD_REACTORS
330
532
102
}
330
1F
100
AcDbEntity
  8
LC-002-002-----0
 62
     7
370
    25
100
AcDbCircle
 10
1572.251302
 20
1798.19
 30
0.0
 40
6.000000000000091
100
AcDbArc
 50
209.988476
 51
270.0
  0
ARC
  5
42A
102
{ACAD_REACTORS
330
532
102
}
330
1F
100
AcDbEntity
  8
LC-002-002-----0
 62
     7
370
    25
100
AcDbCircle
 10
1561.714659
 20
1794.44
 30
0.0
 40
4.999999999999792
100
AcDbArc
 50
30.016153
 51
82.072225
  0
ARC
  5
42B
102
{ACAD_REACTORS
330
532
102
}
330
1F
100
AcDbEntity
  8
LC-002-002-----0
 62
     7
370
    25
100
AcDbCircle
 10
1562.514659
 20
1800.184563
 30
0.0
 40
0.7999999999997272
100
AcDbArc
 50
180.0
 51
262.062606
  0
DIMENSION
  5
42C
102
{ACAD_REACTORS
330
529
102
}
330
1F
100
AcDbEntity
  8
LC-007-003-----0
 62
     7
370
    25
100
AcDbDimension
  2
*D19
 10
2000.0
 20
2006.690682
 30
0.0
 11
1970.0
 21
1767.203699
 31
0.0
 70
   160
 71
     5
 42
461.001365
 53
90.0
  3
LC-DIM-L-0025-02-02
100
AcDbAlignedDimension
 13
1852.347988
 23
1545.689318
 33
0.0
 14
1852.347988
 24
2006.690682
 34
0.0
 50
90.0
100
AcDbRotatedDimension
  0
DIMENSION
  5
439
330
1F
100
AcDbEntity
  8
LC-007-003-----0
 62
     7
370
    25
100
AcDbDimension
  2
*D20
 10
972.391322
 20
739.659741
 30
0.0
 11
765.765941
 21
769.659741
 31
0.0
 70
   160
 71
     5
 42
786.0
  3
LC-DIM-L-0025-02-02
100
AcDbAlignedDimension
 13
579.391322
 23
821.931092
 33
0.0
 14
972.391322
 24
821.931092
 34
0.0
100
AcDbRotatedDimension
1001
ACAD
1000
DSTYLE
1002
{
1070
   144
1040
2.0
1002
}
  0
DIMENSION
  5
446
330
1F
100
AcDbEntity
  8
LC-007-003-----0
 62
     7
370
    25
100
AcDbDimension
  2
*D21
 10
773.391322
 20
1089.659741
 30
0.0
 11
673.398551
 21
1119.659741
 31
0.0
 70
   160
 71
     5
 42
388.0
  3
LC-DIM-L-0025-02-02
100
AcDbAlignedDimension
 13
579.391322
 23
1032.931092
 33
0.0
 14
773.391322
 24
1032.931092
 34
0.0
100
AcDbRotatedDimension
1001
ACAD
1000
DSTYLE
1002
{
1070
   144
1040
2.0
1002
}
  0
DIMENSION
  5
453
330
1F
100
AcDbEntity
  8
LC-007-003-----0
 62
     7
370
    25
100
AcDbDimension
  2
*D22
 10
1063.016165
 20
807.931092
 30
0.0
 11
1033.016165
 21
910.809549
 31
0.0
 70
   160
 71
     5
 42
427.0
 53
90.0
  3
LC-DIM-L-0025-02-02
100
AcDbAlignedDimension
 13
958.391322
 23
1021.431092
 33
0.0
 14
958.391322
 24
807.931092
 34
0.0
 50
90.0
100
AcDbRotatedDimension
1001
ACAD
1000
DSTYLE
1002
{
1070
   144
1040
2.0
1002
}
  0
DIMENSION
  5
460
330
1F
100
AcDbEntity
  8
LC-007-003-----0
 62
     7
370
    25
100
AcDbDimension
  2
*D23
 10
516.029796
 20
807.931092
 30
0.0
 11
486.029796
 21
942.750985
 31
0.0
 70
   160
 71
     5
 42
478.0
 53
90.0
  3
LC-DIM-L-0025-02-02
100
AcDbAlignedDimension
 13
593.391322
 23
1046.931092
 33
0.0
 14
593.391322
 24
807.931092
 34
0.0
 50
90.0
100
AcDbRotatedDimension
1001
ACAD
1000
DSTYLE
1002
{
1070
   144
1040
2.0
1002
}
  0
DIMENSION
  5
46E
330
1F
100
AcDbEntity
  8
LC-007-003-----0
 62
     7
370
    25
100
AcDbDimension
  2
*D24
 10
593.391322
 20
1032.931092
 30
0.0
 11
623.999992
 21
1019.505238
 31
0.0
 70
   164
 71
     5
 42
28.0
  3
LC-DIM-R-0025-02-02
100
AcDbRadialDimension
 15
599.338463
 25
1020.257044
 35
0.0
 40
1.0
1001
ACAD
1000
DSTYLE
1002
{
1070
   144
1040
2.0
1002
}
  0
DIMENSION
  5
477
330
1F
100
AcDbEntity
  8
LC-007-003-----0
 62
     7
370
    25
100
AcDbDimension
  2
*D25
 10
759.391322
 20
1032.931092
 30
0.0
 11
705.897942
 21
1016.053686
 31
0.0
 70
   164
 71
     5
 42
28.0
  3
LC-DIM-R-0025-02-02
100
AcDbRadialDimension
 15
747.271942
 25
1025.922481
 35
0.0
 40
1.0
1001
ACAD
1000
DSTYLE
1002
{
1070
   144
1040
2.0
1002
}
  0
DIMENSION
  5
480
330
1F
100
AcDbEntity
  8
LC-007-003-----0
 62
     7
370
    25
100
AcDbDimension
  2
*D26
 10
781.891322
 20
1029.931092
 30
0.0
 11
735.516097
 21
989.592001
 31
0.0
 70
   164
 71
     5
 42
17.0
  3
LC-DIM-R-0025-02-02
100
AcDbRadialDimension
 15
777.392126
 25
1022.719488
 35
0.0
 40
1.0
1001
ACAD
1000
DSTYLE
1002
{
1070
   144
1040
2.0
1002
}
  0
DIMENSION
  5
489
330
1F
100
AcDbEntity
  8
LC-007-003-----0
 62
     7
370
    25
100
AcDbDimension
  2
*D27
 10
958.391322
 20
1007.431092
 30
0.0
 11
917.794934
 21
986.576144
 31
0.0
 70
   164
 71
     5
 42
28.0
  3
LC-DIM-R-0025-02-02
100
AcDbRadialDimension
 15
949.774045
 25
996.397392
 35
0.0
 40
1.0
1001
ACAD
1000
DSTYLE
1002
{
1070
   144
1040
2.0
1002
}
  0
DIMENSION
  5
492
330
1F
100
AcDbEntity
  8
LC-007-003-----0
 62
     7
370
    25
100
AcDbDimension
  2
*D28
 10
958.391322
 20
821.931092
 30
0.0
 11
918.727938
 21
840.453288
 31
0.0
 70
   164
 71
     5
 42
28.0
  3
LC-DIM-R-0025-02-02
100
AcDbRadialDimension
 15
949.456426
 25
832.709201
 35
0.0
 40
1.0
1001
ACAD
1000
DSTYLE
1002
{
1070
   144
1040
2.0
1002
}
  0
DIMENSION
  5
49B
330
1F
100
AcDbEntity
  8
LC-007-003-----0
 62
     7
370
    25
100
AcDbDimension
  2
*D29
 10
593.391322
 20
821.931092
 30
0.0
 11
640.794063
 21
845.941471
 31
0.0
 70
   164
 71
     5
 42
28.0
  3
LC-DIM-R-0025-02-02
100
AcDbRadialDimension
 15
603.096391
 25
832.021267
 35
0.0
 40
1.0
1001
ACAD
1000
DSTYLE
1002
{
1070
   144
1040
2.0
1002
}
  0
TEXT
  5
4A5
330
1F
100
AcDbEntity
  8
LC-008-004-----0
 62
     7
370
    35
100
AcDbText
 10
539.47559
 20
1159.87824
 30
0.0
 40
35.0
  1
Ausschnitt Unterbau 1:20
 41
0.8
  7
LCTX0-400-0-0pDIN-Schrift
100
AcDbText
  0
LINE
  5
4A6
330
1F
100
AcDbEntity
  8
LC-002-002-----0
 62
     7
370
    50
100
AcDbLine
 10
1234.177752
 20
1981.19
 30
0.0
 11
845.277752
 21
1981.19
 31
0.0
  0
DIMENSION
  5
4A7
330
1F
100
AcDbEntity
  8
LC-007-003-----0
 62
     7
370
    25
100
AcDbDimension
  2
*D30
 10
1329.531297
 20
1511.29
 30
0.0
 11
1299.531297
 21
1717.851677
 31
0.0
 70
   160
 71
     5
 42
469.9
 53
90.0
  3
LC-DIM-L-0025-02-02
100
AcDbAlignedDimension
 13
1234.177752
 23
1981.19
 33
0.0
 14
1208.777752
 24
1511.29
 34
0.0
 50
90.0
100
AcDbRotatedDimension
  0
DIMENSION
  5
4B4
102
{ACAD_REACTORS
330
52A
102
}
330
1F
100
AcDbEntity
  8
LC-007-003-----0
 62
     7
370
    25
100
AcDbDimension
  2
*D31
 10
1265.077752
 20
2213.730996
 30
0.0
 11
822.827907
 21
2243.730996
 31
0.0
 70
   160
 71
     5
 42
900.0
  3
LC-DIM-L-0025-02-02
100
AcDbAlignedDimension
 13
365.077752
 23
2466.484971
 33
0.0
 14
1265.077752
 24
2466.484971
 34
0.0
100
AcDbRotatedDimension
  0
LINE
  5
4C1
330
1F
100
AcDbEntity
  8
LC-002-002-----0
  6
DASHDOT
 62
     7
370
    50
100
AcDbLine
 10
560.391322
 20
1076.905018
 30
0.0
 11
560.391322
 21
762.814227
 31
0.0
  0
LINE
  5
4C2
330
1F
100
AcDbEntity
  8
LC-002-002-----0
  6
DASHDOT
 62
     7
370
    50
100
AcDbLine
 10
550.891322
 20
1076.905018
 30
0.0
 11
550.891322
 21
759.620084
 31
0.0
  0
DIMENSION
  5
4C3
330
1F
100
AcDbEntity
  8
LC-007-003-----0
 62
     7
370
    25
100
AcDbDimension
  2
*D32
 10
1000.891322
 20
684.025351
 30
0.0
 11
754.626224
 21
714.025351
 31
0.0
 70
   160
 71
     5
 42
900.0
  3
LC-DIM-L-0025-02-02
100
AcDbAlignedDimension
 13
550.891322
 23
759.620084
 33
0.0
 14
1000.891322
 24
759.620084
 34
0.0
100
AcDbRotatedDimension
1001
ACAD
1000
DSTYLE
1002
{
1070
   144
1040
2.0
1002
}
  0
INSERT
  5
4DC
330
1F
100
AcDbEntity
  8
LC-009-005-----0
 62
     7
370
    25
100
AcDbBlockReference
  2
*X133
 10
0.0
 20
0.0
 30
0.0
  0
DIMENSION
  5
4DD
330
1F
100
AcDbEntity
  8
LC-007-003-----0
 62
     7
370
    25
100
AcDbDimension
  2
*D34
 10
1208.077752
 20
2750.0
 30
0.0
 11
815.620667
 21
2780.0
 31
0.0
 70
   160
 71
     5
 42
786.0
  3
LC-DIM-L-0025-02-02
100
AcDbAlignedDimension
 13
422.077752
 23
2687.24
 33
0.0
 14
1208.077752
 24
2687.24
 34
0.0
100
AcDbRotatedDimension
  0
DIMENSION
  5
4EA
330
1F
100
AcDbEntity
  8
LC-007-003-----0
 62
     7
370
    25
100
AcDbDimension
  2
*D35
 10
449.977752
 20
1565.29
 30
0.0
 11
528.298056
 21
1609.705285
 31
0.0
 70
   164
 71
     5
 42
20.0
  3
LC-DIM-R-0025-02-02
100
AcDbRadialDimension
 15
465.42545
 25
1577.993095
 35
0.0
 40
1.0
  0
DIMENSION
  5
4F3
330
1F
100
AcDbEntity
  8
LC-007-003-----0
 62
     7
370
    25
100
AcDbDimension
  2
*D36
 10
827.147752
 20
1981.09
 30
0.0
 11
744.384953
 21
1894.218108
 31
0.0
 70
   164
 71
     5
 42
25.0
  3
LC-DIM-R-0025-02-02
100
AcDbRadialDimension
 15
813.191205
 25
1960.34838
 35
0.0
 40
1.0
  0
DIMENSION
  5
4FC
330
1F
100
AcDbEntity
  8
LC-007-003-----0
 62
     7
370
    25
100
AcDbDimension
  2
*D37
 10
421.377752
 20
1536.69
 30
0.0
 11
324.661049
 21
1463.440241
 31
0.0
 70
   164
 71
     5
 42
25.4
  3
LC-DIM-R-0025-02-02
100
AcDbRadialDimension
 15
405.128163
 25
1517.167939
 35
0.0
 40
1.0
  0
DIMENSION
  5
505
330
1F
100
AcDbEntity
  8
LC-007-003-----0
 62
     7
370
    25
100
AcDbDimension
  2
*D38
 10
300.0
 20
2031.99
 30
0.0
 11
270.0
 21
1781.492958
 31
0.0
 70
   160
 71
     5
 42
520.7
 53
90.0
  3
LC-DIM-L-0025-02-02
100
AcDbAlignedDimension
 13
421.377752
 23
1511.29
 33
0.0
 14
395.977752
 24
2031.99
 34
0.0
 50
90.0
100
AcDbRotatedDimension
  0
DIMENSION
  5
512
330
1F
100
AcDbEntity
  8
LC-007-003-----0
 62
     7
370
    25
100
AcDbDimension
  2
*D39
 10
830.277752
 20
2100.0
 30
0.0
 11
609.517836
 21
2130.0
 31
0.0
 70
   160
 71
     5
 42
434.3
  3
LC-DIM-L-0025-02-02
100
AcDbAlignedDimension
 13
395.977752
 23
2031.99
 33
0.0
 14
830.277752
 24
2031.99
 34
0.0
100
AcDbRotatedDimension
  0
DIMENSION
  5
51F
330
1F
100
AcDbEntity
  8
LC-007-003-----0
 62
     7
370
    25
100
AcDbDimension
  2
*D40
 10
845.277752
 20
1996.19
 30
0.0
 11
909.239476
 21
2028.806002
 31
0.0
 70
   164
 71
     5
 42
15.0
  3
LC-DIM-R-0025-02-02
100
AcDbRadialDimension
 15
857.203576
 25
2005.288061
 35
0.0
 40
1.0
  0
ENDSEC
  0
SECTION
  2
OBJECTS
  0
DICTIONARY
  5
C
330
0
100
AcDbDictionary
281
     1
  3
ACAD_GROUP
350
D
  3
ACAD_LAYOUT
350
1A
  3
ACAD_MLINESTYLE
350
17
  3
ACAD_PLOTSETTINGS
350
19
  3
ACAD_PLOTSTYLENAME
350
E
  0
DICTIONARY
  5
D
102
{ACAD_REACTORS
330
C
102
}
330
C
100
AcDbDictionary
281
     1
  3
LCGROUP160
350
534
  3
LCGROUP20
350
52A
  3
LCGROUP22
350
529
  3
LCGROUP252
350
535
  3
LCGROUP293
350
528
  3
LCGROUP372
350
531
  3
LCGROUP373
350
530
  3
LCGROUP40
350
52C
  3
LCGROUP541
350
536
  3
LCGROUP588
350
52B
  3
LCGROUP597
350
52E
  3
LCGROUP598
350
52D
  3
LCGROUP65
350
52F
  3
LCGROUP676
350
533
  3
LCGROUP919
350
532
  0
DICTIONARY
  5
1A
102
{ACAD_REACTORS
330
C
102
}
330
C
100
AcDbDictionary
281
     1
  3
Layout1
350
1E
  3
Layout2
350
26
  3
Model
350
22
  0
DICTIONARY
  5
17
102
{ACAD_REACTORS
330
C
102
}
330
C
100
AcDbDictionary
281
     1
  3
Standard
350
18
  0
DICTIONARY
  5
19
102
{ACAD_REACTORS
330
C
102
}
330
C
100
AcDbDictionary
281
     1
  0
ACDBDICTIONARYWDFLT
  5
E
102
{ACAD_REACTORS
330
C
102
}
330
C
100
AcDbDictionary
281
     1
  3
Normal
350
F
100
AcDbDictionaryWithDefault
340
F
  0
GROUP
  5
534
102
{ACAD_REACTORS
330
D
102
}
330
D
100
AcDbGroup
300
GRP160
 70
     1
 71
     1
340
16E
340
16F
340
170
340
171
340
172
340
173
340
174
340
175
340
176
340
177
340
178
340
179
340
17A
340
17B
340
17C
340
17D
340
17E
340
17F
340
180
340
181
340
182
340
183
340
184
340
185
340
186
340
187
340
188
340
189
340
18A
340
18B
340
18C
340
18D
340
18E
340
18F
340
190
340
191
340
192
340
193
340
194
340
195
340
196
340
197
340
198
340
199
340
19A
340
19B
340
19C
340
19D
340
19E
340
19F
340
1A0
340
1A1
340
1A2
340
1A3
340
1A4
340
1A5
340
1A6
340
1A7
340
1A8
340
1A9
340
1AA
340
1AB
340
1AC
340
1AD
340
1AE
340
1AF
340
1B0
340
1B1
340
1B2
340
1B3
340
1B4
340
1B5
340
1B6
340
1B7
340
1B8
340
1B9
340
1BA
340
1BB
340
1BC
340
1BD
340
1BE
340
1BF
340
1C0
340
1C1
340
1C2
340
1C3
340
1C4
340
1C5
340
1C6
340
1C7
340
1C8
340
1EA
340
1F8
340
205
  0
GROUP
  5
52A
102
{ACAD_REACTORS
330
D
102
}
330
D
100
AcDbGroup
300
GRP20
 70
     1
 71
     1
340
108
340
10B
340
10C
340
10D
340
10E
340
110
340
112
340
115
340
119
340
212
340
213
340
214
340
215
340
216
340
4B4
  0
GROUP
  5
529
102
{ACAD_REACTORS
330
D
102
}
330
D
100
AcDbGroup
300
GRP22
 70
     1
 71
     1
340
118
340
11A
340
11C
340
11D
340
11E
340
11F
340
3ED
340
3FA
340
3FB
340
3FC
340
3FD
340
3FE
340
3FF
340
400
340
401
340
402
340
403
340
404
340
405
340
406
340
407
340
408
340
409
340
40A
340
40B
340
40C
340
40D
340
40E
340
40F
340
410
340
411
340
412
340
413
340
414
340
415
340
42C
  0
GROUP
  5
535
102
{ACAD_REACTORS
330
D
102
}
330
D
100
AcDbGroup
300
GRP252-LCMaster-LCGROUP293
 70
     1
 71
     1
340
1C9
340
1CA
340
1D1
  0
GROUP
  5
528
102
{ACAD_REACTORS
330
D
102
}
330
D
100
AcDbGroup
300
GRP293-LCMaster-LCGROUP22
 70
     1
 71
     1
340
120
340
1D2
340
1D3
340
1D4
340
1D5
340
1D6
340
1D7
340
1D8
340
1D9
340
1DA
340
1DB
340
1DC
340
1DD
340
1DE
340
1DF
340
1E0
340
1E1
340
1E2
340
1E3
340
1E4
340
1E5
340
1E6
340
1E7
340
225
340
416
  0
GROUP
  5
531
102
{ACAD_REACTORS
330
D
102
}
330
D
100
AcDbGroup
300
GRP372
 70
     1
 71
     1
340
23F
340
240
340
241
340
242
340
243
340
244
340
245
340
246
340
247
340
248
340
249
340
24A
340
24B
340
24C
340
24D
340
24E
340
24F
340
250
340
251
340
252
340
253
340
254
340
255
340
256
340
257
340
258
340
259
340
25A
340
25B
340
25C
340
25D
340
25E
340
25F
340
260
340
261
340
262
340
263
340
264
340
265
340
273
340
274
340
2A8
340
2A9
340
2AA
340
2AB
340
2AC
340
2AD
340
2AE
340
2AF
340
2B0
340
2B1
340
2B2
340
2B3
340
2B4
340
2B5
340
2B6
340
2B7
340
2B8
340
2B9
340
2BA
340
2BB
340
2BC
340
2BD
340
2BE
340
2BF
340
2C0
340
2C1
340
2C2
340
2C3
340
2C4
340
2C5
340
2C6
340
2C7
340
2C8
340
2C9
340
2F8
340
2F9
340
2FA
340
2FB
340
2FC
340
2FE
340
2FF
340
300
340
301
  0
GROUP
  5
530
102
{ACAD_REACTORS
330
D
102
}
330
D
100
AcDbGroup
300
GRP373-LCMaster-LCGROUP372
 70
     1
 71
     1
340
232
340
233
340
234
340
235
340
266
340
267
340
268
340
269
340
26A
340
26B
340
26C
340
26D
340
26E
340
26F
340
270
340
271
340
272
340
275
340
285
340
295
340
296
340
2A6
340
2A7
340
2CA
340
2CB
340
2F5
  0
GROUP
  5
52C
102
{ACAD_REACTORS
330
D
102
}
330
D
100
AcDbGroup
300
GRP40
 70
     1
 71
     1
340
122
340
123
340
124
340
125
340
126
340
127
340
128
340
129
340
12A
340
12B
340
12C
340
12D
  0
GROUP
  5
536
102
{ACAD_REACTORS
330
D
102
}
330
D
100
AcDbGroup
300
GRP541-LCMaster-LCGROUP373
 70
     1
 71
     1
340
2CC
340
2CD
340
2CE
340
2CF
340
2D0
340
2D1
340
2D2
340
2D3
340
2D4
340
2D5
340
2D6
340
2D7
340
2D8
340
2D9
340
2DA
340
2DB
340
2DC
340
2DD
340
2DE
340
2DF
340
2E0
340
2E1
340
2E2
340
2E3
340
2E4
340
2E5
340
2E6
340
2E7
340
2E8
340
2E9
340
2EA
340
2EB
340
2EC
340
2ED
340
2EE
340
2EF
340
2F0
340
2F1
340
2F2
340
2F3
340
2F4
340
2F6
340
2F7
  0
GROUP
  5
52B
102
{ACAD_REACTORS
330
D
102
}
330
D
100
AcDbGroup
300
Gruppe 588
 70
     1
 71
     1
340
2FD
  0
GROUP
  5
52E
102
{ACAD_REACTORS
330
D
102
}
330
D
100
AcDbGroup
300
GRP597-LCMaster-LCGROUP676
 70
     1
 71
     1
340
37D
340
37E
340
380
340
3C1
  0
GROUP
  5
52D
102
{ACAD_REACTORS
330
D
102
}
330
D
100
AcDbGroup
300
GRP2961-LCMaster-LCGROUP597
 70
     1
 71
     1
340
302
340
303
340
304
340
305
340
306
340
307
340
308
340
309
340
30A
340
30B
340
30C
340
30D
340
30E
340
30F
340
310
340
311
340
312
340
313
340
314
340
315
340
316
340
317
340
318
340
319
340
31A
340
31B
340
31C
340
31D
340
31E
340
31F
340
320
340
321
340
322
340
323
340
324
340
325
340
326
340
327
340
328
340
329
340
32A
340
32B
340
32C
340
32D
340
32E
340
32F
340
330
340
331
340
332
340
333
340
334
340
335
340
336
340
337
340
338
340
339
340
33A
340
33B
340
33C
340
33D
340
33E
340
33F
340
340
340
341
340
342
340
343
340
344
340
345
340
346
340
347
340
348
340
349
340
359
340
35A
340
36A
340
36B
340
37B
340
3E9
  0
GROUP
  5
52F
102
{ACAD_REACTORS
330
D
102
}
330
D
100
AcDbGroup
300
GRP65
 70
     1
 71
     1
340
12E
340
12F
340
130
340
131
340
132
340
133
340
134
340
135
340
136
340
137
340
138
340
139
340
13A
340
13B
340
13C
340
13D
340
13E
340
13F
340
140
340
141
340
142
340
143
340
144
340
145
340
146
340
147
340
148
340
149
340
14A
340
14B
340
14C
340
14D
340
14E
340
14F
340
150
340
151
340
152
340
153
340
154
340
155
340
156
340
157
340
158
340
159
340
15A
340
15C
340
15D
340
15E
340
15F
340
160
340
161
340
162
340
163
340
164
340
165
340
166
340
167
340
168
340
169
340
16A
340
16B
340
16C
340
16D
340
218
  0
GROUP
  5
533
102
{ACAD_REACTORS
330
D
102
}
330
D
100
AcDbGroup
300
GRP676
 70
     1
 71
     1
340
37C
340
37F
340
381
340
382
340
383
340
384
340
385
340
386
340
387
340
388
340
389
340
38A
340
38B
340
38C
340
38D
340
38E
340
39E
340
39F
340
3AF
340
3B0
340
3C0
340
3C2
340
3C3
340
3C4
340
3C5
340
3C6
340
3C7
340
3C8
340
3C9
340
3CA
340
3CB
340
3CC
340
3CD
340
3CE
340
3CF
340
3D0
340
3D1
340
3D2
340
3D3
340
3D4
340
3D5
340
3D6
340
3D7
340
3D8
340
3D9
340
3DA
340
3DB
340
3DC
340
3DD
340
3DE
340
3DF
340
3E0
340
3E1
340
3E2
340
3E3
340
3E4
340
3E5
340
3E6
340
3E7
340
3E8
340
3EA
340
3EB
340
3EC
  0
GROUP
  5
532
102
{ACAD_REACTORS
330
D
102
}
330
D
100
AcDbGroup
300
Gruppe 919-LCMaster-LCGROUP676
 70
     1
 71
     1
340
10F
340
417
340
418
340
419
340
41A
340
41B
340
41C
340
41D
340
41E
340
41F
340
420
340
421
340
422
340
423
340
424
340
425
340
426
340
427
340
428
340
429
340
42A
340
42B
  0
LAYOUT
  5
1E
102
{ACAD_REACTORS
330
1A
102
}
330
1A
100
AcDbPlotSettings
  1

  2

  4

  6

 40
0.0
 41
0.0
 42
0.0
 43
0.0
 44
0.0
 45
0.0
 46
0.0
 47
0.0
 48
0.0
 49
0.0
140
0.0
141
0.0
142
1.0
143
1.0
 70
   688
 72
     0
 73
     0
 74
     5
  7

 75
    16
 76
     0
 77
     2
 78
   300
147
1.0
148
0.0
149
0.0
100
AcDbLayout
  1
Layout1
 70
     1
 71
     1
 10
0.0
 20
0.0
 11
2100.0
 21
2970.0
 12
0.0
 22
0.0
 32
0.0
 14
0.0
 24
0.0
 34
0.0
 15
2100.0
 25
2970.0
 35
0.0
146
0.0
 13
0.0
 23
0.0
 33
0.0
 16
1.0
 26
0.0
 36
0.0
 17
0.0
 27
1.0
 37
0.0
 76
     0
330
1B
  0
LAYOUT
  5
26
102
{ACAD_REACTORS
330
1A
102
}
330
1A
100
AcDbPlotSettings
  1

  2

  4

  6

 40
0.0
 41
0.0
 42
0.0
 43
0.0
 44
0.0
 45
0.0
 46
0.0
 47
0.0
 48
0.0
 49
0.0
140
0.0
141
0.0
142
1.0
143
1.0
 70
   688
 72
     0
 73
     0
 74
     5
  7

 75
    16
 76
     0
 77
     2
 78
   300
147
1.0
148
0.0
149
0.0
100
AcDbLayout
  1
Layout2
 70
     1
 71
     2
 10
0.0
 20
0.0
 11
0.0
 21
0.0
 12
0.0
 22
0.0
 32
0.0
 14
0.0
 24
0.0
 34
0.0
 15
0.0
 25
0.0
 35
0.0
146
0.0
 13
0.0
 23
0.0
 33
0.0
 16
1.0
 26
0.0
 36
0.0
 17
0.0
 27
1.0
 37
0.0
 76
     0
330
23
  0
LAYOUT
  5
22
102
{ACAD_REACTORS
330
1A
102
}
330
1A
100
AcDbPlotSettings
  1

  2

  4

  6

 40
0.0
 41
0.0
 42
0.0
 43
0.0
 44
0.0
 45
0.0
 46
0.0
 47
0.0
 48
0.0
 49
0.0
140
0.0
141
0.0
142
1.0
143
1.0
 70
  1776
 72
     0
 73
     0
 74
     0
  7

 75
     0
 76
     0
 77
     2
 78
   300
147
1.0
148
0.0
149
0.0
100
AcDbLayout
  1
Model
 70
     1
 71
     0
 10
0.0
 20
0.0
 11
2100.0
 21
2970.0
 12
0.0
 22
0.0
 32
0.0
 14
0.0
 24
0.0
 34
0.0
 15
2100.0
 25
2970.0
 35
0.0
146
0.0
 13
0.0
 23
0.0
 33
0.0
 16
1.0
 26
0.0
 36
0.0
 17
0.0
 27
1.0
 37
0.0
 76
     0
330
1F
  0
MLINESTYLE
  5
18
102
{ACAD_REACTORS
330
17
102
}
330
17
100
AcDbMlineStyle
  2
Standard
 70
     0
  3

 62
   256
 51
90.0
 52
90.0
 71
     2
 49
0.5
 62
   256
  6
BYLAYER
 49
-0.5
 62
   256
  6
BYLAYER
  0
ACDBPLACEHOLDER
  5
F
102
{ACAD_REACTORS
330
E
102
}
330
E
  0
ENDSEC
  0
EOF
