  0
SECTION
  2
HEADER
  9
$ACADVER
  1
AC1018
  9
$ACADMAINTVER
 70
     0
  9
$DWGCODEPAGE
  3
ANSI_1252
  9
$INSBASE
 10
0.0
 20
0.0
 30
0.0
  9
$EXTMIN
 10
0.0
 20
0.0
 30
0.0
  9
$EXTMAX
 10
2100.0
 20
2970.0
 30
0.0
  9
$LIMMIN
 10
0.0
 20
0.0
  9
$LIMMAX
 10
2100.0
 20
2970.0
  9
$ORTHOMODE
 70
     0
  9
$REGENMODE
 70
     1
  9
$FILLMODE
 70
     1
  9
$QTEXTMODE
 70
     0
  9
$MIRRTEXT
 70
     1
  9
$LTSCALE
 40
10.0
  9
$ATTMODE
 70
     1
  9
$TEXTSIZE
 40
2.5
  9
$TRACEWID
 40
1.0
  9
$TEXTSTYLE
  7
Standard
  9
$CLAYER
  8
0
  9
$CELTYPE
  6
ByLayer
  9
$CECOLOR
 62
     7
  9
$CELTSCALE
 40
1.0
  9
$DISPSILH
 70
     0
  9
$DIMSCALE
 40
10.0
  9
$DIMASZ
 40
3.5
  9
$DIMEXO
 40
0.625
  9
$DIMDLI
 40
3.75
  9
$DIMRND
 40
0.0
  9
$DIMDLE
 40
0.0
  9
$DIMEXE
 40
1.25
  9
$DIMTP
 40
0.0
  9
$DIMTM
 40
0.0
  9
$DIMTXT
 40
3.5
  9
$DIMCEN
 40
2.5
  9
$DIMTSZ
 40
0.0
  9
$DIMTOL
 70
     0
  9
$DIMLIM
 70
     0
  9
$DIMTIH
 70
     0
  9
$DIMTOH
 70
     0
  9
$DIMSE1
 70
     0
  9
$DIMSE2
 70
     0
  9
$DIMTAD
 70
     1
  9
$DIMZIN
 70
     8
  9
$DIMBLK
  1

  9
$DIMASO
 70
     1
  9
$DIMSHO
 70
     1
  9
$DIMPOST
  1

  9
$DIMAPOST
  1

  9
$DIMALT
 70
     0
  9
$DIMALTD
 70
     3
  9
$DIMALTF
 40
0.03937
  9
$DIMLFAC
 40
1.0
  9
$DIMTOFL
 70
     1
  9
$DIMTVP
 40
0.0
  9
$DIMTIX
 70
     0
  9
$DIMSOXD
 70
     0
  9
$DIMSAH
 70
     0
  9
$DIMBLK1
  1

  9
$DIMBLK2
  1

  9
$DIMSTYLE
  2
ISO-25
  9
$DIMCLRD
 70
     0
  9
$DIMCLRE
 70
     0
  9
$DIMCLRT
 70
     0
  9
$DIMTFAC
 40
1.0
  9
$DIMGAP
 40
0.625
  9
$DIMJUST
 70
     0
  9
$DIMSD1
 70
     0
  9
$DIMSD2
 70
     0
  9
$DIMTOLJ
 70
     0
  9
$DIMTZIN
 70
     8
  9
$DIMALTZ
 70
     0
  9
$DIMALTTZ
 70
     0
  9
$DIMUPT
 70
     0
  9
$DIMDEC
 70
     2
  9
$DIMTDEC
 70
     2
  9
$DIMALTU
 70
     2
  9
$DIMALTTD
 70
     3
  9
$DIMTXSTY
  7
Standard
  9
$DIMAUNIT
 70
     0
  9
$DIMADEC
 70
     0
  9
$DIMALTRND
 40
0.0
  9
$DIMAZIN
 70
     0
  9
$DIMDSEP
 70
    44
  9
$DIMATFIT
 70
     3
  9
$DIMFRAC
 70
     0
  9
$DIMLDRBLK
  1

  9
$DIMLUNIT
 70
     2
  9
$DIMLWD
 70
    -2
  9
$DIMLWE
 70
    -2
  9
$DIMTMOVE
 70
     0
  9
$LUNITS
 70
     2
  9
$LUPREC
 70
     4
  9
$SKETCHINC
 40
1.0
  9
$FILLETRAD
 40
10.0
  9
$AUNITS
 70
     0
  9
$AUPREC
 70
     0
  9
$MENU
  1
.
  9
$ELEVATION
 40
0.0
  9
$PELEVATION
 40
0.0
  9
$THICKNESS
 40
0.0
  9
$LIMCHECK
 70
     0
  9
$CHAMFERA
 40
10.0
  9
$CHAMFERB
 40
10.0
  9
$CHAMFERC
 40
20.0
  9
$CHAMFERD
 40
0.0
  9
$SKPOLY
 70
     0
  9
$TDCREATE
 40
2456821.513990324
  9
$TDUCREATE
 40
2456821.430656991
  9
$TDUPDATE
 40
2456821.513990336
  9
$TDUUPDATE
 40
2456821.430657002
  9
$TDINDWG
 40
0.0000000116
  9
$TDUSRTIMER
 40
0.0000000116
  9
$USRTIMER
 70
     1
  9
$ANGBASE
 50
0.0
  9
$ANGDIR
 70
     0
  9
$PDMODE
 70
     0
  9
$PDSIZE
 40
0.0
  9
$PLINEWID
 40
0.0
  9
$SPLFRAME
 70
     0
  9
$SPLINETYPE
 70
     6
  9
$SPLINESEGS
 70
     8
  9
$HANDSEED
  5
5DB
  9
$SURFTAB1
 70
     6
  9
$SURFTAB2
 70
     6
  9
$SURFTYPE
 70
     6
  9
$SURFU
 70
     6
  9
$SURFV
 70
     6
  9
$UCSBASE
  2

  9
$UCSNAME
  2

  9
$UCSORG
 10
0.0
 20
0.0
 30
0.0
  9
$UCSXDIR
 10
1.0
 20
0.0
 30
0.0
  9
$UCSYDIR
 10
0.0
 20
1.0
 30
0.0
  9
$UCSORTHOREF
  2

  9
$UCSORTHOVIEW
 70
     0
  9
$UCSORGTOP
 10
0.0
 20
0.0
 30
0.0
  9
$UCSORGBOTTOM
 10
0.0
 20
0.0
 30
0.0
  9
$UCSORGLEFT
 10
0.0
 20
0.0
 30
0.0
  9
$UCSORGRIGHT
 10
0.0
 20
0.0
 30
0.0
  9
$UCSORGFRONT
 10
0.0
 20
0.0
 30
0.0
  9
$UCSORGBACK
 10
0.0
 20
0.0
 30
0.0
  9
$PUCSBASE
  2

  9
$PUCSNAME
  2

  9
$PUCSORG
 10
0.0
 20
0.0
 30
0.0
  9
$PUCSXDIR
 10
1.0
 20
0.0
 30
0.0
  9
$PUCSYDIR
 10
0.0
 20
1.0
 30
0.0
  9
$PUCSORTHOREF
  2

  9
$PUCSORTHOVIEW
 70
     0
  9
$PUCSORGTOP
 10
0.0
 20
0.0
 30
0.0
  9
$PUCSORGBOTTOM
 10
0.0
 20
0.0
 30
0.0
  9
$PUCSORGLEFT
 10
0.0
 20
0.0
 30
0.0
  9
$PUCSORGRIGHT
 10
0.0
 20
0.0
 30
0.0
  9
$PUCSORGFRONT
 10
0.0
 20
0.0
 30
0.0
  9
$PUCSORGBACK
 10
0.0
 20
0.0
 30
0.0
  9
$USERI1
 70
     0
  9
$USERI2
 70
     0
  9
$USERI3
 70
     0
  9
$USERI4
 70
     0
  9
$USERI5
 70
     0
  9
$USERR1
 40
0.0
  9
$USERR2
 40
0.0
  9
$USERR3
 40
0.0
  9
$USERR4
 40
0.0
  9
$USERR5
 40
0.0
  9
$WORLDVIEW
 70
     1
  9
$SHADEDGE
 70
     3
  9
$SHADEDIF
 70
    70
  9
$TILEMODE
 70
     1
  9
$MAXACTVP
 70
    64
  9
$PINSBASE
 10
0.0
 20
0.0
 30
0.0
  9
$PLIMCHECK
 70
     0
  9
$PEXTMIN
 10
0.0
 20
0.0
 30
0.0
  9
$PEXTMAX
 10
2100.0
 20
2970.0
 30
0.0
  9
$PLIMMIN
 10
0.0
 20
0.0
  9
$PLIMMAX
 10
2100.0
 20
2970.0
  9
$UNITMODE
 70
     0
  9
$VISRETAIN
 70
     1
  9
$PLINEGEN
 70
     0
  9
$PSLTSCALE
 70
     1
  9
$TREEDEPTH
 70
  3020
  9
$CMLSTYLE
  2
Standard
  9
$CMLJUST
 70
     0
  9
$CMLSCALE
 40
20.0
  9
$PROXYGRAPHICS
 70
     1
  9
$MEASUREMENT
 70
     1
  9
$CELWEIGHT
370
    -1
  9
$ENDCAPS
280
     0
  9
$JOINSTYLE
280
     0
  9
$LWDISPLAY
290
     0
  9
$INSUNITS
 70
     4
  9
$HYPERLINKBASE
  1

  9
$STYLESHEET
  1

  9
$XEDIT
290
     1
  9
$CEPSNTYPE
380
     0
  9
$PSTYLEMODE
290
     1
  9
$FINGERPRINTGUID
  2
{FAEB1C30-E019-11D5-929B-00C0DF256EC4}
  9
$VERSIONGUID
  2
{FAEB1C32-E019-11D5-929B-00C0DF256EC4}
  9
$EXTNAMES
290
     1
  9
$PSVPSCALE
 40
0.0
  9
$OLESTARTUP
290
     0
  9
$SORTENTS
280
   127
  9
$INDEXCTL
280
     0
  9
$HIDETEXT
280
     1
  9
$XCLIPFRAME
290
     0
  9
$HALOGAP
280
     0
  9
$OBSCOLOR
 70
   257
  9
$OBSLTYPE
280
     0
  9
$INTERSECTIONDISPLAY
280
     0
  9
$INTERSECTIONCOLOR
 70
   257
  9
$DIMASSOC
280
     2
  9
$PROJECTNAME
  1

  0
ENDSEC
  0
SECTION
  2
CLASSES
  0
CLASS
  1
ACDBDICTIONARYWDFLT
  2
AcDbDictionaryWithDefault
  3
ObjectDBX Classes
 90
        0
 91
        1
280
     0
281
     0
  0
ENDSEC
  0
SECTION
  2
TABLES
  0
TABLE
  2
VPORT
  5
8
330
0
100
AcDbSymbolTable
 70
     2
  0
VPORT
  5
29
330
8
100
AcDbSymbolTableRecord
100
AcDbViewportTableRecord
  2
*ACTIVE
 70
     0
 10
0.0
 20
0.0
 11
1.0
 21
1.0
 12
1050.0
 22
1485.0
 13
0.0
 23
0.0
 14
1.0
 24
1.0
 15
0.0
 25
0.0
 16
0.0
 26
0.0
 36
1.0
 17
0.0
 27
0.0
 37
0.0
 40
2970.0
 41
0.707071
 42
50.0
 43
0.0
 44
0.0
 50
0.0
 51
0.0
 71
    16
 72
   100
 73
     1
 74
     0
 75
     0
 76
     0
 77
     0
 78
     0
281
     0
 65
     0
110
0.0
120
0.0
130
0.0
111
1.0
121
0.0
131
0.0
112
0.0
122
1.0
132
0.0
 79
     0
146
0.0
  0
ENDTAB
  0
TABLE
  2
LTYPE
  5
5
330
0
100
AcDbSymbolTable
 70
     2
  0
LTYPE
  5
14
330
5
100
AcDbSymbolTableRecord
100
AcDbLinetypeTableRecord
  2
ByBlock
 70
     0
  3

 72
    65
 73
     0
 40
0.0
  0
LTYPE
  5
15
330
5
100
AcDbSymbolTableRecord
100
AcDbLinetypeTableRecord
  2
ByLayer
 70
     0
  3

 72
    65
 73
     0
 40
0.0
  0
LTYPE
  5
16
330
5
100
AcDbSymbolTableRecord
100
AcDbLinetypeTableRecord
  2
Continuous
 70
     0
  3
Solid line
 72
    65
 73
     0
 40
0.0
  0
LTYPE
  5
2A
330
5
100
AcDbSymbolTableRecord
100
AcDbLinetypeTableRecord
  2
DASHED
 70
     0
  3
__ __ __ __ __
 72
    65
 73
     2
 40
6.25
 49
5.0
 74
     4
 75
     0
340
0
 46
1.0
 50
0.0
 44
0.0
 45
0.0
 49
-1.25
 74
     4
 75
     0
340
0
 46
1.0
 50
0.0
 44
0.0
 45
0.0
  0
ENDTAB
  0
TABLE
  2
LAYER
  5
2
330
0
100
AcDbSymbolTable
 70
    14
  0
LAYER
  5
10
330
2
100
AcDbSymbolTableRecord
100
AcDbLayerTableRecord
  2
0
 70
     0
 62
     7
  6
Continuous
370
    -3
390
F
  0
LAYER
  5
2B
330
2
100
AcDbSymbolTableRecord
100
AcDbLayerTableRecord
  2
LC-INFO-1-10-mm-A4H-0
 70
     1
 62
     7
  6
ByBlock
370
    -3
390
F
  0
LAYER
  5
2C
330
2
100
AcDbSymbolTableRecord
100
AcDbLayerTableRecord
  2
LC-CUT-HIDDEN
 70
     0
 62
     7
  6
DASHED
370
    -3
390
F
  0
LAYER
  5
2D
330
2
100
AcDbSymbolTableRecord
100
AcDbLayerTableRecord
  2
LC-VIEWPORT
 70
     0
 62
     7
  6
ByBlock
370
    -3
390
F
  0
LAYER
  5
2E
330
2
100
AcDbSymbolTableRecord
100
AcDbLayerTableRecord
  2
LC-3D-HIDDEN
 70
     0
 62
     9
  6
DASHED
370
    -3
390
F
  0
LAYER
  5
33
330
2
100
AcDbSymbolTableRecord
100
AcDbLayerTableRecord
  2
LC-001-111-----0
 70
     0
 62
   253
  6
ByBlock
370
    -3
390
F
  0
LAYER
  5
A0
330
2
100
AcDbSymbolTableRecord
100
AcDbLayerTableRecord
  2
LC-002-002-----0
 70
     0
 62
     1
  6
ByBlock
370
    -3
390
F
  0
LAYER
  5
101
330
2
100
AcDbSymbolTableRecord
100
AcDbLayerTableRecord
  2
LC-003-230-ZVN-0
 70
     0
 62
     7
  6
Continuous
370
    -3
390
F
  0
LAYER
  5
117
330
2
100
AcDbSymbolTableRecord
100
AcDbLayerTableRecord
  2
LC-004-002-RND-0
 70
     0
 62
     1
  6
ByBlock
370
    -3
390
F
  0
LAYER
  5
189
330
2
100
AcDbSymbolTableRecord
100
AcDbLayerTableRecord
  2
LC-005-100-D00-0
 70
     0
 62
    44
  6
ByBlock
370
    -3
390
F
  0
LAYER
  5
252
330
2
100
AcDbSymbolTableRecord
100
AcDbLayerTableRecord
  2
LC-006-003-----0
 70
     0
 62
     2
  6
ByBlock
370
    -3
390
F
  0
LAYER
  5
254
330
2
100
AcDbSymbolTableRecord
100
AcDbLayerTableRecord
  2
Defpoints
 70
     0
 62
     7
  6
Continuous
290
     0
370
    -3
390
F
  0
LAYER
  5
2BD
330
2
100
AcDbSymbolTableRecord
100
AcDbLayerTableRecord
  2
LC-007-004-----0
 70
     0
 62
     7
  6
ByBlock
370
    -3
390
F
  0
LAYER
  5
2CE
330
2
100
AcDbSymbolTableRecord
100
AcDbLayerTableRecord
  2
LC-008-005-----0
 70
     0
 62
     2
  6
ByBlock
370
    -3
390
F
  0
ENDTAB
  0
TABLE
  2
STYLE
  5
3
330
0
100
AcDbSymbolTable
 70
     2
  0
STYLE
  5
11
330
3
100
AcDbSymbolTableRecord
100
AcDbTextStyleTableRecord
  2
Standard
 70
     0
 40
0.0
 41
1.0
 50
0.0
 71
     0
 42
2.5
  3
txt
  4

  0
STYLE
  5
2F
330
3
100
AcDbSymbolTableRecord
100
AcDbTextStyleTableRecord
  2
LCTX0-400-0-0pDIN-Schrift
 70
     0
 40
0.0
 41
0.7
 50
0.0
 71
     0
 42
3.5
  3
TXT
  4

  0
ENDTAB
  0
TABLE
  2
VIEW
  5
6
330
0
100
AcDbSymbolTable
 70
     0
  0
ENDTAB
  0
TABLE
  2
UCS
  5
7
330
0
100
AcDbSymbolTable
 70
     0
  0
ENDTAB
  0
TABLE
  2
APPID
  5
9
330
0
100
AcDbSymbolTable
 70
     1
  0
APPID
  5
12
330
9
100
AcDbSymbolTableRecord
100
AcDbRegAppTableRecord
  2
ACAD
 70
     0
  0
ENDTAB
  0
TABLE
  2
DIMSTYLE
  5
A
330
0
100
AcDbSymbolTable
 70
     4
100
AcDbDimStyleTable
  0
DIMSTYLE
105
27
330
A
100
AcDbSymbolTableRecord
100
AcDbDimStyleTableRecord
  2
ISO-25
 70
     0
 41
2.5
 42
0.625
 43
3.75
 44
1.25
 73
     0
 74
     0
 77
     1
 78
     8
140
2.5
141
2.5
143
0.03937
147
0.625
171
     3
172
     1
271
     2
272
     2
274
     3
278
    44
283
     0
284
     8
340
11
  0
DIMSTYLE
105
251
102
{ACAD_REACTORS
330
253
330
261
330
289
330
296
330
2A3
330
2B0
330
2EB
330
2F8
330
307
330
314
330
599
330
5A6
330
5B3
330
5C0
102
}
330
A
100
AcDbSymbolTableRecord
100
AcDbDimStyleTableRecord
  2
LC-DIM-L-0025-02-02
 70
     0
 40
10.0
 41
2.5
 42
0.0
 43
7.5
 44
1.8
 73
     0
 74
     0
 77
     1
 78
     8
 79
     2
140
2.5
141
0.0
146
0.71
147
1.5
172
     1
176
     2
177
     2
178
     2
179
     2
271
     2
278
    44
289
     1
340
2F
  0
DIMSTYLE
105
26E
102
{ACAD_REACTORS
330
26F
330
27C
330
2DC
330
440
102
}
330
A
100
AcDbSymbolTableRecord
100
AcDbDimStyleTableRecord
  2
LC-DIM-L-0025-00-02
 70
     0
 40
10.0
 41
2.5
 42
0.0
 43
7.5
 44
1.8
 73
     0
 74
     0
 77
     1
 78
     8
140
2.5
141
0.0
146
0.71
147
1.5
172
     1
176
     2
177
     2
178
     2
271
     0
278
    44
289
     1
340
2F
  0
DIMSTYLE
105
321
102
{ACAD_REACTORS
330
322
102
}
330
A
100
AcDbSymbolTableRecord
100
AcDbDimStyleTableRecord
  2
LC-DIM-R-0025-02-02
 70
     0
 40
10.0
 41
2.5
 42
0.0
 43
7.5
 44
1.8
 73
     0
 74
     0
 77
     1
 78
     8
 79
     2
140
2.5
141
0.0
146
0.71
147
1.5
176
     2
177
     2
178
     2
179
     2
271
     2
278
    44
289
     1
340
2F
  0
ENDTAB
  0
TABLE
  2
BLOCK_RECORD
  5
1
330
0
100
AcDbSymbolTable
 70
    36
  0
BLOCK_RECORD
  5
1F
330
1
100
AcDbSymbolTableRecord
100
AcDbBlockTableRecord
  2
*Model_Space
340
22
  0
BLOCK_RECORD
  5
1B
330
1
100
AcDbSymbolTableRecord
100
AcDbBlockTableRecord
  2
*Paper_Space
340
1E
  0
BLOCK_RECORD
  5
23
330
1
100
AcDbSymbolTableRecord
100
AcDbBlockTableRecord
  2
*Paper_Space0
340
26
  0
BLOCK_RECORD
  5
30
330
1
100
AcDbSymbolTableRecord
100
AcDbBlockTableRecord
  2
SYM1
340
0
102
{BLKREFS
331
102
102
}
  0
BLOCK_RECORD
  5
255
330
1
100
AcDbSymbolTableRecord
100
AcDbBlockTableRecord
  2
*D2
340
0
  0
BLOCK_RECORD
  5
262
330
1
100
AcDbSymbolTableRecord
100
AcDbBlockTableRecord
  2
*D3
340
0
  0
BLOCK_RECORD
  5
270
330
1
100
AcDbSymbolTableRecord
100
AcDbBlockTableRecord
  2
*D4
340
0
  0
BLOCK_RECORD
  5
27D
330
1
100
AcDbSymbolTableRecord
100
AcDbBlockTableRecord
  2
*D5
340
0
  0
BLOCK_RECORD
  5
28A
330
1
100
AcDbSymbolTableRecord
100
AcDbBlockTableRecord
  2
*D6
340
0
  0
BLOCK_RECORD
  5
297
330
1
100
AcDbSymbolTableRecord
100
AcDbBlockTableRecord
  2
*D7
340
0
  0
BLOCK_RECORD
  5
2A4
330
1
100
AcDbSymbolTableRecord
100
AcDbBlockTableRecord
  2
*D8
340
0
  0
BLOCK_RECORD
  5
2B1
330
1
100
AcDbSymbolTableRecord
100
AcDbBlockTableRecord
  2
*D9
340
0
  0
BLOCK_RECORD
  5
2CB
330
1
100
AcDbSymbolTableRecord
100
AcDbBlockTableRecord
  2
*X110
340
0
102
{BLKREFS
331
2D7
102
}
  0
BLOCK_RECORD
  5
2DD
330
1
100
AcDbSymbolTableRecord
100
AcDbBlockTableRecord
  2
*D11
340
0
  0
BLOCK_RECORD
  5
2EC
330
1
100
AcDbSymbolTableRecord
100
AcDbBlockTableRecord
  2
*D12
340
0
  0
BLOCK_RECORD
  5
2F9
330
1
100
AcDbSymbolTableRecord
100
AcDbBlockTableRecord
  2
*D13
340
0
  0
BLOCK_RECORD
  5
308
330
1
100
AcDbSymbolTableRecord
100
AcDbBlockTableRecord
  2
*D14
340
0
  0
BLOCK_RECORD
  5
315
330
1
100
AcDbSymbolTableRecord
100
AcDbBlockTableRecord
  2
*D15
340
0
  0
BLOCK_RECORD
  5
323
330
1
100
AcDbSymbolTableRecord
100
AcDbBlockTableRecord
  2
*D16
340
0
  0
BLOCK_RECORD
  5
334
330
1
100
AcDbSymbolTableRecord
100
AcDbBlockTableRecord
  2
POLY1
340
0
102
{BLKREFS
331
343
102
}
  0
BLOCK_RECORD
  5
3DA
330
1
100
AcDbSymbolTableRecord
100
AcDbBlockTableRecord
  2
POLY2
340
0
102
{BLKREFS
331
3E9
102
}
  0
BLOCK_RECORD
  5
3FD
330
1
100
AcDbSymbolTableRecord
100
AcDbBlockTableRecord
  2
POLY3
340
0
102
{BLKREFS
331
40C
102
}
  0
BLOCK_RECORD
  5
441
330
1
100
AcDbSymbolTableRecord
100
AcDbBlockTableRecord
  2
*D20
340
0
  0
BLOCK_RECORD
  5
458
330
1
100
AcDbSymbolTableRecord
100
AcDbBlockTableRecord
  2
*X221
340
0
102
{BLKREFS
331
463
102
}
  0
BLOCK_RECORD
  5
464
330
1
100
AcDbSymbolTableRecord
100
AcDbBlockTableRecord
  2
*X322
340
0
102
{BLKREFS
331
46F
102
}
  0
BLOCK_RECORD
  5
4C0
330
1
100
AcDbSymbolTableRecord
100
AcDbBlockTableRecord
  2
POLY4
340
0
102
{BLKREFS
331
4C9
102
}
  0
BLOCK_RECORD
  5
4CA
330
1
100
AcDbSymbolTableRecord
100
AcDbBlockTableRecord
  2
POLY5
340
0
102
{BLKREFS
331
4D3
102
}
  0
BLOCK_RECORD
  5
4D4
330
1
100
AcDbSymbolTableRecord
100
AcDbBlockTableRecord
  2
POLY6
340
0
102
{BLKREFS
331
4E1
102
}
  0
BLOCK_RECORD
  5
4E2
330
1
100
AcDbSymbolTableRecord
100
AcDbBlockTableRecord
  2
POLY7
340
0
102
{BLKREFS
331
4EF
102
}
  0
BLOCK_RECORD
  5
4F0
330
1
100
AcDbSymbolTableRecord
100
AcDbBlockTableRecord
  2
POLY8
340
0
102
{BLKREFS
331
507
102
}
  0
BLOCK_RECORD
  5
508
330
1
100
AcDbSymbolTableRecord
100
AcDbBlockTableRecord
  2
POLY9
340
0
102
{BLKREFS
331
511
102
}
  0
BLOCK_RECORD
  5
512
330
1
100
AcDbSymbolTableRecord
100
AcDbBlockTableRecord
  2
POLY10
340
0
102
{BLKREFS
331
523
102
}
  0
BLOCK_RECORD
  5
524
330
1
100
AcDbSymbolTableRecord
100
AcDbBlockTableRecord
  2
POLY11
340
0
102
{BLKREFS
331
54D
102
}
  0
BLOCK_RECORD
  5
55C
330
1
100
AcDbSymbolTableRecord
100
AcDbBlockTableRecord
  2
POLY12
340
0
102
{BLKREFS
331
569
102
}
  0
BLOCK_RECORD
  5
59A
330
1
100
AcDbSymbolTableRecord
100
AcDbBlockTableRecord
  2
*D32
340
0
  0
BLOCK_RECORD
  5
5A7
330
1
100
AcDbSymbolTableRecord
100
AcDbBlockTableRecord
  2
*D33
340
0
  0
BLOCK_RECORD
  5
5B4
330
1
100
AcDbSymbolTableRecord
100
AcDbBlockTableRecord
  2
*D34
340
0
  0
BLOCK_RECORD
  5
5C1
330
1
100
AcDbSymbolTableRecord
100
AcDbBlockTableRecord
  2
*D35
340
0
  0
ENDTAB
  0
ENDSEC
  0
SECTION
  2
BLOCKS
  0
BLOCK
  5
20
330
1F
100
AcDbEntity
  8
0
100
AcDbBlockBegin
  2
*Model_Space
 70
     0
 71
     0
 10
0.0
 20
0.0
 30
0.0
  3
*Model_Space
  1

  0
ENDBLK
  5
21
330
1F
100
AcDbEntity
  8
0
100
AcDbBlockEnd
  0
BLOCK
  5
1C
330
1B
100
AcDbEntity
 67
     1
  8
0
100
AcDbBlockBegin
  2
*Paper_Space
 70
     0
 71
     0
 10
0.0
 20
0.0
 30
0.0
  3
*Paper_Space
  1

  0
ENDBLK
  5
1D
330
1B
100
AcDbEntity
 67
     1
  8
0
100
AcDbBlockEnd
  0
BLOCK
  5
24
330
23
100
AcDbEntity
  8
0
100
AcDbBlockBegin
  2
*Paper_Space0
 70
     0
 71
     0
 10
0.0
 20
0.0
 30
0.0
  3
*Paper_Space0
  1

  0
ENDBLK
  5
25
330
23
100
AcDbEntity
  8
0
100
AcDbBlockEnd
  0
BLOCK
  5
31
330
30
100
AcDbEntity
  8
0
100
AcDbBlockBegin
  2
SYM1
 70
     0
 71
     0
 10
0.0
 20
0.0
 30
0.0
  3
SYM1
  1

  4
SYM1
  0
LINE
  5
34
330
30
100
AcDbEntity
  8
LC-001-111-----0
 62
   253
370
    50
100
AcDbLine
 10
2050.0
 20
50.0
 30
0.0
 11
2050.0
 21
2920.0
 31
0.0
  0
LINE
  5
35
330
30
100
AcDbEntity
  8
LC-001-111-----0
 62
   253
370
    25
100
AcDbLine
 10
178.0
 20
220.0
 30
0.0
 11
724.0
 21
220.0
 31
0.0
  0
LINE
  5
36
330
30
100
AcDbEntity
  8
LC-001-111-----0
 62
   253
370
    35
100
AcDbLine
 10
724.0
 20
220.0
 30
0.0
 11
2050.0
 21
220.0
 31
0.0
  0
LINE
  5
37
330
30
100
AcDbEntity
  8
LC-001-111-----0
 62
   253
370
    50
100
AcDbLine
 10
178.0
 20
602.5
 30
0.0
 11
2050.0
 21
602.5
 31
0.0
  0
LINE
  5
38
330
30
100
AcDbEntity
  8
LC-001-111-----0
 62
   253
370
    25
100
AcDbLine
 10
178.0
 20
92.5
 30
0.0
 11
2050.0
 21
92.5
 31
0.0
  0
LINE
  5
39
330
30
100
AcDbEntity
  8
LC-001-111-----0
 62
   253
370
    25
100
AcDbLine
 10
178.0
 20
135.0
 30
0.0
 11
724.0
 21
135.0
 31
0.0
  0
LINE
  5
3A
330
30
100
AcDbEntity
  8
LC-001-111-----0
 62
   253
370
    25
100
AcDbLine
 10
178.0
 20
177.5
 30
0.0
 11
724.0
 21
177.5
 31
0.0
  0
LINE
  5
3B
330
30
100
AcDbEntity
  8
LC-001-111-----0
 62
   253
370
    25
100
AcDbLine
 10
178.0
 20
262.5
 30
0.0
 11
1166.0
 21
262.5
 31
0.0
  0
LINE
  5
3C
330
30
100
AcDbEntity
  8
LC-001-111-----0
 62
   253
370
    25
100
AcDbLine
 10
178.0
 20
305.0
 30
0.0
 11
1166.0
 21
305.0
 31
0.0
  0
LINE
  5
3D
330
30
100
AcDbEntity
  8
LC-001-111-----0
 62
   253
370
    25
100
AcDbLine
 10
178.0
 20
347.5
 30
0.0
 11
1166.0
 21
347.5
 31
0.0
  0
LINE
  5
3E
330
30
100
AcDbEntity
  8
LC-001-111-----0
 62
   253
370
    25
100
AcDbLine
 10
178.0
 20
390.0
 30
0.0
 11
1166.0
 21
390.0
 31
0.0
  0
LINE
  5
3F
330
30
100
AcDbEntity
  8
LC-001-111-----0
 62
   253
370
    35
100
AcDbLine
 10
178.0
 20
432.5
 30
0.0
 11
2050.0
 21
432.5
 31
0.0
  0
LINE
  5
40
330
30
100
AcDbEntity
  8
LC-001-111-----0
 62
   253
370
    25
100
AcDbLine
 10
828.0
 20
262.5
 30
0.0
 11
828.0
 21
432.5
 31
0.0
  0
LINE
  5
41
330
30
100
AcDbEntity
  8
LC-001-111-----0
 62
   253
370
    35
100
AcDbLine
 10
1920.0
 20
92.5
 30
0.0
 11
1920.0
 21
220.0
 31
0.0
  0
LINE
  5
42
330
30
100
AcDbEntity
  8
LC-001-111-----0
 62
   253
370
    25
100
AcDbLine
 10
1166.0
 20
538.75
 30
0.0
 11
2050.0
 21
538.75
 31
0.0
  0
LINE
  5
43
330
30
100
AcDbEntity
  8
LC-001-111-----0
 62
   253
370
    25
100
AcDbLine
 10
256.0
 20
50.0
 30
0.0
 11
256.0
 21
432.5
 31
0.0
  0
LINE
  5
44
330
30
100
AcDbEntity
  8
LC-001-111-----0
 62
   253
370
    25
100
AcDbLine
 10
516.0
 20
50.0
 30
0.0
 11
516.0
 21
432.5
 31
0.0
  0
LINE
  5
45
330
30
100
AcDbEntity
  8
LC-001-111-----0
 62
   253
370
    25
100
AcDbLine
 10
646.0
 20
50.0
 30
0.0
 11
646.0
 21
432.5
 31
0.0
  0
LINE
  5
46
330
30
100
AcDbEntity
  8
LC-001-111-----0
 62
   253
370
    35
100
AcDbLine
 10
724.0
 20
50.0
 30
0.0
 11
724.0
 21
602.5
 31
0.0
  0
LINE
  5
47
330
30
100
AcDbEntity
  8
LC-001-111-----0
 62
   253
370
    35
100
AcDbLine
 10
1166.0
 20
50.0
 30
0.0
 11
1166.0
 21
602.5
 31
0.0
  0
LINE
  5
48
330
30
100
AcDbEntity
  8
LC-001-111-----0
 62
   253
370
    25
100
AcDbLine
 10
1920.0
 20
135.0
 30
0.0
 11
2050.0
 21
135.0
 31
0.0
  0
LINE
  5
49
330
30
100
AcDbEntity
  8
LC-001-111-----0
 62
   253
370
    25
100
AcDbLine
 10
984.0
 20
220.0
 30
0.0
 11
984.0
 21
602.5
 31
0.0
  0
LINE
  5
4A
330
30
100
AcDbEntity
  8
LC-001-111-----0
 62
   253
370
    25
100
AcDbLine
 10
1686.0
 20
538.75
 30
0.0
 11
1686.0
 21
602.5
 31
0.0
  0
LINE
  5
4B
330
30
100
AcDbEntity
  8
LC-001-111-----0
 62
   253
370
    25
100
AcDbLine
 10
1608.0
 20
50.0
 30
0.0
 11
1608.0
 21
92.5
 31
0.0
  0
LINE
  5
4C
330
30
100
AcDbEntity
  8
LC-001-111-----0
 62
   253
370
    50
100
AcDbLine
 10
178.0
 20
50.0
 30
0.0
 11
178.0
 21
2920.0
 31
0.0
  0
LINE
  5
4D
330
30
100
AcDbEntity
  8
LC-001-111-----0
 62
   253
370
    50
100
AcDbLine
 10
178.0
 20
2920.0
 30
0.0
 11
2050.0
 21
2920.0
 31
0.0
  0
TEXT
  5
4E
330
30
100
AcDbEntity
  8
LC-001-111-----0
 62
     7
370
    25
100
AcDbText
 10
1480.525
 20
558.125
 30
0.0
 40
25.0
  1
1:10
 41
0.75
  7
LCTX0-400-0-0pDIN-Schrift
 72
     1
 11
1504.0
 21
558.125
 31
0.0
100
AcDbText
  0
TEXT
  5
4F
330
30
100
AcDbEntity
  8
LC-001-111-----0
 62
     7
370
    25
100
AcDbText
 10
743.178125
 20
398.75
 30
0.0
 40
25.0
  1
2013
 41
0.75
  7
LCTX0-400-0-0pDIN-Schrift
 72
     1
 11
776.0
 21
398.75
 31
0.0
100
AcDbText
  0
TEXT
  5
50
330
30
100
AcDbEntity
  8
LC-001-111-----0
 62
     7
370
    25
100
AcDbText
 10
866.925
 20
356.25
 30
0.0
 40
25.0
  1
23.10.
 41
0.75
  7
LCTX0-400-0-0pDIN-Schrift
 72
     1
 11
906.0
 21
356.25
 31
0.0
100
AcDbText
  0
TEXT
  5
51
330
30
100
AcDbEntity
  8
LC-001-111-----0
 62
     7
370
    25
100
AcDbText
 10
1056.25
 20
356.25
 30
0.0
 40
25.0
  1
HÄ
 41
0.75
  7
LCTX0-400-0-0pDIN-Schrift
 72
     1
 11
1075.0
 21
356.25
 31
0.0
100
AcDbText
  0
TEXT
  5
52
330
30
100
AcDbEntity
  8
LC-001-111-----0
 62
   253
370
    20
100
AcDbText
 10
1183.923077
 20
560.625
 30
0.0
 40
20.0
  1
Maßstab
 41
0.75
  7
LCTX0-400-0-0pDIN-Schrift
100
AcDbText
  0
TEXT
  5
53
330
30
100
AcDbEntity
  8
LC-001-111-----0
 62
   253
370
    20
100
AcDbText
 10
868.4175
 20
401.25
 30
0.0
 40
20.0
  1
Datum
 41
0.75
  7
LCTX0-400-0-0pDIN-Schrift
 72
     1
 11
906.0
 21
401.25
 31
0.0
100
AcDbText
  0
TEXT
  5
54
330
30
100
AcDbEntity
  8
LC-001-111-----0
 62
   253
370
    20
100
AcDbText
 10
1044.9625
 20
401.25
 30
0.0
 40
20.0
  1
Name
 41
0.75
  7
LCTX0-400-0-0pDIN-Schrift
 72
     1
 11
1075.0
 21
401.25
 31
0.0
100
AcDbText
  0
TEXT
  5
55
330
30
100
AcDbEntity
  8
LC-001-111-----0
 62
   253
370
    20
100
AcDbText
 10
741.923077
 20
358.75
 30
0.0
 40
20.0
  1
Bearb.
 41
0.75
  7
LCTX0-400-0-0pDIN-Schrift
100
AcDbText
  0
TEXT
  5
56
330
30
100
AcDbEntity
  8
LC-001-111-----0
 62
   253
370
    20
100
AcDbText
 10
741.923077
 20
316.25
 30
0.0
 40
20.0
  1
Gepr.
 41
0.75
  7
LCTX0-400-0-0pDIN-Schrift
100
AcDbText
  0
TEXT
  5
57
330
30
100
AcDbEntity
  8
LC-001-111-----0
 62
   253
370
    20
100
AcDbText
 10
741.923077
 20
273.75
 30
0.0
 40
20.0
  1
Norm
 41
0.75
  7
LCTX0-400-0-0pDIN-Schrift
100
AcDbText
  0
TEXT
  5
58
330
30
100
AcDbEntity
  8
LC-001-111-----0
 62
   253
370
    20
100
AcDbText
 10
1937.923077
 20
188.75
 30
0.0
 40
20.0
  1
Blatt
 41
0.75
  7
LCTX0-400-0-0pDIN-Schrift
100
AcDbText
  0
TEXT
  5
59
330
30
100
AcDbEntity
  8
LC-001-111-----0
 62
   253
370
    20
100
AcDbText
 10
2011.906923
 20
103.75
 30
0.0
 40
20.0
  1
Bl.
 41
0.75
  7
LCTX0-400-0-0pDIN-Schrift
 72
     2
 11
2037.076923
 21
103.75
 31
0.0
100
AcDbText
  0
TEXT
  5
5A
330
30
100
AcDbEntity
  8
LC-001-111-----0
 62
   253
370
    20
100
AcDbText
 10
196.056
 20
61.25
 30
0.0
 40
20.0
  1
Zust.
 41
0.6
  7
LCTX0-400-0-0pDIN-Schrift
 72
     1
 11
222.0
 21
61.25
 31
0.0
100
AcDbText
  0
TEXT
  5
5B
330
30
100
AcDbEntity
  8
LC-001-111-----0
 62
   253
370
    20
100
AcDbText
 10
326.0
 20
61.25
 30
0.0
 40
20.0
  1
Änderung
 41
0.75
  7
LCTX0-400-0-0pDIN-Schrift
 72
     1
 11
386.0
 21
61.25
 31
0.0
100
AcDbText
  0
TEXT
  5
5C
330
30
100
AcDbEntity
  8
LC-001-111-----0
 62
   253
370
    20
100
AcDbText
 10
543.4175
 20
61.25
 30
0.0
 40
20.0
  1
Datum
 41
0.75
  7
LCTX0-400-0-0pDIN-Schrift
 72
     1
 11
581.0
 21
61.25
 31
0.0
100
AcDbText
  0
TEXT
  5
5D
330
30
100
AcDbEntity
  8
LC-001-111-----0
 62
   253
370
    20
100
AcDbText
 10
654.9625
 20
61.25
 30
0.0
 40
20.0
  1
Name
 41
0.75
  7
LCTX0-400-0-0pDIN-Schrift
 72
     1
 11
685.0
 21
61.25
 31
0.0
100
AcDbText
  0
TEXT
  5
5E
330
30
100
AcDbEntity
  8
LC-001-111-----0
 62
     7
370
    50
100
AcDbText
 10
1401.6375
 20
343.75
 30
0.0
 40
50.0
  1
Astral D150s
 41
0.75
  7
LCTX0-400-0-0pDIN-Schrift
 72
     1
 11
1608.0
 21
343.75
 31
0.0
100
AcDbText
  0
TEXT
  5
5F
330
30
100
AcDbEntity
  8
LC-001-111-----0
 62
     7
370
    50
100
AcDbText
 10
1346.5375
 20
131.25
 30
0.0
 40
50.0
  1
4.09.743.04.01
 41
0.75
  7
LCTX0-400-0-0pDIN-Schrift
 72
     1
 11
1543.0
 21
131.25
 31
0.0
100
AcDbText
  0
ARC
  5
60
330
30
100
AcDbEntity
  8
LC-001-111-----0
 62
   253
370
    25
100
AcDbCircle
 10
758.903191
 20
174.567744
 30
0.0
 40
20.81533311668208
100
AcDbArc
 50
62.408264
 51
94.48185
  0
LINE
  5
61
330
30
100
AcDbEntity
  8
LC-001-111-----0
 62
   253
370
    50
100
AcDbLine
 10
178.0
 20
50.0
 30
0.0
 11
2050.0
 21
50.0
 31
0.0
  0
LINE
  5
62
330
30
100
AcDbEntity
  8
LC-001-111-----0
 62
   253
370
    25
100
AcDbLine
 10
50.0
 20
1485.0
 30
0.0
 11
0.0
 21
1485.0
 31
0.0
  0
LINE
  5
63
330
30
100
AcDbEntity
  8
LC-001-111-----0
 62
   253
370
    25
100
AcDbLine
 10
1063.835603
 20
195.169147
 30
0.0
 11
1063.835603
 21
157.149147
 31
0.0
  0
LINE
  5
64
330
30
100
AcDbEntity
  8
LC-001-111-----0
 62
   253
370
    25
100
AcDbLine
 10
2100.0
 20
2970.0
 30
0.0
 11
2100.0
 21
0.0
 31
0.0
  0
LINE
  5
65
330
30
100
AcDbEntity
  8
LC-001-111-----0
 62
   253
370
    25
100
AcDbLine
 10
2100.0
 20
0.0
 30
0.0
 11
0.0
 21
0.0
 31
0.0
  0
LINE
  5
66
330
30
100
AcDbEntity
  8
LC-001-111-----0
 62
   253
370
    25
100
AcDbLine
 10
0.0
 20
0.0
 30
0.0
 11
0.0
 21
2970.0
 31
0.0
  0
LINE
  5
67
330
30
100
AcDbEntity
  8
LC-001-111-----0
 62
   253
370
    25
100
AcDbLine
 10
2100.0
 20
2970.0
 30
0.0
 11
0.0
 21
2970.0
 31
0.0
  0
TEXT
  5
68
330
30
100
AcDbEntity
  8
LC-001-111-----0
 62
   253
370
    20
100
AcDbText
 10
729.2325
 20
111.159147
 30
0.0
 40
20.0
  1
Hofbauerstraße 1  ·  D-94209 REGEN
 41
0.65
  7
LCTX0-400-0-0pDIN-Schrift
 72
     1
 11
945.0
 21
111.159147
 31
0.0
100
AcDbText
  0
ARC
  5
69
330
30
100
AcDbEntity
  8
LC-001-111-----0
 62
   253
370
    25
100
AcDbCircle
 10
758.032826
 20
185.671748
 30
0.0
 40
9.677270814709853
100
AcDbArc
 50
94.48185
 51
252.731329
  0
ARC
  5
6A
330
30
100
AcDbEntity
  8
LC-001-111-----0
 62
   253
370
    25
100
AcDbCircle
 10
823.845603
 20
176.159147
 30
0.0
 40
19.01000000000008
100
AcDbArc
 50
74.719456
 51
285.280544
  0
LINE
  5
6B
330
30
100
AcDbEntity
  8
LC-001-111-----0
 62
   253
370
    25
100
AcDbLine
 10
828.855603
 20
157.821208
 30
0.0
 11
828.855603
 21
163.204148
 31
0.0
  0
ARC
  5
6C
330
30
100
AcDbEntity
  8
LC-001-111-----0
 62
   253
370
    25
100
AcDbCircle
 10
823.845603
 20
176.159147
 30
0.0
 40
13.88999999999995
100
AcDbArc
 50
68.857352
 51
291.142648
  0
ARC
  5
6D
330
30
100
AcDbEntity
  8
LC-001-111-----0
 62
   253
370
    25
100
AcDbCircle
 10
823.845603
 20
176.159147
 30
0.0
 40
12.39000000000002
100
AcDbArc
 50
58.303227
 51
301.696773
  0
ARC
  5
6E
330
30
100
AcDbEntity
  8
LC-001-111-----0
 62
   253
370
    25
100
AcDbCircle
 10
1019.845603
 20
176.159147
 30
0.0
 40
19.01000000000008
100
AcDbArc
 50
74.719456
 51
285.280544
  0
LINE
  5
6F
330
30
100
AcDbEntity
  8
LC-001-111-----0
 62
   253
370
    25
100
AcDbLine
 10
830.355603
 20
165.617231
 30
0.0
 11
830.355603
 21
156.709726
 31
0.0
  0
LINE
  5
70
330
30
100
AcDbEntity
  8
LC-001-111-----0
 62
   253
370
    25
100
AcDbLine
 10
755.160101
 20
176.430697
 30
0.0
 11
762.683613
 21
174.091896
 31
0.0
  0
ARC
  5
71
330
30
100
AcDbEntity
  8
LC-001-111-----0
 62
   253
370
    25
100
AcDbCircle
 10
823.845603
 20
176.159147
 30
0.0
 40
20.51000000000012
100
AcDbArc
 50
71.493868
 51
288.506132
  0
LINE
  5
72
330
30
100
AcDbEntity
  8
LC-001-111-----0
 62
   253
370
    25
100
AcDbLine
 10
1024.855603
 20
157.821208
 30
0.0
 11
1024.855603
 21
163.204148
 31
0.0
  0
LINE
  5
73
330
30
100
AcDbEntity
  8
LC-001-111-----0
 62
   253
370
    25
100
AcDbLine
 10
830.355603
 20
195.608569
 30
0.0
 11
830.355603
 21
186.701063
 31
0.0
  0
ARC
  5
74
330
30
100
AcDbEntity
  8
LC-001-111-----0
 62
   253
370
    25
100
AcDbCircle
 10
1019.845603
 20
176.159147
 30
0.0
 40
13.88999999999995
100
AcDbArc
 50
68.857352
 51
291.142648
  0
LINE
  5
75
330
30
100
AcDbEntity
  8
LC-001-111-----0
 62
   253
370
    25
100
AcDbLine
 10
862.835603
 20
155.649147
 30
0.0
 11
862.835603
 21
196.669147
 31
0.0
  0
LINE
  5
76
330
30
100
AcDbEntity
  8
LC-001-111-----0
 62
   253
370
    25
100
AcDbLine
 10
862.835603
 20
196.669147
 30
0.0
 11
872.355603
 21
196.669147
 31
0.0
  0
LINE
  5
77
330
30
100
AcDbEntity
  8
LC-001-111-----0
 62
   253
370
    25
100
AcDbLine
 10
872.355603
 20
196.669147
 30
0.0
 11
872.355603
 21
179.519147
 31
0.0
  0
LINE
  5
78
330
30
100
AcDbEntity
  8
LC-001-111-----0
 62
   253
370
    25
100
AcDbLine
 10
872.355603
 20
179.519147
 30
0.0
 11
887.335603
 21
179.519147
 31
0.0
  0
LINE
  5
79
330
30
100
AcDbEntity
  8
LC-001-111-----0
 62
   253
370
    25
100
AcDbLine
 10
887.335603
 20
179.519147
 30
0.0
 11
887.335603
 21
196.669147
 31
0.0
  0
LINE
  5
7A
330
30
100
AcDbEntity
  8
LC-001-111-----0
 62
   253
370
    25
100
AcDbLine
 10
887.335603
 20
196.669147
 30
0.0
 11
896.855603
 21
196.669147
 31
0.0
  0
LINE
  5
7B
330
30
100
AcDbEntity
  8
LC-001-111-----0
 62
   253
370
    25
100
AcDbLine
 10
896.855603
 20
196.669147
 30
0.0
 11
896.855603
 21
155.649147
 31
0.0
  0
LINE
  5
7C
330
30
100
AcDbEntity
  8
LC-001-111-----0
 62
   253
370
    25
100
AcDbLine
 10
896.855603
 20
155.649147
 30
0.0
 11
887.335603
 21
155.649147
 31
0.0
  0
LINE
  5
7D
330
30
100
AcDbEntity
  8
LC-001-111-----0
 62
   253
370
    25
100
AcDbLine
 10
887.335603
 20
155.649147
 30
0.0
 11
887.335603
 21
172.799147
 31
0.0
  0
LINE
  5
7E
330
30
100
AcDbEntity
  8
LC-001-111-----0
 62
   253
370
    25
100
AcDbLine
 10
887.335603
 20
172.799147
 30
0.0
 11
872.355603
 21
172.799147
 31
0.0
  0
LINE
  5
7F
330
30
100
AcDbEntity
  8
LC-001-111-----0
 62
   253
370
    25
100
AcDbLine
 10
872.355603
 20
172.799147
 30
0.0
 11
872.355603
 21
155.649147
 31
0.0
  0
LINE
  5
80
330
30
100
AcDbEntity
  8
LC-001-111-----0
 62
   253
370
    25
100
AcDbLine
 10
872.355603
 20
155.649147
 30
0.0
 11
862.835603
 21
155.649147
 31
0.0
  0
CIRCLE
  5
81
330
30
100
AcDbEntity
  8
LC-001-111-----0
 62
   253
370
    25
100
AcDbCircle
 10
946.345603
 20
176.159147
 30
0.0
 40
12.39000000000044
  0
CIRCLE
  5
82
330
30
100
AcDbEntity
  8
LC-001-111-----0
 62
   253
370
    25
100
AcDbCircle
 10
946.345603
 20
176.159147
 30
0.0
 40
20.51000000000049
  0
ARC
  5
83
330
30
100
AcDbEntity
  8
LC-001-111-----0
 62
   253
370
    25
100
AcDbCircle
 10
1019.845603
 20
176.159147
 30
0.0
 40
12.39000000000002
100
AcDbArc
 50
58.303227
 51
301.696773
  0
LINE
  5
84
330
30
100
AcDbEntity
  8
LC-001-111-----0
 62
   253
370
    25
100
AcDbLine
 10
864.335603
 20
195.169147
 30
0.0
 11
864.335603
 21
157.149147
 31
0.0
  0
LINE
  5
85
330
30
100
AcDbEntity
  8
LC-001-111-----0
 62
   253
370
    25
100
AcDbLine
 10
1026.355603
 20
165.617231
 30
0.0
 11
1026.355603
 21
156.709726
 31
0.0
  0
LINE
  5
86
330
30
100
AcDbEntity
  8
LC-001-111-----0
 62
   253
370
    25
100
AcDbLine
 10
864.335603
 20
157.149147
 30
0.0
 11
870.855603
 21
157.149147
 31
0.0
  0
LINE
  5
87
330
30
100
AcDbEntity
  8
LC-001-111-----0
 62
   253
370
    25
100
AcDbLine
 10
870.855603
 20
157.149147
 30
0.0
 11
870.855603
 21
174.299147
 31
0.0
  0
LINE
  5
88
330
30
100
AcDbEntity
  8
LC-001-111-----0
 62
   253
370
    25
100
AcDbLine
 10
870.855603
 20
174.299147
 30
0.0
 11
888.835603
 21
174.299147
 31
0.0
  0
LINE
  5
89
330
30
100
AcDbEntity
  8
LC-001-111-----0
 62
   253
370
    25
100
AcDbLine
 10
888.835603
 20
174.299147
 30
0.0
 11
888.835603
 21
157.149147
 31
0.0
  0
LINE
  5
8A
330
30
100
AcDbEntity
  8
LC-001-111-----0
 62
   253
370
    25
100
AcDbLine
 10
888.835603
 20
157.149147
 30
0.0
 11
895.355603
 21
157.149147
 31
0.0
  0
LINE
  5
8B
330
30
100
AcDbEntity
  8
LC-001-111-----0
 62
   253
370
    25
100
AcDbLine
 10
895.355603
 20
157.149147
 30
0.0
 11
895.355603
 21
195.169147
 31
0.0
  0
LINE
  5
8C
330
30
100
AcDbEntity
  8
LC-001-111-----0
 62
   253
370
    25
100
AcDbLine
 10
895.355603
 20
195.169147
 30
0.0
 11
888.835603
 21
195.169147
 31
0.0
  0
LINE
  5
8D
330
30
100
AcDbEntity
  8
LC-001-111-----0
 62
   253
370
    25
100
AcDbLine
 10
888.835603
 20
195.169147
 30
0.0
 11
888.835603
 21
178.019147
 31
0.0
  0
LINE
  5
8E
330
30
100
AcDbEntity
  8
LC-001-111-----0
 62
   253
370
    25
100
AcDbLine
 10
888.835603
 20
178.019147
 30
0.0
 11
870.855603
 21
178.019147
 31
0.0
  0
LINE
  5
8F
330
30
100
AcDbEntity
  8
LC-001-111-----0
 62
   253
370
    25
100
AcDbLine
 10
870.855603
 20
178.019147
 30
0.0
 11
870.855603
 21
195.169147
 31
0.0
  0
CIRCLE
  5
90
330
30
100
AcDbEntity
  8
LC-001-111-----0
 62
   253
370
    25
100
AcDbCircle
 10
946.345603
 20
176.159147
 30
0.0
 40
19.01000000000055
  0
ARC
  5
91
330
30
100
AcDbEntity
  8
LC-001-111-----0
 62
   253
370
    25
100
AcDbCircle
 10
760.836588
 20
168.15034
 30
0.0
 40
6.222024781007809
100
AcDbArc
 50
268.246912
 51
72.731329
  0
ARC
  5
92
330
30
100
AcDbEntity
  8
LC-001-111-----0
 62
   253
370
    25
100
AcDbCircle
 10
761.412387
 20
186.963179
 30
0.0
 40
25.04367341134793
100
AcDbArc
 50
239.19233
 51
268.246912
  0
LINE
  5
93
330
30
100
AcDbEntity
  8
LC-001-111-----0
 62
   253
370
    25
100
AcDbLine
 10
748.586073
 20
165.453385
 30
0.0
 11
748.586073
 21
160.350534
 31
0.0
  0
ARC
  5
94
330
30
100
AcDbEntity
  8
LC-001-111-----0
 62
   253
370
    25
100
AcDbCircle
 10
760.81067
 20
180.45076
 30
0.0
 40
23.52572762426598
100
AcDbArc
 50
238.692783
 51
274.343327
  0
ARC
  5
95
330
30
100
AcDbEntity
  8
LC-001-111-----0
 62
   253
370
    25
100
AcDbCircle
 10
1019.845603
 20
176.159147
 30
0.0
 40
20.51000000000012
100
AcDbArc
 50
71.493868
 51
288.506132
  0
ARC
  5
96
330
30
100
AcDbEntity
  8
LC-001-111-----0
 62
   253
370
    25
100
AcDbCircle
 10
761.779647
 20
167.692822
 30
0.0
 40
10.73104525444839
100
AcDbArc
 50
274.343327
 51
74.255463
  0
LINE
  5
97
330
30
100
AcDbEntity
  8
LC-001-111-----0
 62
   253
370
    25
100
AcDbLine
 10
1026.355603
 20
195.608569
 30
0.0
 11
1026.355603
 21
186.701063
 31
0.0
  0
LINE
  5
98
330
30
100
AcDbEntity
  8
LC-001-111-----0
 62
   253
370
    25
100
AcDbLine
 10
764.691502
 20
178.02125
 30
0.0
 11
757.135251
 21
180.151556
 31
0.0
  0
LINE
  5
99
330
30
100
AcDbEntity
  8
LC-001-111-----0
 62
   253
370
    25
100
AcDbLine
 10
1024.855603
 20
189.114146
 30
0.0
 11
1024.855603
 21
194.497086
 31
0.0
  0
ARC
  5
9A
330
30
100
AcDbEntity
  8
LC-001-111-----0
 62
   253
370
    25
100
AcDbCircle
 10
758.632108
 20
185.460948
 30
0.0
 40
5.51636013010035
100
AcDbArc
 50
90.951212
 51
254.255463
  0
ARC
  5
9B
330
30
100
AcDbEntity
  8
LC-001-111-----0
 62
   253
370
    25
100
AcDbCircle
 10
758.906662
 20
168.924866
 30
0.0
 40
22.05472179307849
100
AcDbArc
 50
64.088485
 51
90.951212
  0
LINE
  5
9C
330
30
100
AcDbEntity
  8
LC-001-111-----0
 62
   253
370
    25
100
AcDbLine
 10
768.544191
 20
188.762426
 30
0.0
 11
768.544191
 21
193.015758
 31
0.0
  0
LINE
  5
9D
330
30
100
AcDbEntity
  8
LC-001-111-----0
 62
   253
370
    25
100
AcDbLine
 10
1071.855603
 20
177.513832
 30
0.0
 11
1087.818366
 21
196.669147
 31
0.0
  0
LINE
  5
9E
330
30
100
AcDbEntity
  8
LC-001-111-----0
 62
   253
370
    25
100
AcDbLine
 10
1087.818366
 20
196.669147
 30
0.0
 11
1099.299433
 21
196.669147
 31
0.0
  0
LINE
  5
9F
330
30
100
AcDbEntity
  8
LC-001-111-----0
 62
   253
370
    25
100
AcDbLine
 10
1099.299433
 20
196.669147
 30
0.0
 11
1082.207766
 21
176.159147
 31
0.0
  0
LINE
  5
A1
330
30
100
AcDbEntity
  8
LC-002-002-----0
 62
     1
370
    25
100
AcDbLine
 10
1143.855603
 20
159.963432
 30
0.0
 11
1143.855603
 21
192.354862
 31
0.0
  0
LINE
  5
A2
330
30
100
AcDbEntity
  8
LC-002-002-----0
 62
     1
370
    25
100
AcDbLine
 10
1143.855603
 20
192.354862
 30
0.0
 11
1127.659888
 21
176.159147
 31
0.0
  0
LINE
  5
A3
330
30
100
AcDbEntity
  8
LC-002-002-----0
 62
     1
370
    25
100
AcDbLine
 10
1127.659888
 20
176.159147
 30
0.0
 11
1143.855603
 21
159.963432
 31
0.0
  0
LINE
  5
A4
330
30
100
AcDbEntity
  8
LC-002-002-----0
 62
     1
370
    25
100
AcDbLine
 10
1142.355603
 20
163.584752
 30
0.0
 11
1142.355603
 21
188.733542
 31
0.0
  0
LINE
  5
A5
330
30
100
AcDbEntity
  8
LC-001-111-----0
 62
   253
370
    25
100
AcDbLine
 10
1082.207766
 20
176.159147
 30
0.0
 11
1099.299433
 21
155.649147
 31
0.0
  0
LINE
  5
A6
330
30
100
AcDbEntity
  8
LC-001-111-----0
 62
   253
370
    25
100
AcDbLine
 10
1099.299433
 20
155.649147
 30
0.0
 11
1087.818366
 21
155.649147
 31
0.0
  0
LINE
  5
A7
330
30
100
AcDbEntity
  8
LC-001-111-----0
 62
   253
370
    25
100
AcDbLine
 10
1087.818366
 20
155.649147
 30
0.0
 11
1071.855603
 21
174.804462
 31
0.0
  0
LINE
  5
A8
330
30
100
AcDbEntity
  8
LC-001-111-----0
 62
   253
370
    25
100
AcDbLine
 10
1062.335603
 20
155.649147
 30
0.0
 11
1062.335603
 21
196.669147
 31
0.0
  0
LINE
  5
A9
330
30
100
AcDbEntity
  8
LC-001-111-----0
 62
   253
370
    25
100
AcDbLine
 10
828.855603
 20
189.114146
 30
0.0
 11
828.855603
 21
194.497086
 31
0.0
  0
ARC
  5
AA
330
30
100
AcDbEntity
  8
LC-001-111-----0
 62
   253
370
    25
100
AcDbCircle
 10
758.903191
 20
174.567744
 30
0.0
 40
19.31533311668209
100
AcDbArc
 50
65.072024
 51
94.48185
  0
LINE
  5
AB
330
30
100
AcDbEntity
  8
LC-001-111-----0
 62
   253
370
    25
100
AcDbLine
 10
1063.835603
 20
157.149147
 30
0.0
 11
1070.355603
 21
157.149147
 31
0.0
  0
LINE
  5
AC
330
30
100
AcDbEntity
  8
LC-001-111-----0
 62
   253
370
    25
100
AcDbLine
 10
1070.355603
 20
157.149147
 30
0.0
 11
1070.355603
 21
195.169147
 31
0.0
  0
LINE
  5
AD
330
30
100
AcDbEntity
  8
LC-001-111-----0
 62
   253
370
    25
100
AcDbLine
 10
1070.355603
 20
195.169147
 30
0.0
 11
1063.835603
 21
195.169147
 31
0.0
  0
LINE
  5
AE
330
30
100
AcDbEntity
  8
LC-001-111-----0
 62
   253
370
    25
100
AcDbLine
 10
1065.335603
 20
193.669147
 30
0.0
 11
1065.335603
 21
158.649147
 31
0.0
  0
LINE
  5
AF
330
30
100
AcDbEntity
  8
LC-002-002-----0
 62
     1
370
    25
100
AcDbLine
 10
1142.355603
 20
188.733542
 30
0.0
 11
1129.781208
 21
176.159147
 31
0.0
  0
LINE
  5
B0
330
30
100
AcDbEntity
  8
LC-002-002-----0
 62
     1
370
    25
100
AcDbLine
 10
1129.781208
 20
176.159147
 30
0.0
 11
1142.355603
 21
163.584752
 31
0.0
  0
LINE
  5
B1
330
30
100
AcDbEntity
  8
LC-001-111-----0
 62
   253
370
    25
100
AcDbLine
 10
1062.335603
 20
196.669147
 30
0.0
 11
1071.855603
 21
196.669147
 31
0.0
  0
LINE
  5
B2
330
30
100
AcDbEntity
  8
LC-001-111-----0
 62
   253
370
    25
100
AcDbLine
 10
1071.855603
 20
196.669147
 30
0.0
 11
1071.855603
 21
155.649147
 31
0.0
  0
LINE
  5
B3
330
30
100
AcDbEntity
  8
LC-001-111-----0
 62
   253
370
    25
100
AcDbLine
 10
1071.855603
 20
155.649147
 30
0.0
 11
1062.335603
 21
155.649147
 31
0.0
  0
ARC
  5
B4
330
30
100
AcDbEntity
  8
LC-001-111-----0
 62
   253
370
    25
100
AcDbCircle
 10
758.032826
 20
185.671748
 30
0.0
 40
8.177270814709827
100
AcDbArc
 50
94.48185
 51
252.731329
  0
LINE
  5
B5
330
30
100
AcDbEntity
  8
LC-001-111-----0
 62
   253
370
    25
100
AcDbLine
 10
755.60538
 20
177.863082
 30
0.0
 11
763.128892
 21
175.524281
 31
0.0
  0
ARC
  5
B6
330
30
100
AcDbEntity
  8
LC-001-111-----0
 62
   253
370
    25
100
AcDbCircle
 10
760.836588
 20
168.15034
 30
0.0
 40
7.72202478100773
100
AcDbArc
 50
268.246912
 51
72.731329
  0
LINE
  5
B7
330
30
100
AcDbEntity
  8
LC-001-111-----0
 62
   253
370
    25
100
AcDbLine
 10
827.355603
 20
191.143539
 30
0.0
 11
827.355603
 21
193.313738
 31
0.0
  0
ARC
  5
B8
330
30
100
AcDbEntity
  8
LC-001-111-----0
 62
   253
370
    25
100
AcDbCircle
 10
823.845603
 20
176.159147
 30
0.0
 40
17.50999999999996
100
AcDbArc
 50
78.436322
 51
281.563678
  0
LINE
  5
B9
330
30
100
AcDbEntity
  8
LC-001-111-----0
 62
   253
370
    25
100
AcDbLine
 10
827.355603
 20
159.004556
 30
0.0
 11
827.355603
 21
161.174755
 31
0.0
  0
LINE
  5
BA
330
30
100
AcDbEntity
  8
LC-002-002-----0
 62
     1
370
    25
100
AcDbLine
 10
1145.355603
 20
195.976182
 30
0.0
 11
1145.355603
 21
156.342112
 31
0.0
  0
LINE
  5
BB
330
30
100
AcDbEntity
  8
LC-002-002-----0
 62
     1
370
    25
100
AcDbLine
 10
1145.355603
 20
156.342112
 30
0.0
 11
1125.538568
 21
176.159147
 31
0.0
  0
LINE
  5
BC
330
30
100
AcDbEntity
  8
LC-002-002-----0
 62
     1
370
    25
100
AcDbLine
 10
1125.538568
 20
176.159147
 30
0.0
 11
1145.355603
 21
195.976182
 31
0.0
  0
LINE
  5
BD
330
30
100
AcDbEntity
  8
LC-001-111-----0
 62
   253
370
    25
100
AcDbLine
 10
1065.335603
 20
158.649147
 30
0.0
 11
1068.855603
 21
158.649147
 31
0.0
  0
LINE
  5
BE
330
30
100
AcDbEntity
  8
LC-001-111-----0
 62
   253
370
    25
100
AcDbLine
 10
1068.855603
 20
158.649147
 30
0.0
 11
1068.855603
 21
193.669147
 31
0.0
  0
LINE
  5
BF
330
30
100
AcDbEntity
  8
LC-001-111-----0
 62
   253
370
    25
100
AcDbLine
 10
1068.855603
 20
193.669147
 30
0.0
 11
1065.335603
 21
193.669147
 31
0.0
  0
LINE
  5
C0
330
30
100
AcDbEntity
  8
LC-001-111-----0
 62
   253
370
    25
100
AcDbLine
 10
1067.095603
 20
192.169147
 30
0.0
 11
1067.095603
 21
160.149147
 31
0.0
  0
ARC
  5
C1
330
30
100
AcDbEntity
  8
LC-001-111-----0
 62
   253
370
    25
100
AcDbCircle
 10
823.845603
 20
176.159147
 30
0.0
 40
15.38999999999992
100
AcDbArc
 50
76.816519
 51
283.183481
  0
LINE
  5
C2
330
30
100
AcDbEntity
  8
LC-001-111-----0
 62
   253
370
    25
100
AcDbLine
 10
870.855603
 20
195.169147
 30
0.0
 11
864.335603
 21
195.169147
 31
0.0
  0
LINE
  5
C3
330
30
100
AcDbEntity
  8
LC-001-111-----0
 62
   253
370
    25
100
AcDbLine
 10
1096.09687
 20
195.169147
 30
0.0
 11
1088.520928
 21
195.169147
 31
0.0
  0
LINE
  5
C4
330
30
100
AcDbEntity
  8
LC-001-111-----0
 62
   253
370
    25
100
AcDbLine
 10
865.835603
 20
158.649147
 30
0.0
 11
869.355603
 21
158.649147
 31
0.0
  0
LINE
  5
C5
330
30
100
AcDbEntity
  8
LC-001-111-----0
 62
   253
370
    25
100
AcDbLine
 10
1023.355603
 20
191.143539
 30
0.0
 11
1023.355603
 21
193.313738
 31
0.0
  0
LINE
  5
C6
330
30
100
AcDbEntity
  8
LC-001-111-----0
 62
   253
370
    25
100
AcDbLine
 10
892.095603
 20
192.169147
 30
0.0
 11
892.095603
 21
160.149147
 31
0.0
  0
TEXT
  5
C7
330
30
100
AcDbEntity
  8
LC-001-111-----0
 62
     1
370
    15
100
AcDbText
 10
1104.09125
 20
21.25
 30
0.0
 40
15.0
  1
Astral-D150s
 41
0.75
  7
LCTX0-400-0-0pDIN-Schrift
 72
     1
 11
1166.0
 21
21.25
 31
0.0
100
AcDbText
  0
CIRCLE
  5
C8
330
30
100
AcDbEntity
  8
LC-001-111-----0
 62
   253
370
    25
100
AcDbCircle
 10
946.345603
 20
176.159147
 30
0.0
 40
17.51000000000047
  0
LINE
  5
C9
330
30
100
AcDbEntity
  8
LC-001-111-----0
 62
   253
370
    25
100
AcDbLine
 10
1088.520928
 20
195.169147
 30
0.0
 11
1072.679261
 21
176.159147
 31
0.0
  0
ARC
  5
CA
330
30
100
AcDbEntity
  8
LC-001-111-----0
 62
   253
370
    25
100
AcDbCircle
 10
1019.845603
 20
176.159147
 30
0.0
 40
17.50999999999996
100
AcDbArc
 50
78.436322
 51
281.563678
  0
ARC
  5
CB
330
30
100
AcDbEntity
  8
LC-001-111-----0
 62
   253
370
    25
100
AcDbCircle
 10
761.412387
 20
186.963179
 30
0.0
 40
26.54367341134783
100
AcDbArc
 50
244.741378
 51
268.246912
  0
LINE
  5
CC
330
30
100
AcDbEntity
  8
LC-001-111-----0
 62
   253
370
    25
100
AcDbLine
 10
1023.355603
 20
159.004556
 30
0.0
 11
1023.355603
 21
161.174755
 31
0.0
  0
LINE
  5
CD
330
30
100
AcDbEntity
  8
LC-002-002-----0
 62
     1
370
    25
100
AcDbLine
 10
1140.855603
 20
167.206073
 30
0.0
 11
1140.855603
 21
185.112221
 31
0.0
  0
LINE
  5
CE
330
30
100
AcDbEntity
  8
LC-002-002-----0
 62
     1
370
    25
100
AcDbLine
 10
1140.855603
 20
185.112221
 30
0.0
 11
1131.902529
 21
176.159147
 31
0.0
  0
LINE
  5
CF
330
30
100
AcDbEntity
  8
LC-002-002-----0
 62
     1
370
    25
100
AcDbLine
 10
1131.902529
 20
176.159147
 30
0.0
 11
1140.855603
 21
167.206073
 31
0.0
  0
CIRCLE
  5
D0
330
30
100
AcDbEntity
  8
LC-001-111-----0
 62
   253
370
    25
100
AcDbCircle
 10
946.345603
 20
176.159147
 30
0.0
 40
13.89000000000002
  0
LINE
  5
D1
330
30
100
AcDbEntity
  8
LC-001-111-----0
 62
   253
370
    25
100
AcDbLine
 10
890.335603
 20
158.649147
 30
0.0
 11
893.855603
 21
158.649147
 31
0.0
  0
LINE
  5
D2
330
30
100
AcDbEntity
  8
LC-001-111-----0
 62
   253
370
    25
100
AcDbLine
 10
893.855603
 20
158.649147
 30
0.0
 11
893.855603
 21
193.669147
 31
0.0
  0
ARC
  5
D3
330
30
100
AcDbEntity
  8
LC-001-111-----0
 62
   253
370
    25
100
AcDbCircle
 10
758.906662
 20
168.924866
 30
0.0
 40
20.55472179307891
100
AcDbArc
 50
57.190491
 51
90.951212
  0
ARC
  5
D4
330
30
100
AcDbEntity
  8
LC-001-111-----0
 62
   253
370
    25
100
AcDbCircle
 10
761.779647
 20
167.692822
 30
0.0
 40
12.23104525444841
100
AcDbArc
 50
274.343327
 51
74.255463
  0
LINE
  5
D5
330
30
100
AcDbEntity
  8
LC-001-111-----0
 62
   253
370
    25
100
AcDbLine
 10
893.855603
 20
193.669147
 30
0.0
 11
890.335603
 21
193.669147
 31
0.0
  0
LINE
  5
D6
330
30
100
AcDbEntity
  8
LC-001-111-----0
 62
   253
370
    25
100
AcDbLine
 10
890.335603
 20
193.669147
 30
0.0
 11
890.335603
 21
158.649147
 31
0.0
  0
LINE
  5
D7
330
30
100
AcDbEntity
  8
LC-001-111-----0
 62
   253
370
    25
100
AcDbLine
 10
890.335603
 20
176.159147
 30
0.0
 11
869.355603
 21
176.159147
 31
0.0
  0
LINE
  5
D8
330
30
100
AcDbEntity
  8
LC-001-111-----0
 62
   253
370
    25
100
AcDbLine
 10
869.355603
 20
158.649147
 30
0.0
 11
869.355603
 21
193.669147
 31
0.0
  0
LINE
  5
D9
330
30
100
AcDbEntity
  8
LC-001-111-----0
 62
   253
370
    25
100
AcDbLine
 10
869.355603
 20
193.669147
 30
0.0
 11
865.835603
 21
193.669147
 31
0.0
  0
LINE
  5
DA
330
30
100
AcDbEntity
  8
LC-001-111-----0
 62
   253
370
    25
100
AcDbLine
 10
865.835603
 20
193.669147
 30
0.0
 11
865.835603
 21
158.649147
 31
0.0
  0
LINE
  5
DB
330
30
100
AcDbEntity
  8
LC-001-111-----0
 62
   253
370
    25
100
AcDbLine
 10
867.595603
 20
192.169147
 30
0.0
 11
867.595603
 21
160.149147
 31
0.0
  0
CIRCLE
  5
DC
330
30
100
AcDbEntity
  8
LC-001-111-----0
 62
   253
370
    25
100
AcDbCircle
 10
946.345603
 20
176.159147
 30
0.0
 40
15.38999999999984
  0
LINE
  5
DD
330
30
100
AcDbEntity
  8
LC-001-111-----0
 62
   253
370
    25
100
AcDbLine
 10
1072.679261
 20
176.159147
 30
0.0
 11
1088.520928
 21
157.149147
 31
0.0
  0
LINE
  5
DE
330
30
100
AcDbEntity
  8
LC-001-111-----0
 62
   253
370
    25
100
AcDbLine
 10
1088.520928
 20
157.149147
 30
0.0
 11
1096.09687
 21
157.149147
 31
0.0
  0
LINE
  5
DF
330
30
100
AcDbEntity
  8
LC-001-111-----0
 62
   253
370
    25
100
AcDbLine
 10
1096.09687
 20
157.149147
 30
0.0
 11
1080.255204
 21
176.159147
 31
0.0
  0
LINE
  5
E0
330
30
100
AcDbEntity
  8
LC-001-111-----0
 62
   253
370
    25
100
AcDbLine
 10
770.044191
 20
186.20063
 30
0.0
 11
770.044191
 21
193.903002
 31
0.0
  0
ARC
  5
E1
330
30
100
AcDbEntity
  8
LC-001-111-----0
 62
   253
370
    25
100
AcDbCircle
 10
761.412387
 20
186.963179
 30
0.0
 40
23.54367341134796
100
AcDbArc
 50
232.518913
 51
268.246912
  0
ARC
  5
E2
330
30
100
AcDbEntity
  8
LC-001-111-----0
 62
   253
370
    25
100
AcDbCircle
 10
760.836588
 20
168.15034
 30
0.0
 40
4.722024781007908
100
AcDbArc
 50
268.246912
 51
72.731329
  0
LINE
  5
E3
330
30
100
AcDbEntity
  8
LC-001-111-----0
 62
   253
370
    25
100
AcDbLine
 10
757.542274
 20
181.595277
 30
0.0
 11
765.098525
 21
179.464972
 31
0.0
  0
ARC
  5
E4
330
30
100
AcDbEntity
  8
LC-001-111-----0
 62
   253
370
    25
100
AcDbCircle
 10
758.632108
 20
185.460948
 30
0.0
 40
4.016360130100384
100
AcDbArc
 50
90.951212
 51
254.255463
  0
ARC
  5
E5
330
30
100
AcDbEntity
  8
LC-001-111-----0
 62
   253
370
    25
100
AcDbCircle
 10
758.032826
 20
185.671748
 30
0.0
 40
11.17727081470983
100
AcDbArc
 50
94.48185
 51
252.731329
  0
LINE
  5
E6
330
30
100
AcDbEntity
  8
LC-001-111-----0
 62
   253
370
    25
100
AcDbLine
 10
762.238334
 20
172.659511
 30
0.0
 11
754.714822
 21
174.998312
 31
0.0
  0
LINE
  5
E7
330
30
100
AcDbEntity
  8
LC-001-111-----0
 62
   253
370
    25
100
AcDbLine
 10
747.086073
 20
168.279997
 30
0.0
 11
747.086073
 21
159.524163
 31
0.0
  0
ARC
  5
E8
330
30
100
AcDbEntity
  8
LC-001-111-----0
 62
   253
370
    25
100
AcDbCircle
 10
758.903191
 20
174.567744
 30
0.0
 40
22.31533311668187
100
AcDbArc
 50
60.049399
 51
94.48185
  0
ARC
  5
E9
330
30
100
AcDbEntity
  8
LC-001-111-----0
 62
   253
370
    25
100
AcDbCircle
 10
760.81067
 20
180.45076
 30
0.0
 40
25.02572762426604
100
AcDbArc
 50
236.741348
 51
274.343327
  0
LINE
  5
EA
330
30
100
AcDbEntity
  8
LC-001-111-----0
 62
   253
370
    25
100
AcDbLine
 10
1080.255204
 20
176.159147
 30
0.0
 11
1096.09687
 21
195.169147
 31
0.0
  0
LINE
  5
EB
330
30
100
AcDbEntity
  8
LC-001-111-----0
 62
   253
370
    25
100
AcDbLine
 10
750.086073
 20
162.957321
 30
0.0
 11
750.086073
 21
161.212369
 31
0.0
  0
LINE
  5
EC
330
30
100
AcDbEntity
  8
LC-001-111-----0
 62
   253
370
    25
100
AcDbLine
 10
1078.302641
 20
176.159147
 30
0.0
 11
1092.894308
 21
193.669147
 31
0.0
  0
LINE
  5
ED
330
30
100
AcDbEntity
  8
LC-002-002-----0
 62
     1
370
    25
100
AcDbLine
 10
1139.355603
 20
170.827393
 30
0.0
 11
1139.355603
 21
181.490901
 31
0.0
  0
LINE
  5
EE
330
30
100
AcDbEntity
  8
LC-002-002-----0
 62
     1
370
    25
100
AcDbLine
 10
1139.355603
 20
181.490901
 30
0.0
 11
1134.023849
 21
176.159147
 31
0.0
  0
LINE
  5
EF
330
30
100
AcDbEntity
  8
LC-002-002-----0
 62
     1
370
    25
100
AcDbLine
 10
1134.023849
 20
176.159147
 30
0.0
 11
1139.355603
 21
170.827393
 31
0.0
  0
LINE
  5
F0
330
30
100
AcDbEntity
  8
LC-002-002-----0
 62
     1
370
    25
100
AcDbLine
 10
1137.855603
 20
174.448713
 30
0.0
 11
1137.855603
 21
177.869581
 31
0.0
  0
LINE
  5
F1
330
30
100
AcDbEntity
  8
LC-002-002-----0
 62
     1
370
    25
100
AcDbLine
 10
1137.855603
 20
177.869581
 30
0.0
 11
1136.145169
 21
176.159147
 31
0.0
  0
LINE
  5
F2
330
30
100
AcDbEntity
  8
LC-002-002-----0
 62
     1
370
    25
100
AcDbLine
 10
1136.145169
 20
176.159147
 30
0.0
 11
1137.855603
 21
174.448713
 31
0.0
  0
LINE
  5
F3
330
30
100
AcDbEntity
  8
LC-001-111-----0
 62
   253
370
    25
100
AcDbLine
 10
1092.894308
 20
193.669147
 30
0.0
 11
1089.22349
 21
193.669147
 31
0.0
  0
LINE
  5
F4
330
30
100
AcDbEntity
  8
LC-001-111-----0
 62
   253
370
    25
100
AcDbLine
 10
1089.22349
 20
193.669147
 30
0.0
 11
1074.631824
 21
176.159147
 31
0.0
  0
ARC
  5
F5
330
30
100
AcDbEntity
  8
LC-001-111-----0
 62
   253
370
    25
100
AcDbCircle
 10
1019.845603
 20
176.159147
 30
0.0
 40
15.38999999999992
100
AcDbArc
 50
76.816519
 51
283.183481
  0
LINE
  5
F6
330
30
100
AcDbEntity
  8
LC-001-111-----0
 62
   253
370
    25
100
AcDbLine
 10
1074.631824
 20
176.159147
 30
0.0
 11
1089.22349
 21
158.649147
 31
0.0
  0
LINE
  5
F7
330
30
100
AcDbEntity
  8
LC-001-111-----0
 62
   253
370
    25
100
AcDbLine
 10
1089.22349
 20
158.649147
 30
0.0
 11
1092.894308
 21
158.649147
 31
0.0
  0
LINE
  5
F8
330
30
100
AcDbEntity
  8
LC-001-111-----0
 62
   253
370
    25
100
AcDbLine
 10
1092.894308
 20
158.649147
 30
0.0
 11
1078.302641
 21
176.159147
 31
0.0
  0
LINE
  5
F9
330
30
100
AcDbEntity
  8
LC-001-111-----0
 62
   253
370
    25
100
AcDbLine
 10
1076.467232
 20
176.159147
 30
0.0
 11
1090.098623
 21
192.516815
 31
0.0
  0
LINE
  5
FA
330
30
100
AcDbEntity
  8
LC-001-111-----0
 62
   253
370
    25
100
AcDbLine
 10
1076.467232
 20
176.159147
 30
0.0
 11
1090.098623
 21
159.801479
 31
0.0
  0
ARC
  5
FB
330
30
100
AcDbEntity
  8
LC-001-111-----0
 62
   253
370
    25
100
AcDbCircle
 10
760.81067
 20
180.45076
 30
0.0
 40
22.02572762426587
100
AcDbArc
 50
240.862164
 51
274.343327
  0
ARC
  5
FC
330
30
100
AcDbEntity
  8
LC-001-111-----0
 62
   253
370
    25
100
AcDbCircle
 10
761.779647
 20
167.692822
 30
0.0
 40
9.231045254448425
100
AcDbArc
 50
274.343327
 51
74.255463
  0
LINE
  5
FD
330
30
100
AcDbEntity
  8
LC-001-111-----0
 62
   253
370
    25
100
AcDbLine
 10
764.284479
 20
176.577529
 30
0.0
 11
756.728228
 21
178.707834
 31
0.0
  0
ARC
  5
FE
330
30
100
AcDbEntity
  8
LC-001-111-----0
 62
   253
370
    25
100
AcDbCircle
 10
758.632108
 20
185.460948
 30
0.0
 40
7.016360130100396
100
AcDbArc
 50
90.951212
 51
254.255463
  0
ARC
  5
FF
330
30
100
AcDbEntity
  8
LC-001-111-----0
 62
   253
370
    25
100
AcDbCircle
 10
758.906662
 20
168.924866
 30
0.0
 40
23.55472179307856
100
AcDbArc
 50
69.789306
 51
90.951212
  0
LINE
  5
100
330
30
100
AcDbEntity
  8
LC-001-111-----0
 62
   253
370
    25
100
AcDbLine
 10
767.044191
 20
191.029289
 30
0.0
 11
767.044191
 21
192.083629
 31
0.0
  0
ENDBLK
  5
32
330
30
100
AcDbEntity
  8
0
100
AcDbBlockEnd
  0
BLOCK
  5
25F
330
255
100
AcDbEntity
  8
0
100
AcDbBlockBegin
  2
*D2
 70
     1
 71
     0
 10
0.0
 20
0.0
 30
0.0
  3
*D2
  1

  0
LINE
  5
256
330
255
100
AcDbEntity
  8
LC-006-003-----0
 62
     2
370
    -2
100
AcDbLine
 10
742.069343
 20
2397.950096
 30
0.0
 11
768.0
 21
2397.950096
 31
0.0
  0
LINE
  5
257
330
255
100
AcDbEntity
  8
LC-006-003-----0
 62
     2
370
    -2
100
AcDbLine
 10
742.069343
 20
2542.950096
 30
0.0
 11
768.0
 21
2542.950096
 31
0.0
  0
LINE
  5
258
330
255
100
AcDbEntity
  8
LC-006-003-----0
 62
     2
370
    -2
100
AcDbLine
 10
750.0
 20
2422.950096
 30
0.0
 11
750.0
 21
2517.950096
 31
0.0
  0
SOLID
  5
259
330
255
100
AcDbEntity
  8
LC-006-003-----0
 62
     2
100
AcDbTrace
 10
745.833333
 20
2422.950096
 30
0.0
 11
754.166667
 21
2422.950096
 31
0.0
 12
750.0
 22
2397.950096
 32
0.0
 13
750.0
 23
2397.950096
 33
0.0
  0
SOLID
  5
25A
330
255
100
AcDbEntity
  8
LC-006-003-----0
 62
     2
100
AcDbTrace
 10
754.166667
 20
2517.950096
 30
0.0
 11
745.833333
 21
2517.950096
 31
0.0
 12
750.0
 22
2542.950096
 32
0.0
 13
750.0
 23
2542.950096
 33
0.0
  0
MTEXT
  5
25B
330
255
100
AcDbEntity
  8
LC-006-003-----0
 62
     2
100
AcDbMText
 10
720.0
 20
2470.450096
 30
0.0
 40
25.0
 41
0.0
 71
     5
 72
     1
  1
\A1;145
  7
LCTX0-400-0-0pDIN-Schrift
 11
6.123031769111886E-17
 21
1.0
 31
0.0
 73
     1
 44
1.0
  0
POINT
  5
25C
330
255
100
AcDbEntity
  8
Defpoints
 62
     0
100
AcDbPoint
 10
742.069343
 20
2397.950096
 30
0.0
  0
POINT
  5
25D
330
255
100
AcDbEntity
  8
Defpoints
 62
     0
100
AcDbPoint
 10
742.069343
 20
2542.950096
 30
0.0
  0
POINT
  5
25E
330
255
100
AcDbEntity
  8
Defpoints
 62
     0
100
AcDbPoint
 10
750.0
 20
2542.950096
 30
0.0
  0
ENDBLK
  5
260
330
255
100
AcDbEntity
  8
0
100
AcDbBlockEnd
  0
BLOCK
  5
26C
330
262
100
AcDbEntity
  8
0
100
AcDbBlockBegin
  2
*D3
 70
     1
 71
     0
 10
0.0
 20
0.0
 30
0.0
  3
*D3
  1

  0
LINE
  5
263
330
262
100
AcDbEntity
  8
LC-006-003-----0
 62
     2
370
    -2
100
AcDbLine
 10
949.069343
 20
2342.950096
 30
0.0
 11
968.0
 21
2342.950096
 31
0.0
  0
LINE
  5
264
330
262
100
AcDbEntity
  8
LC-006-003-----0
 62
     2
370
    -2
100
AcDbLine
 10
949.069343
 20
2542.950096
 30
0.0
 11
968.0
 21
2542.950096
 31
0.0
  0
LINE
  5
265
330
262
100
AcDbEntity
  8
LC-006-003-----0
 62
     2
370
    -2
100
AcDbLine
 10
950.0
 20
2367.950096
 30
0.0
 11
950.0
 21
2517.950096
 31
0.0
  0
SOLID
  5
266
330
262
100
AcDbEntity
  8
LC-006-003-----0
 62
     2
100
AcDbTrace
 10
945.833333
 20
2367.950096
 30
0.0
 11
954.166667
 21
2367.950096
 31
0.0
 12
950.0
 22
2342.950096
 32
0.0
 13
950.0
 23
2342.950096
 33
0.0
  0
SOLID
  5
267
330
262
100
AcDbEntity
  8
LC-006-003-----0
 62
     2
100
AcDbTrace
 10
954.166667
 20
2517.950096
 30
0.0
 11
945.833333
 21
2517.950096
 31
0.0
 12
950.0
 22
2542.950096
 32
0.0
 13
950.0
 23
2542.950096
 33
0.0
  0
MTEXT
  5
268
330
262
100
AcDbEntity
  8
LC-006-003-----0
 62
     2
100
AcDbMText
 10
920.0
 20
2442.950096
 30
0.0
 40
25.0
 41
0.0
 71
     5
 72
     1
  1
\A1;200
  7
LCTX0-400-0-0pDIN-Schrift
 11
6.123031769111886E-17
 21
1.0
 31
0.0
 73
     1
 44
1.0
  0
POINT
  5
269
330
262
100
AcDbEntity
  8
Defpoints
 62
     0
100
AcDbPoint
 10
949.069343
 20
2342.950096
 30
0.0
  0
POINT
  5
26A
330
262
100
AcDbEntity
  8
Defpoints
 62
     0
100
AcDbPoint
 10
949.069343
 20
2542.950096
 30
0.0
  0
POINT
  5
26B
330
262
100
AcDbEntity
  8
Defpoints
 62
     0
100
AcDbPoint
 10
950.0
 20
2542.950096
 30
0.0
  0
ENDBLK
  5
26D
330
262
100
AcDbEntity
  8
0
100
AcDbBlockEnd
  0
BLOCK
  5
27A
330
270
100
AcDbEntity
  8
0
100
AcDbBlockBegin
  2
*D4
 70
     1
 71
     0
 10
0.0
 20
0.0
 30
0.0
  3
*D4
  1

  0
LINE
  5
271
330
270
100
AcDbEntity
  8
LC-006-003-----0
 62
     2
370
    -2
100
AcDbLine
 10
659.94423
 20
2552.950096
 30
0.0
 11
659.94423
 21
2668.0
 31
0.0
  0
LINE
  5
272
330
270
100
AcDbEntity
  8
LC-006-003-----0
 62
     2
370
    -2
100
AcDbLine
 10
824.194457
 20
2552.950096
 30
0.0
 11
824.194457
 21
2668.0
 31
0.0
  0
LINE
  5
273
330
270
100
AcDbEntity
  8
LC-006-003-----0
 62
     2
370
    -2
100
AcDbLine
 10
684.94423
 20
2650.0
 30
0.0
 11
799.194457
 21
2650.0
 31
0.0
  0
SOLID
  5
274
330
270
100
AcDbEntity
  8
LC-006-003-----0
 62
     2
100
AcDbTrace
 10
684.94423
 20
2654.166667
 30
0.0
 11
684.94423
 21
2645.833333
 31
0.0
 12
659.94423
 22
2650.0
 32
0.0
 13
659.94423
 23
2650.0
 33
0.0
  0
SOLID
  5
275
330
270
100
AcDbEntity
  8
LC-006-003-----0
 62
     2
100
AcDbTrace
 10
799.194457
 20
2645.833333
 30
0.0
 11
799.194457
 21
2654.166667
 31
0.0
 12
824.194457
 22
2650.0
 32
0.0
 13
824.194457
 23
2650.0
 33
0.0
  0
MTEXT
  5
276
330
270
100
AcDbEntity
  8
LC-006-003-----0
 62
     2
100
AcDbMText
 10
742.069343
 20
2680.0
 30
0.0
 40
25.0
 41
0.0
 71
     5
 72
     1
  1
\A1;164
  7
LCTX0-400-0-0pDIN-Schrift
 73
     1
 44
1.0
  0
POINT
  5
277
330
270
100
AcDbEntity
  8
Defpoints
 62
     0
100
AcDbPoint
 10
659.94423
 20
2552.950096
 30
0.0
  0
POINT
  5
278
330
270
100
AcDbEntity
  8
Defpoints
 62
     0
100
AcDbPoint
 10
824.194457
 20
2552.950096
 30
0.0
  0
POINT
  5
279
330
270
100
AcDbEntity
  8
Defpoints
 62
     0
100
AcDbPoint
 10
824.194457
 20
2650.0
 30
0.0
  0
ENDBLK
  5
27B
330
270
100
AcDbEntity
  8
0
100
AcDbBlockEnd
  0
BLOCK
  5
287
330
27D
100
AcDbEntity
  8
0
100
AcDbBlockBegin
  2
*D5
 70
     1
 71
     0
 10
0.0
 20
0.0
 30
0.0
  3
*D5
  1

  0
LINE
  5
27E
330
27D
100
AcDbEntity
  8
LC-006-003-----0
 62
     2
370
    -2
100
AcDbLine
 10
855.94423
 20
2552.514317
 30
0.0
 11
855.94423
 21
2668.0
 31
0.0
  0
LINE
  5
27F
330
27D
100
AcDbEntity
  8
LC-006-003-----0
 62
     2
370
    -2
100
AcDbLine
 10
1200.069343
 20
2552.514317
 30
0.0
 11
1200.069343
 21
2668.0
 31
0.0
  0
LINE
  5
280
330
27D
100
AcDbEntity
  8
LC-006-003-----0
 62
     2
370
    -2
100
AcDbLine
 10
880.94423
 20
2650.0
 30
0.0
 11
1175.069343
 21
2650.0
 31
0.0
  0
SOLID
  5
281
330
27D
100
AcDbEntity
  8
LC-006-003-----0
 62
     2
100
AcDbTrace
 10
880.94423
 20
2654.166667
 30
0.0
 11
880.94423
 21
2645.833333
 31
0.0
 12
855.94423
 22
2650.0
 32
0.0
 13
855.94423
 23
2650.0
 33
0.0
  0
SOLID
  5
282
330
27D
100
AcDbEntity
  8
LC-006-003-----0
 62
     2
100
AcDbTrace
 10
1175.069343
 20
2645.833333
 30
0.0
 11
1175.069343
 21
2654.166667
 31
0.0
 12
1200.069343
 22
2650.0
 32
0.0
 13
1200.069343
 23
2650.0
 33
0.0
  0
MTEXT
  5
283
330
27D
100
AcDbEntity
  8
LC-006-003-----0
 62
     2
100
AcDbMText
 10
1028.006787
 20
2680.0
 30
0.0
 40
25.0
 41
0.0
 71
     5
 72
     1
  1
\A1;344
  7
LCTX0-400-0-0pDIN-Schrift
 73
     1
 44
1.0
  0
POINT
  5
284
330
27D
100
AcDbEntity
  8
Defpoints
 62
     0
100
AcDbPoint
 10
855.94423
 20
2552.514317
 30
0.0
  0
POINT
  5
285
330
27D
100
AcDbEntity
  8
Defpoints
 62
     0
100
AcDbPoint
 10
1200.069343
 20
2552.514317
 30
0.0
  0
POINT
  5
286
330
27D
100
AcDbEntity
  8
Defpoints
 62
     0
100
AcDbPoint
 10
1200.069343
 20
2650.0
 30
0.0
  0
ENDBLK
  5
288
330
27D
100
AcDbEntity
  8
0
100
AcDbBlockEnd
  0
BLOCK
  5
294
330
28A
100
AcDbEntity
  8
0
100
AcDbBlockBegin
  2
*D6
 70
     1
 71
     0
 10
0.0
 20
0.0
 30
0.0
  3
*D6
  1

  0
LINE
  5
28B
330
28A
100
AcDbEntity
  8
LC-006-003-----0
 62
     2
370
    -2
100
AcDbLine
 10
1769.984286
 20
1872.308128
 30
0.0
 11
1968.0
 21
1872.308128
 31
0.0
  0
LINE
  5
28C
330
28A
100
AcDbEntity
  8
LC-006-003-----0
 62
     2
370
    -2
100
AcDbLine
 10
1769.984286
 20
1442.308128
 30
0.0
 11
1968.0
 21
1442.308128
 31
0.0
  0
LINE
  5
28D
330
28A
100
AcDbEntity
  8
LC-006-003-----0
 62
     2
370
    -2
100
AcDbLine
 10
1950.0
 20
1847.308128
 30
0.0
 11
1950.0
 21
1467.308128
 31
0.0
  0
SOLID
  5
28E
330
28A
100
AcDbEntity
  8
LC-006-003-----0
 62
     2
100
AcDbTrace
 10
1954.166667
 20
1847.308128
 30
0.0
 11
1945.833333
 21
1847.308128
 31
0.0
 12
1950.0
 22
1872.308128
 32
0.0
 13
1950.0
 23
1872.308128
 33
0.0
  0
SOLID
  5
28F
330
28A
100
AcDbEntity
  8
LC-006-003-----0
 62
     2
100
AcDbTrace
 10
1945.833333
 20
1467.308128
 30
0.0
 11
1954.166667
 21
1467.308128
 31
0.0
 12
1950.0
 22
1442.308128
 32
0.0
 13
1950.0
 23
1442.308128
 33
0.0
  0
MTEXT
  5
290
330
28A
100
AcDbEntity
  8
LC-006-003-----0
 62
     2
100
AcDbMText
 10
1920.0
 20
1657.308128
 30
0.0
 40
25.0
 41
0.0
 71
     5
 72
     1
  1
\A1;430
  7
LCTX0-400-0-0pDIN-Schrift
 11
6.123031769111886E-17
 21
1.0
 31
0.0
 73
     1
 44
1.0
  0
POINT
  5
291
330
28A
100
AcDbEntity
  8
Defpoints
 62
     0
100
AcDbPoint
 10
1769.984286
 20
1872.308128
 30
0.0
  0
POINT
  5
292
330
28A
100
AcDbEntity
  8
Defpoints
 62
     0
100
AcDbPoint
 10
1769.984286
 20
1442.308128
 30
0.0
  0
POINT
  5
293
330
28A
100
AcDbEntity
  8
Defpoints
 62
     0
100
AcDbPoint
 10
1950.0
 20
1442.308128
 30
0.0
  0
ENDBLK
  5
295
330
28A
100
AcDbEntity
  8
0
100
AcDbBlockEnd
  0
BLOCK
  5
2A1
330
297
100
AcDbEntity
  8
0
100
AcDbBlockBegin
  2
*D7
 70
     1
 71
     0
 10
0.0
 20
0.0
 30
0.0
  3
*D7
  1

  0
LINE
  5
298
330
297
100
AcDbEntity
  8
LC-006-003-----0
 62
     2
370
    -2
100
AcDbLine
 10
455.069343
 20
1397.308128
 30
0.0
 11
455.069343
 21
1282.0
 31
0.0
  0
LINE
  5
299
330
297
100
AcDbEntity
  8
LC-006-003-----0
 62
     2
370
    -2
100
AcDbLine
 10
1235.069343
 20
1397.308128
 30
0.0
 11
1235.069343
 21
1282.0
 31
0.0
  0
LINE
  5
29A
330
297
100
AcDbEntity
  8
LC-006-003-----0
 62
     2
370
    -2
100
AcDbLine
 10
480.069343
 20
1300.0
 30
0.0
 11
1210.069343
 21
1300.0
 31
0.0
  0
SOLID
  5
29B
330
297
100
AcDbEntity
  8
LC-006-003-----0
 62
     2
100
AcDbTrace
 10
480.069343
 20
1304.166667
 30
0.0
 11
480.069343
 21
1295.833333
 31
0.0
 12
455.069343
 22
1300.0
 32
0.0
 13
455.069343
 23
1300.0
 33
0.0
  0
SOLID
  5
29C
330
297
100
AcDbEntity
  8
LC-006-003-----0
 62
     2
100
AcDbTrace
 10
1210.069343
 20
1295.833333
 30
0.0
 11
1210.069343
 21
1304.166667
 31
0.0
 12
1235.069343
 22
1300.0
 32
0.0
 13
1235.069343
 23
1300.0
 33
0.0
  0
MTEXT
  5
29D
330
297
100
AcDbEntity
  8
LC-006-003-----0
 62
     2
100
AcDbMText
 10
845.069343
 20
1330.0
 30
0.0
 40
25.0
 41
0.0
 71
     5
 72
     1
  1
\A1;780
  7
LCTX0-400-0-0pDIN-Schrift
 73
     1
 44
1.0
  0
POINT
  5
29E
330
297
100
AcDbEntity
  8
Defpoints
 62
     0
100
AcDbPoint
 10
455.069343
 20
1397.308128
 30
0.0
  0
POINT
  5
29F
330
297
100
AcDbEntity
  8
Defpoints
 62
     0
100
AcDbPoint
 10
1235.069343
 20
1397.308128
 30
0.0
  0
POINT
  5
2A0
330
297
100
AcDbEntity
  8
Defpoints
 62
     0
100
AcDbPoint
 10
1235.069343
 20
1300.0
 30
0.0
  0
ENDBLK
  5
2A2
330
297
100
AcDbEntity
  8
0
100
AcDbBlockEnd
  0
BLOCK
  5
2AE
330
2A4
100
AcDbEntity
  8
0
100
AcDbBlockBegin
  2
*D8
 70
     1
 71
     0
 10
0.0
 20
0.0
 30
0.0
  3
*D8
  1

  0
LINE
  5
2A5
330
2A4
100
AcDbEntity
  8
LC-006-003-----0
 62
     2
370
    -2
100
AcDbLine
 10
629.159343
 20
2287.950096
 30
0.0
 11
629.159343
 21
2132.0
 31
0.0
  0
LINE
  5
2A6
330
2A4
100
AcDbEntity
  8
LC-006-003-----0
 62
     2
370
    -2
100
AcDbLine
 10
1229.159343
 20
2287.950096
 30
0.0
 11
1229.159343
 21
2132.0
 31
0.0
  0
LINE
  5
2A7
330
2A4
100
AcDbEntity
  8
LC-006-003-----0
 62
     2
370
    -2
100
AcDbLine
 10
654.159343
 20
2150.0
 30
0.0
 11
1204.159343
 21
2150.0
 31
0.0
  0
SOLID
  5
2A8
330
2A4
100
AcDbEntity
  8
LC-006-003-----0
 62
     2
100
AcDbTrace
 10
654.159343
 20
2154.166667
 30
0.0
 11
654.159343
 21
2145.833333
 31
0.0
 12
629.159343
 22
2150.0
 32
0.0
 13
629.159343
 23
2150.0
 33
0.0
  0
SOLID
  5
2A9
330
2A4
100
AcDbEntity
  8
LC-006-003-----0
 62
     2
100
AcDbTrace
 10
1204.159343
 20
2145.833333
 30
0.0
 11
1204.159343
 21
2154.166667
 31
0.0
 12
1229.159343
 22
2150.0
 32
0.0
 13
1229.159343
 23
2150.0
 33
0.0
  0
MTEXT
  5
2AA
330
2A4
100
AcDbEntity
  8
LC-006-003-----0
 62
     2
100
AcDbMText
 10
929.159343
 20
2180.0
 30
0.0
 40
25.0
 41
0.0
 71
     5
 72
     1
  1
\A1;600
  7
LCTX0-400-0-0pDIN-Schrift
 73
     1
 44
1.0
  0
POINT
  5
2AB
330
2A4
100
AcDbEntity
  8
Defpoints
 62
     0
100
AcDbPoint
 10
629.159343
 20
2287.950096
 30
0.0
  0
POINT
  5
2AC
330
2A4
100
AcDbEntity
  8
Defpoints
 62
     0
100
AcDbPoint
 10
1229.159343
 20
2287.950096
 30
0.0
  0
POINT
  5
2AD
330
2A4
100
AcDbEntity
  8
Defpoints
 62
     0
100
AcDbPoint
 10
1229.159343
 20
2150.0
 30
0.0
  0
ENDBLK
  5
2AF
330
2A4
100
AcDbEntity
  8
0
100
AcDbBlockEnd
  0
BLOCK
  5
2BB
330
2B1
100
AcDbEntity
  8
0
100
AcDbBlockBegin
  2
*D9
 70
     1
 71
     0
 10
0.0
 20
0.0
 30
0.0
  3
*D9
  1

  0
LINE
  5
2B2
330
2B1
100
AcDbEntity
  8
LC-006-003-----0
 62
     2
370
    -2
100
AcDbLine
 10
1769.984286
 20
1799.808128
 30
0.0
 11
1868.0
 21
1799.808128
 31
0.0
  0
LINE
  5
2B3
330
2B1
100
AcDbEntity
  8
LC-006-003-----0
 62
     2
370
    -2
100
AcDbLine
 10
1769.984286
 20
1514.808128
 30
0.0
 11
1868.0
 21
1514.808128
 31
0.0
  0
LINE
  5
2B4
330
2B1
100
AcDbEntity
  8
LC-006-003-----0
 62
     2
370
    -2
100
AcDbLine
 10
1850.0
 20
1774.808128
 30
0.0
 11
1850.0
 21
1539.808128
 31
0.0
  0
SOLID
  5
2B5
330
2B1
100
AcDbEntity
  8
LC-006-003-----0
 62
     2
100
AcDbTrace
 10
1854.166667
 20
1774.808128
 30
0.0
 11
1845.833333
 21
1774.808128
 31
0.0
 12
1850.0
 22
1799.808128
 32
0.0
 13
1850.0
 23
1799.808128
 33
0.0
  0
SOLID
  5
2B6
330
2B1
100
AcDbEntity
  8
LC-006-003-----0
 62
     2
100
AcDbTrace
 10
1845.833333
 20
1539.808128
 30
0.0
 11
1854.166667
 21
1539.808128
 31
0.0
 12
1850.0
 22
1514.808128
 32
0.0
 13
1850.0
 23
1514.808128
 33
0.0
  0
MTEXT
  5
2B7
330
2B1
100
AcDbEntity
  8
LC-006-003-----0
 62
     2
100
AcDbMText
 10
1820.0
 20
1657.308128
 30
0.0
 40
25.0
 41
0.0
 71
     5
 72
     1
  1
\A1;285
  7
LCTX0-400-0-0pDIN-Schrift
 11
6.123031769111886E-17
 21
1.0
 31
0.0
 73
     1
 44
1.0
  0
POINT
  5
2B8
330
2B1
100
AcDbEntity
  8
Defpoints
 62
     0
100
AcDbPoint
 10
1769.984286
 20
1799.808128
 30
0.0
  0
POINT
  5
2B9
330
2B1
100
AcDbEntity
  8
Defpoints
 62
     0
100
AcDbPoint
 10
1769.984286
 20
1514.808128
 30
0.0
  0
POINT
  5
2BA
330
2B1
100
AcDbEntity
  8
Defpoints
 62
     0
100
AcDbPoint
 10
1850.0
 20
1514.808128
 30
0.0
  0
ENDBLK
  5
2BC
330
2B1
100
AcDbEntity
  8
0
100
AcDbBlockEnd
  0
BLOCK
  5
2CC
330
2CB
100
AcDbEntity
  8
0
100
AcDbBlockBegin
  2
*X110
 70
     1
 71
     0
 10
0.0
 20
0.0
 30
0.0
  3
*X110
  1

  4
*X1
  0
LINE
  5
2CF
330
2CB
100
AcDbEntity
  8
LC-008-005-----0
 62
     7
370
    25
100
AcDbLine
 10
1281.726432
 20
2497.950096
 30
0.0
 11
1285.664788
 21
2501.888452
 31
0.0
  0
LINE
  5
2D0
330
2CB
100
AcDbEntity
  8
LC-008-005-----0
 62
     7
370
    25
100
AcDbLine
 10
1253.442161
 20
2497.950096
 30
0.0
 11
1285.767072
 21
2530.275007
 31
0.0
  0
LINE
  5
2D1
330
2CB
100
AcDbEntity
  8
LC-008-005-----0
 62
     7
370
    25
100
AcDbLine
 10
1225.15789
 20
2497.950096
 30
0.0
 11
1263.15789
 21
2535.950096
 31
0.0
  0
LINE
  5
2D2
330
2CB
100
AcDbEntity
  8
LC-008-005-----0
 62
     7
370
    25
100
AcDbLine
 10
1225.069343
 20
2526.145821
 30
0.0
 11
1234.873619
 21
2535.950096
 31
0.0
  0
LINE
  5
2D3
330
2CB
100
AcDbEntity
  8
LC-008-005-----0
 62
     7
370
    25
100
AcDbLine
 10
461.482566
 20
2497.950096
 30
0.0
 11
465.069343
 21
2501.536873
 31
0.0
  0
LINE
  5
2D4
330
2CB
100
AcDbEntity
  8
LC-008-005-----0
 62
     7
370
    25
100
AcDbLine
 10
433.198295
 20
2497.950096
 30
0.0
 11
465.069343
 21
2529.821144
 31
0.0
  0
LINE
  5
2D5
330
2CB
100
AcDbEntity
  8
LC-008-005-----0
 62
     7
370
    25
100
AcDbLine
 10
405.217781
 20
2498.253854
 30
0.0
 11
442.914024
 21
2535.950096
 31
0.0
  0
LINE
  5
2D6
330
2CB
100
AcDbEntity
  8
LC-008-005-----0
 62
     7
370
    25
100
AcDbLine
 10
403.498283
 20
2524.818627
 30
0.0
 11
414.629752
 21
2535.950096
 31
0.0
  0
ENDBLK
  5
2CD
330
2CB
100
AcDbEntity
  8
0
100
AcDbBlockEnd
  0
BLOCK
  5
2E9
330
2DD
100
AcDbEntity
  8
0
100
AcDbBlockBegin
  2
*D11
 70
     1
 71
     0
 10
0.0
 20
0.0
 30
0.0
  3
*D11
  1

  0
LINE
  5
2DE
330
2DD
100
AcDbEntity
  8
LC-006-003-----0
 62
     2
370
    -2
100
AcDbLine
 10
1225.069343
 20
2497.950096
 30
0.0
 11
1225.069343
 21
2382.0
 31
0.0
  0
LINE
  5
2DF
330
2DD
100
AcDbEntity
  8
LC-006-003-----0
 62
     2
370
    -2
100
AcDbLine
 10
1229.159343
 20
2497.950096
 30
0.0
 11
1229.159343
 21
2382.0
 31
0.0
  0
LINE
  5
2E0
330
2DD
100
AcDbEntity
  8
LC-006-003-----0
 62
     2
370
    -2
100
AcDbLine
 10
1200.069343
 20
2400.0
 30
0.0
 11
1175.069343
 21
2400.0
 31
0.0
  0
LINE
  5
2E1
330
2DD
100
AcDbEntity
  8
LC-006-003-----0
 62
     2
370
    -2
100
AcDbLine
 10
1254.159343
 20
2400.0
 30
0.0
 11
1286.509569
 21
2400.0
 31
0.0
  0
LINE
  5
2E2
330
2DD
100
AcDbEntity
  8
LC-006-003-----0
 62
     2
370
    -2
100
AcDbLine
 10
1225.069343
 20
2400.0
 30
0.0
 11
1229.159343
 21
2400.0
 31
0.0
  0
SOLID
  5
2E3
330
2DD
100
AcDbEntity
  8
LC-006-003-----0
 62
     2
100
AcDbTrace
 10
1200.069343
 20
2395.833333
 30
0.0
 11
1200.069343
 21
2404.166667
 31
0.0
 12
1225.069343
 22
2400.0
 32
0.0
 13
1225.069343
 23
2400.0
 33
0.0
  0
SOLID
  5
2E4
330
2DD
100
AcDbEntity
  8
LC-006-003-----0
 62
     2
100
AcDbTrace
 10
1254.159343
 20
2404.166667
 30
0.0
 11
1254.159343
 21
2395.833333
 31
0.0
 12
1229.159343
 22
2400.0
 32
0.0
 13
1229.159343
 23
2400.0
 33
0.0
  0
MTEXT
  5
2E5
330
2DD
100
AcDbEntity
  8
LC-006-003-----0
 62
     2
100
AcDbMText
 10
1265.480819
 20
2430.0
 30
0.0
 40
25.0
 41
0.0
 71
     5
 72
     1
  1
\A1;4
  7
LCTX0-400-0-0pDIN-Schrift
 73
     1
 44
1.0
  0
POINT
  5
2E6
330
2DD
100
AcDbEntity
  8
Defpoints
 62
     0
100
AcDbPoint
 10
1225.069343
 20
2497.950096
 30
0.0
  0
POINT
  5
2E7
330
2DD
100
AcDbEntity
  8
Defpoints
 62
     0
100
AcDbPoint
 10
1229.159343
 20
2497.950096
 30
0.0
  0
POINT
  5
2E8
330
2DD
100
AcDbEntity
  8
Defpoints
 62
     0
100
AcDbPoint
 10
1229.159343
 20
2400.0
 30
0.0
  0
ENDBLK
  5
2EA
330
2DD
100
AcDbEntity
  8
0
100
AcDbBlockEnd
  0
BLOCK
  5
2F6
330
2EC
100
AcDbEntity
  8
0
100
AcDbBlockBegin
  2
*D12
 70
     1
 71
     0
 10
0.0
 20
0.0
 30
0.0
  3
*D12
  1

  0
LINE
  5
2ED
330
2EC
100
AcDbEntity
  8
LC-006-003-----0
 62
     2
370
    -2
100
AcDbLine
 10
579.281938
 20
775.949232
 30
0.0
 11
579.281938
 21
704.93814
 31
0.0
  0
LINE
  5
2EE
330
2EC
100
AcDbEntity
  8
LC-006-003-----0
 62
     2
370
    -2
100
AcDbLine
 10
879.281938
 20
775.949232
 30
0.0
 11
879.281938
 21
704.93814
 31
0.0
  0
LINE
  5
2EF
330
2EC
100
AcDbEntity
  8
LC-006-003-----0
 62
     2
370
    -2
100
AcDbLine
 10
604.281938
 20
722.93814
 30
0.0
 11
854.281938
 21
722.93814
 31
0.0
  0
SOLID
  5
2F0
330
2EC
100
AcDbEntity
  8
LC-006-003-----0
 62
     2
100
AcDbTrace
 10
604.281938
 20
727.104806
 30
0.0
 11
604.281938
 21
718.771473
 31
0.0
 12
579.281938
 22
722.93814
 32
0.0
 13
579.281938
 23
722.93814
 33
0.0
  0
SOLID
  5
2F1
330
2EC
100
AcDbEntity
  8
LC-006-003-----0
 62
     2
100
AcDbTrace
 10
854.281938
 20
718.771473
 30
0.0
 11
854.281938
 21
727.104806
 31
0.0
 12
879.281938
 22
722.93814
 32
0.0
 13
879.281938
 23
722.93814
 33
0.0
  0
MTEXT
  5
2F2
330
2EC
100
AcDbEntity
  8
LC-006-003-----0
 62
     2
100
AcDbMText
 10
718.627657
 20
752.93814
 30
0.0
 40
25.0
 41
0.0
 71
     5
 72
     1
  1
\A1;600
  7
LCTX0-400-0-0pDIN-Schrift
 73
     1
 44
1.0
  0
POINT
  5
2F3
330
2EC
100
AcDbEntity
  8
Defpoints
 62
     0
100
AcDbPoint
 10
579.281938
 20
775.949232
 30
0.0
  0
POINT
  5
2F4
330
2EC
100
AcDbEntity
  8
Defpoints
 62
     0
100
AcDbPoint
 10
879.281938
 20
775.949232
 30
0.0
  0
POINT
  5
2F5
330
2EC
100
AcDbEntity
  8
Defpoints
 62
     0
100
AcDbPoint
 10
879.281938
 20
722.93814
 30
0.0
  0
ENDBLK
  5
2F7
330
2EC
100
AcDbEntity
  8
0
100
AcDbBlockEnd
  0
BLOCK
  5
305
330
2F9
100
AcDbEntity
  8
0
100
AcDbBlockBegin
  2
*D13
 70
     1
 71
     0
 10
0.0
 20
0.0
 30
0.0
  3
*D13
  1

  0
LINE
  5
2FA
330
2F9
100
AcDbEntity
  8
LC-006-003-----0
 62
     2
370
    -2
100
AcDbLine
 10
877.281938
 20
804.766051
 30
0.0
 11
877.281938
 21
730.887372
 31
0.0
  0
LINE
  5
2FB
330
2F9
100
AcDbEntity
  8
LC-006-003-----0
 62
     2
370
    -2
100
AcDbLine
 10
879.281938
 20
775.949232
 30
0.0
 11
879.281938
 21
730.887372
 31
0.0
  0
LINE
  5
2FC
330
2F9
100
AcDbEntity
  8
LC-006-003-----0
 62
     2
370
    -2
100
AcDbLine
 10
852.281938
 20
748.887372
 30
0.0
 11
827.281938
 21
748.887372
 31
0.0
  0
LINE
  5
2FD
330
2F9
100
AcDbEntity
  8
LC-006-003-----0
 62
     2
370
    -2
100
AcDbLine
 10
904.281938
 20
748.887372
 30
0.0
 11
949.218585
 21
748.887372
 31
0.0
  0
LINE
  5
2FE
330
2F9
100
AcDbEntity
  8
LC-006-003-----0
 62
     2
370
    -2
100
AcDbLine
 10
877.281938
 20
748.887372
 30
0.0
 11
879.281938
 21
748.887372
 31
0.0
  0
SOLID
  5
2FF
330
2F9
100
AcDbEntity
  8
LC-006-003-----0
 62
     2
100
AcDbTrace
 10
852.281938
 20
744.720705
 30
0.0
 11
852.281938
 21
753.054039
 31
0.0
 12
877.281938
 22
748.887372
 32
0.0
 13
877.281938
 23
748.887372
 33
0.0
  0
SOLID
  5
300
330
2F9
100
AcDbEntity
  8
LC-006-003-----0
 62
     2
100
AcDbTrace
 10
904.281938
 20
753.054039
 30
0.0
 11
904.281938
 21
744.720705
 31
0.0
 12
879.281938
 22
748.887372
 32
0.0
 13
879.281938
 23
748.887372
 33
0.0
  0
MTEXT
  5
301
330
2F9
100
AcDbEntity
  8
LC-006-003-----0
 62
     2
100
AcDbMText
 10
928.189835
 20
778.887372
 30
0.0
 40
25.0
 41
0.0
 71
     5
 72
     1
  1
\A1;4
  7
LCTX0-400-0-0pDIN-Schrift
 73
     1
 44
1.0
  0
POINT
  5
302
330
2F9
100
AcDbEntity
  8
Defpoints
 62
     0
100
AcDbPoint
 10
877.281938
 20
804.766051
 30
0.0
  0
POINT
  5
303
330
2F9
100
AcDbEntity
  8
Defpoints
 62
     0
100
AcDbPoint
 10
879.281938
 20
775.949232
 30
0.0
  0
POINT
  5
304
330
2F9
100
AcDbEntity
  8
Defpoints
 62
     0
100
AcDbPoint
 10
879.281938
 20
748.887372
 30
0.0
  0
ENDBLK
  5
306
330
2F9
100
AcDbEntity
  8
0
100
AcDbBlockEnd
  0
BLOCK
  5
312
330
308
100
AcDbEntity
  8
0
100
AcDbBlockBegin
  2
*D14
 70
     1
 71
     0
 10
0.0
 20
0.0
 30
0.0
  3
*D14
  1

  0
LINE
  5
309
330
308
100
AcDbEntity
  8
LC-006-003-----0
 62
     2
370
    -2
100
AcDbLine
 10
497.281938
 20
804.766051
 30
0.0
 11
497.281938
 21
654.93814
 31
0.0
  0
LINE
  5
30A
330
308
100
AcDbEntity
  8
LC-006-003-----0
 62
     2
370
    -2
100
AcDbLine
 10
877.281938
 20
804.766051
 30
0.0
 11
877.281938
 21
654.93814
 31
0.0
  0
LINE
  5
30B
330
308
100
AcDbEntity
  8
LC-006-003-----0
 62
     2
370
    -2
100
AcDbLine
 10
522.281938
 20
672.93814
 30
0.0
 11
852.281938
 21
672.93814
 31
0.0
  0
SOLID
  5
30C
330
308
100
AcDbEntity
  8
LC-006-003-----0
 62
     2
100
AcDbTrace
 10
522.281938
 20
677.104806
 30
0.0
 11
522.281938
 21
668.771473
 31
0.0
 12
497.281938
 22
672.93814
 32
0.0
 13
497.281938
 23
672.93814
 33
0.0
  0
SOLID
  5
30D
330
308
100
AcDbEntity
  8
LC-006-003-----0
 62
     2
100
AcDbTrace
 10
852.281938
 20
668.771473
 30
0.0
 11
852.281938
 21
677.104806
 31
0.0
 12
877.281938
 22
672.93814
 32
0.0
 13
877.281938
 23
672.93814
 33
0.0
  0
MTEXT
  5
30E
330
308
100
AcDbEntity
  8
LC-006-003-----0
 62
     2
100
AcDbMText
 10
694.147828
 20
702.93814
 30
0.0
 40
25.0
 41
0.0
 71
     5
 72
     1
  1
\A1;760
  7
LCTX0-400-0-0pDIN-Schrift
 73
     1
 44
1.0
  0
POINT
  5
30F
330
308
100
AcDbEntity
  8
Defpoints
 62
     0
100
AcDbPoint
 10
497.281938
 20
804.766051
 30
0.0
  0
POINT
  5
310
330
308
100
AcDbEntity
  8
Defpoints
 62
     0
100
AcDbPoint
 10
877.281938
 20
804.766051
 30
0.0
  0
POINT
  5
311
330
308
100
AcDbEntity
  8
Defpoints
 62
     0
100
AcDbPoint
 10
877.281938
 20
672.93814
 30
0.0
  0
ENDBLK
  5
313
330
308
100
AcDbEntity
  8
0
100
AcDbBlockEnd
  0
BLOCK
  5
31F
330
315
100
AcDbEntity
  8
0
100
AcDbBlockBegin
  2
*D15
 70
     1
 71
     0
 10
0.0
 20
0.0
 30
0.0
  3
*D15
  1

  0
LINE
  5
316
330
315
100
AcDbEntity
  8
LC-006-003-----0
 62
     2
370
    -2
100
AcDbLine
 10
869.781938
 20
1039.766051
 30
0.0
 11
969.556945
 21
1039.766051
 31
0.0
  0
LINE
  5
317
330
315
100
AcDbEntity
  8
LC-006-003-----0
 62
     2
370
    -2
100
AcDbLine
 10
869.781938
 20
799.766051
 30
0.0
 11
969.556945
 21
799.766051
 31
0.0
  0
LINE
  5
318
330
315
100
AcDbEntity
  8
LC-006-003-----0
 62
     2
370
    -2
100
AcDbLine
 10
951.556945
 20
1014.766051
 30
0.0
 11
951.556945
 21
824.766051
 31
0.0
  0
SOLID
  5
319
330
315
100
AcDbEntity
  8
LC-006-003-----0
 62
     2
100
AcDbTrace
 10
955.723612
 20
1014.766051
 30
0.0
 11
947.390278
 21
1014.766051
 31
0.0
 12
951.556945
 22
1039.766051
 32
0.0
 13
951.556945
 23
1039.766051
 33
0.0
  0
SOLID
  5
31A
330
315
100
AcDbEntity
  8
LC-006-003-----0
 62
     2
100
AcDbTrace
 10
947.390278
 20
824.766051
 30
0.0
 11
955.723612
 21
824.766051
 31
0.0
 12
951.556945
 22
799.766051
 32
0.0
 13
951.556945
 23
799.766051
 33
0.0
  0
MTEXT
  5
31B
330
315
100
AcDbEntity
  8
LC-006-003-----0
 62
     2
100
AcDbMText
 10
921.556945
 20
916.998929
 30
0.0
 40
25.0
 41
0.0
 71
     5
 72
     1
  1
\A1;480
  7
LCTX0-400-0-0pDIN-Schrift
 11
6.123031769111886E-17
 21
1.0
 31
0.0
 73
     1
 44
1.0
  0
POINT
  5
31C
330
315
100
AcDbEntity
  8
Defpoints
 62
     0
100
AcDbPoint
 10
869.781938
 20
1039.766051
 30
0.0
  0
POINT
  5
31D
330
315
100
AcDbEntity
  8
Defpoints
 62
     0
100
AcDbPoint
 10
869.781938
 20
799.766051
 30
0.0
  0
POINT
  5
31E
330
315
100
AcDbEntity
  8
Defpoints
 62
     0
100
AcDbPoint
 10
951.556945
 20
799.766051
 30
0.0
  0
ENDBLK
  5
320
330
315
100
AcDbEntity
  8
0
100
AcDbBlockEnd
  0
BLOCK
  5
329
330
323
100
AcDbEntity
  8
0
100
AcDbBlockBegin
  2
*D16
 70
     1
 71
     0
 10
0.0
 20
0.0
 30
0.0
  3
*D16
  1

  0
LINE
  5
324
330
323
100
AcDbEntity
  8
LC-006-003-----0
 62
     2
370
    -2
100
AcDbLine
 10
517.198775
 20
815.800879
 30
0.0
 11
526.400002
 21
822.607547
 31
0.0
  0
MTEXT
  5
325
330
323
100
AcDbEntity
  8
LC-006-003-----0
 62
     2
100
AcDbMText
 10
552.157322
 20
825.972671
 30
0.0
 40
25.0
 41
0.0
 71
     5
 72
     1
  1
\A1;R10
  7
LCTX0-400-0-0pDIN-Schrift
 11
0.8039354650362174
 21
0.5947165442940032
 31
0.0
 73
     1
 44
1.0
  0
SOLID
  5
326
330
323
100
AcDbEntity
  8
LC-006-003-----0
 62
     2
100
AcDbTrace
 10
488.681214
 20
789.521989
 30
0.0
 11
483.725243
 21
796.221451
 31
0.0
 12
506.301615
 22
807.739633
 32
0.0
 13
506.301615
 23
807.739633
 33
0.0
  0
POINT
  5
327
330
323
100
AcDbEntity
  8
Defpoints
 62
     0
100
AcDbPoint
 10
506.301615
 20
807.739633
 30
0.0
  0
POINT
  5
328
330
323
100
AcDbEntity
  8
Defpoints
 62
     0
100
AcDbPoint
 10
502.281938
 20
804.766051
 30
0.0
  0
ENDBLK
  5
32A
330
323
100
AcDbEntity
  8
0
100
AcDbBlockEnd
  0
BLOCK
  5
335
330
334
100
AcDbEntity
  8
0
100
AcDbBlockBegin
  2
POLY1
 70
     0
 71
     0
 10
0.0
 20
0.0
 30
0.0
  3
POLY1
  1

  4
POLY1
  0
LINE
  5
337
330
334
100
AcDbEntity
  8
LC-002-002-----0
 62
     7
370
    25
100
AcDbLine
 10
851.79142
 20
2252.292999
 30
0.0
 11
851.79142
 21
2252.292999
 31
0.0
  0
LINE
  5
338
330
334
100
AcDbEntity
  8
LC-002-002-----0
 62
     7
370
    25
100
AcDbLine
 10
851.79142
 20
2252.292999
 30
0.0
 11
851.276633
 21
2252.293032
 31
0.0
  0
LINE
  5
339
330
334
100
AcDbEntity
  8
LC-002-002-----0
 62
     7
370
    25
100
AcDbLine
 10
851.276633
 20
2252.293032
 30
0.0
 11
851.276633
 21
2252.293032
 31
0.0
  0
LINE
  5
33A
330
334
100
AcDbEntity
  8
LC-002-002-----0
 62
     7
370
    25
100
AcDbLine
 10
851.276633
 20
2252.293032
 30
0.0
 11
850.795263
 21
2252.292996
 31
0.0
  0
LINE
  5
33B
330
334
100
AcDbEntity
  8
LC-002-002-----0
 62
     7
370
    25
100
AcDbLine
 10
850.795263
 20
2252.292996
 30
0.0
 11
850.795263
 21
2252.292996
 31
0.0
  0
LINE
  5
33C
330
334
100
AcDbEntity
  8
LC-002-002-----0
 62
     7
370
    25
100
AcDbLine
 10
850.795263
 20
2252.292996
 30
0.0
 11
850.381692
 21
2252.293002
 31
0.0
  0
LINE
  5
33D
330
334
100
AcDbEntity
  8
LC-002-002-----0
 62
     7
370
    25
100
AcDbLine
 10
850.381692
 20
2252.293002
 30
0.0
 11
850.381692
 21
2252.293002
 31
0.0
  0
LINE
  5
33E
330
334
100
AcDbEntity
  8
LC-002-002-----0
 62
     7
370
    25
100
AcDbLine
 10
850.381692
 20
2252.293002
 30
0.0
 11
850.062756
 21
2252.292977
 31
0.0
  0
LINE
  5
33F
330
334
100
AcDbEntity
  8
LC-002-002-----0
 62
     7
370
    25
100
AcDbLine
 10
850.062756
 20
2252.292977
 30
0.0
 11
850.062756
 21
2252.292977
 31
0.0
  0
LINE
  5
340
330
334
100
AcDbEntity
  8
LC-002-002-----0
 62
     7
370
    25
100
AcDbLine
 10
850.062756
 20
2252.292977
 30
0.0
 11
849.860799
 21
2252.293025
 31
0.0
  0
LINE
  5
341
330
334
100
AcDbEntity
  8
LC-002-002-----0
 62
     7
370
    25
100
AcDbLine
 10
849.860799
 20
2252.293025
 30
0.0
 11
849.860799
 21
2252.293025
 31
0.0
  0
LINE
  5
342
330
334
100
AcDbEntity
  8
LC-002-002-----0
 62
     7
370
    25
100
AcDbLine
 10
849.860799
 20
2252.293025
 30
0.0
 11
849.79142
 21
2252.293007
 31
0.0
  0
ENDBLK
  5
336
330
334
100
AcDbEntity
  8
0
100
AcDbBlockEnd
  0
BLOCK
  5
3DB
330
3DA
100
AcDbEntity
  8
0
100
AcDbBlockBegin
  2
POLY2
 70
     0
 71
     0
 10
0.0
 20
0.0
 30
0.0
  3
POLY2
  1

  4
POLY2
  0
LINE
  5
3DD
330
3DA
100
AcDbEntity
  8
LC-002-002-----0
 62
     7
370
    25
100
AcDbLine
 10
1471.327189
 20
1804.657168
 30
0.0
 11
1471.327189
 21
1804.657168
 31
0.0
  0
LINE
  5
3DE
330
3DA
100
AcDbEntity
  8
LC-002-002-----0
 62
     7
370
    25
100
AcDbLine
 10
1471.327189
 20
1804.657168
 30
0.0
 11
1471.327223
 21
1804.14238
 31
0.0
  0
LINE
  5
3DF
330
3DA
100
AcDbEntity
  8
LC-002-002-----0
 62
     7
370
    25
100
AcDbLine
 10
1471.327223
 20
1804.14238
 30
0.0
 11
1471.327223
 21
1804.14238
 31
0.0
  0
LINE
  5
3E0
330
3DA
100
AcDbEntity
  8
LC-002-002-----0
 62
     7
370
    25
100
AcDbLine
 10
1471.327223
 20
1804.14238
 30
0.0
 11
1471.327186
 21
1803.66101
 31
0.0
  0
LINE
  5
3E1
330
3DA
100
AcDbEntity
  8
LC-002-002-----0
 62
     7
370
    25
100
AcDbLine
 10
1471.327186
 20
1803.66101
 30
0.0
 11
1471.327186
 21
1803.66101
 31
0.0
  0
LINE
  5
3E2
330
3DA
100
AcDbEntity
  8
LC-002-002-----0
 62
     7
370
    25
100
AcDbLine
 10
1471.327186
 20
1803.66101
 30
0.0
 11
1471.327192
 21
1803.247439
 31
0.0
  0
LINE
  5
3E3
330
3DA
100
AcDbEntity
  8
LC-002-002-----0
 62
     7
370
    25
100
AcDbLine
 10
1471.327192
 20
1803.247439
 30
0.0
 11
1471.327192
 21
1803.247439
 31
0.0
  0
LINE
  5
3E4
330
3DA
100
AcDbEntity
  8
LC-002-002-----0
 62
     7
370
    25
100
AcDbLine
 10
1471.327192
 20
1803.247439
 30
0.0
 11
1471.327167
 21
1802.928503
 31
0.0
  0
LINE
  5
3E5
330
3DA
100
AcDbEntity
  8
LC-002-002-----0
 62
     7
370
    25
100
AcDbLine
 10
1471.327167
 20
1802.928503
 30
0.0
 11
1471.327167
 21
1802.928503
 31
0.0
  0
LINE
  5
3E6
330
3DA
100
AcDbEntity
  8
LC-002-002-----0
 62
     7
370
    25
100
AcDbLine
 10
1471.327167
 20
1802.928503
 30
0.0
 11
1471.327216
 21
1802.726547
 31
0.0
  0
LINE
  5
3E7
330
3DA
100
AcDbEntity
  8
LC-002-002-----0
 62
     7
370
    25
100
AcDbLine
 10
1471.327216
 20
1802.726547
 30
0.0
 11
1471.327216
 21
1802.726547
 31
0.0
  0
LINE
  5
3E8
330
3DA
100
AcDbEntity
  8
LC-002-002-----0
 62
     7
370
    25
100
AcDbLine
 10
1471.327216
 20
1802.726547
 30
0.0
 11
1471.327198
 21
1802.657168
 31
0.0
  0
ENDBLK
  5
3DC
330
3DA
100
AcDbEntity
  8
0
100
AcDbBlockEnd
  0
BLOCK
  5
3FE
330
3FD
100
AcDbEntity
  8
0
100
AcDbBlockBegin
  2
POLY3
 70
     0
 71
     0
 10
0.0
 20
0.0
 30
0.0
  3
POLY3
  1

  4
POLY3
  0
LINE
  5
400
330
3FD
100
AcDbEntity
  8
LC-002-002-----0
 62
     7
370
    25
100
AcDbLine
 10
1471.327189
 20
1724.308128
 30
0.0
 11
1471.327189
 21
1724.308128
 31
0.0
  0
LINE
  5
401
330
3FD
100
AcDbEntity
  8
LC-002-002-----0
 62
     7
370
    25
100
AcDbLine
 10
1471.327189
 20
1724.308128
 30
0.0
 11
1471.327223
 21
1724.822916
 31
0.0
  0
LINE
  5
402
330
3FD
100
AcDbEntity
  8
LC-002-002-----0
 62
     7
370
    25
100
AcDbLine
 10
1471.327223
 20
1724.822916
 30
0.0
 11
1471.327223
 21
1724.822916
 31
0.0
  0
LINE
  5
403
330
3FD
100
AcDbEntity
  8
LC-002-002-----0
 62
     7
370
    25
100
AcDbLine
 10
1471.327223
 20
1724.822916
 30
0.0
 11
1471.327186
 21
1725.304286
 31
0.0
  0
LINE
  5
404
330
3FD
100
AcDbEntity
  8
LC-002-002-----0
 62
     7
370
    25
100
AcDbLine
 10
1471.327186
 20
1725.304286
 30
0.0
 11
1471.327186
 21
1725.304286
 31
0.0
  0
LINE
  5
405
330
3FD
100
AcDbEntity
  8
LC-002-002-----0
 62
     7
370
    25
100
AcDbLine
 10
1471.327186
 20
1725.304286
 30
0.0
 11
1471.327192
 21
1725.717857
 31
0.0
  0
LINE
  5
406
330
3FD
100
AcDbEntity
  8
LC-002-002-----0
 62
     7
370
    25
100
AcDbLine
 10
1471.327192
 20
1725.717857
 30
0.0
 11
1471.327192
 21
1725.717857
 31
0.0
  0
LINE
  5
407
330
3FD
100
AcDbEntity
  8
LC-002-002-----0
 62
     7
370
    25
100
AcDbLine
 10
1471.327192
 20
1725.717857
 30
0.0
 11
1471.327167
 21
1726.036793
 31
0.0
  0
LINE
  5
408
330
3FD
100
AcDbEntity
  8
LC-002-002-----0
 62
     7
370
    25
100
AcDbLine
 10
1471.327167
 20
1726.036793
 30
0.0
 11
1471.327167
 21
1726.036793
 31
0.0
  0
LINE
  5
409
330
3FD
100
AcDbEntity
  8
LC-002-002-----0
 62
     7
370
    25
100
AcDbLine
 10
1471.327167
 20
1726.036793
 30
0.0
 11
1471.327216
 21
1726.23875
 31
0.0
  0
LINE
  5
40A
330
3FD
100
AcDbEntity
  8
LC-002-002-----0
 62
     7
370
    25
100
AcDbLine
 10
1471.327216
 20
1726.23875
 30
0.0
 11
1471.327216
 21
1726.23875
 31
0.0
  0
LINE
  5
40B
330
3FD
100
AcDbEntity
  8
LC-002-002-----0
 62
     7
370
    25
100
AcDbLine
 10
1471.327216
 20
1726.23875
 30
0.0
 11
1471.327198
 21
1726.308128
 31
0.0
  0
ENDBLK
  5
3FF
330
3FD
100
AcDbEntity
  8
0
100
AcDbBlockEnd
  0
BLOCK
  5
44B
330
441
100
AcDbEntity
  8
0
100
AcDbBlockBegin
  2
*D20
 70
     1
 71
     0
 10
0.0
 20
0.0
 30
0.0
  3
*D20
  1

  0
LINE
  5
442
330
441
100
AcDbEntity
  8
LC-006-003-----0
 62
     2
370
    -2
100
AcDbLine
 10
1752.984286
 20
1397.308128
 30
0.0
 11
1752.984286
 21
1282.0
 31
0.0
  0
LINE
  5
443
330
441
100
AcDbEntity
  8
LC-006-003-----0
 62
     2
370
    -2
100
AcDbLine
 10
1443.622396
 20
1697.308128
 30
0.0
 11
1443.622396
 21
1282.0
 31
0.0
  0
LINE
  5
444
330
441
100
AcDbEntity
  8
LC-006-003-----0
 62
     2
370
    -2
100
AcDbLine
 10
1727.984286
 20
1300.0
 30
0.0
 11
1468.622396
 21
1300.0
 31
0.0
  0
SOLID
  5
445
330
441
100
AcDbEntity
  8
LC-006-003-----0
 62
     2
100
AcDbTrace
 10
1727.984286
 20
1295.833333
 30
0.0
 11
1727.984286
 21
1304.166667
 31
0.0
 12
1752.984286
 22
1300.0
 32
0.0
 13
1752.984286
 23
1300.0
 33
0.0
  0
SOLID
  5
446
330
441
100
AcDbEntity
  8
LC-006-003-----0
 62
     2
100
AcDbTrace
 10
1468.622396
 20
1304.166667
 30
0.0
 11
1468.622396
 21
1295.833333
 31
0.0
 12
1443.622396
 22
1300.0
 32
0.0
 13
1443.622396
 23
1300.0
 33
0.0
  0
MTEXT
  5
447
330
441
100
AcDbEntity
  8
LC-006-003-----0
 62
     2
100
AcDbMText
 10
1598.303341
 20
1330.0
 30
0.0
 40
25.0
 41
0.0
 71
     5
 72
     1
  1
\A1;309
  7
LCTX0-400-0-0pDIN-Schrift
 73
     1
 44
1.0
  0
POINT
  5
448
330
441
100
AcDbEntity
  8
Defpoints
 62
     0
100
AcDbPoint
 10
1752.984286
 20
1397.308128
 30
0.0
  0
POINT
  5
449
330
441
100
AcDbEntity
  8
Defpoints
 62
     0
100
AcDbPoint
 10
1443.622396
 20
1697.308128
 30
0.0
  0
POINT
  5
44A
330
441
100
AcDbEntity
  8
Defpoints
 62
     0
100
AcDbPoint
 10
1443.622396
 20
1300.0
 30
0.0
  0
ENDBLK
  5
44C
330
441
100
AcDbEntity
  8
0
100
AcDbBlockEnd
  0
BLOCK
  5
459
330
458
100
AcDbEntity
  8
0
100
AcDbBlockBegin
  2
*X221
 70
     1
 71
     0
 10
0.0
 20
0.0
 30
0.0
  3
*X221
  1

  4
*X2
  0
LINE
  5
45B
330
458
100
AcDbEntity
  8
LC-008-005-----0
 62
     7
370
    25
100
AcDbLine
 10
629.178092
 20
2297.950096
 30
0.0
 11
648.159343
 21
2316.931347
 31
0.0
  0
LINE
  5
45C
330
458
100
AcDbEntity
  8
LC-008-005-----0
 62
     7
370
    25
100
AcDbLine
 10
629.159343
 20
2326.215618
 30
0.0
 11
648.159343
 21
2345.215618
 31
0.0
  0
LINE
  5
45D
330
458
100
AcDbEntity
  8
LC-008-005-----0
 62
     7
370
    25
100
AcDbLine
 10
629.159343
 20
2354.499889
 30
0.0
 11
648.159343
 21
2373.499889
 31
0.0
  0
LINE
  5
45E
330
458
100
AcDbEntity
  8
LC-008-005-----0
 62
     7
370
    25
100
AcDbLine
 10
629.159343
 20
2382.784161
 30
0.0
 11
648.159343
 21
2401.784161
 31
0.0
  0
LINE
  5
45F
330
458
100
AcDbEntity
  8
LC-008-005-----0
 62
     7
370
    25
100
AcDbLine
 10
629.159343
 20
2411.068432
 30
0.0
 11
648.159343
 21
2430.068432
 31
0.0
  0
LINE
  5
460
330
458
100
AcDbEntity
  8
LC-008-005-----0
 62
     7
370
    25
100
AcDbLine
 10
629.159343
 20
2439.352703
 30
0.0
 11
648.159343
 21
2458.352703
 31
0.0
  0
LINE
  5
461
330
458
100
AcDbEntity
  8
LC-008-005-----0
 62
     7
370
    25
100
AcDbLine
 10
629.159343
 20
2467.636974
 30
0.0
 11
648.159343
 21
2486.636974
 31
0.0
  0
LINE
  5
462
330
458
100
AcDbEntity
  8
LC-008-005-----0
 62
     7
370
    25
100
AcDbLine
 10
629.159343
 20
2495.921246
 30
0.0
 11
631.188194
 21
2497.950096
 31
0.0
  0
ENDBLK
  5
45A
330
458
100
AcDbEntity
  8
0
100
AcDbBlockEnd
  0
BLOCK
  5
465
330
464
100
AcDbEntity
  8
0
100
AcDbBlockBegin
  2
*X322
 70
     1
 71
     0
 10
0.0
 20
0.0
 30
0.0
  3
*X322
  1

  4
*X3
  0
LINE
  5
467
330
464
100
AcDbEntity
  8
LC-008-005-----0
 62
     7
370
    25
100
AcDbLine
 10
1223.147789
 20
2297.950096
 30
0.0
 11
1229.159343
 21
2303.961651
 31
0.0
  0
LINE
  5
468
330
464
100
AcDbEntity
  8
LC-008-005-----0
 62
     7
370
    25
100
AcDbLine
 10
1210.159343
 20
2313.245922
 30
0.0
 11
1229.159343
 21
2332.245922
 31
0.0
  0
LINE
  5
469
330
464
100
AcDbEntity
  8
LC-008-005-----0
 62
     7
370
    25
100
AcDbLine
 10
1210.159343
 20
2341.530193
 30
0.0
 11
1229.159343
 21
2360.530193
 31
0.0
  0
LINE
  5
46A
330
464
100
AcDbEntity
  8
LC-008-005-----0
 62
     7
370
    25
100
AcDbLine
 10
1210.159343
 20
2369.814464
 30
0.0
 11
1229.159343
 21
2388.814464
 31
0.0
  0
LINE
  5
46B
330
464
100
AcDbEntity
  8
LC-008-005-----0
 62
     7
370
    25
100
AcDbLine
 10
1210.159343
 20
2398.098736
 30
0.0
 11
1229.159343
 21
2417.098736
 31
0.0
  0
LINE
  5
46C
330
464
100
AcDbEntity
  8
LC-008-005-----0
 62
     7
370
    25
100
AcDbLine
 10
1210.159343
 20
2426.383007
 30
0.0
 11
1229.159343
 21
2445.383007
 31
0.0
  0
LINE
  5
46D
330
464
100
AcDbEntity
  8
LC-008-005-----0
 62
     7
370
    25
100
AcDbLine
 10
1210.159343
 20
2454.667278
 30
0.0
 11
1229.159343
 21
2473.667278
 31
0.0
  0
LINE
  5
46E
330
464
100
AcDbEntity
  8
LC-008-005-----0
 62
     7
370
    25
100
AcDbLine
 10
1210.159343
 20
2482.951549
 30
0.0
 11
1225.15789
 21
2497.950096
 31
0.0
  0
ENDBLK
  5
466
330
464
100
AcDbEntity
  8
0
100
AcDbBlockEnd
  0
BLOCK
  5
4C1
330
4C0
100
AcDbEntity
  8
0
100
AcDbBlockBegin
  2
POLY4
 70
     0
 71
     0
 10
0.0
 20
0.0
 30
0.0
  3
POLY4
  1

  4
POLY4
  0
LINE
  5
4C3
330
4C0
100
AcDbEntity
  8
LC-002-002-----0
 62
     7
370
    25
100
AcDbLine
 10
1571.323368
 20
1611.675341
 30
0.0
 11
1571.323368
 21
1611.675341
 31
0.0
  0
LINE
  5
4C4
330
4C0
100
AcDbEntity
  8
LC-002-002-----0
 62
     7
370
    25
100
AcDbLine
 10
1571.323368
 20
1611.675341
 30
0.0
 11
1573.676631
 21
1611.995136
 31
0.0
  0
LINE
  5
4C5
330
4C0
100
AcDbEntity
  8
LC-002-002-----0
 62
     7
370
    25
100
AcDbLine
 10
1573.676631
 20
1611.995136
 30
0.0
 11
1573.676631
 21
1611.995136
 31
0.0
  0
LINE
  5
4C6
330
4C0
100
AcDbEntity
  8
LC-002-002-----0
 62
     7
370
    25
100
AcDbLine
 10
1573.676631
 20
1611.995136
 30
0.0
 11
1576.155017
 21
1612.201418
 31
0.0
  0
LINE
  5
4C7
330
4C0
100
AcDbEntity
  8
LC-002-002-----0
 62
     7
370
    25
100
AcDbLine
 10
1576.155017
 20
1612.201418
 30
0.0
 11
1576.155017
 21
1612.201418
 31
0.0
  0
LINE
  5
4C8
330
4C0
100
AcDbEntity
  8
LC-002-002-----0
 62
     7
370
    25
100
AcDbLine
 10
1576.155017
 20
1612.201418
 30
0.0
 11
1578.679417
 21
1612.272143
 31
0.0
  0
ENDBLK
  5
4C2
330
4C0
100
AcDbEntity
  8
0
100
AcDbBlockEnd
  0
BLOCK
  5
4CB
330
4CA
100
AcDbEntity
  8
0
100
AcDbBlockBegin
  2
POLY5
 70
     0
 71
     0
 10
0.0
 20
0.0
 30
0.0
  3
POLY5
  1

  4
POLY5
  0
LINE
  5
4CD
330
4CA
100
AcDbEntity
  8
LC-002-002-----0
 62
     7
370
    25
100
AcDbLine
 10
1566.127226
 20
1613.606898
 30
0.0
 11
1566.127226
 21
1613.606898
 31
0.0
  0
LINE
  5
4CE
330
4CA
100
AcDbEntity
  8
LC-002-002-----0
 62
     7
370
    25
100
AcDbLine
 10
1566.127226
 20
1613.606898
 30
0.0
 11
1565.760814
 21
1614.145078
 31
0.0
  0
LINE
  5
4CF
330
4CA
100
AcDbEntity
  8
LC-002-002-----0
 62
     7
370
    25
100
AcDbLine
 10
1565.760814
 20
1614.145078
 30
0.0
 11
1565.760814
 21
1614.145078
 31
0.0
  0
LINE
  5
4D0
330
4CA
100
AcDbEntity
  8
LC-002-002-----0
 62
     7
370
    25
100
AcDbLine
 10
1565.760814
 20
1614.145078
 30
0.0
 11
1565.423726
 21
1614.635055
 31
0.0
  0
LINE
  5
4D1
330
4CA
100
AcDbEntity
  8
LC-002-002-----0
 62
     7
370
    25
100
AcDbLine
 10
1565.423726
 20
1614.635055
 30
0.0
 11
1565.423726
 21
1614.635055
 31
0.0
  0
LINE
  5
4D2
330
4CA
100
AcDbEntity
  8
LC-002-002-----0
 62
     7
370
    25
100
AcDbLine
 10
1565.423726
 20
1614.635055
 30
0.0
 11
1565.116842
 21
1615.076678
 31
0.0
  0
ENDBLK
  5
4CC
330
4CA
100
AcDbEntity
  8
0
100
AcDbBlockEnd
  0
BLOCK
  5
4D5
330
4D4
100
AcDbEntity
  8
0
100
AcDbBlockBegin
  2
POLY6
 70
     0
 71
     0
 10
0.0
 20
0.0
 30
0.0
  3
POLY6
  1

  4
POLY6
  0
LINE
  5
4D7
330
4D4
100
AcDbEntity
  8
LC-002-002-----0
 62
     7
370
    25
100
AcDbLine
 10
1571.323368
 20
1611.675341
 30
0.0
 11
1571.323368
 21
1611.675341
 31
0.0
  0
LINE
  5
4D8
330
4D4
100
AcDbEntity
  8
LC-002-002-----0
 62
     7
370
    25
100
AcDbLine
 10
1571.323368
 20
1611.675341
 30
0.0
 11
1570.028221
 21
1611.595302
 31
0.0
  0
LINE
  5
4D9
330
4D4
100
AcDbEntity
  8
LC-002-002-----0
 62
     7
370
    25
100
AcDbLine
 10
1570.028221
 20
1611.595302
 30
0.0
 11
1570.028221
 21
1611.595302
 31
0.0
  0
LINE
  5
4DA
330
4D4
100
AcDbEntity
  8
LC-002-002-----0
 62
     7
370
    25
100
AcDbLine
 10
1570.028221
 20
1611.595302
 30
0.0
 11
1568.83198
 21
1611.766367
 31
0.0
  0
LINE
  5
4DB
330
4D4
100
AcDbEntity
  8
LC-002-002-----0
 62
     7
370
    25
100
AcDbLine
 10
1568.83198
 20
1611.766367
 30
0.0
 11
1568.83198
 21
1611.766367
 31
0.0
  0
LINE
  5
4DC
330
4D4
100
AcDbEntity
  8
LC-002-002-----0
 62
     7
370
    25
100
AcDbLine
 10
1568.83198
 20
1611.766367
 30
0.0
 11
1567.770917
 21
1612.164372
 31
0.0
  0
LINE
  5
4DD
330
4D4
100
AcDbEntity
  8
LC-002-002-----0
 62
     7
370
    25
100
AcDbLine
 10
1567.770917
 20
1612.164372
 30
0.0
 11
1567.770917
 21
1612.164372
 31
0.0
  0
LINE
  5
4DE
330
4D4
100
AcDbEntity
  8
LC-002-002-----0
 62
     7
370
    25
100
AcDbLine
 10
1567.770917
 20
1612.164372
 30
0.0
 11
1566.863392
 21
1612.77577
 31
0.0
  0
LINE
  5
4DF
330
4D4
100
AcDbEntity
  8
LC-002-002-----0
 62
     7
370
    25
100
AcDbLine
 10
1566.863392
 20
1612.77577
 30
0.0
 11
1566.863392
 21
1612.77577
 31
0.0
  0
LINE
  5
4E0
330
4D4
100
AcDbEntity
  8
LC-002-002-----0
 62
     7
370
    25
100
AcDbLine
 10
1566.863392
 20
1612.77577
 30
0.0
 11
1566.127226
 21
1613.606898
 31
0.0
  0
ENDBLK
  5
4D6
330
4D4
100
AcDbEntity
  8
0
100
AcDbBlockEnd
  0
BLOCK
  5
4E3
330
4E2
100
AcDbEntity
  8
0
100
AcDbBlockBegin
  2
POLY7
 70
     0
 71
     0
 10
0.0
 20
0.0
 30
0.0
  3
POLY7
  1

  4
POLY7
  0
LINE
  5
4E5
330
4E2
100
AcDbEntity
  8
LC-002-002-----0
 62
     7
370
    25
100
AcDbLine
 10
1565.116103
 20
1615.077707
 30
0.0
 11
1565.116103
 21
1615.077707
 31
0.0
  0
LINE
  5
4E6
330
4E2
100
AcDbEntity
  8
LC-002-002-----0
 62
     7
370
    25
100
AcDbLine
 10
1565.116103
 20
1615.077707
 30
0.0
 11
1564.709369
 21
1615.549934
 31
0.0
  0
LINE
  5
4E7
330
4E2
100
AcDbEntity
  8
LC-002-002-----0
 62
     7
370
    25
100
AcDbLine
 10
1564.709369
 20
1615.549934
 30
0.0
 11
1564.709369
 21
1615.549934
 31
0.0
  0
LINE
  5
4E8
330
4E2
100
AcDbEntity
  8
LC-002-002-----0
 62
     7
370
    25
100
AcDbLine
 10
1564.709369
 20
1615.549934
 30
0.0
 11
1564.293181
 21
1615.875586
 31
0.0
  0
LINE
  5
4E9
330
4E2
100
AcDbEntity
  8
LC-002-002-----0
 62
     7
370
    25
100
AcDbLine
 10
1564.293181
 20
1615.875586
 30
0.0
 11
1564.293181
 21
1615.875586
 31
0.0
  0
LINE
  5
4EA
330
4E2
100
AcDbEntity
  8
LC-002-002-----0
 62
     7
370
    25
100
AcDbLine
 10
1564.293181
 20
1615.875586
 30
0.0
 11
1563.931328
 21
1616.072615
 31
0.0
  0
LINE
  5
4EB
330
4E2
100
AcDbEntity
  8
LC-002-002-----0
 62
     7
370
    25
100
AcDbLine
 10
1563.931328
 20
1616.072615
 30
0.0
 11
1563.931328
 21
1616.072615
 31
0.0
  0
LINE
  5
4EC
330
4E2
100
AcDbEntity
  8
LC-002-002-----0
 62
     7
370
    25
100
AcDbLine
 10
1563.931328
 20
1616.072615
 30
0.0
 11
1563.676496
 21
1616.174142
 31
0.0
  0
LINE
  5
4ED
330
4E2
100
AcDbEntity
  8
LC-002-002-----0
 62
     7
370
    25
100
AcDbLine
 10
1563.676496
 20
1616.174142
 30
0.0
 11
1563.676496
 21
1616.174142
 31
0.0
  0
LINE
  5
4EE
330
4E2
100
AcDbEntity
  8
LC-002-002-----0
 62
     7
370
    25
100
AcDbLine
 10
1563.676496
 20
1616.174142
 30
0.0
 11
1563.579574
 21
1616.205423
 31
0.0
  0
ENDBLK
  5
4E4
330
4E2
100
AcDbEntity
  8
0
100
AcDbBlockEnd
  0
BLOCK
  5
4F1
330
4F0
100
AcDbEntity
  8
0
100
AcDbBlockBegin
  2
POLY8
 70
     0
 71
     0
 10
0.0
 20
0.0
 30
0.0
  3
POLY8
  1

  4
POLY8
  0
LINE
  5
4F3
330
4F0
100
AcDbEntity
  8
LC-002-002-----0
 62
     7
370
    25
100
AcDbLine
 10
1695.91703
 20
1505.760127
 30
0.0
 11
1695.91703
 21
1505.760127
 31
0.0
  0
LINE
  5
4F4
330
4F0
100
AcDbEntity
  8
LC-002-002-----0
 62
     7
370
    25
100
AcDbLine
 10
1695.91703
 20
1505.760127
 30
0.0
 11
1695.701411
 21
1505.797533
 31
0.0
  0
LINE
  5
4F5
330
4F0
100
AcDbEntity
  8
LC-002-002-----0
 62
     7
370
    25
100
AcDbLine
 10
1695.701411
 20
1505.797533
 30
0.0
 11
1695.701411
 21
1505.797533
 31
0.0
  0
LINE
  5
4F6
330
4F0
100
AcDbEntity
  8
LC-002-002-----0
 62
     7
370
    25
100
AcDbLine
 10
1695.701411
 20
1505.797533
 30
0.0
 11
1695.485206
 21
1505.866838
 31
0.0
  0
LINE
  5
4F7
330
4F0
100
AcDbEntity
  8
LC-002-002-----0
 62
     7
370
    25
100
AcDbLine
 10
1695.485206
 20
1505.866838
 30
0.0
 11
1695.485206
 21
1505.866838
 31
0.0
  0
LINE
  5
4F8
330
4F0
100
AcDbEntity
  8
LC-002-002-----0
 62
     7
370
    25
100
AcDbLine
 10
1695.485206
 20
1505.866838
 30
0.0
 11
1695.278044
 21
1505.959778
 31
0.0
  0
LINE
  5
4F9
330
4F0
100
AcDbEntity
  8
LC-002-002-----0
 62
     7
370
    25
100
AcDbLine
 10
1695.278044
 20
1505.959778
 30
0.0
 11
1695.278044
 21
1505.959778
 31
0.0
  0
LINE
  5
4FA
330
4F0
100
AcDbEntity
  8
LC-002-002-----0
 62
     7
370
    25
100
AcDbLine
 10
1695.278044
 20
1505.959778
 30
0.0
 11
1695.081974
 21
1506.07096
 31
0.0
  0
LINE
  5
4FB
330
4F0
100
AcDbEntity
  8
LC-002-002-----0
 62
     7
370
    25
100
AcDbLine
 10
1695.081974
 20
1506.07096
 30
0.0
 11
1695.081974
 21
1506.07096
 31
0.0
  0
LINE
  5
4FC
330
4F0
100
AcDbEntity
  8
LC-002-002-----0
 62
     7
370
    25
100
AcDbLine
 10
1695.081974
 20
1506.07096
 30
0.0
 11
1694.900095
 21
1506.194112
 31
0.0
  0
LINE
  5
4FD
330
4F0
100
AcDbEntity
  8
LC-002-002-----0
 62
     7
370
    25
100
AcDbLine
 10
1694.900095
 20
1506.194112
 30
0.0
 11
1694.900095
 21
1506.194112
 31
0.0
  0
LINE
  5
4FE
330
4F0
100
AcDbEntity
  8
LC-002-002-----0
 62
     7
370
    25
100
AcDbLine
 10
1694.900095
 20
1506.194112
 30
0.0
 11
1694.731576
 21
1506.326939
 31
0.0
  0
LINE
  5
4FF
330
4F0
100
AcDbEntity
  8
LC-002-002-----0
 62
     7
370
    25
100
AcDbLine
 10
1694.731576
 20
1506.326939
 30
0.0
 11
1694.731576
 21
1506.326939
 31
0.0
  0
LINE
  5
500
330
4F0
100
AcDbEntity
  8
LC-002-002-----0
 62
     7
370
    25
100
AcDbLine
 10
1694.731576
 20
1506.326939
 30
0.0
 11
1694.576905
 21
1506.468104
 31
0.0
  0
LINE
  5
501
330
4F0
100
AcDbEntity
  8
LC-002-002-----0
 62
     7
370
    25
100
AcDbLine
 10
1694.576905
 20
1506.468104
 30
0.0
 11
1694.576905
 21
1506.468104
 31
0.0
  0
LINE
  5
502
330
4F0
100
AcDbEntity
  8
LC-002-002-----0
 62
     7
370
    25
100
AcDbLine
 10
1694.576905
 20
1506.468104
 30
0.0
 11
1694.437728
 21
1506.615414
 31
0.0
  0
LINE
  5
503
330
4F0
100
AcDbEntity
  8
LC-002-002-----0
 62
     7
370
    25
100
AcDbLine
 10
1694.437728
 20
1506.615414
 30
0.0
 11
1694.437728
 21
1506.615414
 31
0.0
  0
LINE
  5
504
330
4F0
100
AcDbEntity
  8
LC-002-002-----0
 62
     7
370
    25
100
AcDbLine
 10
1694.437728
 20
1506.615414
 30
0.0
 11
1694.316212
 21
1506.765306
 31
0.0
  0
LINE
  5
505
330
4F0
100
AcDbEntity
  8
LC-002-002-----0
 62
     7
370
    25
100
AcDbLine
 10
1694.316212
 20
1506.765306
 30
0.0
 11
1694.316212
 21
1506.765306
 31
0.0
  0
LINE
  5
506
330
4F0
100
AcDbEntity
  8
LC-002-002-----0
 62
     7
370
    25
100
AcDbLine
 10
1694.316212
 20
1506.765306
 30
0.0
 11
1694.214407
 21
1506.912907
 31
0.0
  0
ENDBLK
  5
4F2
330
4F0
100
AcDbEntity
  8
0
100
AcDbBlockEnd
  0
BLOCK
  5
509
330
508
100
AcDbEntity
  8
0
100
AcDbBlockBegin
  2
POLY9
 70
     0
 71
     0
 10
0.0
 20
0.0
 30
0.0
  3
POLY9
  1

  4
POLY9
  0
LINE
  5
50B
330
508
100
AcDbEntity
  8
LC-002-002-----0
 62
     7
370
    25
100
AcDbLine
 10
1693.871395
 20
1507.444826
 30
0.0
 11
1693.871395
 21
1507.444826
 31
0.0
  0
LINE
  5
50C
330
508
100
AcDbEntity
  8
LC-002-002-----0
 62
     7
370
    25
100
AcDbLine
 10
1693.871395
 20
1507.444826
 30
0.0
 11
1693.910049
 21
1507.386039
 31
0.0
  0
LINE
  5
50D
330
508
100
AcDbEntity
  8
LC-002-002-----0
 62
     7
370
    25
100
AcDbLine
 10
1693.910049
 20
1507.386039
 30
0.0
 11
1693.910049
 21
1507.386039
 31
0.0
  0
LINE
  5
50E
330
508
100
AcDbEntity
  8
LC-002-002-----0
 62
     7
370
    25
100
AcDbLine
 10
1693.910049
 20
1507.386039
 30
0.0
 11
1694.025066
 21
1507.208877
 31
0.0
  0
LINE
  5
50F
330
508
100
AcDbEntity
  8
LC-002-002-----0
 62
     7
370
    25
100
AcDbLine
 10
1694.025066
 20
1507.208877
 30
0.0
 11
1694.025066
 21
1507.208877
 31
0.0
  0
LINE
  5
510
330
508
100
AcDbEntity
  8
LC-002-002-----0
 62
     7
370
    25
100
AcDbLine
 10
1694.025066
 20
1507.208877
 30
0.0
 11
1694.214407
 21
1506.912907
 31
0.0
  0
ENDBLK
  5
50A
330
508
100
AcDbEntity
  8
0
100
AcDbBlockEnd
  0
BLOCK
  5
513
330
512
100
AcDbEntity
  8
0
100
AcDbBlockBegin
  2
POLY10
 70
     0
 71
     0
 10
0.0
 20
0.0
 30
0.0
  3
POLY10
  1

  4
POLY10
  0
LINE
  5
515
330
512
100
AcDbEntity
  8
LC-002-002-----0
 62
     7
370
    25
100
AcDbLine
 10
1688.83885
 20
1489.875509
 30
0.0
 11
1688.83885
 21
1489.875509
 31
0.0
  0
LINE
  5
516
330
512
100
AcDbEntity
  8
LC-002-002-----0
 62
     7
370
    25
100
AcDbLine
 10
1688.83885
 20
1489.875509
 30
0.0
 11
1688.714364
 21
1489.85644
 31
0.0
  0
LINE
  5
517
330
512
100
AcDbEntity
  8
LC-002-002-----0
 62
     7
370
    25
100
AcDbLine
 10
1688.714364
 20
1489.85644
 30
0.0
 11
1688.714364
 21
1489.85644
 31
0.0
  0
LINE
  5
518
330
512
100
AcDbEntity
  8
LC-002-002-----0
 62
     7
370
    25
100
AcDbLine
 10
1688.714364
 20
1489.85644
 30
0.0
 11
1688.655441
 21
1489.851109
 31
0.0
  0
LINE
  5
519
330
512
100
AcDbEntity
  8
LC-002-002-----0
 62
     7
370
    25
100
AcDbLine
 10
1688.655441
 20
1489.851109
 30
0.0
 11
1688.655441
 21
1489.851109
 31
0.0
  0
LINE
  5
51A
330
512
100
AcDbEntity
  8
LC-002-002-----0
 62
     7
370
    25
100
AcDbLine
 10
1688.655441
 20
1489.851109
 30
0.0
 11
1688.596355
 21
1489.848105
 31
0.0
  0
LINE
  5
51B
330
512
100
AcDbEntity
  8
LC-002-002-----0
 62
     7
370
    25
100
AcDbLine
 10
1688.596355
 20
1489.848105
 30
0.0
 11
1688.596355
 21
1489.848105
 31
0.0
  0
LINE
  5
51C
330
512
100
AcDbEntity
  8
LC-002-002-----0
 62
     7
370
    25
100
AcDbLine
 10
1688.596355
 20
1489.848105
 30
0.0
 11
1688.537196
 21
1489.847434
 31
0.0
  0
LINE
  5
51D
330
512
100
AcDbEntity
  8
LC-002-002-----0
 62
     7
370
    25
100
AcDbLine
 10
1688.537196
 20
1489.847434
 30
0.0
 11
1688.537196
 21
1489.847434
 31
0.0
  0
LINE
  5
51E
330
512
100
AcDbEntity
  8
LC-002-002-----0
 62
     7
370
    25
100
AcDbLine
 10
1688.537196
 20
1489.847434
 30
0.0
 11
1688.478056
 21
1489.849096
 31
0.0
  0
LINE
  5
51F
330
512
100
AcDbEntity
  8
LC-002-002-----0
 62
     7
370
    25
100
AcDbLine
 10
1688.478056
 20
1489.849096
 30
0.0
 11
1688.478056
 21
1489.849096
 31
0.0
  0
LINE
  5
520
330
512
100
AcDbEntity
  8
LC-002-002-----0
 62
     7
370
    25
100
AcDbLine
 10
1688.478056
 20
1489.849096
 30
0.0
 11
1688.419029
 21
1489.853089
 31
0.0
  0
LINE
  5
521
330
512
100
AcDbEntity
  8
LC-002-002-----0
 62
     7
370
    25
100
AcDbLine
 10
1688.419029
 20
1489.853089
 30
0.0
 11
1688.419029
 21
1489.853089
 31
0.0
  0
LINE
  5
522
330
512
100
AcDbEntity
  8
LC-002-002-----0
 62
     7
370
    25
100
AcDbLine
 10
1688.419029
 20
1489.853089
 30
0.0
 11
1688.149129
 21
1489.90198
 31
0.0
  0
ENDBLK
  5
514
330
512
100
AcDbEntity
  8
0
100
AcDbBlockEnd
  0
BLOCK
  5
525
330
524
100
AcDbEntity
  8
0
100
AcDbBlockBegin
  2
POLY11
 70
     0
 71
     0
 10
0.0
 20
0.0
 30
0.0
  3
POLY11
  1

  4
POLY11
  0
LINE
  5
527
330
524
100
AcDbEntity
  8
LC-002-002-----0
 62
     7
370
    25
100
AcDbLine
 10
1598.651961
 20
1491.538998
 30
0.0
 11
1598.651961
 21
1491.538998
 31
0.0
  0
LINE
  5
528
330
524
100
AcDbEntity
  8
LC-002-002-----0
 62
     7
370
    25
100
AcDbLine
 10
1598.651961
 20
1491.538998
 30
0.0
 11
1598.651998
 21
1491.683982
 31
0.0
  0
LINE
  5
529
330
524
100
AcDbEntity
  8
LC-002-002-----0
 62
     7
370
    25
100
AcDbLine
 10
1598.651998
 20
1491.683982
 30
0.0
 11
1598.651998
 21
1491.683982
 31
0.0
  0
LINE
  5
52A
330
524
100
AcDbEntity
  8
LC-002-002-----0
 62
     7
370
    25
100
AcDbLine
 10
1598.651998
 20
1491.683982
 30
0.0
 11
1598.652438
 21
1492.108623
 31
0.0
  0
LINE
  5
52B
330
524
100
AcDbEntity
  8
LC-002-002-----0
 62
     7
370
    25
100
AcDbLine
 10
1598.652438
 20
1492.108623
 30
0.0
 11
1598.652438
 21
1492.108623
 31
0.0
  0
LINE
  5
52C
330
524
100
AcDbEntity
  8
LC-002-002-----0
 62
     7
370
    25
100
AcDbLine
 10
1598.652438
 20
1492.108623
 30
0.0
 11
1598.65201
 21
1492.81297
 31
0.0
  0
LINE
  5
52D
330
524
100
AcDbEntity
  8
LC-002-002-----0
 62
     7
370
    25
100
AcDbLine
 10
1598.65201
 20
1492.81297
 30
0.0
 11
1598.65201
 21
1492.81297
 31
0.0
  0
LINE
  5
52E
330
524
100
AcDbEntity
  8
LC-002-002-----0
 62
     7
370
    25
100
AcDbLine
 10
1598.65201
 20
1492.81297
 30
0.0
 11
1598.65187
 21
1493.81138
 31
0.0
  0
LINE
  5
52F
330
524
100
AcDbEntity
  8
LC-002-002-----0
 62
     7
370
    25
100
AcDbLine
 10
1598.65187
 20
1493.81138
 30
0.0
 11
1598.65187
 21
1493.81138
 31
0.0
  0
LINE
  5
530
330
524
100
AcDbEntity
  8
LC-002-002-----0
 62
     7
370
    25
100
AcDbLine
 10
1598.65187
 20
1493.81138
 30
0.0
 11
1598.651913
 21
1495.156476
 31
0.0
  0
LINE
  5
531
330
524
100
AcDbEntity
  8
LC-002-002-----0
 62
     7
370
    25
100
AcDbLine
 10
1598.651913
 20
1495.156476
 30
0.0
 11
1598.651913
 21
1495.156476
 31
0.0
  0
LINE
  5
532
330
524
100
AcDbEntity
  8
LC-002-002-----0
 62
     7
370
    25
100
AcDbLine
 10
1598.651913
 20
1495.156476
 30
0.0
 11
1598.65193
 21
1496.848329
 31
0.0
  0
LINE
  5
533
330
524
100
AcDbEntity
  8
LC-002-002-----0
 62
     7
370
    25
100
AcDbLine
 10
1598.65193
 20
1496.848329
 30
0.0
 11
1598.65193
 21
1496.848329
 31
0.0
  0
LINE
  5
534
330
524
100
AcDbEntity
  8
LC-002-002-----0
 62
     7
370
    25
100
AcDbLine
 10
1598.65193
 20
1496.848329
 30
0.0
 11
1598.652234
 21
1498.851634
 31
0.0
  0
LINE
  5
535
330
524
100
AcDbEntity
  8
LC-002-002-----0
 62
     7
370
    25
100
AcDbLine
 10
1598.652234
 20
1498.851634
 30
0.0
 11
1598.652234
 21
1498.851634
 31
0.0
  0
LINE
  5
536
330
524
100
AcDbEntity
  8
LC-002-002-----0
 62
     7
370
    25
100
AcDbLine
 10
1598.652234
 20
1498.851634
 30
0.0
 11
1598.652082
 21
1501.110072
 31
0.0
  0
LINE
  5
537
330
524
100
AcDbEntity
  8
LC-002-002-----0
 62
     7
370
    25
100
AcDbLine
 10
1598.652082
 20
1501.110072
 30
0.0
 11
1598.652082
 21
1501.110072
 31
0.0
  0
LINE
  5
538
330
524
100
AcDbEntity
  8
LC-002-002-----0
 62
     7
370
    25
100
AcDbLine
 10
1598.652082
 20
1501.110072
 30
0.0
 11
1598.652047
 21
1503.533002
 31
0.0
  0
LINE
  5
539
330
524
100
AcDbEntity
  8
LC-002-002-----0
 62
     7
370
    25
100
AcDbLine
 10
1598.652047
 20
1503.533002
 30
0.0
 11
1598.652047
 21
1503.533002
 31
0.0
  0
LINE
  5
53A
330
524
100
AcDbEntity
  8
LC-002-002-----0
 62
     7
370
    25
100
AcDbLine
 10
1598.652047
 20
1503.533002
 30
0.0
 11
1598.652049
 21
1506.015196
 31
0.0
  0
LINE
  5
53B
330
524
100
AcDbEntity
  8
LC-002-002-----0
 62
     7
370
    25
100
AcDbLine
 10
1598.652049
 20
1506.015196
 30
0.0
 11
1598.652049
 21
1506.015196
 31
0.0
  0
LINE
  5
53C
330
524
100
AcDbEntity
  8
LC-002-002-----0
 62
     7
370
    25
100
AcDbLine
 10
1598.652049
 20
1506.015196
 30
0.0
 11
1598.652099
 21
1508.427539
 31
0.0
  0
LINE
  5
53D
330
524
100
AcDbEntity
  8
LC-002-002-----0
 62
     7
370
    25
100
AcDbLine
 10
1598.652099
 20
1508.427539
 30
0.0
 11
1598.652099
 21
1508.427539
 31
0.0
  0
LINE
  5
53E
330
524
100
AcDbEntity
  8
LC-002-002-----0
 62
     7
370
    25
100
AcDbLine
 10
1598.652099
 20
1508.427539
 30
0.0
 11
1598.652235
 21
1510.666608
 31
0.0
  0
LINE
  5
53F
330
524
100
AcDbEntity
  8
LC-002-002-----0
 62
     7
370
    25
100
AcDbLine
 10
1598.652235
 20
1510.666608
 30
0.0
 11
1598.652235
 21
1510.666608
 31
0.0
  0
LINE
  5
540
330
524
100
AcDbEntity
  8
LC-002-002-----0
 62
     7
370
    25
100
AcDbLine
 10
1598.652235
 20
1510.666608
 30
0.0
 11
1598.651936
 21
1512.648452
 31
0.0
  0
LINE
  5
541
330
524
100
AcDbEntity
  8
LC-002-002-----0
 62
     7
370
    25
100
AcDbLine
 10
1598.651936
 20
1512.648452
 30
0.0
 11
1598.651936
 21
1512.648452
 31
0.0
  0
LINE
  5
542
330
524
100
AcDbEntity
  8
LC-002-002-----0
 62
     7
370
    25
100
AcDbLine
 10
1598.651936
 20
1512.648452
 30
0.0
 11
1598.651923
 21
1514.322743
 31
0.0
  0
LINE
  5
543
330
524
100
AcDbEntity
  8
LC-002-002-----0
 62
     7
370
    25
100
AcDbLine
 10
1598.651923
 20
1514.322743
 30
0.0
 11
1598.651923
 21
1514.322743
 31
0.0
  0
LINE
  5
544
330
524
100
AcDbEntity
  8
LC-002-002-----0
 62
     7
370
    25
100
AcDbLine
 10
1598.651923
 20
1514.322743
 30
0.0
 11
1598.651868
 21
1515.657895
 31
0.0
  0
LINE
  5
545
330
524
100
AcDbEntity
  8
LC-002-002-----0
 62
     7
370
    25
100
AcDbLine
 10
1598.651868
 20
1515.657895
 30
0.0
 11
1598.651868
 21
1515.657895
 31
0.0
  0
LINE
  5
546
330
524
100
AcDbEntity
  8
LC-002-002-----0
 62
     7
370
    25
100
AcDbLine
 10
1598.651868
 20
1515.657895
 30
0.0
 11
1598.651999
 21
1516.65383
 31
0.0
  0
LINE
  5
547
330
524
100
AcDbEntity
  8
LC-002-002-----0
 62
     7
370
    25
100
AcDbLine
 10
1598.651999
 20
1516.65383
 30
0.0
 11
1598.651999
 21
1516.65383
 31
0.0
  0
LINE
  5
548
330
524
100
AcDbEntity
  8
LC-002-002-----0
 62
     7
370
    25
100
AcDbLine
 10
1598.651999
 20
1516.65383
 30
0.0
 11
1598.652407
 21
1517.359925
 31
0.0
  0
LINE
  5
549
330
524
100
AcDbEntity
  8
LC-002-002-----0
 62
     7
370
    25
100
AcDbLine
 10
1598.652407
 20
1517.359925
 30
0.0
 11
1598.652407
 21
1517.359925
 31
0.0
  0
LINE
  5
54A
330
524
100
AcDbEntity
  8
LC-002-002-----0
 62
     7
370
    25
100
AcDbLine
 10
1598.652407
 20
1517.359925
 30
0.0
 11
1598.651968
 21
1517.787574
 31
0.0
  0
LINE
  5
54B
330
524
100
AcDbEntity
  8
LC-002-002-----0
 62
     7
370
    25
100
AcDbLine
 10
1598.651968
 20
1517.787574
 30
0.0
 11
1598.651968
 21
1517.787574
 31
0.0
  0
LINE
  5
54C
330
524
100
AcDbEntity
  8
LC-002-002-----0
 62
     7
370
    25
100
AcDbLine
 10
1598.651968
 20
1517.787574
 30
0.0
 11
1598.651929
 21
1517.934079
 31
0.0
  0
ENDBLK
  5
526
330
524
100
AcDbEntity
  8
0
100
AcDbBlockEnd
  0
BLOCK
  5
55D
330
55C
100
AcDbEntity
  8
0
100
AcDbBlockBegin
  2
POLY12
 70
     0
 71
     0
 10
0.0
 20
0.0
 30
0.0
  3
POLY12
  1

  4
POLY12
  0
LINE
  5
55F
330
55C
100
AcDbEntity
  8
LC-002-002-----0
 62
     7
370
    25
100
AcDbLine
 10
1590.659719
 20
1609.118503
 30
0.0
 11
1590.659719
 21
1609.118503
 31
0.0
  0
LINE
  5
560
330
55C
100
AcDbEntity
  8
LC-002-002-----0
 62
     7
370
    25
100
AcDbLine
 10
1590.659719
 20
1609.118503
 30
0.0
 11
1590.249971
 21
1610.169151
 31
0.0
  0
LINE
  5
561
330
55C
100
AcDbEntity
  8
LC-002-002-----0
 62
     7
370
    25
100
AcDbLine
 10
1590.249971
 20
1610.169151
 30
0.0
 11
1590.249971
 21
1610.169151
 31
0.0
  0
LINE
  5
562
330
55C
100
AcDbEntity
  8
LC-002-002-----0
 62
     7
370
    25
100
AcDbLine
 10
1590.249971
 20
1610.169151
 30
0.0
 11
1589.596654
 21
1611.057481
 31
0.0
  0
LINE
  5
563
330
55C
100
AcDbEntity
  8
LC-002-002-----0
 62
     7
370
    25
100
AcDbLine
 10
1589.596654
 20
1611.057481
 30
0.0
 11
1589.596654
 21
1611.057481
 31
0.0
  0
LINE
  5
564
330
55C
100
AcDbEntity
  8
LC-002-002-----0
 62
     7
370
    25
100
AcDbLine
 10
1589.596654
 20
1611.057481
 30
0.0
 11
1588.758528
 21
1611.724274
 31
0.0
  0
LINE
  5
565
330
55C
100
AcDbEntity
  8
LC-002-002-----0
 62
     7
370
    25
100
AcDbLine
 10
1588.758528
 20
1611.724274
 30
0.0
 11
1588.758528
 21
1611.724274
 31
0.0
  0
LINE
  5
566
330
55C
100
AcDbEntity
  8
LC-002-002-----0
 62
     7
370
    25
100
AcDbLine
 10
1588.758528
 20
1611.724274
 30
0.0
 11
1587.800738
 21
1612.134357
 31
0.0
  0
LINE
  5
567
330
55C
100
AcDbEntity
  8
LC-002-002-----0
 62
     7
370
    25
100
AcDbLine
 10
1587.800738
 20
1612.134357
 30
0.0
 11
1587.800738
 21
1612.134357
 31
0.0
  0
LINE
  5
568
330
55C
100
AcDbEntity
  8
LC-002-002-----0
 62
     7
370
    25
100
AcDbLine
 10
1587.800738
 20
1612.134357
 30
0.0
 11
1586.786736
 21
1612.272143
 31
0.0
  0
ENDBLK
  5
55E
330
55C
100
AcDbEntity
  8
0
100
AcDbBlockEnd
  0
BLOCK
  5
5A4
330
59A
100
AcDbEntity
  8
0
100
AcDbBlockBegin
  2
*D32
 70
     1
 71
     0
 10
0.0
 20
0.0
 30
0.0
  3
*D32
  1

  0
LINE
  5
59B
330
59A
100
AcDbEntity
  8
LC-006-003-----0
 62
     2
370
    -2
100
AcDbLine
 10
445.069343
 20
1907.308128
 30
0.0
 11
332.0
 21
1907.308128
 31
0.0
  0
LINE
  5
59C
330
59A
100
AcDbEntity
  8
LC-006-003-----0
 62
     2
370
    -2
100
AcDbLine
 10
445.069343
 20
1407.308128
 30
0.0
 11
332.0
 21
1407.308128
 31
0.0
  0
LINE
  5
59D
330
59A
100
AcDbEntity
  8
LC-006-003-----0
 62
     2
370
    -2
100
AcDbLine
 10
350.0
 20
1882.308128
 30
0.0
 11
350.0
 21
1432.308128
 31
0.0
  0
SOLID
  5
59E
330
59A
100
AcDbEntity
  8
LC-006-003-----0
 62
     2
100
AcDbTrace
 10
354.166667
 20
1882.308128
 30
0.0
 11
345.833333
 21
1882.308128
 31
0.0
 12
350.0
 22
1907.308128
 32
0.0
 13
350.0
 23
1907.308128
 33
0.0
  0
SOLID
  5
59F
330
59A
100
AcDbEntity
  8
LC-006-003-----0
 62
     2
100
AcDbTrace
 10
345.833333
 20
1432.308128
 30
0.0
 11
354.166667
 21
1432.308128
 31
0.0
 12
350.0
 22
1407.308128
 32
0.0
 13
350.0
 23
1407.308128
 33
0.0
  0
MTEXT
  5
5A0
330
59A
100
AcDbEntity
  8
LC-006-003-----0
 62
     2
100
AcDbMText
 10
320.0
 20
1657.308128
 30
0.0
 40
25.0
 41
0.0
 71
     5
 72
     1
  1
\A1;500
  7
LCTX0-400-0-0pDIN-Schrift
 11
6.123031769111886E-17
 21
1.0
 31
0.0
 73
     1
 44
1.0
  0
POINT
  5
5A1
330
59A
100
AcDbEntity
  8
Defpoints
 62
     0
100
AcDbPoint
 10
445.069343
 20
1907.308128
 30
0.0
  0
POINT
  5
5A2
330
59A
100
AcDbEntity
  8
Defpoints
 62
     0
100
AcDbPoint
 10
445.069343
 20
1407.308128
 30
0.0
  0
POINT
  5
5A3
330
59A
100
AcDbEntity
  8
Defpoints
 62
     0
100
AcDbPoint
 10
350.0
 20
1407.308128
 30
0.0
  0
ENDBLK
  5
5A5
330
59A
100
AcDbEntity
  8
0
100
AcDbBlockEnd
  0
BLOCK
  5
5B1
330
5A7
100
AcDbEntity
  8
0
100
AcDbBlockBegin
  2
*D33
 70
     1
 71
     0
 10
0.0
 20
0.0
 30
0.0
  3
*D33
  1

  0
LINE
  5
5A8
330
5A7
100
AcDbEntity
  8
LC-006-003-----0
 62
     2
370
    -2
100
AcDbLine
 10
709.069343
 20
1917.308128
 30
0.0
 11
709.069343
 21
2018.0
 31
0.0
  0
LINE
  5
5A9
330
5A7
100
AcDbEntity
  8
LC-006-003-----0
 62
     2
370
    -2
100
AcDbLine
 10
819.069343
 20
1917.308128
 30
0.0
 11
819.069343
 21
2018.0
 31
0.0
  0
LINE
  5
5AA
330
5A7
100
AcDbEntity
  8
LC-006-003-----0
 62
     2
370
    -2
100
AcDbLine
 10
734.069343
 20
2000.0
 30
0.0
 11
794.069343
 21
2000.0
 31
0.0
  0
SOLID
  5
5AB
330
5A7
100
AcDbEntity
  8
LC-006-003-----0
 62
     2
100
AcDbTrace
 10
734.069343
 20
2004.166667
 30
0.0
 11
734.069343
 21
1995.833333
 31
0.0
 12
709.069343
 22
2000.0
 32
0.0
 13
709.069343
 23
2000.0
 33
0.0
  0
SOLID
  5
5AC
330
5A7
100
AcDbEntity
  8
LC-006-003-----0
 62
     2
100
AcDbTrace
 10
794.069343
 20
1995.833333
 30
0.0
 11
794.069343
 21
2004.166667
 31
0.0
 12
819.069343
 22
2000.0
 32
0.0
 13
819.069343
 23
2000.0
 33
0.0
  0
MTEXT
  5
5AD
330
5A7
100
AcDbEntity
  8
LC-006-003-----0
 62
     2
100
AcDbMText
 10
764.069343
 20
2030.0
 30
0.0
 40
25.0
 41
0.0
 71
     5
 72
     1
  1
\A1;110
  7
LCTX0-400-0-0pDIN-Schrift
 73
     1
 44
1.0
  0
POINT
  5
5AE
330
5A7
100
AcDbEntity
  8
Defpoints
 62
     0
100
AcDbPoint
 10
709.069343
 20
1917.308128
 30
0.0
  0
POINT
  5
5AF
330
5A7
100
AcDbEntity
  8
Defpoints
 62
     0
100
AcDbPoint
 10
819.069343
 20
1917.308128
 30
0.0
  0
POINT
  5
5B0
330
5A7
100
AcDbEntity
  8
Defpoints
 62
     0
100
AcDbPoint
 10
819.069343
 20
2000.0
 30
0.0
  0
ENDBLK
  5
5B2
330
5A7
100
AcDbEntity
  8
0
100
AcDbBlockEnd
  0
BLOCK
  5
5BE
330
5B4
100
AcDbEntity
  8
0
100
AcDbBlockBegin
  2
*D34
 70
     1
 71
     0
 10
0.0
 20
0.0
 30
0.0
  3
*D34
  1

  0
LINE
  5
5B5
330
5B4
100
AcDbEntity
  8
LC-006-003-----0
 62
     2
370
    -2
100
AcDbLine
 10
819.069343
 20
1917.308128
 30
0.0
 11
819.069343
 21
2018.0
 31
0.0
  0
LINE
  5
5B6
330
5B4
100
AcDbEntity
  8
LC-006-003-----0
 62
     2
370
    -2
100
AcDbLine
 10
1235.069343
 20
1917.308128
 30
0.0
 11
1235.069343
 21
2018.0
 31
0.0
  0
LINE
  5
5B7
330
5B4
100
AcDbEntity
  8
LC-006-003-----0
 62
     2
370
    -2
100
AcDbLine
 10
844.069343
 20
2000.0
 30
0.0
 11
1210.069343
 21
2000.0
 31
0.0
  0
SOLID
  5
5B8
330
5B4
100
AcDbEntity
  8
LC-006-003-----0
 62
     2
100
AcDbTrace
 10
844.069343
 20
2004.166667
 30
0.0
 11
844.069343
 21
1995.833333
 31
0.0
 12
819.069343
 22
2000.0
 32
0.0
 13
819.069343
 23
2000.0
 33
0.0
  0
SOLID
  5
5B9
330
5B4
100
AcDbEntity
  8
LC-006-003-----0
 62
     2
100
AcDbTrace
 10
1210.069343
 20
1995.833333
 30
0.0
 11
1210.069343
 21
2004.166667
 31
0.0
 12
1235.069343
 22
2000.0
 32
0.0
 13
1235.069343
 23
2000.0
 33
0.0
  0
MTEXT
  5
5BA
330
5B4
100
AcDbEntity
  8
LC-006-003-----0
 62
     2
100
AcDbMText
 10
1027.069343
 20
2030.0
 30
0.0
 40
25.0
 41
0.0
 71
     5
 72
     1
  1
\A1;416
  7
LCTX0-400-0-0pDIN-Schrift
 73
     1
 44
1.0
  0
POINT
  5
5BB
330
5B4
100
AcDbEntity
  8
Defpoints
 62
     0
100
AcDbPoint
 10
819.069343
 20
1917.308128
 30
0.0
  0
POINT
  5
5BC
330
5B4
100
AcDbEntity
  8
Defpoints
 62
     0
100
AcDbPoint
 10
1235.069343
 20
1917.308128
 30
0.0
  0
POINT
  5
5BD
330
5B4
100
AcDbEntity
  8
Defpoints
 62
     0
100
AcDbPoint
 10
1235.069343
 20
2000.0
 30
0.0
  0
ENDBLK
  5
5BF
330
5B4
100
AcDbEntity
  8
0
100
AcDbBlockEnd
  0
BLOCK
  5
5CD
330
5C1
100
AcDbEntity
  8
0
100
AcDbBlockBegin
  2
*D35
 70
     1
 71
     0
 10
0.0
 20
0.0
 30
0.0
  3
*D35
  1

  0
LINE
  5
5C2
330
5C1
100
AcDbEntity
  8
LC-006-003-----0
 62
     2
370
    -2
100
AcDbLine
 10
895.069343
 20
1907.308128
 30
0.0
 11
968.0
 21
1907.308128
 31
0.0
  0
LINE
  5
5C3
330
5C1
100
AcDbEntity
  8
LC-006-003-----0
 62
     2
370
    -2
100
AcDbLine
 10
869.069343
 20
1835.308128
 30
0.0
 11
968.0
 21
1835.308128
 31
0.0
  0
LINE
  5
5C4
330
5C1
100
AcDbEntity
  8
LC-006-003-----0
 62
     2
370
    -2
100
AcDbLine
 10
950.0
 20
1810.308128
 30
0.0
 11
950.0
 21
1785.308128
 31
0.0
  0
LINE
  5
5C5
330
5C1
100
AcDbEntity
  8
LC-006-003-----0
 62
     2
370
    -2
100
AcDbLine
 10
950.0
 20
1932.308128
 30
0.0
 11
950.0
 21
1963.188801
 31
0.0
  0
LINE
  5
5C6
330
5C1
100
AcDbEntity
  8
LC-006-003-----0
 62
     2
370
    -2
100
AcDbLine
 10
950.0
 20
1907.308128
 30
0.0
 11
950.0
 21
1835.308128
 31
0.0
  0
SOLID
  5
5C7
330
5C1
100
AcDbEntity
  8
LC-006-003-----0
 62
     2
100
AcDbTrace
 10
945.833333
 20
1932.308128
 30
0.0
 11
954.166667
 21
1932.308128
 31
0.0
 12
950.0
 22
1907.308128
 32
0.0
 13
950.0
 23
1907.308128
 33
0.0
  0
SOLID
  5
5C8
330
5C1
100
AcDbEntity
  8
LC-006-003-----0
 62
     2
100
AcDbTrace
 10
954.166667
 20
1810.308128
 30
0.0
 11
945.833333
 21
1810.308128
 31
0.0
 12
950.0
 22
1835.308128
 32
0.0
 13
950.0
 23
1835.308128
 33
0.0
  0
MTEXT
  5
5C9
330
5C1
100
AcDbEntity
  8
LC-006-003-----0
 62
     2
100
AcDbMText
 10
920.0
 20
1933.515051
 30
0.0
 40
25.0
 41
0.0
 71
     5
 72
     1
  1
\A1;72
  7
LCTX0-400-0-0pDIN-Schrift
 11
6.123031769111886E-17
 21
1.0
 31
0.0
 73
     1
 44
1.0
  0
POINT
  5
5CA
330
5C1
100
AcDbEntity
  8
Defpoints
 62
     0
100
AcDbPoint
 10
895.069343
 20
1907.308128
 30
0.0
  0
POINT
  5
5CB
330
5C1
100
AcDbEntity
  8
Defpoints
 62
     0
100
AcDbPoint
 10
869.069343
 20
1835.308128
 30
0.0
  0
POINT
  5
5CC
330
5C1
100
AcDbEntity
  8
Defpoints
 62
     0
100
AcDbPoint
 10
950.0
 20
1835.308128
 30
0.0
  0
ENDBLK
  5
5CE
330
5C1
100
AcDbEntity
  8
0
100
AcDbBlockEnd
  0
ENDSEC
  0
SECTION
  2
ENTITIES
  0
INSERT
  5
102
330
1F
100
AcDbEntity
  8
LC-003-230-ZVN-0
  6
ByBlock
 62
     0
370
    -2
100
AcDbBlockReference
  2
SYM1
 10
0.0
 20
0.0
 30
0.0
  0
CIRCLE
  5
103
102
{ACAD_REACTORS
330
5D0
102
}
330
1F
100
AcDbEntity
  8
LC-002-002-----0
 62
     7
370
    50
100
AcDbCircle
 10
742.069343
 20
1657.308128
 30
0.0
 40
45.0
  0
CIRCLE
  5
104
102
{ACAD_REACTORS
330
5D0
102
}
330
1F
100
AcDbEntity
  8
LC-002-002-----0
 62
     7
370
    50
100
AcDbCircle
 10
742.069343
 20
1657.308128
 30
0.0
 40
57.5
  0
ARC
  5
105
102
{ACAD_REACTORS
330
5D0
102
}
330
1F
100
AcDbEntity
  8
LC-002-002-----0
 62
     7
370
    25
100
AcDbCircle
 10
494.069343
 20
1795.808128
 30
0.0
 40
4.0
100
AcDbArc
 50
90.0
 51
180.0
  0
ARC
  5
106
102
{ACAD_REACTORS
330
5D0
102
}
330
1F
100
AcDbEntity
  8
LC-002-002-----0
 62
     7
370
    25
100
AcDbCircle
 10
494.069343
 20
1518.808128
 30
0.0
 40
4.0
100
AcDbArc
 50
180.0
 51
270.0
  0
LINE
  5
107
102
{ACAD_REACTORS
330
5D0
102
}
330
1F
100
AcDbEntity
  8
LC-002-002-----0
 62
     7
370
    50
100
AcDbLine
 10
1235.069343
 20
1419.308128
 30
0.0
 11
1235.069343
 21
1895.308128
 31
0.0
  0
ELLIPSE
  5
108
102
{ACAD_REACTORS
330
5D0
102
}
330
1F
100
AcDbEntity
  8
LC-002-002-----0
 62
     7
370
    50
100
AcDbEllipse
 10
741.415675
 20
1518.120047
 30
0.0
 11
15.65366807060002
 21
0.0
 31
0.0
210
0.0
220
0.0
230
1.0
 40
0.083357
 41
0.0
 42
6.283185307179586
  0
ARC
  5
109
102
{ACAD_REACTORS
330
5D0
102
}
330
1F
100
AcDbEntity
  8
LC-002-002-----0
 62
     7
370
    50
100
AcDbCircle
 10
1223.069343
 20
1419.308128
 30
0.0
 40
12.0
100
AcDbArc
 50
270.0
 51
0.0
  0
ARC
  5
10A
102
{ACAD_REACTORS
330
5D0
102
}
330
1F
100
AcDbEntity
  8
LC-002-002-----0
 62
     7
370
    50
100
AcDbCircle
 10
467.069343
 20
1419.308128
 30
0.0
 40
12.0
100
AcDbArc
 50
180.0
 51
270.0
  0
ARC
  5
10B
102
{ACAD_REACTORS
330
5D0
102
}
330
1F
100
AcDbEntity
  8
LC-002-002-----0
 62
     7
370
    50
100
AcDbCircle
 10
467.069343
 20
1895.308128
 30
0.0
 40
12.0
100
AcDbArc
 50
90.0
 51
180.0
  0
ARC
  5
10C
102
{ACAD_REACTORS
330
5D0
102
}
330
1F
100
AcDbEntity
  8
LC-002-002-----0
 62
     7
370
    50
100
AcDbCircle
 10
1223.069343
 20
1895.308128
 30
0.0
 40
12.0
100
AcDbArc
 50
0.0
 51
90.0
  0
ARC
  5
10D
102
{ACAD_REACTORS
330
5D0
102
}
330
1F
100
AcDbEntity
  8
LC-002-002-----0
 62
     7
370
    50
100
AcDbCircle
 10
669.069343
 20
1789.808128
 30
0.0
 40
10.0
100
AcDbArc
 50
90.0
 51
180.0
  0
ARC
  5
10E
102
{ACAD_REACTORS
330
5D0
102
}
330
1F
100
AcDbEntity
  8
LC-002-002-----0
 62
     7
370
    50
100
AcDbCircle
 10
865.069343
 20
1862.308128
 30
0.0
 40
10.0
100
AcDbArc
 50
90.0
 51
180.0
  0
ARC
  5
10F
102
{ACAD_REACTORS
330
5D0
102
}
330
1F
100
AcDbEntity
  8
LC-002-002-----0
 62
     7
370
    50
100
AcDbCircle
 10
845.069343
 20
1809.808128
 30
0.0
 40
10.0
100
AcDbArc
 50
270.0
 51
0.0
  0
LINE
  5
110
102
{ACAD_REACTORS
330
5D0
102
}
330
1F
100
AcDbEntity
  8
LC-002-002-----0
 62
     7
370
    25
100
AcDbLine
 10
514.803182
 20
1712.308128
 30
0.0
 11
659.069343
 21
1712.308128
 31
0.0
  0
ARC
  5
111
102
{ACAD_REACTORS
330
5D0
102
}
330
1F
100
AcDbEntity
  8
LC-002-002-----0
 62
     7
370
    50
100
AcDbCircle
 10
669.069343
 20
1809.808128
 30
0.0
 40
10.0
100
AcDbArc
 50
180.0
 51
270.0
  0
ARC
  5
112
102
{ACAD_REACTORS
330
5D0
102
}
330
1F
100
AcDbEntity
  8
LC-002-002-----0
 62
     7
370
    50
100
AcDbCircle
 10
669.069343
 20
1504.808128
 30
0.0
 40
10.0
100
AcDbArc
 50
90.0
 51
180.0
  0
ARC
  5
113
102
{ACAD_REACTORS
330
5D0
102
}
330
1F
100
AcDbEntity
  8
LC-002-002-----0
 62
     7
370
    50
100
AcDbCircle
 10
669.069343
 20
1524.808128
 30
0.0
 40
10.0
100
AcDbArc
 50
180.0
 51
270.0
  0
ARC
  5
114
102
{ACAD_REACTORS
330
5D0
102
}
330
1F
100
AcDbEntity
  8
LC-002-002-----0
 62
     7
370
    50
100
AcDbCircle
 10
845.069343
 20
1504.808128
 30
0.0
 40
10.0
100
AcDbArc
 50
0.0
 51
90.0
  0
ARC
  5
115
102
{ACAD_REACTORS
330
5D0
102
}
330
1F
100
AcDbEntity
  8
LC-002-002-----0
 62
     7
370
    50
100
AcDbCircle
 10
815.069343
 20
1524.808128
 30
0.0
 40
10.0
100
AcDbArc
 50
270.0
 51
0.0
  0
LINE
  5
116
102
{ACAD_REACTORS
330
5D0
102
}
330
1F
100
AcDbEntity
  8
LC-002-002-----0
 62
     7
370
    25
100
AcDbLine
 10
659.069343
 20
1702.308128
 30
0.0
 11
514.803182
 21
1702.308128
 31
0.0
  0
ARC
  5
118
102
{ACAD_REACTORS
330
5D6
102
}
330
1F
100
AcDbEntity
  8
LC-004-002-RND-0
 62
     7
370
    50
100
AcDbCircle
 10
502.281938
 20
1034.766051
 30
0.0
 40
5.0
100
AcDbArc
 50
90.0
 51
180.0
  0
ARC
  5
119
102
{ACAD_REACTORS
330
5D0
102
}
330
1F
100
AcDbEntity
  8
LC-002-002-----0
 62
     7
370
    50
100
AcDbCircle
 10
865.069343
 20
1452.308128
 30
0.0
 40
10.0
100
AcDbArc
 50
180.0
 51
270.0
  0
ARC
  5
11A
102
{ACAD_REACTORS
330
5D0
102
}
330
1F
100
AcDbEntity
  8
LC-002-002-----0
 62
     7
370
    50
100
AcDbCircle
 10
649.069343
 20
1452.308128
 30
0.0
 40
10.0
100
AcDbArc
 50
270.0
 51
0.0
  0
ARC
  5
11B
102
{ACAD_REACTORS
330
5D0
102
}
330
1F
100
AcDbEntity
  8
LC-002-002-----0
 62
     7
370
    50
100
AcDbCircle
 10
649.069343
 20
1862.308128
 30
0.0
 40
10.0
100
AcDbArc
 50
0.0
 51
90.0
  0
ARC
  5
11C
102
{ACAD_REACTORS
330
5D0
102
}
330
1F
100
AcDbEntity
  8
LC-002-002-----0
 62
     7
370
    50
100
AcDbCircle
 10
815.069343
 20
1789.808128
 30
0.0
 40
10.0
100
AcDbArc
 50
0.0
 51
90.0
  0
ARC
  5
11D
102
{ACAD_REACTORS
330
5D6
102
}
330
1F
100
AcDbEntity
  8
LC-004-002-RND-0
 62
     7
370
    50
100
AcDbCircle
 10
502.281938
 20
804.766051
 30
0.0
 40
5.0
100
AcDbArc
 50
180.0
 51
270.0
  0
ARC
  5
11E
102
{ACAD_REACTORS
330
5D6
102
}
330
1F
100
AcDbEntity
  8
LC-004-002-RND-0
 62
     7
370
    50
100
AcDbCircle
 10
872.281938
 20
804.766051
 30
0.0
 40
5.0
100
AcDbArc
 50
270.0
 51
0.0
  0
CIRCLE
  5
11F
102
{ACAD_REACTORS
330
5D0
102
}
330
1F
100
AcDbEntity
  8
LC-002-002-----0
 62
     7
370
    50
100
AcDbCircle
 10
949.069343
 20
1657.308128
 30
0.0
 40
44.99999999999989
  0
CIRCLE
  5
120
102
{ACAD_REACTORS
330
5D0
102
}
330
1F
100
AcDbEntity
  8
LC-002-002-----0
 62
     7
370
    50
100
AcDbCircle
 10
949.069343
 20
1657.308128
 30
0.0
 40
57.49999999999989
  0
LINE
  5
121
102
{ACAD_REACTORS
330
5CF
102
}
330
1F
100
AcDbEntity
  8
LC-002-002-----0
 62
     7
370
    50
100
AcDbLine
 10
1203.734668
 20
2542.950096
 30
0.0
 11
1231.78231
 21
2542.950096
 31
0.0
  0
ARC
  5
122
102
{ACAD_REACTORS
330
5D6
102
}
330
1F
100
AcDbEntity
  8
LC-004-002-RND-0
 62
     7
370
    50
100
AcDbCircle
 10
872.281938
 20
1034.766051
 30
0.0
 40
5.0
100
AcDbArc
 50
0.0
 51
90.0
  0
CIRCLE
  5
123
102
{ACAD_REACTORS
330
5D0
102
}
330
1F
100
AcDbEntity
  8
LC-002-002-----0
  6
DASHED
 62
     7
370
    25
100
AcDbCircle
 10
709.069343
 20
1835.308128
 30
0.0
 40
17.5
  0
CIRCLE
  5
124
102
{ACAD_REACTORS
330
5D0
102
}
330
1F
100
AcDbEntity
  8
LC-002-002-----0
  6
DASHED
 62
     7
370
    25
100
AcDbCircle
 10
819.069343
 20
1835.308128
 30
0.0
 40
17.5
  0
LINE
  5
125
102
{ACAD_REACTORS
330
5CF
102
}
330
1F
100
AcDbEntity
  8
LC-002-002-----0
 62
     7
370
    50
100
AcDbLine
 10
697.069343
 20
2393.776862
 30
0.0
 11
787.069343
 21
2393.776862
 31
0.0
  0
LINE
  5
126
102
{ACAD_REACTORS
330
5CF
102
}
330
1F
100
AcDbEntity
  8
LC-002-002-----0
 62
     7
370
    25
100
AcDbLine
 10
684.569343
 20
2397.950096
 30
0.0
 11
799.569343
 21
2397.950096
 31
0.0
  0
LINE
  5
127
102
{ACAD_REACTORS
330
5CF
102
}
330
1F
100
AcDbEntity
  8
LC-002-002-----0
 62
     7
370
    50
100
AcDbLine
 10
904.069343
 20
2338.776862
 30
0.0
 11
994.069343
 21
2338.776862
 31
0.0
  0
LINE
  5
128
102
{ACAD_REACTORS
330
5CF
102
}
330
1F
100
AcDbEntity
  8
LC-002-002-----0
 62
     7
370
    25
100
AcDbLine
 10
891.569343
 20
2342.950096
 30
0.0
 11
1006.569343
 21
2342.950096
 31
0.0
  0
LINE
  5
129
102
{ACAD_REACTORS
330
5D5
102
}
330
1F
100
AcDbEntity
  8
LC-002-002-----0
 62
     7
370
    25
100
AcDbLine
 10
1610.811052
 20
1702.308128
 30
0.0
 11
1610.811052
 21
1612.308128
 31
0.0
  0
LINE
  5
12A
102
{ACAD_REACTORS
330
5D5
102
}
330
1F
100
AcDbEntity
  8
LC-002-002-----0
 62
     7
370
    25
100
AcDbLine
 10
1614.984286
 20
1714.808128
 30
0.0
 11
1614.984286
 21
1599.808128
 31
0.0
  0
LINE
  5
12B
102
{ACAD_REACTORS
330
5D9
102
}
330
1F
100
AcDbEntity
  8
LC-002-002-----0
 62
     7
370
    50
100
AcDbLine
 10
1555.811052
 20
1702.308128
 30
0.0
 11
1555.811052
 21
1612.308128
 31
0.0
  0
LINE
  5
12C
102
{ACAD_REACTORS
330
5D6
102
}
330
1F
100
AcDbEntity
  8
LC-002-002-----0
  6
DASHED
 62
     7
370
    25
100
AcDbLine
 10
879.281938
 20
775.949232
 30
0.0
 11
879.281938
 21
1058.048625
 31
0.0
  0
LINE
  5
12D
102
{ACAD_REACTORS
330
5CF
102
}
330
1F
100
AcDbEntity
  8
LC-002-002-----0
 62
     7
370
    50
100
AcDbLine
 10
486.404019
 20
2542.950096
 30
0.0
 11
742.069343
 21
2542.950096
 31
0.0
  0
ARC
  5
12E
102
{ACAD_REACTORS
330
5CF
102
}
330
1F
100
AcDbEntity
  8
LC-002-002-----0
 62
     7
370
    50
100
AcDbCircle
 10
850.487687
 20
2529.950096
 30
0.0
 40
4.999999999999975
100
AcDbArc
 50
5.0
 51
90.0
  0
LINE
  5
12F
102
{ACAD_REACTORS
330
5CF
102
}
330
1F
100
AcDbEntity
  8
LC-002-002-----0
 62
     7
370
    50
100
AcDbLine
 10
742.069343
 20
2542.950096
 30
0.0
 11
949.069343
 21
2542.950096
 31
0.0
  0
LINE
  5
130
102
{ACAD_REACTORS
330
5D6
102
}
330
1F
100
AcDbEntity
  8
LC-002-002-----0
  6
DASHED
 62
     7
370
    25
100
AcDbLine
 10
869.781938
 20
775.949232
 30
0.0
 11
869.781938
 21
1058.048625
 31
0.0
  0
LINE
  5
131
102
{ACAD_REACTORS
330
5D6
102
}
330
1F
100
AcDbEntity
  8
LC-002-002-----0
  6
DASHED
 62
     7
370
    25
100
AcDbLine
 10
579.281938
 20
775.949232
 30
0.0
 11
579.281938
 21
1058.048625
 31
0.0
  0
LINE
  5
132
102
{ACAD_REACTORS
330
5D6
102
}
330
1F
100
AcDbEntity
  8
LC-002-002-----0
  6
DASHED
 62
     7
370
    25
100
AcDbLine
 10
588.781938
 20
775.949232
 30
0.0
 11
588.781938
 21
1058.048625
 31
0.0
  0
LINE
  5
133
102
{ACAD_REACTORS
330
5D0
102
}
330
1F
100
AcDbEntity
  8
LC-002-002-----0
 62
     7
370
    50
100
AcDbLine
 10
659.069343
 20
1452.308128
 30
0.0
 11
659.069343
 21
1504.808128
 31
0.0
  0
LINE
  5
134
102
{ACAD_REACTORS
330
5D0
102
}
330
1F
100
AcDbEntity
  8
LC-002-002-----0
 62
     7
370
    50
100
AcDbLine
 10
659.069343
 20
1862.308128
 30
0.0
 11
659.069343
 21
1809.808128
 31
0.0
  0
LINE
  5
135
102
{ACAD_REACTORS
330
5D0
102
}
330
1F
100
AcDbEntity
  8
LC-002-002-----0
 62
     7
370
    50
100
AcDbLine
 10
845.069343
 20
1514.808128
 30
0.0
 11
669.069343
 21
1514.808128
 31
0.0
  0
LINE
  5
136
102
{ACAD_REACTORS
330
5D0
102
}
330
1F
100
AcDbEntity
  8
LC-002-002-----0
 62
     7
370
    50
100
AcDbLine
 10
845.069343
 20
1799.808128
 30
0.0
 11
669.069343
 21
1799.808128
 31
0.0
  0
LINE
  5
137
102
{ACAD_REACTORS
330
5D0
102
}
330
1F
100
AcDbEntity
  8
LC-002-002-----0
 62
     7
370
    50
100
AcDbLine
 10
1200.069343
 20
1452.308128
 30
0.0
 11
1200.069343
 21
1862.308128
 31
0.0
  0
LINE
  5
138
102
{ACAD_REACTORS
330
5D0
102
}
330
1F
100
AcDbEntity
  8
LC-002-002-----0
 62
     7
370
    50
100
AcDbLine
 10
1190.069343
 20
1872.308128
 30
0.0
 11
500.069343
 21
1872.308128
 31
0.0
  0
LINE
  5
139
102
{ACAD_REACTORS
330
5D0
102
}
330
1F
100
AcDbEntity
  8
LC-002-002-----0
 62
     7
370
    50
100
AcDbLine
 10
500.069343
 20
1442.308128
 30
0.0
 11
1190.069343
 21
1442.308128
 31
0.0
  0
LINE
  5
13A
102
{ACAD_REACTORS
330
5D0
102
}
330
1F
100
AcDbEntity
  8
LC-002-002-----0
 62
     7
370
    50
100
AcDbLine
 10
490.069343
 20
1862.308128
 30
0.0
 11
490.069343
 21
1452.308128
 31
0.0
  0
ARC
  5
13B
102
{ACAD_REACTORS
330
5D0
102
}
330
1F
100
AcDbEntity
  8
LC-002-002-----0
 62
     7
370
    50
100
AcDbCircle
 10
1190.069343
 20
1452.308128
 30
0.0
 40
10.0
100
AcDbArc
 50
270.0
 51
0.0
  0
ARC
  5
13C
102
{ACAD_REACTORS
330
5D0
102
}
330
1F
100
AcDbEntity
  8
LC-002-002-----0
 62
     7
370
    50
100
AcDbCircle
 10
500.069343
 20
1452.308128
 30
0.0
 40
10.0
100
AcDbArc
 50
180.0
 51
270.0
  0
ARC
  5
13D
102
{ACAD_REACTORS
330
5D0
102
}
330
1F
100
AcDbEntity
  8
LC-002-002-----0
 62
     7
370
    50
100
AcDbCircle
 10
1190.069343
 20
1862.308128
 30
0.0
 40
10.0
100
AcDbArc
 50
0.0
 51
90.0
  0
ARC
  5
13E
102
{ACAD_REACTORS
330
5D0
102
}
330
1F
100
AcDbEntity
  8
LC-002-002-----0
 62
     7
370
    50
100
AcDbCircle
 10
500.069343
 20
1862.308128
 30
0.0
 40
10.0
100
AcDbArc
 50
90.0
 51
180.0
  0
LINE
  5
13F
102
{ACAD_REACTORS
330
5D0
102
}
330
1F
100
AcDbEntity
  8
LC-002-002-----0
 62
     7
370
    25
100
AcDbLine
 10
514.803182
 20
1612.308128
 30
0.0
 11
659.069343
 21
1612.308128
 31
0.0
  0
LINE
  5
140
102
{ACAD_REACTORS
330
5D0
102
}
330
1F
100
AcDbEntity
  8
LC-002-002-----0
 62
     7
370
    25
100
AcDbLine
 10
659.069343
 20
1602.308128
 30
0.0
 11
514.803182
 21
1602.308128
 31
0.0
  0
LINE
  5
141
102
{ACAD_REACTORS
330
5D0
102
}
330
1F
100
AcDbEntity
  8
LC-002-002-----0
 62
     7
370
    50
100
AcDbLine
 10
659.069343
 20
1789.808128
 30
0.0
 11
659.069343
 21
1524.808128
 31
0.0
  0
LINE
  5
142
102
{ACAD_REACTORS
330
5D0
102
}
330
1F
100
AcDbEntity
  8
LC-002-002-----0
 62
     7
370
    50
100
AcDbLine
 10
825.069343
 20
1789.808128
 30
0.0
 11
825.069343
 21
1524.808128
 31
0.0
  0
LINE
  5
143
102
{ACAD_REACTORS
330
5D0
102
}
330
1F
100
AcDbEntity
  8
LC-002-002-----0
 62
     7
370
    50
100
AcDbLine
 10
855.069343
 20
1862.308128
 30
0.0
 11
855.069343
 21
1452.308128
 31
0.0
  0
LINE
  5
144
102
{ACAD_REACTORS
330
5D0
102
}
330
1F
100
AcDbEntity
  8
LC-002-002-----0
 62
     7
370
    50
100
AcDbLine
 10
1223.069343
 20
1907.308128
 30
0.0
 11
467.069343
 21
1907.308128
 31
0.0
  0
LINE
  5
145
102
{ACAD_REACTORS
330
5D0
102
}
330
1F
100
AcDbEntity
  8
LC-002-002-----0
 62
     7
370
    50
100
AcDbLine
 10
467.069343
 20
1407.308128
 30
0.0
 11
1223.069343
 21
1407.308128
 31
0.0
  0
LINE
  5
146
102
{ACAD_REACTORS
330
5D0
102
}
330
1F
100
AcDbEntity
  8
LC-002-002-----0
 62
     7
370
    50
100
AcDbLine
 10
455.069343
 20
1895.308128
 30
0.0
 11
455.069343
 21
1419.308128
 31
0.0
  0
LINE
  5
147
102
{ACAD_REACTORS
330
5CF
102
}
330
1F
100
AcDbEntity
  8
LC-002-002-----0
 62
     7
370
    50
100
AcDbLine
 10
458.356376
 20
2542.950096
 30
0.0
 11
471.94384
 21
2542.950096
 31
0.0
  0
LINE
  5
148
102
{ACAD_REACTORS
330
5CF
102
}
330
1F
100
AcDbEntity
  8
LC-002-002-----0
 62
     7
370
    50
100
AcDbLine
 10
471.94384
 20
2542.950096
 30
0.0
 11
476.94384
 21
2542.950096
 31
0.0
  0
LINE
  5
149
102
{ACAD_REACTORS
330
5CF
102
}
330
1F
100
AcDbEntity
  8
LC-002-002-----0
 62
     7
370
    50
100
AcDbLine
 10
476.94384
 20
2542.950096
 30
0.0
 11
486.404019
 21
2542.950096
 31
0.0
  0
LINE
  5
14A
102
{ACAD_REACTORS
330
5CF
102
}
330
1F
100
AcDbEntity
  8
LC-002-002-----0
 62
     7
370
    50
100
AcDbLine
 10
490.388797
 20
2539.298719
 30
0.0
 11
491.07283
 21
2531.480189
 31
0.0
  0
LINE
  5
14B
102
{ACAD_REACTORS
330
5CF
102
}
330
1F
100
AcDbEntity
  8
LC-002-002-----0
 62
     7
370
    50
100
AcDbLine
 10
1199.749889
 20
2539.298719
 30
0.0
 11
1184.775159
 21
2368.136773
 31
0.0
  0
LINE
  5
14C
102
{ACAD_REACTORS
330
5CF
102
}
330
1F
100
AcDbEntity
  8
LC-002-002-----0
 62
     7
370
    50
100
AcDbLine
 10
828.776113
 20
2524.950096
 30
0.0
 11
851.362574
 21
2524.950096
 31
0.0
  0
LINE
  5
14D
102
{ACAD_REACTORS
330
5CF
102
}
330
1F
100
AcDbEntity
  8
LC-002-002-----0
 62
     7
370
    50
100
AcDbLine
 10
823.795139
 20
2520.385875
 30
0.0
 11
814.052418
 21
2409.026066
 31
0.0
  0
LINE
  5
14E
102
{ACAD_REACTORS
330
5CF
102
}
330
1F
100
AcDbEntity
  8
LC-002-002-----0
 62
     7
370
    50
100
AcDbLine
 10
655.442895
 20
2525.028667
 30
0.0
 11
494.987799
 21
2527.829421
 31
0.0
  0
LINE
  5
14F
102
{ACAD_REACTORS
330
5CF
102
}
330
1F
100
AcDbEntity
  8
LC-002-002-----0
 62
     7
370
    50
100
AcDbLine
 10
660.336607
 20
2520.465207
 30
0.0
 11
670.086268
 21
2409.026066
 31
0.0
  0
LINE
  5
150
102
{ACAD_REACTORS
330
5CF
102
}
330
1F
100
AcDbEntity
  8
LC-002-002-----0
 62
     7
370
    50
100
AcDbLine
 10
856.343548
 20
2520.385875
 30
0.0
 11
870.262948
 21
2361.286396
 31
0.0
  0
LINE
  5
151
102
{ACAD_REACTORS
330
5CF
102
}
330
1F
100
AcDbEntity
  8
LC-002-002-----0
 62
     7
370
    50
100
AcDbLine
 10
855.468661
 20
2530.385875
 30
0.0
 11
856.343548
 21
2520.385875
 31
0.0
  0
LINE
  5
152
102
{ACAD_REACTORS
330
5CF
102
}
330
1F
100
AcDbEntity
  8
LC-002-002-----0
 62
     7
370
    50
100
AcDbLine
 10
455.069343
 20
2535.950096
 30
0.0
 11
455.363684
 21
2540.159365
 31
0.0
  0
LINE
  5
153
102
{ACAD_REACTORS
330
5CF
102
}
330
1F
100
AcDbEntity
  8
LC-002-002-----0
 62
     7
370
    50
100
AcDbLine
 10
1235.069343
 20
2535.950096
 30
0.0
 11
1234.775003
 21
2540.159365
 31
0.0
  0
ARC
  5
154
102
{ACAD_REACTORS
330
5CF
102
}
330
1F
100
AcDbEntity
  8
LC-002-002-----0
 62
     7
370
    50
100
AcDbCircle
 10
1164.851265
 20
2369.879888
 30
0.0
 40
20.00000000000013
100
AcDbArc
 50
272.50149
 51
354.999214
  0
ARC
  5
155
102
{ACAD_REACTORS
330
5CF
102
}
330
1F
100
AcDbEntity
  8
LC-002-002-----0
 62
     7
370
    50
100
AcDbCircle
 10
890.186842
 20
2363.029511
 30
0.0
 40
20.0
100
AcDbArc
 50
185.000721
 51
267.498263
  0
ARC
  5
156
102
{ACAD_REACTORS
330
5CF
102
}
330
1F
100
AcDbEntity
  8
LC-002-002-----0
 62
     7
370
    50
100
AcDbCircle
 10
802.098082
 20
2410.071935
 30
0.0
 40
11.99999999999967
100
AcDbArc
 50
272.502914
 51
354.998395
  0
ARC
  5
157
102
{ACAD_REACTORS
330
5CF
102
}
330
1F
100
AcDbEntity
  8
LC-002-002-----0
 62
     7
370
    50
100
AcDbCircle
 10
682.040605
 20
2410.071935
 30
0.0
 40
12.00000000000004
100
AcDbArc
 50
185.001605
 51
267.497086
  0
LINE
  5
158
102
{ACAD_REACTORS
330
5CF
102
}
330
1F
100
AcDbEntity
  8
LC-002-002-----0
 62
     7
370
    50
100
AcDbLine
 10
994.069343
 20
2328.895227
 30
0.0
 11
904.069343
 21
2328.895227
 31
0.0
  0
LINE
  5
159
102
{ACAD_REACTORS
330
5CF
102
}
330
1F
100
AcDbEntity
  8
LC-002-002-----0
 62
     7
370
    50
100
AcDbLine
 10
787.069343
 20
2383.895227
 30
0.0
 11
697.069343
 21
2383.895227
 31
0.0
  0
LINE
  5
15A
102
{ACAD_REACTORS
330
5CF
102
}
330
1F
100
AcDbEntity
  8
LC-002-002-----0
 62
     7
370
    50
100
AcDbLine
 10
680.980554
 20
2383.895227
 30
0.0
 11
697.069343
 21
2383.895227
 31
0.0
  0
LINE
  5
15B
102
{ACAD_REACTORS
330
5CF
102
}
330
1F
100
AcDbEntity
  8
LC-002-002-----0
 62
     7
370
    50
100
AcDbLine
 10
787.069343
 20
2383.895227
 30
0.0
 11
803.158133
 21
2383.895227
 31
0.0
  0
LINE
  5
15C
102
{ACAD_REACTORS
330
5CF
102
}
330
1F
100
AcDbEntity
  8
LC-002-002-----0
 62
     7
370
    50
100
AcDbLine
 10
887.980554
 20
2328.895227
 30
0.0
 11
904.069343
 21
2328.895227
 31
0.0
  0
LINE
  5
15D
102
{ACAD_REACTORS
330
5CF
102
}
330
1F
100
AcDbEntity
  8
LC-002-002-----0
 62
     7
370
    50
100
AcDbLine
 10
994.069343
 20
2328.895227
 30
0.0
 11
1010.158133
 21
2328.895227
 31
0.0
  0
LINE
  5
15E
102
{ACAD_REACTORS
330
5CF
102
}
330
1F
100
AcDbEntity
  8
LC-002-002-----0
 62
     7
370
    50
100
AcDbLine
 10
649.194132
 20
2516.136369
 30
0.0
 11
495.936907
 21
2518.811483
 31
0.0
  0
LINE
  5
15F
102
{ACAD_REACTORS
330
5CF
102
}
330
1F
100
AcDbEntity
  8
LC-002-002-----0
 62
     7
370
    50
100
AcDbLine
 10
830.03448
 20
2511.385875
 30
0.0
 11
820.301251
 21
2400.134556
 31
0.0
  0
LINE
  5
160
102
{ACAD_REACTORS
330
5CF
102
}
330
1F
100
AcDbEntity
  8
LC-002-002-----0
 62
     7
370
    50
100
AcDbLine
 10
654.087843
 20
2511.572909
 30
0.0
 11
663.837436
 21
2400.134556
 31
0.0
  0
LINE
  5
161
102
{ACAD_REACTORS
330
5CF
102
}
330
1F
100
AcDbEntity
  8
LC-002-002-----0
 62
     7
370
    50
100
AcDbLine
 10
835.015453
 20
2515.950096
 30
0.0
 11
845.123233
 21
2515.950096
 31
0.0
  0
LINE
  5
162
102
{ACAD_REACTORS
330
5CF
102
}
330
1F
100
AcDbEntity
  8
LC-002-002-----0
 62
     7
370
    50
100
AcDbLine
 10
1205.496605
 20
2524.667985
 30
0.0
 11
1191.037672
 21
2359.401626
 31
0.0
  0
LINE
  5
163
102
{ACAD_REACTORS
330
5CF
102
}
330
1F
100
AcDbEntity
  8
LC-002-002-----0
 62
     7
370
    50
100
AcDbLine
 10
850.104207
 20
2511.385875
 30
0.0
 11
864.017431
 21
2352.35699
 31
0.0
  0
LINE
  5
164
102
{ACAD_REACTORS
330
5CF
102
}
330
1F
100
AcDbEntity
  8
LC-002-002-----0
 62
     7
370
    50
100
AcDbLine
 10
470.897081
 20
2526.950096
 30
0.0
 11
471.914163
 21
2526.950096
 31
0.0
  0
ARC
  5
165
102
{ACAD_REACTORS
330
5CF
102
}
330
1F
100
AcDbEntity
  8
LC-002-002-----0
 62
     7
370
    50
100
AcDbCircle
 10
465.62426
 20
2531.950096
 30
0.0
 40
2.000000000000075
100
AcDbArc
 50
4.999997
 51
43.82872
  0
LINE
  5
166
102
{ACAD_REACTORS
330
5CF
102
}
330
1F
100
AcDbEntity
  8
LC-002-002-----0
 62
     7
370
    50
100
AcDbLine
 10
469.443843
 20
2526.950096
 30
0.0
 11
469.567281
 21
2526.950096
 31
0.0
  0
LINE
  5
167
102
{ACAD_REACTORS
330
5CF
102
}
330
1F
100
AcDbEntity
  8
LC-002-002-----0
 62
     7
370
    50
100
AcDbLine
 10
469.567281
 20
2526.950096
 30
0.0
 11
470.429885
 21
2526.950096
 31
0.0
  0
LINE
  5
168
102
{ACAD_REACTORS
330
5CF
102
}
330
1F
100
AcDbEntity
  8
LC-002-002-----0
 62
     7
370
    50
100
AcDbLine
 10
470.429885
 20
2526.950096
 30
0.0
 11
470.659144
 21
2526.950096
 31
0.0
  0
LINE
  5
169
102
{ACAD_REACTORS
330
5CF
102
}
330
1F
100
AcDbEntity
  8
LC-002-002-----0
 62
     7
370
    50
100
AcDbLine
 10
470.659144
 20
2526.950096
 30
0.0
 11
470.763471
 21
2526.950096
 31
0.0
  0
ARC
  5
16A
102
{ACAD_REACTORS
330
5CF
102
}
330
1F
100
AcDbEntity
  8
LC-002-002-----0
 62
     7
370
    50
100
AcDbCircle
 10
469.44384
 20
2528.450096
 30
0.0
 40
1.500000000000002
100
AcDbArc
 50
185.0
 51
270.0
  0
LINE
  5
16B
102
{ACAD_REACTORS
330
5CF
102
}
330
1F
100
AcDbEntity
  8
LC-002-002-----0
 62
     7
370
    50
100
AcDbLine
 10
469.44384
 20
2526.950096
 30
0.0
 11
469.471549
 21
2526.950096
 31
0.0
  0
LINE
  5
16C
102
{ACAD_REACTORS
330
5CF
102
}
330
1F
100
AcDbEntity
  8
LC-002-002-----0
 62
     7
370
    50
100
AcDbLine
 10
470.37838
 20
2526.950096
 30
0.0
 11
470.763471
 21
2526.950096
 31
0.0
  0
LINE
  5
16D
102
{ACAD_REACTORS
330
5CF
102
}
330
1F
100
AcDbEntity
  8
LC-002-002-----0
 62
     7
370
    50
100
AcDbLine
 10
469.608311
 20
2526.950096
 30
0.0
 11
470.37838
 21
2526.950096
 31
0.0
  0
LINE
  5
16E
102
{ACAD_REACTORS
330
5CF
102
}
330
1F
100
AcDbEntity
  8
LC-002-002-----0
 62
     7
370
    50
100
AcDbLine
 10
469.45652
 20
2526.950096
 30
0.0
 11
469.608311
 21
2526.950096
 31
0.0
  0
LINE
  5
16F
102
{ACAD_REACTORS
330
5CF
102
}
330
1F
100
AcDbEntity
  8
LC-002-002-----0
 62
     7
370
    50
100
AcDbLine
 10
467.61665
 20
2532.124407
 30
0.0
 11
467.618213
 21
2532.106539
 31
0.0
  0
LINE
  5
170
102
{ACAD_REACTORS
330
5CF
102
}
330
1F
100
AcDbEntity
  8
LC-002-002-----0
 62
     7
370
    50
100
AcDbLine
 10
467.618213
 20
2532.106539
 30
0.0
 11
467.949548
 21
2528.319362
 31
0.0
  0
LINE
  5
171
102
{ACAD_REACTORS
330
5CF
102
}
330
1F
100
AcDbEntity
  8
LC-002-002-----0
 62
     7
370
    50
100
AcDbLine
 10
1218.224523
 20
2526.950096
 30
0.0
 11
1219.241606
 21
2526.950096
 31
0.0
  0
LINE
  5
172
102
{ACAD_REACTORS
330
5CF
102
}
330
1F
100
AcDbEntity
  8
LC-002-002-----0
 62
     7
370
    50
100
AcDbLine
 10
1223.069343
 20
2533.53546
 30
0.0
 11
1223.069343
 21
2533.332756
 31
0.0
  0
ARC
  5
173
102
{ACAD_REACTORS
330
5CF
102
}
330
1F
100
AcDbEntity
  8
LC-002-002-----0
 62
     7
370
    50
100
AcDbCircle
 10
1224.514426
 20
2531.950096
 30
0.0
 40
2.000000000000201
100
AcDbArc
 50
136.167265
 51
175.000003
  0
ARC
  5
174
102
{ACAD_REACTORS
330
5CF
102
}
330
1F
100
AcDbEntity
  8
LC-002-002-----0
 62
     7
370
    50
100
AcDbCircle
 10
1220.694847
 20
2528.450096
 30
0.0
 40
1.5
100
AcDbArc
 50
270.0
 51
355.0
  0
LINE
  5
175
102
{ACAD_REACTORS
330
5CF
102
}
330
1F
100
AcDbEntity
  8
LC-002-002-----0
 62
     7
370
    50
100
AcDbLine
 10
1219.760307
 20
2526.950096
 30
0.0
 11
1220.694847
 21
2526.950096
 31
0.0
  0
LINE
  5
176
102
{ACAD_REACTORS
330
5CF
102
}
330
1F
100
AcDbEntity
  8
LC-002-002-----0
 62
     7
370
    50
100
AcDbLine
 10
1219.375215
 20
2526.950096
 30
0.0
 11
1219.760307
 21
2526.950096
 31
0.0
  0
LINE
  5
177
102
{ACAD_REACTORS
330
5CF
102
}
330
1F
100
AcDbEntity
  8
LC-002-002-----0
 62
     7
370
    50
100
AcDbLine
 10
1222.522037
 20
2532.124407
 30
0.0
 11
1222.520474
 21
2532.106539
 31
0.0
  0
LINE
  5
178
102
{ACAD_REACTORS
330
5CF
102
}
330
1F
100
AcDbEntity
  8
LC-002-002-----0
 62
     7
370
    50
100
AcDbLine
 10
1222.520474
 20
2532.106539
 30
0.0
 11
1222.189139
 21
2528.319362
 31
0.0
  0
ARC
  5
179
102
{ACAD_REACTORS
330
5CF
102
}
330
1F
100
AcDbEntity
  8
LC-002-002-----0
 62
     7
370
    50
100
AcDbCircle
 10
811.484818
 20
2383.456046
 30
0.0
 40
6.000000000000009
100
AcDbArc
 50
100.039552
 51
105.565219
  0
ARC
  5
17A
102
{ACAD_REACTORS
330
5CF
102
}
330
1F
100
AcDbEntity
  8
LC-002-002-----0
 62
     7
370
    50
100
AcDbCircle
 10
811.484818
 20
2383.456046
 30
0.0
 40
6.000000000000047
100
AcDbArc
 50
105.565219
 51
148.820786
  0
ARC
  5
17B
102
{ACAD_REACTORS
330
5CF
102
}
330
1F
100
AcDbEntity
  8
LC-002-002-----0
 62
     7
370
    50
100
AcDbCircle
 10
811.484818
 20
2383.456046
 30
0.0
 40
6.000000000000178
100
AcDbArc
 50
148.820786
 51
155.0
  0
ARC
  5
17C
102
{ACAD_REACTORS
330
5CF
102
}
330
1F
100
AcDbEntity
  8
LC-002-002-----0
 62
     7
370
    50
100
AcDbCircle
 10
680.980554
 20
2386.895227
 30
0.0
 40
2.999999999999819
100
AcDbArc
 50
262.777778
 51
270.0
  0
ARC
  5
17D
102
{ACAD_REACTORS
330
5CF
102
}
330
1F
100
AcDbEntity
  8
LC-002-002-----0
 62
     7
370
    50
100
AcDbCircle
 10
680.980554
 20
2386.895227
 30
0.0
 40
2.999999999999998
100
AcDbArc
 50
255.555556
 51
262.777778
  0
ARC
  5
17E
102
{ACAD_REACTORS
330
5CF
102
}
330
1F
100
AcDbEntity
  8
LC-002-002-----0
 62
     7
370
    50
100
AcDbCircle
 10
680.980554
 20
2386.895227
 30
0.0
 40
2.999999999999991
100
AcDbArc
 50
248.333333
 51
255.555556
  0
ARC
  5
17F
102
{ACAD_REACTORS
330
5CF
102
}
330
1F
100
AcDbEntity
  8
LC-002-002-----0
 62
     7
370
    50
100
AcDbCircle
 10
680.980554
 20
2386.895227
 30
0.0
 40
2.999999999999996
100
AcDbArc
 50
241.111111
 51
248.333333
  0
ARC
  5
180
102
{ACAD_REACTORS
330
5CF
102
}
330
1F
100
AcDbEntity
  8
LC-002-002-----0
 62
     7
370
    50
100
AcDbCircle
 10
680.980554
 20
2386.895227
 30
0.0
 40
3.000000000000164
100
AcDbArc
 50
233.888889
 51
241.111111
  0
ARC
  5
181
102
{ACAD_REACTORS
330
5CF
102
}
330
1F
100
AcDbEntity
  8
LC-002-002-----0
 62
     7
370
    50
100
AcDbCircle
 10
680.980554
 20
2386.895227
 30
0.0
 40
2.99999999999997
100
AcDbArc
 50
226.666667
 51
233.888889
  0
ARC
  5
182
102
{ACAD_REACTORS
330
5CF
102
}
330
1F
100
AcDbEntity
  8
LC-002-002-----0
 62
     7
370
    50
100
AcDbCircle
 10
680.980554
 20
2386.895227
 30
0.0
 40
2.999999999999907
100
AcDbArc
 50
219.444444
 51
226.666667
  0
ARC
  5
183
102
{ACAD_REACTORS
330
5CF
102
}
330
1F
100
AcDbEntity
  8
LC-002-002-----0
 62
     7
370
    50
100
AcDbCircle
 10
680.980554
 20
2386.895227
 30
0.0
 40
2.999999999999976
100
AcDbArc
 50
212.222222
 51
219.444444
  0
ARC
  5
184
102
{ACAD_REACTORS
330
5CF
102
}
330
1F
100
AcDbEntity
  8
LC-002-002-----0
 62
     7
370
    50
100
AcDbCircle
 10
680.980554
 20
2386.895227
 30
0.0
 40
3.000000000000184
100
AcDbArc
 50
205.0
 51
212.222222
  0
ARC
  5
185
102
{ACAD_REACTORS
330
5CF
102
}
330
1F
100
AcDbEntity
  8
LC-002-002-----0
 62
     7
370
    50
100
AcDbCircle
 10
1018.484818
 20
2328.456046
 30
0.0
 40
5.999999999999885
100
AcDbArc
 50
92.5
 51
155.0
  0
LINE
  5
186
102
{ACAD_REACTORS
330
5CF
102
}
330
1F
100
AcDbEntity
  8
LC-002-002-----0
 62
     7
370
    50
100
AcDbLine
 10
1012.877056
 20
2330.627372
 30
0.0
 11
1013.046971
 21
2330.991756
 31
0.0
  0
LINE
  5
187
102
{ACAD_REACTORS
330
5CF
102
}
330
1F
100
AcDbEntity
  8
LC-002-002-----0
 62
     7
370
    50
100
AcDbLine
 10
805.877056
 20
2385.627372
 30
0.0
 11
806.046971
 21
2385.991756
 31
0.0
  0
ARC
  5
188
102
{ACAD_REACTORS
330
5CF
102
}
330
1F
100
AcDbEntity
  8
LC-002-002-----0
 62
     7
370
    50
100
AcDbCircle
 10
808.346914
 20
2401.180425
 30
0.0
 40
12.00000000000019
100
AcDbArc
 50
280.03983
 51
354.998445
  0
LINE
  5
18A
102
{ACAD_REACTORS
330
5CF
102
}
330
1F
100
AcDbEntity
  8
LC-005-100-D00-0
 62
     7
370
    13
100
AcDbLine
 10
855.252557
 20
2532.855945
 30
0.0
 11
855.252734
 21
2532.853928
 31
0.0
  0
ARC
  5
18B
102
{ACAD_REACTORS
330
5CF
102
}
330
1F
100
AcDbEntity
  8
LC-002-002-----0
 62
     7
370
    50
100
AcDbCircle
 10
675.791772
 20
2401.180425
 30
0.0
 40
12.00000000000004
100
AcDbArc
 50
185.001558
 51
259.96017
  0
ARC
  5
18C
102
{ACAD_REACTORS
330
5CF
102
}
330
1F
100
AcDbEntity
  8
LC-002-002-----0
 62
     7
370
    50
100
AcDbCircle
 10
1171.113778
 20
2361.144741
 30
0.0
 40
20.00000000000005
100
AcDbArc
 50
272.501461
 51
354.999214
  0
ARC
  5
18D
102
{ACAD_REACTORS
330
5CF
102
}
330
1F
100
AcDbEntity
  8
LC-002-002-----0
 62
     7
370
    50
100
AcDbCircle
 10
883.941325
 20
2354.100105
 30
0.0
 40
19.99999999999998
100
AcDbArc
 50
185.000779
 51
260.50817
  0
ARC
  5
18E
102
{ACAD_REACTORS
330
5CF
102
}
330
1F
100
AcDbEntity
  8
LC-002-002-----0
 62
     7
370
    50
100
AcDbCircle
 10
851.362574
 20
2519.950096
 30
0.0
 40
4.999999999999994
100
AcDbArc
 50
5.0
 51
90.0
  0
ARC
  5
18F
102
{ACAD_REACTORS
330
5CF
102
}
330
1F
100
AcDbEntity
  8
LC-002-002-----0
 62
     7
370
    50
100
AcDbCircle
 10
828.776113
 20
2519.950096
 30
0.0
 40
5.0
100
AcDbArc
 50
90.0
 51
175.0
  0
LINE
  5
190
102
{ACAD_REACTORS
330
5CF
102
}
330
1F
100
AcDbEntity
  8
LC-002-002-----0
 62
     7
370
    50
100
AcDbLine
 10
800.620713
 20
2397.996
 30
0.0
 11
802.621515
 21
2398.083357
 31
0.0
  0
ARC
  5
191
102
{ACAD_REACTORS
330
5CF
102
}
330
1F
100
AcDbEntity
  8
LC-002-002-----0
 62
     7
370
    50
100
AcDbCircle
 10
800.673057
 20
2396.797142
 30
0.0
 40
1.199999999999906
100
AcDbArc
 50
92.5
 51
175.0
  0
LINE
  5
192
102
{ACAD_REACTORS
330
5CF
102
}
330
1F
100
AcDbEntity
  8
LC-002-002-----0
 62
     7
370
    50
100
AcDbLine
 10
787.069343
 20
2383.895227
 30
0.0
 11
787.069343
 21
2393.776862
 31
0.0
  0
ARC
  5
193
102
{ACAD_REACTORS
330
5CF
102
}
330
1F
100
AcDbEntity
  8
LC-002-002-----0
 62
     7
370
    50
100
AcDbCircle
 10
803.158133
 20
2386.895227
 30
0.0
 40
3.0
100
AcDbArc
 50
270.0
 51
335.0
  0
ARC
  5
194
102
{ACAD_REACTORS
330
5CF
102
}
330
1F
100
AcDbEntity
  8
LC-002-002-----0
 62
     7
370
    50
100
AcDbCircle
 10
811.484818
 20
2383.456046
 30
0.0
 40
6.000000000000277
100
AcDbArc
 50
100.038359
 51
105.564666
  0
ARC
  5
195
102
{ACAD_REACTORS
330
5CF
102
}
330
1F
100
AcDbEntity
  8
LC-002-002-----0
 62
     7
370
    50
100
AcDbCircle
 10
811.484818
 20
2383.456046
 30
0.0
 40
6.00000000000005
100
AcDbArc
 50
105.564666
 51
148.82065
  0
ARC
  5
196
102
{ACAD_REACTORS
330
5CF
102
}
330
1F
100
AcDbEntity
  8
LC-002-002-----0
 62
     7
370
    50
100
AcDbCircle
 10
835.015453
 20
2510.950096
 30
0.0
 40
5.0
100
AcDbArc
 50
90.0
 51
175.0
  0
LINE
  5
197
102
{ACAD_REACTORS
330
5CF
102
}
330
1F
100
AcDbEntity
  8
LC-002-002-----0
 62
     7
370
    50
100
AcDbLine
 10
1222.145659
 20
2535.450096
 30
0.0
 11
1222.859407
 21
2535.450096
 31
0.0
  0
LINE
  5
198
102
{ACAD_REACTORS
330
5CF
102
}
330
1F
100
AcDbEntity
  8
LC-002-002-----0
 62
     7
370
    50
100
AcDbLine
 10
467.993027
 20
2535.450096
 30
0.0
 11
467.27928
 21
2535.450096
 31
0.0
  0
ARC
  5
199
102
{ACAD_REACTORS
330
5CF
102
}
330
1F
100
AcDbEntity
  8
LC-002-002-----0
 62
     7
370
    50
100
AcDbCircle
 10
845.123233
 20
2510.950096
 30
0.0
 40
4.999999999999954
100
AcDbArc
 50
5.0
 51
90.0
  0
LINE
  5
19A
102
{ACAD_REACTORS
330
5CF
102
}
330
1F
100
AcDbEntity
  8
LC-002-002-----0
 62
     7
370
    50
100
AcDbLine
 10
1223.069343
 20
2535.444583
 30
0.0
 11
1223.069343
 21
2535.376733
 31
0.0
  0
LINE
  5
19B
102
{ACAD_REACTORS
330
5CF
102
}
330
1F
100
AcDbEntity
  8
LC-002-002-----0
 62
     7
370
    50
100
AcDbLine
 10
1207.987092
 20
2526.950096
 30
0.0
 11
1218.194847
 21
2526.950096
 31
0.0
  0
LINE
  5
19C
102
{ACAD_REACTORS
330
5CF
102
}
330
1F
100
AcDbEntity
  8
LC-002-002-----0
 62
     7
370
    50
100
AcDbLine
 10
1219.689139
 20
2528.319362
 30
0.0
 11
1220.15327
 21
2533.624407
 31
0.0
  0
ARC
  5
19D
102
{ACAD_REACTORS
330
5CF
102
}
330
1F
100
AcDbEntity
  8
LC-002-002-----0
 62
     7
370
    50
100
AcDbCircle
 10
879.653869
 20
2328.456046
 30
0.0
 40
6.000000000000142
100
AcDbArc
 50
25.0
 51
80.509438
  0
LINE
  5
19E
102
{ACAD_REACTORS
330
5CF
102
}
330
1F
100
AcDbEntity
  8
LC-002-002-----0
 62
     7
370
    50
100
AcDbLine
 10
885.261631
 20
2330.627372
 30
0.0
 11
885.091716
 21
2330.991756
 31
0.0
  0
ARC
  5
19F
102
{ACAD_REACTORS
330
5CF
102
}
330
1F
100
AcDbEntity
  8
LC-002-002-----0
 62
     7
370
    50
100
AcDbCircle
 10
887.980554
 20
2331.895227
 30
0.0
 40
3.000000000000111
100
AcDbArc
 50
205.0
 51
270.0
  0
LINE
  5
1A0
102
{ACAD_REACTORS
330
5CF
102
}
330
1F
100
AcDbEntity
  8
LC-002-002-----0
 62
     7
370
    50
100
AcDbLine
 10
1219.237154
 20
2526.950096
 30
0.0
 11
1219.370438
 21
2526.950096
 31
0.0
  0
LINE
  5
1A1
102
{ACAD_REACTORS
330
5CF
102
}
330
1F
100
AcDbEntity
  8
LC-002-002-----0
 62
     7
370
    50
100
AcDbLine
 10
904.069343
 20
2328.895227
 30
0.0
 11
904.069343
 21
2338.776862
 31
0.0
  0
LINE
  5
1A2
102
{ACAD_REACTORS
330
5CF
102
}
330
1F
100
AcDbEntity
  8
LC-002-002-----0
 62
     7
370
    50
100
AcDbLine
 10
904.069343
 20
2338.776862
 30
0.0
 11
892.49999
 21
2340.816851
 31
0.0
  0
ARC
  5
1A3
102
{ACAD_REACTORS
330
5CF
102
}
330
1F
100
AcDbEntity
  8
LC-002-002-----0
 62
     7
370
    50
100
AcDbCircle
 10
892.673638
 20
2341.801659
 30
0.0
 40
0.9999999999999906
100
AcDbArc
 50
185.0
 51
260.0
  0
LINE
  5
1A4
102
{ACAD_REACTORS
330
5CF
102
}
330
1F
100
AcDbEntity
  8
LC-002-002-----0
 62
     7
370
    50
100
AcDbLine
 10
891.677444
 20
2341.714503
 30
0.0
 11
891.661064
 21
2341.901729
 31
0.0
  0
LINE
  5
1A5
102
{ACAD_REACTORS
330
5CF
102
}
330
1F
100
AcDbEntity
  8
LC-002-002-----0
 62
     7
370
    50
100
AcDbLine
 10
1219.375215
 20
2526.950096
 30
0.0
 11
1219.708809
 21
2526.950096
 31
0.0
  0
LINE
  5
1A6
102
{ACAD_REACTORS
330
5CF
102
}
330
1F
100
AcDbEntity
  8
LC-002-002-----0
 62
     7
370
    50
100
AcDbLine
 10
1219.708809
 20
2526.950096
 30
0.0
 11
1220.694844
 21
2526.950096
 31
0.0
  0
LINE
  5
1A7
102
{ACAD_REACTORS
330
5CF
102
}
330
1F
100
AcDbEntity
  8
LC-002-002-----0
 62
     7
370
    50
100
AcDbLine
 10
1218.194847
 20
2526.950096
 30
0.0
 11
1219.072117
 21
2526.950096
 31
0.0
  0
LINE
  5
1A8
102
{ACAD_REACTORS
330
5CF
102
}
330
1F
100
AcDbEntity
  8
LC-002-002-----0
 62
     7
370
    50
100
AcDbLine
 10
1219.072117
 20
2526.950096
 30
0.0
 11
1219.375215
 21
2526.950096
 31
0.0
  0
ARC
  5
1A9
102
{ACAD_REACTORS
330
5CF
102
}
330
1F
100
AcDbEntity
  8
LC-002-002-----0
 62
     7
370
    50
100
AcDbCircle
 10
890.46563
 20
2341.797142
 30
0.0
 40
1.199999999999928
100
AcDbArc
 50
5.0
 51
87.5
  0
LINE
  5
1AA
102
{ACAD_REACTORS
330
5CF
102
}
330
1F
100
AcDbEntity
  8
LC-002-002-----0
 62
     7
370
    50
100
AcDbLine
 10
890.517973
 20
2342.996
 30
0.0
 11
889.314455
 21
2343.048546
 31
0.0
  0
ARC
  5
1AB
102
{ACAD_REACTORS
330
5CF
102
}
330
1F
100
AcDbEntity
  8
LC-002-002-----0
 62
     7
370
    50
100
AcDbCircle
 10
486.404019
 20
2538.950096
 30
0.0
 40
4.00000000000004
100
AcDbArc
 50
5.0
 51
90.0
  0
ARC
  5
1AC
102
{ACAD_REACTORS
330
5CF
102
}
330
1F
100
AcDbEntity
  8
LC-002-002-----0
 62
     7
370
    50
100
AcDbCircle
 10
458.356376
 20
2539.950096
 30
0.0
 40
3.0
100
AcDbArc
 50
90.0
 51
176.0
  0
ARC
  5
1AD
102
{ACAD_REACTORS
330
5CF
102
}
330
1F
100
AcDbEntity
  8
LC-002-002-----0
 62
     7
370
    50
100
AcDbCircle
 10
467.27928
 20
2531.450096
 30
0.0
 40
4.0
100
AcDbArc
 50
90.0
 51
93.008498
  0
ARC
  5
1AE
102
{ACAD_REACTORS
330
5CF
102
}
330
1F
100
AcDbEntity
  8
LC-002-002-----0
 62
     7
370
    50
100
AcDbCircle
 10
467.993027
 20
2533.450096
 30
0.0
 40
1.999999999999907
100
AcDbArc
 50
5.0
 51
90.0
  0
ARC
  5
1AF
102
{ACAD_REACTORS
330
5CF
102
}
330
1F
100
AcDbEntity
  8
LC-002-002-----0
 62
     7
370
    50
100
AcDbCircle
 10
471.94384
 20
2528.450096
 30
0.0
 40
1.500000000000007
100
AcDbArc
 50
185.0
 51
270.0
  0
ARC
  5
1B0
102
{ACAD_REACTORS
330
5CF
102
}
330
1F
100
AcDbEntity
  8
LC-002-002-----0
 62
     7
370
    50
100
AcDbCircle
 10
482.806679
 20
2523.950096
 30
0.0
 40
2.999999999999997
100
AcDbArc
 50
27.213275
 51
90.0
  0
ARC
  5
1B1
102
{ACAD_REACTORS
330
5CF
102
}
330
1F
100
AcDbEntity
  8
LC-002-002-----0
 62
     7
370
    50
100
AcDbCircle
 10
496.146336
 20
2530.809656
 30
0.0
 40
11.99999999999999
100
AcDbArc
 50
207.213275
 51
269.0
  0
ARC
  5
1B2
102
{ACAD_REACTORS
330
5CF
102
}
330
1F
100
AcDbEntity
  8
LC-002-002-----0
 62
     7
370
    50
100
AcDbCircle
 10
649.10687
 20
2511.13713
 30
0.0
 40
4.999999999999994
100
AcDbArc
 50
5.0
 51
89.0
  0
ARC
  5
1B3
102
{ACAD_REACTORS
330
5CF
102
}
330
1F
100
AcDbEntity
  8
LC-002-002-----0
 62
     7
370
    50
100
AcDbCircle
 10
672.653869
 20
2383.456046
 30
0.0
 40
6.000000000000072
100
AcDbArc
 50
25.0
 51
79.961641
  0
LINE
  5
1B4
102
{ACAD_REACTORS
330
5CF
102
}
330
1F
100
AcDbEntity
  8
LC-002-002-----0
 62
     7
370
    50
100
AcDbLine
 10
678.261631
 20
2385.627372
 30
0.0
 11
678.091716
 21
2385.991756
 31
0.0
  0
LINE
  5
1B5
102
{ACAD_REACTORS
330
5CF
102
}
330
1F
100
AcDbEntity
  8
LC-002-002-----0
 62
     7
370
    50
100
AcDbLine
 10
697.069343
 20
2383.895227
 30
0.0
 11
697.069343
 21
2393.776862
 31
0.0
  0
LINE
  5
1B6
102
{ACAD_REACTORS
330
5CF
102
}
330
1F
100
AcDbEntity
  8
LC-002-002-----0
 62
     7
370
    50
100
AcDbLine
 10
697.069343
 20
2393.776862
 30
0.0
 11
685.49999
 21
2395.816851
 31
0.0
  0
ARC
  5
1B7
102
{ACAD_REACTORS
330
5CF
102
}
330
1F
100
AcDbEntity
  8
LC-002-002-----0
 62
     7
370
    50
100
AcDbCircle
 10
685.673638
 20
2396.801659
 30
0.0
 40
0.9999999999999906
100
AcDbArc
 50
185.0
 51
260.0
  0
LINE
  5
1B8
102
{ACAD_REACTORS
330
5CF
102
}
330
1F
100
AcDbEntity
  8
LC-002-002-----0
 62
     7
370
    50
100
AcDbLine
 10
684.677444
 20
2396.714503
 30
0.0
 11
684.661064
 21
2396.901729
 31
0.0
  0
LINE
  5
1B9
102
{ACAD_REACTORS
330
5CF
102
}
330
1F
100
AcDbEntity
  8
LC-002-002-----0
 62
     7
370
    50
100
AcDbLine
 10
1223.069343
 20
2534.423634
 30
0.0
 11
1223.069343
 21
2533.53546
 31
0.0
  0
LINE
  5
1BA
102
{ACAD_REACTORS
330
5CF
102
}
330
1F
100
AcDbEntity
  8
LC-002-002-----0
 62
     7
370
    50
100
AcDbLine
 10
1223.069343
 20
2535.376733
 30
0.0
 11
1223.069343
 21
2534.423634
 31
0.0
  0
ARC
  5
1BB
102
{ACAD_REACTORS
330
5CF
102
}
330
1F
100
AcDbEntity
  8
LC-002-002-----0
 62
     7
370
    50
100
AcDbCircle
 10
683.46563
 20
2396.797142
 30
0.0
 40
1.199999999999961
100
AcDbArc
 50
5.0
 51
87.5
  0
LINE
  5
1BC
102
{ACAD_REACTORS
330
5CF
102
}
330
1F
100
AcDbEntity
  8
LC-002-002-----0
 62
     7
370
    50
100
AcDbLine
 10
683.517973
 20
2397.996
 30
0.0
 11
681.517172
 21
2398.083357
 31
0.0
  0
ARC
  5
1BD
102
{ACAD_REACTORS
330
5CF
102
}
330
1F
100
AcDbEntity
  8
LC-002-002-----0
 62
     7
370
    50
100
AcDbCircle
 10
655.355633
 20
2520.029429
 30
0.0
 40
5.000000000000034
100
AcDbArc
 50
5.0
 51
89.0
  0
ARC
  5
1BE
102
{ACAD_REACTORS
330
5CF
102
}
330
1F
100
AcDbEntity
  8
LC-002-002-----0
 62
     7
370
    50
100
AcDbCircle
 10
495.057609
 20
2531.828812
 30
0.0
 40
4.00000000000004
100
AcDbArc
 50
185.0
 51
269.0
  0
LINE
  5
1BF
102
{ACAD_REACTORS
330
5CF
102
}
330
1F
100
AcDbEntity
  8
LC-002-002-----0
 62
     7
370
    50
100
AcDbLine
 10
1007.620713
 20
2342.996
 30
0.0
 11
1165.723653
 21
2349.898923
 31
0.0
  0
ARC
  5
1C0
102
{ACAD_REACTORS
330
5CF
102
}
330
1F
100
AcDbEntity
  8
LC-002-002-----0
 62
     7
370
    50
100
AcDbCircle
 10
1007.673057
 20
2341.797142
 30
0.0
 40
1.199999999999795
100
AcDbArc
 50
92.5
 51
175.0
  0
LINE
  5
1C1
102
{ACAD_REACTORS
330
5CF
102
}
330
1F
100
AcDbEntity
  8
LC-002-002-----0
 62
     7
370
    50
100
AcDbLine
 10
994.069343
 20
2328.895227
 30
0.0
 11
994.069343
 21
2338.776862
 31
0.0
  0
ARC
  5
1C2
102
{ACAD_REACTORS
330
5CF
102
}
330
1F
100
AcDbEntity
  8
LC-002-002-----0
 62
     7
370
    50
100
AcDbCircle
 10
1010.158133
 20
2331.895227
 30
0.0
 40
3.0
100
AcDbArc
 50
270.0
 51
335.0
  0
LINE
  5
1C3
102
{ACAD_REACTORS
330
5CF
102
}
330
1F
100
AcDbEntity
  8
LC-002-002-----0
 62
     7
370
    50
100
AcDbLine
 10
467.069343
 20
2535.376734
 30
0.0
 11
467.069343
 21
2535.444583
 31
0.0
  0
LINE
  5
1C4
102
{ACAD_REACTORS
330
5CF
102
}
330
1F
100
AcDbEntity
  8
LC-002-002-----0
 62
     7
370
    50
100
AcDbLine
 10
471.94384
 20
2526.950096
 30
0.0
 11
482.806679
 21
2526.950096
 31
0.0
  0
LINE
  5
1C5
102
{ACAD_REACTORS
330
5CF
102
}
330
1F
100
AcDbEntity
  8
LC-002-002-----0
 62
     7
370
    50
100
AcDbLine
 10
470.449548
 20
2528.319362
 30
0.0
 11
469.985417
 21
2533.624407
 31
0.0
  0
LINE
  5
1C6
102
{ACAD_REACTORS
330
5CF
102
}
330
1F
100
AcDbEntity
  8
LC-002-002-----0
 62
     7
370
    50
100
AcDbLine
 10
1018.223101
 20
2334.450336
 30
0.0
 11
1171.986166
 21
2341.163776
 31
0.0
  0
ARC
  5
1C7
102
{ACAD_REACTORS
330
5CF
102
}
330
1F
100
AcDbEntity
  8
LC-002-002-----0
 62
     7
370
    50
100
AcDbCircle
 10
1207.987092
 20
2524.450096
 30
0.0
 40
2.5
100
AcDbArc
 50
90.0
 51
175.0
  0
ARC
  5
1C8
102
{ACAD_REACTORS
330
5CF
102
}
330
1F
100
AcDbEntity
  8
LC-002-002-----0
 62
     7
370
    50
100
AcDbCircle
 10
1218.194847
 20
2528.450096
 30
0.0
 40
1.5
100
AcDbArc
 50
270.0
 51
355.0
  0
LINE
  5
1C9
102
{ACAD_REACTORS
330
5CF
102
}
330
1F
100
AcDbEntity
  8
LC-002-002-----0
 62
     7
370
    50
100
AcDbLine
 10
470.763471
 20
2526.950096
 30
0.0
 11
471.066609
 21
2526.950096
 31
0.0
  0
LINE
  5
1CA
102
{ACAD_REACTORS
330
5CF
102
}
330
1F
100
AcDbEntity
  8
LC-002-002-----0
 62
     7
370
    50
100
AcDbLine
 10
471.066609
 20
2526.950096
 30
0.0
 11
471.94384
 21
2526.950096
 31
0.0
  0
ARC
  5
1CB
102
{ACAD_REACTORS
330
5CF
102
}
330
1F
100
AcDbEntity
  8
LC-002-002-----0
 62
     7
370
    50
100
AcDbCircle
 10
1222.145659
 20
2533.450096
 30
0.0
 40
2.0
100
AcDbArc
 50
90.0
 51
175.0
  0
ARC
  5
1CC
102
{ACAD_REACTORS
330
5CF
102
}
330
1F
100
AcDbEntity
  8
LC-002-002-----0
 62
     7
370
    50
100
AcDbCircle
 10
1222.859407
 20
2531.450096
 30
0.0
 40
4.00000000000001
100
AcDbArc
 50
86.991502
 51
90.0
  0
ARC
  5
1CD
102
{ACAD_REACTORS
330
5CF
102
}
330
1F
100
AcDbEntity
  8
LC-002-002-----0
 62
     7
370
    50
100
AcDbCircle
 10
1231.78231
 20
2539.950096
 30
0.0
 40
3.000000000000006
100
AcDbArc
 50
4.0
 51
90.0
  0
ARC
  5
1CE
102
{ACAD_REACTORS
330
5CF
102
}
330
1F
100
AcDbEntity
  8
LC-002-002-----0
 62
     7
370
    50
100
AcDbCircle
 10
1203.734668
 20
2538.950096
 30
0.0
 40
4.0
100
AcDbArc
 50
90.0
 51
175.0
  0
LINE
  5
1CF
102
{ACAD_REACTORS
330
5CF
102
}
330
1F
100
AcDbEntity
  8
LC-002-002-----0
 62
     7
370
    50
100
AcDbLine
 10
470.768247
 20
2526.950096
 30
0.0
 11
470.901531
 21
2526.950096
 31
0.0
  0
LINE
  5
1D0
102
{ACAD_REACTORS
330
5CF
102
}
330
1F
100
AcDbEntity
  8
LC-002-002-----0
 62
     7
370
    50
100
AcDbLine
 10
467.069343
 20
2534.42364
 30
0.0
 11
467.069343
 21
2535.376734
 31
0.0
  0
LINE
  5
1D1
102
{ACAD_REACTORS
330
5CF
102
}
330
1F
100
AcDbEntity
  8
LC-002-002-----0
 62
     7
370
    50
100
AcDbLine
 10
467.069343
 20
2533.53546
 30
0.0
 11
467.069343
 21
2534.42364
 31
0.0
  0
LINE
  5
1D2
102
{ACAD_REACTORS
330
5CF
102
}
330
1F
100
AcDbEntity
  8
LC-002-002-----0
 62
     7
370
    50
100
AcDbLine
 10
467.069343
 20
2533.332756
 30
0.0
 11
467.069343
 21
2533.53546
 31
0.0
  0
LINE
  5
1D3
102
{ACAD_REACTORS
330
5CF
102
}
330
1F
100
AcDbEntity
  8
LC-002-002-----0
 62
     7
370
    50
100
AcDbLine
 10
467.069343
 20
2535.444583
 30
0.0
 11
467.069343
 21
2535.950096
 31
0.0
  0
LINE
  5
1D4
102
{ACAD_REACTORS
330
5CF
102
}
330
1F
100
AcDbEntity
  8
LC-002-002-----0
 62
     7
370
    50
100
AcDbLine
 10
1223.069343
 20
2535.950096
 30
0.0
 11
1235.069343
 21
2535.950096
 31
0.0
  0
LINE
  5
1D5
102
{ACAD_REACTORS
330
5CF
102
}
330
1F
100
AcDbEntity
  8
LC-002-002-----0
 62
     7
370
    50
100
AcDbLine
 10
455.069343
 20
2535.950096
 30
0.0
 11
467.069343
 21
2535.950096
 31
0.0
  0
LINE
  5
1D6
102
{ACAD_REACTORS
330
5CF
102
}
330
1F
100
AcDbEntity
  8
LC-002-002-----0
 62
     7
370
    50
100
AcDbLine
 10
1223.069343
 20
2535.444583
 30
0.0
 11
1223.069343
 21
2535.950096
 31
0.0
  0
LINE
  5
1D7
102
{ACAD_REACTORS
330
5CF
102
}
330
1F
100
AcDbEntity
  8
LC-002-002-----0
 62
     7
370
    50
100
AcDbLine
 10
799.461243
 20
2396.714503
 30
0.0
 11
799.477623
 21
2396.901729
 31
0.0
  0
ARC
  5
1D8
102
{ACAD_REACTORS
330
5CF
102
}
330
1F
100
AcDbEntity
  8
LC-002-002-----0
 62
     7
370
    50
100
AcDbCircle
 10
798.465048
 20
2396.801659
 30
0.0
 40
1.000000000000324
100
AcDbArc
 50
280.0
 51
355.0
  0
LINE
  5
1D9
102
{ACAD_REACTORS
330
5CF
102
}
330
1F
100
AcDbEntity
  8
LC-002-002-----0
 62
     7
370
    50
100
AcDbLine
 10
787.069343
 20
2393.776862
 30
0.0
 11
798.638696
 21
2395.816851
 31
0.0
  0
LINE
  5
1DA
102
{ACAD_REACTORS
330
5CF
102
}
330
1F
100
AcDbEntity
  8
LC-002-002-----0
 62
     7
370
    50
100
AcDbLine
 10
1006.461243
 20
2341.714503
 30
0.0
 11
1006.477623
 21
2341.901729
 31
0.0
  0
ARC
  5
1DB
102
{ACAD_REACTORS
330
5CF
102
}
330
1F
100
AcDbEntity
  8
LC-002-002-----0
 62
     7
370
    50
100
AcDbCircle
 10
1005.465048
 20
2341.801659
 30
0.0
 40
1.000000000000343
100
AcDbArc
 50
280.0
 51
355.0
  0
LINE
  5
1DC
102
{ACAD_REACTORS
330
5CF
102
}
330
1F
100
AcDbEntity
  8
LC-002-002-----0
 62
     7
370
    50
100
AcDbLine
 10
994.069343
 20
2338.776862
 30
0.0
 11
1005.638696
 21
2340.816851
 31
0.0
  0
LINE
  5
1DD
102
{ACAD_REACTORS
330
5D4
102
}
330
1F
100
AcDbEntity
  8
LC-002-002-----0
 62
     7
370
    50
100
AcDbLine
 10
648.159343
 20
2497.950096
 30
0.0
 11
648.159343
 21
2297.950096
 31
0.0
  0
LINE
  5
1DE
102
{ACAD_REACTORS
330
5D4
102
}
330
1F
100
AcDbEntity
  8
LC-002-002-----0
 62
     7
370
    50
100
AcDbLine
 10
629.159343
 20
2297.950096
 30
0.0
 11
629.159343
 21
2497.950096
 31
0.0
  0
LINE
  5
1DF
102
{ACAD_REACTORS
330
5D4
102
}
330
1F
100
AcDbEntity
  8
LC-002-002-----0
 62
     7
370
    50
100
AcDbLine
 10
629.159343
 20
2497.950096
 30
0.0
 11
648.159343
 21
2497.950096
 31
0.0
  0
LINE
  5
1E0
102
{ACAD_REACTORS
330
5D4
102
}
330
1F
100
AcDbEntity
  8
LC-002-002-----0
 62
     7
370
    50
100
AcDbLine
 10
1229.159343
 20
2497.950096
 30
0.0
 11
1210.159343
 21
2497.950096
 31
0.0
  0
LINE
  5
1E1
102
{ACAD_REACTORS
330
5D4
102
}
330
1F
100
AcDbEntity
  8
LC-002-002-----0
 62
     7
370
    50
100
AcDbLine
 10
1229.159343
 20
2297.950096
 30
0.0
 11
1229.159343
 21
2497.950096
 31
0.0
  0
LINE
  5
1E2
102
{ACAD_REACTORS
330
5D4
102
}
330
1F
100
AcDbEntity
  8
LC-002-002-----0
 62
     7
370
    50
100
AcDbLine
 10
1210.159343
 20
2497.950096
 30
0.0
 11
1210.159343
 21
2297.950096
 31
0.0
  0
LINE
  5
1E3
102
{ACAD_REACTORS
330
5CF
102
}
330
1F
100
AcDbEntity
  8
LC-002-002-----0
 62
     7
370
    50
100
AcDbLine
 10
471.94384
 20
2542.950096
 30
0.0
 11
476.94384
 21
2542.950096
 31
0.0
  0
LINE
  5
1E4
102
{ACAD_REACTORS
330
5CF
102
}
330
1F
100
AcDbEntity
  8
LC-002-002-----0
 62
     7
370
    50
100
AcDbLine
 10
850.487687
 20
2534.950096
 30
0.0
 11
490.769253
 21
2534.950096
 31
0.0
  0
LINE
  5
1E5
102
{ACAD_REACTORS
330
5D9
102
}
330
1F
100
AcDbEntity
  8
LC-002-002-----0
 62
     7
370
    50
100
AcDbLine
 10
1759.984286
 20
1410.595161
 30
0.0
 11
1759.984286
 21
1438.642804
 31
0.0
  0
LINE
  5
1E6
102
{ACAD_REACTORS
330
5D9
102
}
330
1F
100
AcDbEntity
  8
LC-002-002-----0
 62
     7
370
    50
100
AcDbLine
 10
1759.984286
 20
1875.973453
 30
0.0
 11
1759.984286
 21
1904.021096
 31
0.0
  0
LINE
  5
1E7
102
{ACAD_REACTORS
330
5D9
102
}
330
1F
100
AcDbEntity
  8
LC-002-002-----0
 62
     7
370
    50
100
AcDbLine
 10
1752.984286
 20
1407.308128
 30
0.0
 11
1757.193556
 21
1407.602469
 31
0.0
  0
LINE
  5
1E8
102
{ACAD_REACTORS
330
5D9
102
}
330
1F
100
AcDbEntity
  8
LC-002-002-----0
 62
     7
370
    50
100
AcDbLine
 10
1752.984286
 20
1907.308128
 30
0.0
 11
1757.193556
 21
1907.013788
 31
0.0
  0
ARC
  5
1E9
102
{ACAD_REACTORS
330
5D9
102
}
330
1F
100
AcDbEntity
  8
LC-002-002-----0
 62
     7
370
    50
100
AcDbCircle
 10
1585.336257
 20
1836.952009
 30
0.0
 40
19.99999999999998
100
AcDbArc
 50
95.0
 51
177.5
  0
ARC
  5
1EA
102
{ACAD_REACTORS
330
5D9
102
}
330
1F
100
AcDbEntity
  8
LC-002-002-----0
 62
     7
370
    50
100
AcDbCircle
 10
1585.336257
 20
1477.664248
 30
0.0
 40
19.99999999999979
100
AcDbArc
 50
182.5
 51
265.0
  0
LINE
  5
1EB
102
{ACAD_REACTORS
330
5D9
102
}
330
1F
100
AcDbEntity
  8
LC-002-002-----0
 62
     7
370
    50
100
AcDbLine
 10
1759.984286
 20
1452.307172
 30
0.0
 11
1759.984286
 21
1452.948344
 31
0.0
  0
LINE
  5
1EC
102
{ACAD_REACTORS
330
5D9
102
}
330
1F
100
AcDbEntity
  8
LC-002-002-----0
 62
     7
370
    50
100
AcDbLine
 10
1759.984286
 20
1438.642804
 30
0.0
 11
1759.984286
 21
1875.973453
 31
0.0
  0
LINE
  5
1ED
102
{ACAD_REACTORS
330
5D9
102
}
330
1F
100
AcDbEntity
  8
LC-002-002-----0
 62
     7
370
    50
100
AcDbLine
 10
1759.984286
 20
1861.667913
 30
0.0
 11
1759.984286
 21
1862.309086
 31
0.0
  0
LINE
  5
1EE
102
{ACAD_REACTORS
330
5D9
102
}
330
1F
100
AcDbEntity
  8
LC-002-002-----0
 62
     7
370
    50
100
AcDbLine
 10
1545.929417
 20
1596.219339
 30
0.0
 11
1545.929417
 21
1612.308128
 31
0.0
  0
LINE
  5
1EF
102
{ACAD_REACTORS
330
5D9
102
}
330
1F
100
AcDbEntity
  8
LC-002-002-----0
 62
     7
370
    50
100
AcDbLine
 10
1545.929417
 20
1718.396918
 30
0.0
 11
1545.929417
 21
1702.308128
 31
0.0
  0
LINE
  5
1F0
102
{ACAD_REACTORS
330
5D9
102
}
330
1F
100
AcDbEntity
  8
LC-002-002-----0
 62
     7
370
    50
100
AcDbLine
 10
1545.929417
 20
1702.308128
 30
0.0
 11
1545.929417
 21
1657.308128
 31
0.0
  0
LINE
  5
1F1
102
{ACAD_REACTORS
330
5D9
102
}
330
1F
100
AcDbEntity
  8
LC-002-002-----0
 62
     7
370
    50
100
AcDbLine
 10
1545.929417
 20
1657.308128
 30
0.0
 11
1545.929417
 21
1612.308128
 31
0.0
  0
LINE
  5
1F2
102
{ACAD_REACTORS
330
5D9
102
}
330
1F
100
AcDbEntity
  8
LC-002-002-----0
 62
     7
370
    50
100
AcDbLine
 10
1746.420065
 20
1878.148152
 30
0.0
 11
1574.857995
 21
1863.138416
 31
0.0
  0
LINE
  5
1F3
102
{ACAD_REACTORS
330
5D9
102
}
330
1F
100
AcDbEntity
  8
LC-002-002-----0
 62
     7
370
    50
100
AcDbLine
 10
1746.420065
 20
1436.468105
 30
0.0
 11
1574.857995
 21
1451.477841
 31
0.0
  0
ARC
  5
1F4
102
{ACAD_REACTORS
330
5D9
102
}
330
1F
100
AcDbEntity
  8
LC-002-002-----0
 62
     7
370
    50
100
AcDbCircle
 10
1548.929417
 20
1596.219339
 30
0.0
 40
3.0
100
AcDbArc
 50
180.0
 51
245.0
  0
LINE
  5
1F5
102
{ACAD_REACTORS
330
5D9
102
}
330
1F
100
AcDbEntity
  8
LC-002-002-----0
 62
     7
370
    50
100
AcDbLine
 10
1547.661563
 20
1593.500416
 30
0.0
 11
1548.025947
 21
1593.330501
 31
0.0
  0
ARC
  5
1F6
102
{ACAD_REACTORS
330
5D9
102
}
330
1F
100
AcDbEntity
  8
LC-002-002-----0
 62
     7
370
    50
100
AcDbCircle
 10
1576.60111
 20
1843.214522
 30
0.0
 40
19.99999999999998
100
AcDbArc
 50
95.0
 51
177.5
  0
ARC
  5
1F7
102
{ACAD_REACTORS
330
5D9
102
}
330
1F
100
AcDbEntity
  8
LC-002-002-----0
 62
     7
370
    50
100
AcDbCircle
 10
1576.60111
 20
1471.401735
 30
0.0
 40
19.99999999999996
100
AcDbArc
 50
182.5
 51
265.0
  0
LINE
  5
1F8
102
{ACAD_REACTORS
330
5D9
102
}
330
1F
100
AcDbEntity
  8
LC-002-002-----0
 62
     7
370
    50
100
AcDbLine
 10
1560.03019
 20
1598.756758
 30
0.0
 11
1565.355293
 21
1476.79186
 31
0.0
  0
LINE
  5
1F9
102
{ACAD_REACTORS
330
5D9
102
}
330
1F
100
AcDbEntity
  8
LC-002-002-----0
 62
     7
370
    50
100
AcDbLine
 10
1555.811052
 20
1612.308128
 30
0.0
 11
1545.929417
 21
1612.308128
 31
0.0
  0
ARC
  5
1FA
102
{ACAD_REACTORS
330
5D9
102
}
330
1F
100
AcDbEntity
  8
LC-002-002-----0
 62
     7
370
    50
100
AcDbCircle
 10
1545.490237
 20
1587.892654
 30
0.0
 40
5.999999999999896
100
AcDbArc
 50
2.5
 51
65.0
  0
LINE
  5
1FB
102
{ACAD_REACTORS
330
5D9
102
}
330
1F
100
AcDbEntity
  8
LC-002-002-----0
 62
     7
370
    50
100
AcDbLine
 10
1551.484526
 20
1588.154371
 30
0.0
 11
1556.620146
 21
1470.529348
 31
0.0
  0
ARC
  5
1FC
102
{ACAD_REACTORS
330
5D9
102
}
330
1F
100
AcDbEntity
  8
LC-002-002-----0
 62
     7
370
    50
100
AcDbCircle
 10
1745.984286
 20
1431.487132
 30
0.0
 40
5.0
100
AcDbArc
 50
0.0
 51
85.0
  0
ARC
  5
1FD
102
{ACAD_REACTORS
330
5D9
102
}
330
1F
100
AcDbEntity
  8
LC-002-002-----0
 62
     7
370
    50
100
AcDbCircle
 10
1756.984286
 20
1410.595161
 30
0.0
 40
3.000000000000006
100
AcDbArc
 50
274.0
 51
0.0
  0
ARC
  5
1FE
102
{ACAD_REACTORS
330
5D9
102
}
330
1F
100
AcDbEntity
  8
LC-002-002-----0
 62
     7
370
    50
100
AcDbCircle
 10
1755.984286
 20
1438.642804
 30
0.0
 40
4.0
100
AcDbArc
 50
0.0
 51
85.0
  0
ARC
  5
1FF
102
{ACAD_REACTORS
330
5D9
102
}
330
1F
100
AcDbEntity
  8
LC-002-002-----0
 62
     7
370
    50
100
AcDbCircle
 10
1755.984286
 20
1875.973453
 30
0.0
 40
4.00000000000004
100
AcDbArc
 50
275.0
 51
0.0
  0
ARC
  5
200
102
{ACAD_REACTORS
330
5D9
102
}
330
1F
100
AcDbEntity
  8
LC-002-002-----0
 62
     7
370
    50
100
AcDbCircle
 10
1756.984286
 20
1904.021096
 30
0.0
 40
3.0
100
AcDbArc
 50
0.0
 51
86.0
  0
ARC
  5
201
102
{ACAD_REACTORS
330
5D9
102
}
330
1F
100
AcDbEntity
  8
LC-002-002-----0
 62
     7
370
    50
100
AcDbCircle
 10
1745.984286
 20
1883.129125
 30
0.0
 40
4.99999999999988
100
AcDbArc
 50
275.0
 51
0.0
  0
LINE
  5
202
102
{ACAD_REACTORS
330
5D9
102
}
330
1F
100
AcDbEntity
  8
LC-002-002-----0
 62
     7
370
    50
100
AcDbLine
 10
1551.484526
 20
1726.461886
 30
0.0
 11
1556.620146
 21
1844.086909
 31
0.0
  0
ARC
  5
203
102
{ACAD_REACTORS
330
5D9
102
}
330
1F
100
AcDbEntity
  8
LC-002-002-----0
 62
     7
370
    50
100
AcDbCircle
 10
1545.490237
 20
1726.723603
 30
0.0
 40
5.999999999999779
100
AcDbArc
 50
295.0
 51
357.5
  0
LINE
  5
204
102
{ACAD_REACTORS
330
5D9
102
}
330
1F
100
AcDbEntity
  8
LC-002-002-----0
 62
     7
370
    50
100
AcDbLine
 10
1547.661563
 20
1721.115841
 30
0.0
 11
1548.025947
 21
1721.285756
 31
0.0
  0
ARC
  5
205
102
{ACAD_REACTORS
330
5D9
102
}
330
1F
100
AcDbEntity
  8
LC-002-002-----0
 62
     7
370
    50
100
AcDbCircle
 10
1548.929417
 20
1718.396918
 30
0.0
 40
2.999999999999993
100
AcDbArc
 50
115.0
 51
180.0
  0
LINE
  5
206
102
{ACAD_REACTORS
330
5D9
102
}
330
1F
100
AcDbEntity
  8
LC-002-002-----0
 62
     7
370
    50
100
AcDbLine
 10
1555.811052
 20
1702.308128
 30
0.0
 11
1545.929417
 21
1702.308128
 31
0.0
  0
LINE
  5
207
102
{ACAD_REACTORS
330
5D9
102
}
330
1F
100
AcDbEntity
  8
LC-002-002-----0
 62
     7
370
    50
100
AcDbLine
 10
1555.811052
 20
1702.308128
 30
0.0
 11
1557.851041
 21
1713.877482
 31
0.0
  0
ARC
  5
208
102
{ACAD_REACTORS
330
5D9
102
}
330
1F
100
AcDbEntity
  8
LC-002-002-----0
 62
     7
370
    50
100
AcDbCircle
 10
1558.835849
 20
1713.703833
 30
0.0
 40
1.000000000000067
100
AcDbArc
 50
95.0
 51
170.0
  0
LINE
  5
209
102
{ACAD_REACTORS
330
5D9
102
}
330
1F
100
AcDbEntity
  8
LC-002-002-----0
 62
     7
370
    50
100
AcDbLine
 10
1558.748693
 20
1714.700028
 30
0.0
 11
1558.935919
 21
1714.716408
 31
0.0
  0
ARC
  5
20A
102
{ACAD_REACTORS
330
5D9
102
}
330
1F
100
AcDbEntity
  8
LC-002-002-----0
 62
     7
370
    50
100
AcDbCircle
 10
1558.831332
 20
1715.911842
 30
0.0
 40
1.199999999999929
100
AcDbArc
 50
275.0
 51
357.5
  0
LINE
  5
20B
102
{ACAD_REACTORS
330
5D9
102
}
330
1F
100
AcDbEntity
  8
LC-002-002-----0
 62
     7
370
    50
100
AcDbLine
 10
1560.03019
 20
1715.859499
 30
0.0
 11
1565.355293
 21
1837.824397
 31
0.0
  0
LINE
  5
20C
102
{ACAD_REACTORS
330
5D9
102
}
330
1F
100
AcDbEntity
  8
LC-002-002-----0
 62
     7
370
    50
100
AcDbLine
 10
1750.984286
 20
1883.129125
 30
0.0
 11
1750.984286
 21
1895.308128
 31
0.0
  0
LINE
  5
20D
102
{ACAD_REACTORS
330
5D9
102
}
330
1F
100
AcDbEntity
  8
LC-002-002-----0
 62
     7
370
    50
100
AcDbLine
 10
1750.984286
 20
1419.308128
 30
0.0
 11
1750.984286
 21
1431.487132
 31
0.0
  0
LINE
  5
20E
102
{ACAD_REACTORS
330
5D9
102
}
330
1F
100
AcDbEntity
  8
LC-002-002-----0
 62
     7
370
    50
100
AcDbLine
 10
1756.332909
 20
1871.988674
 30
0.0
 11
1583.593142
 21
1856.875903
 31
0.0
  0
LINE
  5
20F
102
{ACAD_REACTORS
330
5D9
102
}
330
1F
100
AcDbEntity
  8
LC-002-002-----0
 62
     7
370
    50
100
AcDbLine
 10
1756.332909
 20
1442.627583
 30
0.0
 11
1583.593142
 21
1457.740354
 31
0.0
  0
LINE
  5
210
102
{ACAD_REACTORS
330
5D9
102
}
330
1F
100
AcDbEntity
  8
LC-002-002-----0
 62
     7
370
    50
100
AcDbLine
 10
1752.984286
 20
1419.308128
 30
0.0
 11
1750.984286
 21
1419.308128
 31
0.0
  0
LINE
  5
211
102
{ACAD_REACTORS
330
5D9
102
}
330
1F
100
AcDbEntity
  8
LC-002-002-----0
 62
     7
370
    50
100
AcDbLine
 10
1752.984286
 20
1895.308128
 30
0.0
 11
1750.984286
 21
1895.308128
 31
0.0
  0
LINE
  5
212
102
{ACAD_REACTORS
330
5D9
102
}
330
1F
100
AcDbEntity
  8
LC-002-002-----0
 62
     7
370
    50
100
AcDbLine
 10
1752.984286
 20
1907.308128
 30
0.0
 11
1752.984286
 21
1895.308128
 31
0.0
  0
LINE
  5
213
102
{ACAD_REACTORS
330
5D9
102
}
330
1F
100
AcDbEntity
  8
LC-002-002-----0
 62
     7
370
    50
100
AcDbLine
 10
1752.984286
 20
1419.308128
 30
0.0
 11
1752.984286
 21
1407.308128
 31
0.0
  0
ARC
  5
214
102
{ACAD_REACTORS
330
5D9
102
}
330
1F
100
AcDbEntity
  8
LC-002-002-----0
 62
     7
370
    50
100
AcDbCircle
 10
1558.831332
 20
1598.704415
 30
0.0
 40
1.199999999999703
100
AcDbArc
 50
2.5
 51
85.0
  0
LINE
  5
215
102
{ACAD_REACTORS
330
5D9
102
}
330
1F
100
AcDbEntity
  8
LC-002-002-----0
 62
     7
370
    50
100
AcDbLine
 10
1558.748693
 20
1599.916229
 30
0.0
 11
1558.935919
 21
1599.899849
 31
0.0
  0
ARC
  5
216
102
{ACAD_REACTORS
330
5D9
102
}
330
1F
100
AcDbEntity
  8
LC-002-002-----0
 62
     7
370
    50
100
AcDbCircle
 10
1558.835849
 20
1600.912424
 30
0.0
 40
1.000000000000085
100
AcDbArc
 50
190.0
 51
265.0
  0
LINE
  5
217
102
{ACAD_REACTORS
330
5D9
102
}
330
1F
100
AcDbEntity
  8
LC-002-002-----0
 62
     7
370
    50
100
AcDbLine
 10
1555.811052
 20
1612.308128
 30
0.0
 11
1557.851041
 21
1600.738775
 31
0.0
  0
LINE
  5
218
102
{ACAD_REACTORS
330
5D5
102
}
330
1F
100
AcDbEntity
  8
LC-002-002-----0
 62
     7
370
    25
100
AcDbLine
 10
1752.012772
 20
1512.088044
 30
0.0
 11
1752.698911
 21
1446.568973
 31
0.0
  0
LINE
  5
219
102
{ACAD_REACTORS
330
5D5
102
}
330
1F
100
AcDbEntity
  8
LC-002-002-----0
 62
     7
370
    25
100
AcDbLine
 10
1752.012772
 20
1802.528213
 30
0.0
 11
1752.698911
 21
1868.047284
 31
0.0
  0
LINE
  5
21A
102
{ACAD_REACTORS
330
5D5
102
}
330
1F
100
AcDbEntity
  8
LC-002-002-----0
 62
     7
370
    25
100
AcDbLine
 10
1749.274404
 20
1799.571044
 30
0.0
 11
1628.668045
 21
1789.019355
 31
0.0
  0
LINE
  5
21B
102
{ACAD_REACTORS
330
5D5
102
}
330
1F
100
AcDbEntity
  8
LC-002-002-----0
 62
     7
370
    25
100
AcDbLine
 10
1749.274404
 20
1515.045212
 30
0.0
 11
1729.071808
 21
1516.812711
 31
0.0
  0
LINE
  5
21C
102
{ACAD_REACTORS
330
5D5
102
}
330
1F
100
AcDbEntity
  8
LC-002-002-----0
 62
     7
370
    25
100
AcDbLine
 10
1699.185967
 20
1519.427383
 30
0.0
 11
1628.668045
 21
1525.596902
 31
0.0
  0
ARC
  5
21D
102
{ACAD_REACTORS
330
5D5
102
}
330
1F
100
AcDbEntity
  8
LC-002-002-----0
 62
     7
370
    25
100
AcDbCircle
 10
1629.713913
 20
1777.065019
 30
0.0
 40
11.9999999999999
100
AcDbArc
 50
95.0
 51
177.5
  0
ARC
  5
21E
102
{ACAD_REACTORS
330
5D5
102
}
330
1F
100
AcDbEntity
  8
LC-002-002-----0
 62
     7
370
    25
100
AcDbCircle
 10
1629.713913
 20
1537.551238
 30
0.0
 40
12.00000000000004
100
AcDbArc
 50
182.5
 51
265.0
  0
LINE
  5
21F
102
{ACAD_REACTORS
330
5D5
102
}
330
1F
100
AcDbEntity
  8
LC-002-002-----0
 62
     7
370
    25
100
AcDbLine
 10
1699.185967
 20
1519.427383
 30
0.0
 11
1729.071808
 21
1516.812711
 31
0.0
  0
LINE
  5
220
102
{ACAD_REACTORS
330
5D5
102
}
330
1F
100
AcDbEntity
  8
LC-002-002-----0
 62
     7
370
    25
100
AcDbLine
 10
1698.575877
 20
1512.45402
 30
0.0
 11
1728.461718
 21
1509.839348
 31
0.0
  0
LINE
  5
221
102
{ACAD_REACTORS
330
5D5
102
}
330
1F
100
AcDbEntity
  8
LC-002-002-----0
 62
     7
370
    25
100
AcDbLine
 10
1600.929417
 20
1702.308128
 30
0.0
 11
1600.929417
 21
1657.308128
 31
0.0
  0
LINE
  5
222
102
{ACAD_REACTORS
330
5D5
102
}
330
1F
100
AcDbEntity
  8
LC-002-002-----0
 62
     7
370
    25
100
AcDbLine
 10
1600.929417
 20
1596.219339
 30
0.0
 11
1600.929417
 21
1612.308128
 31
0.0
  0
LINE
  5
223
102
{ACAD_REACTORS
330
5D5
102
}
330
1F
100
AcDbEntity
  8
LC-002-002-----0
 62
     7
370
    25
100
AcDbLine
 10
1600.929417
 20
1657.308128
 30
0.0
 11
1600.929417
 21
1612.308128
 31
0.0
  0
LINE
  5
224
102
{ACAD_REACTORS
330
5D5
102
}
330
1F
100
AcDbEntity
  8
LC-002-002-----0
 62
     7
370
    25
100
AcDbLine
 10
1600.929417
 20
1702.308128
 30
0.0
 11
1600.929417
 21
1718.396918
 31
0.0
  0
LINE
  5
225
102
{ACAD_REACTORS
330
5D5
102
}
330
1F
100
AcDbEntity
  8
LC-002-002-----0
 62
     7
370
    25
100
AcDbLine
 10
1743.096669
 20
1504.029634
 30
0.0
 11
1743.711666
 21
1445.303883
 31
0.0
  0
LINE
  5
226
102
{ACAD_REACTORS
330
5D5
102
}
330
1F
100
AcDbEntity
  8
LC-002-002-----0
 62
     7
370
    25
100
AcDbLine
 10
1743.096669
 20
1810.586623
 30
0.0
 11
1743.711666
 21
1869.312374
 31
0.0
  0
LINE
  5
227
102
{ACAD_REACTORS
330
5D5
102
}
330
1F
100
AcDbEntity
  8
LC-002-002-----0
 62
     7
370
    25
100
AcDbLine
 10
1738.532722
 20
1805.658008
 30
0.0
 11
1619.932897
 21
1795.281868
 31
0.0
  0
LINE
  5
228
102
{ACAD_REACTORS
330
5D5
102
}
330
1F
100
AcDbEntity
  8
LC-002-002-----0
 62
     7
370
    25
100
AcDbLine
 10
1738.532722
 20
1508.958249
 30
0.0
 11
1728.461718
 21
1509.839348
 31
0.0
  0
LINE
  5
229
102
{ACAD_REACTORS
330
5D5
102
}
330
1F
100
AcDbEntity
  8
LC-002-002-----0
 62
     7
370
    25
100
AcDbLine
 10
1698.575877
 20
1512.45402
 30
0.0
 11
1619.932897
 21
1519.334389
 31
0.0
  0
ARC
  5
22A
102
{ACAD_REACTORS
330
5D5
102
}
330
1F
100
AcDbEntity
  8
LC-002-002-----0
 62
     7
370
    25
100
AcDbCircle
 10
1600.490237
 20
1726.723603
 30
0.0
 40
5.999999999999875
100
AcDbArc
 50
295.0
 51
357.5
  0
ARC
  5
22B
102
{ACAD_REACTORS
330
5D5
102
}
330
1F
100
AcDbEntity
  8
LC-002-002-----0
 62
     7
370
    25
100
AcDbCircle
 10
1603.929417
 20
1718.396918
 30
0.0
 40
2.999999999999993
100
AcDbArc
 50
115.0
 51
180.0
  0
LINE
  5
22C
102
{ACAD_REACTORS
330
5D5
102
}
330
1F
100
AcDbEntity
  8
LC-002-002-----0
 62
     7
370
    25
100
AcDbLine
 10
1737.016449
 20
1508.856617
 30
0.0
 11
1737.018668
 21
1508.855693
 31
0.0
  0
LINE
  5
22D
102
{ACAD_REACTORS
330
5D5
102
}
330
1F
100
AcDbEntity
  8
LC-002-002-----0
 62
     7
370
    25
100
AcDbLine
 10
1602.661563
 20
1721.115841
 30
0.0
 11
1603.025947
 21
1721.285756
 31
0.0
  0
ARC
  5
22E
102
{ACAD_REACTORS
330
5D5
102
}
330
1F
100
AcDbEntity
  8
LC-002-002-----0
 62
     7
370
    25
100
AcDbCircle
 10
1620.978766
 20
1783.327531
 30
0.0
 40
11.9999999999999
100
AcDbArc
 50
95.0
 51
177.5
  0
ARC
  5
22F
102
{ACAD_REACTORS
330
5D5
102
}
330
1F
100
AcDbEntity
  8
LC-002-002-----0
 62
     7
370
    25
100
AcDbCircle
 10
1620.978766
 20
1531.288726
 30
0.0
 40
12.0000000000001
100
AcDbArc
 50
182.5
 51
265.0
  0
ARC
  5
230
102
{ACAD_REACTORS
330
5D5
102
}
330
1F
100
AcDbEntity
  8
LC-002-002-----0
 62
     7
370
    25
100
AcDbCircle
 10
1613.835849
 20
1600.912424
 30
0.0
 40
0.9999999999998613
100
AcDbArc
 50
190.0
 51
265.0
  0
LINE
  5
231
102
{ACAD_REACTORS
330
5D5
102
}
330
1F
100
AcDbEntity
  8
LC-002-002-----0
 62
     7
370
    25
100
AcDbLine
 10
1613.748693
 20
1599.916229
 30
0.0
 11
1613.935919
 21
1599.899849
 31
0.0
  0
ARC
  5
232
102
{ACAD_REACTORS
330
5D5
102
}
330
1F
100
AcDbEntity
  8
LC-002-002-----0
 62
     7
370
    25
100
AcDbCircle
 10
1613.831332
 20
1598.704415
 30
0.0
 40
1.19999999999993
100
AcDbArc
 50
2.5
 51
85.0
  0
LINE
  5
233
102
{ACAD_REACTORS
330
5D5
102
}
330
1F
100
AcDbEntity
  8
LC-002-002-----0
 62
     7
370
    25
100
AcDbLine
 10
1615.03019
 20
1598.756758
 30
0.0
 11
1617.725335
 21
1537.027805
 31
0.0
  0
LINE
  5
234
102
{ACAD_REACTORS
330
5D5
102
}
330
1F
100
AcDbEntity
  8
LC-002-002-----0
 62
     7
370
    25
100
AcDbLine
 10
1698.575877
 20
1512.45402
 30
0.0
 11
1699.185967
 21
1519.427383
 31
0.0
  0
LINE
  5
235
102
{ACAD_REACTORS
330
5D5
102
}
330
1F
100
AcDbEntity
  8
LC-002-002-----0
 62
     7
370
    25
100
AcDbLine
 10
1606.484526
 20
1588.154371
 30
0.0
 11
1608.990188
 21
1530.765293
 31
0.0
  0
ARC
  5
236
102
{ACAD_REACTORS
330
5D5
102
}
330
1F
100
AcDbEntity
  8
LC-002-002-----0
 62
     7
370
    25
100
AcDbCircle
 10
1600.490237
 20
1587.892654
 30
0.0
 40
5.999999999999669
100
AcDbArc
 50
2.5
 51
65.0
  0
LINE
  5
237
102
{ACAD_REACTORS
330
5D5
102
}
330
1F
100
AcDbEntity
  8
LC-002-002-----0
 62
     7
370
    25
100
AcDbLine
 10
1602.661563
 20
1593.500416
 30
0.0
 11
1603.025947
 21
1593.330501
 31
0.0
  0
ARC
  5
238
102
{ACAD_REACTORS
330
5D5
102
}
330
1F
100
AcDbEntity
  8
LC-002-002-----0
 62
     7
370
    25
100
AcDbCircle
 10
1603.929417
 20
1596.219339
 30
0.0
 40
3.0
100
AcDbArc
 50
180.0
 51
245.0
  0
LINE
  5
239
102
{ACAD_REACTORS
330
5D5
102
}
330
1F
100
AcDbEntity
  8
LC-002-002-----0
 62
     7
370
    25
100
AcDbLine
 10
1600.929417
 20
1612.308128
 30
0.0
 11
1610.811052
 21
1612.308128
 31
0.0
  0
LINE
  5
23A
102
{ACAD_REACTORS
330
5D5
102
}
330
1F
100
AcDbEntity
  8
LC-002-002-----0
 62
     7
370
    25
100
AcDbLine
 10
1610.811052
 20
1612.308128
 30
0.0
 11
1612.851041
 21
1600.738775
 31
0.0
  0
ARC
  5
23B
102
{ACAD_REACTORS
330
5D5
102
}
330
1F
100
AcDbEntity
  8
LC-002-002-----0
 62
     7
370
    25
100
AcDbCircle
 10
1749.012937
 20
1512.056628
 30
0.0
 40
3.000000000000032
100
AcDbArc
 50
0.6
 51
85.0
  0
ARC
  5
23C
102
{ACAD_REACTORS
330
5D5
102
}
330
1F
100
AcDbEntity
  8
LC-002-002-----0
 62
     7
370
    25
100
AcDbCircle
 10
1756.698692
 20
1446.61086
 30
0.0
 40
3.999999999999965
100
AcDbArc
 50
180.6
 51
264.876622
  0
ARC
  5
23D
102
{ACAD_REACTORS
330
5D5
102
}
330
1F
100
AcDbEntity
  8
LC-002-002-----0
 62
     7
370
    25
100
AcDbCircle
 10
1755.711008
 20
1445.429545
 30
0.0
 40
12.00000000000012
100
AcDbArc
 50
180.6
 51
198.055864
  0
ARC
  5
23E
102
{ACAD_REACTORS
330
5D5
102
}
330
1F
100
AcDbEntity
  8
LC-002-002-----0
 62
     7
370
    25
100
AcDbCircle
 10
1738.096943
 20
1503.977276
 30
0.0
 40
5.000000000000128
100
AcDbArc
 50
0.6
 51
85.0
  0
LINE
  5
23F
102
{ACAD_REACTORS
330
5D5
102
}
330
1F
100
AcDbEntity
  8
LC-002-002-----0
 62
     7
370
    25
100
AcDbLine
 10
1728.461718
 20
1509.839348
 30
0.0
 11
1729.071808
 21
1516.812711
 31
0.0
  0
LINE
  5
240
102
{ACAD_REACTORS
330
5D5
102
}
330
1F
100
AcDbEntity
  8
LC-002-002-----0
 62
     7
370
    25
100
AcDbLine
 10
1615.03019
 20
1715.859499
 30
0.0
 11
1617.725335
 21
1777.588452
 31
0.0
  0
ARC
  5
241
102
{ACAD_REACTORS
330
5D5
102
}
330
1F
100
AcDbEntity
  8
LC-002-002-----0
 62
     7
370
    25
100
AcDbCircle
 10
1613.831332
 20
1715.911842
 30
0.0
 40
1.199999999999948
100
AcDbArc
 50
275.0
 51
357.5
  0
LINE
  5
242
102
{ACAD_REACTORS
330
5D5
102
}
330
1F
100
AcDbEntity
  8
LC-002-002-----0
 62
     7
370
    25
100
AcDbLine
 10
1613.748693
 20
1714.700028
 30
0.0
 11
1613.935919
 21
1714.716408
 31
0.0
  0
ARC
  5
243
102
{ACAD_REACTORS
330
5D5
102
}
330
1F
100
AcDbEntity
  8
LC-002-002-----0
 62
     7
370
    25
100
AcDbCircle
 10
1613.835849
 20
1713.703833
 30
0.0
 40
1.000000000000067
100
AcDbArc
 50
95.0
 51
170.0
  0
LINE
  5
244
102
{ACAD_REACTORS
330
5D5
102
}
330
1F
100
AcDbEntity
  8
LC-002-002-----0
 62
     7
370
    25
100
AcDbLine
 10
1600.929417
 20
1702.308128
 30
0.0
 11
1610.811052
 21
1702.308128
 31
0.0
  0
LINE
  5
245
102
{ACAD_REACTORS
330
5D5
102
}
330
1F
100
AcDbEntity
  8
LC-002-002-----0
 62
     7
370
    25
100
AcDbLine
 10
1606.484526
 20
1726.461886
 30
0.0
 11
1608.990188
 21
1783.850964
 31
0.0
  0
ARC
  5
246
102
{ACAD_REACTORS
330
5D5
102
}
330
1F
100
AcDbEntity
  8
LC-002-002-----0
 62
     7
370
    25
100
AcDbCircle
 10
1738.096943
 20
1810.638981
 30
0.0
 40
5.000000000000107
100
AcDbArc
 50
275.0
 51
359.4
  0
ARC
  5
247
102
{ACAD_REACTORS
330
5D5
102
}
330
1F
100
AcDbEntity
  8
LC-002-002-----0
 62
     7
370
    25
100
AcDbCircle
 10
1755.711008
 20
1869.186712
 30
0.0
 40
11.99999999999997
100
AcDbArc
 50
161.944136
 51
179.4
  0
ARC
  5
248
102
{ACAD_REACTORS
330
5D5
102
}
330
1F
100
AcDbEntity
  8
LC-002-002-----0
 62
     7
370
    25
100
AcDbCircle
 10
1756.698692
 20
1868.005397
 30
0.0
 40
3.999999999999983
100
AcDbArc
 50
95.123378
 51
179.4
  0
ARC
  5
249
102
{ACAD_REACTORS
330
5D5
102
}
330
1F
100
AcDbEntity
  8
LC-002-002-----0
 62
     7
370
    25
100
AcDbCircle
 10
1749.012937
 20
1802.559629
 30
0.0
 40
2.999999999999974
100
AcDbArc
 50
275.0
 51
359.4
  0
LINE
  5
24A
102
{ACAD_REACTORS
330
5D5
102
}
330
1F
100
AcDbEntity
  8
LC-002-002-----0
 62
     7
370
    25
100
AcDbLine
 10
1610.811052
 20
1702.308128
 30
0.0
 11
1612.851041
 21
1713.877482
 31
0.0
  0
LINE
  5
24B
102
{ACAD_REACTORS
330
5D5
102
}
330
1F
100
AcDbEntity
  8
LC-002-002-----0
 62
     7
370
    25
100
AcDbLine
 10
1751.984286
 20
1799.808128
 30
0.0
 11
1751.984286
 21
1514.808128
 31
0.0
  0
LINE
  5
24C
102
{ACAD_REACTORS
330
5D0
102
}
330
1F
100
AcDbEntity
  8
LC-002-002-----0
 62
     7
370
    25
100
AcDbLine
 10
659.069343
 20
1514.808128
 30
0.0
 11
494.069343
 21
1514.808128
 31
0.0
  0
LINE
  5
24D
102
{ACAD_REACTORS
330
5D0
102
}
330
1F
100
AcDbEntity
  8
LC-002-002-----0
 62
     7
370
    25
100
AcDbLine
 10
659.069343
 20
1799.808128
 30
0.0
 11
494.069343
 21
1799.808128
 31
0.0
  0
CIRCLE
  5
24E
102
{ACAD_REACTORS
330
5D0
102
}
330
1F
100
AcDbEntity
  8
LC-002-002-----0
  6
DASHED
 62
     7
370
    25
100
AcDbCircle
 10
709.069343
 20
1479.308128
 30
0.0
 40
17.5
  0
CIRCLE
  5
24F
102
{ACAD_REACTORS
330
5D0
102
}
330
1F
100
AcDbEntity
  8
LC-002-002-----0
  6
DASHED
 62
     7
370
    25
100
AcDbCircle
 10
819.069343
 20
1479.308128
 30
0.0
 40
17.5
  0
LINE
  5
250
102
{ACAD_REACTORS
330
5CF
102
}
330
1F
100
AcDbEntity
  8
LC-002-002-----0
 62
     7
370
    50
100
AcDbLine
 10
949.069343
 20
2542.950096
 30
0.0
 11
1203.734668
 21
2542.950096
 31
0.0
  0
DIMENSION
  5
253
102
{ACAD_REACTORS
330
5CF
102
}
330
1F
100
AcDbEntity
  8
LC-006-003-----0
 62
     7
370
    25
100
AcDbDimension
  2
*D2
 10
750.0
 20
2542.950096
 30
0.0
 11
720.0
 21
2470.450096
 31
0.0
 70
   160
 71
     5
 42
145.0
 53
90.0
  3
LC-DIM-L-0025-02-02
100
AcDbAlignedDimension
 13
742.069343
 23
2397.950096
 33
0.0
 14
742.069343
 24
2542.950096
 34
0.0
 50
90.0
100
AcDbRotatedDimension
  0
DIMENSION
  5
261
102
{ACAD_REACTORS
330
5CF
102
}
330
1F
100
AcDbEntity
  8
LC-006-003-----0
 62
     7
370
    25
100
AcDbDimension
  2
*D3
 10
950.0
 20
2542.950096
 30
0.0
 11
920.0
 21
2442.950096
 31
0.0
 70
   160
 71
     5
 42
200.0
 53
90.0
  3
LC-DIM-L-0025-02-02
100
AcDbAlignedDimension
 13
949.069343
 23
2342.950096
 33
0.0
 14
949.069343
 24
2542.950096
 34
0.0
 50
90.0
100
AcDbRotatedDimension
  0
DIMENSION
  5
26F
102
{ACAD_REACTORS
330
5CF
102
}
330
1F
100
AcDbEntity
  8
LC-006-003-----0
 62
     7
370
    25
100
AcDbDimension
  2
*D4
 10
824.194457
 20
2650.0
 30
0.0
 11
742.069343
 21
2680.0
 31
0.0
 70
   160
 71
     5
 42
164.250227
  3
LC-DIM-L-0025-00-02
100
AcDbAlignedDimension
 13
659.94423
 23
2552.950096
 33
0.0
 14
824.194457
 24
2552.950096
 34
0.0
100
AcDbRotatedDimension
  0
DIMENSION
  5
27C
102
{ACAD_REACTORS
330
5CF
102
}
330
1F
100
AcDbEntity
  8
LC-006-003-----0
 62
     7
370
    25
100
AcDbDimension
  2
*D5
 10
1200.069343
 20
2650.0
 30
0.0
 11
1028.006787
 21
2680.0
 31
0.0
 70
   160
 71
     5
 42
344.125113
  3
LC-DIM-L-0025-00-02
100
AcDbAlignedDimension
 13
855.94423
 23
2552.514317
 33
0.0
 14
1200.069343
 24
2552.514317
 34
0.0
100
AcDbRotatedDimension
  0
DIMENSION
  5
289
102
{ACAD_REACTORS
330
5D9
102
}
330
1F
100
AcDbEntity
  8
LC-006-003-----0
 62
     7
370
    25
100
AcDbDimension
  2
*D6
 10
1950.0
 20
1442.308128
 30
0.0
 11
1920.0
 21
1657.308128
 31
0.0
 70
   160
 71
     5
 42
430.0
 53
90.0
  3
LC-DIM-L-0025-02-02
100
AcDbAlignedDimension
 13
1769.984286
 23
1872.308128
 33
0.0
 14
1769.984286
 24
1442.308128
 34
0.0
 50
90.0
100
AcDbRotatedDimension
  0
DIMENSION
  5
296
102
{ACAD_REACTORS
330
5D0
102
}
330
1F
100
AcDbEntity
  8
LC-006-003-----0
 62
     7
370
    25
100
AcDbDimension
  2
*D7
 10
1235.069343
 20
1300.0
 30
0.0
 11
845.069343
 21
1330.0
 31
0.0
 70
   160
 71
     5
 42
780.0
  3
LC-DIM-L-0025-02-02
100
AcDbAlignedDimension
 13
455.069343
 23
1397.308128
 33
0.0
 14
1235.069343
 24
1397.308128
 34
0.0
100
AcDbRotatedDimension
  0
DIMENSION
  5
2A3
102
{ACAD_REACTORS
330
5CF
102
}
330
1F
100
AcDbEntity
  8
LC-006-003-----0
 62
     7
370
    25
100
AcDbDimension
  2
*D8
 10
1229.159343
 20
2150.0
 30
0.0
 11
929.159343
 21
2180.0
 31
0.0
 70
   160
 71
     5
 42
600.0
  3
LC-DIM-L-0025-02-02
100
AcDbAlignedDimension
 13
629.159343
 23
2287.950096
 33
0.0
 14
1229.159343
 24
2287.950096
 34
0.0
100
AcDbRotatedDimension
  0
DIMENSION
  5
2B0
102
{ACAD_REACTORS
330
5D5
102
}
330
1F
100
AcDbEntity
  8
LC-006-003-----0
 62
     7
370
    25
100
AcDbDimension
  2
*D9
 10
1850.0
 20
1514.808128
 30
0.0
 11
1820.0
 21
1657.308128
 31
0.0
 70
   160
 71
     5
 42
285.0
 53
90.0
  3
LC-DIM-L-0025-02-02
100
AcDbAlignedDimension
 13
1769.984286
 23
1799.808128
 33
0.0
 14
1769.984286
 24
1514.808128
 34
0.0
 50
90.0
100
AcDbRotatedDimension
  0
TEXT
  5
2BE
330
1F
100
AcDbEntity
  8
LC-007-004-----0
 62
     7
370
    18
100
AcDbText
 10
1713.015847
 20
562.493582
 30
0.0
 40
17.5
  1
Material: 
 41
0.8
  7
LCTX0-400-0-0pDIN-Schrift
100
AcDbText
  0
TEXT
  5
2BF
330
1F
100
AcDbEntity
  8
LC-007-004-----0
 62
     7
370
    25
100
AcDbText
 10
1809.230868
 20
558.743582
 30
0.0
 40
25.0
  1
Cristalite
 41
0.8
  7
LCTX0-400-0-0pDIN-Schrift
100
AcDbText
  0
TEXT
  5
2C0
330
1F
100
AcDbEntity
  8
LC-007-004-----0
 62
     7
370
    25
100
AcDbText
 10
1216.866501
 20
476.808096
 30
0.0
 40
25.0
  1
Art. Nr.: 342
 41
0.8
  7
LCTX0-400-0-0pDIN-Schrift
100
AcDbText
  0
LINE
  5
2C1
102
{ACAD_REACTORS
330
5D4
102
}
330
1F
100
AcDbEntity
  8
LC-002-002-----0
 62
     7
370
    50
100
AcDbLine
 10
465.069343
 20
2535.950096
 30
0.0
 11
405.279951
 21
2535.950096
 31
0.0
  0
LINE
  5
2C2
102
{ACAD_REACTORS
330
5D4
102
}
330
1F
100
AcDbEntity
  8
LC-002-002-----0
 62
     7
370
    25
100
AcDbLine
 10
405.279951
 20
2535.950096
 30
0.0
 11
401.866909
 21
2514.626156
 31
0.0
  0
LINE
  5
2C3
102
{ACAD_REACTORS
330
5D4
102
}
330
1F
100
AcDbEntity
  8
LC-002-002-----0
 62
     7
370
    25
100
AcDbLine
 10
401.866909
 20
2514.626156
 30
0.0
 11
405.279951
 21
2497.950096
 31
0.0
  0
LINE
  5
2C4
102
{ACAD_REACTORS
330
5D4
102
}
330
1F
100
AcDbEntity
  8
LC-002-002-----0
 62
     7
370
    50
100
AcDbLine
 10
465.069343
 20
2497.950096
 30
0.0
 11
405.279951
 21
2497.950096
 31
0.0
  0
LINE
  5
2C5
102
{ACAD_REACTORS
330
5D4
102
}
330
1F
100
AcDbEntity
  8
LC-002-002-----0
 62
     7
370
    50
100
AcDbLine
 10
465.069343
 20
2535.950096
 30
0.0
 11
465.069343
 21
2497.950096
 31
0.0
  0
LINE
  5
2C6
102
{ACAD_REACTORS
330
5D4
102
}
330
1F
100
AcDbEntity
  8
LC-002-002-----0
 62
     7
370
    50
100
AcDbLine
 10
1225.069343
 20
2535.950096
 30
0.0
 11
1284.858736
 21
2535.950096
 31
0.0
  0
LINE
  5
2C7
102
{ACAD_REACTORS
330
5D4
102
}
330
1F
100
AcDbEntity
  8
LC-002-002-----0
 62
     7
370
    50
100
AcDbLine
 10
1225.069343
 20
2535.950096
 30
0.0
 11
1225.069343
 21
2497.950096
 31
0.0
  0
LINE
  5
2C8
102
{ACAD_REACTORS
330
5D4
102
}
330
1F
100
AcDbEntity
  8
LC-002-002-----0
 62
     7
370
    50
100
AcDbLine
 10
1225.069343
 20
2497.950096
 30
0.0
 11
1284.858736
 21
2497.950096
 31
0.0
  0
LINE
  5
2C9
102
{ACAD_REACTORS
330
5D4
102
}
330
1F
100
AcDbEntity
  8
LC-002-002-----0
 62
     7
370
    25
100
AcDbLine
 10
1284.858736
 20
2535.950096
 30
0.0
 11
1288.271778
 21
2514.626156
 31
0.0
  0
LINE
  5
2CA
102
{ACAD_REACTORS
330
5D4
102
}
330
1F
100
AcDbEntity
  8
LC-002-002-----0
 62
     7
370
    25
100
AcDbLine
 10
1288.271778
 20
2514.626156
 30
0.0
 11
1284.858736
 21
2497.950096
 31
0.0
  0
INSERT
  5
2D7
102
{ACAD_REACTORS
330
5D4
102
}
330
1F
100
AcDbEntity
  8
LC-008-005-----0
 62
     7
370
    25
100
AcDbBlockReference
  2
*X110
 10
0.0
 20
0.0
 30
0.0
  0
LINE
  5
2D8
102
{ACAD_REACTORS
330
5D6
102
}
330
1F
100
AcDbEntity
  8
LC-002-002-----0
 62
     7
370
    50
100
AcDbLine
 10
872.281938
 20
1039.766051
 30
0.0
 11
502.281938
 21
1039.766051
 31
0.0
  0
LINE
  5
2D9
102
{ACAD_REACTORS
330
5D6
102
}
330
1F
100
AcDbEntity
  8
LC-002-002-----0
 62
     7
370
    50
100
AcDbLine
 10
497.281938
 20
1034.766051
 30
0.0
 11
497.281938
 21
804.766051
 31
0.0
  0
LINE
  5
2DA
102
{ACAD_REACTORS
330
5D6
102
}
330
1F
100
AcDbEntity
  8
LC-002-002-----0
 62
     7
370
    50
100
AcDbLine
 10
502.281938
 20
799.766051
 30
0.0
 11
872.281938
 21
799.766051
 31
0.0
  0
LINE
  5
2DB
102
{ACAD_REACTORS
330
5D6
102
}
330
1F
100
AcDbEntity
  8
LC-002-002-----0
 62
     7
370
    50
100
AcDbLine
 10
877.281938
 20
804.766051
 30
0.0
 11
877.281938
 21
1034.766051
 31
0.0
  0
DIMENSION
  5
2DC
330
1F
100
AcDbEntity
  8
LC-006-003-----0
 62
     7
370
    25
100
AcDbDimension
  2
*D11
 10
1229.159343
 20
2400.0
 30
0.0
 11
1265.480819
 21
2430.0
 31
0.0
 70
   160
 71
     5
 42
4.09
  3
LC-DIM-L-0025-00-02
100
AcDbAlignedDimension
 13
1225.069343
 23
2497.950096
 33
0.0
 14
1229.159343
 24
2497.950096
 34
0.0
100
AcDbRotatedDimension
  0
DIMENSION
  5
2EB
102
{ACAD_REACTORS
330
5D6
102
}
330
1F
100
AcDbEntity
  8
LC-006-003-----0
 62
     7
370
    25
100
AcDbDimension
  2
*D12
 10
879.281938
 20
722.93814
 30
0.0
 11
718.627657
 21
752.93814
 31
0.0
 70
   160
 71
     5
 42
600.0
  3
LC-DIM-L-0025-02-02
100
AcDbAlignedDimension
 13
579.281938
 23
775.949232
 33
0.0
 14
879.281938
 24
775.949232
 34
0.0
100
AcDbRotatedDimension
1001
ACAD
1000
DSTYLE
1002
{
1070
   144
1040
2.0
1002
}
  0
DIMENSION
  5
2F8
102
{ACAD_REACTORS
330
5D6
102
}
330
1F
100
AcDbEntity
  8
LC-006-003-----0
 62
     7
370
    25
100
AcDbDimension
  2
*D13
 10
879.281938
 20
748.887372
 30
0.0
 11
928.189835
 21
778.887372
 31
0.0
 70
   160
 71
     5
 42
4.0
  3
LC-DIM-L-0025-02-02
100
AcDbAlignedDimension
 13
877.281938
 23
804.766051
 33
0.0
 14
879.281938
 24
775.949232
 34
0.0
100
AcDbRotatedDimension
1001
ACAD
1000
DSTYLE
1002
{
1070
   144
1040
2.0
1002
}
  0
DIMENSION
  5
307
102
{ACAD_REACTORS
330
5D6
102
}
330
1F
100
AcDbEntity
  8
LC-006-003-----0
 62
     7
370
    25
100
AcDbDimension
  2
*D14
 10
877.281938
 20
672.93814
 30
0.0
 11
694.147828
 21
702.93814
 31
0.0
 70
   160
 71
     5
 42
760.0
  3
LC-DIM-L-0025-02-02
100
AcDbAlignedDimension
 13
497.281938
 23
804.766051
 33
0.0
 14
877.281938
 24
804.766051
 34
0.0
100
AcDbRotatedDimension
1001
ACAD
1000
DSTYLE
1002
{
1070
   144
1040
2.0
1002
}
  0
DIMENSION
  5
314
102
{ACAD_REACTORS
330
5D6
102
}
330
1F
100
AcDbEntity
  8
LC-006-003-----0
 62
     7
370
    25
100
AcDbDimension
  2
*D15
 10
951.556945
 20
799.766051
 30
0.0
 11
921.556945
 21
916.998929
 31
0.0
 70
   160
 71
     5
 42
480.0
 53
90.0
  3
LC-DIM-L-0025-02-02
100
AcDbAlignedDimension
 13
869.781938
 23
1039.766051
 33
0.0
 14
869.781938
 24
799.766051
 34
0.0
 50
90.0
100
AcDbRotatedDimension
1001
ACAD
1000
DSTYLE
1002
{
1070
   144
1040
2.0
1002
}
  0
DIMENSION
  5
322
102
{ACAD_REACTORS
330
5D6
102
}
330
1F
100
AcDbEntity
  8
LC-006-003-----0
 62
     7
370
    25
100
AcDbDimension
  2
*D16
 10
502.281938
 20
804.766051
 30
0.0
 11
552.157322
 21
825.972671
 31
0.0
 70
   164
 71
     5
 42
10.0
  3
LC-DIM-R-0025-02-02
100
AcDbRadialDimension
 15
506.301615
 25
807.739633
 35
0.0
 40
1.0
1001
ACAD
1000
DSTYLE
1002
{
1070
   144
1040
2.0
1002
}
  0
TEXT
  5
32B
102
{ACAD_REACTORS
330
5D6
102
}
330
1F
100
AcDbEntity
  8
LC-007-004-----0
 62
     7
370
    35
100
AcDbText
 10
502.37925
 20
1096.26981
 30
0.0
 40
35.0
  1
Ausschnitt 1:20
 41
0.8
  7
LCTX0-400-0-0pDIN-Schrift
100
AcDbText
  0
ARC
  5
32C
102
{ACAD_REACTORS
330
5D7
102
}
330
1F
100
AcDbEntity
  8
LC-002-002-----0
 62
     7
370
    25
100
AcDbCircle
 10
742.069343
 20
2252.292999
 30
0.0
 40
19.99999999999818
100
AcDbArc
 50
180.0
 51
270.0
  0
LINE
  5
32D
102
{ACAD_REACTORS
330
5D7
102
}
330
1F
100
AcDbEntity
  8
LC-002-002-----0
 62
     7
370
    25
100
AcDbLine
 10
866.29142
 20
2224.588205
 30
0.0
 11
868.79142
 21
2224.588205
 31
0.0
  0
LINE
  5
32E
102
{ACAD_REACTORS
330
5D7
102
}
330
1F
100
AcDbEntity
  8
LC-002-002-----0
 62
     7
370
    25
100
AcDbLine
 10
865.29142
 20
2225.338205
 30
0.0
 11
865.54142
 21
2225.338205
 31
0.0
  0
LINE
  5
32F
102
{ACAD_REACTORS
330
5D7
102
}
330
1F
100
AcDbEntity
  8
LC-002-002-----0
 62
     7
370
    25
100
AcDbLine
 10
865.29142
 20
2226.492999
 30
0.0
 11
851.79142
 21
2226.492999
 31
0.0
  0
LINE
  5
330
102
{ACAD_REACTORS
330
5D7
102
}
330
1F
100
AcDbEntity
  8
LC-002-002-----0
 62
     7
370
    25
100
AcDbLine
 10
865.541419
 20
2225.338206
 30
0.0
 11
866.291419
 21
2224.588206
 31
0.0
  0
LINE
  5
331
102
{ACAD_REACTORS
330
5D7
102
}
330
1F
100
AcDbEntity
  8
LC-002-002-----0
 62
     7
370
    25
100
AcDbLine
 10
849.79142
 20
2276.092999
 30
0.0
 11
849.79142
 21
2228.492999
 31
0.0
  0
LINE
  5
332
102
{ACAD_REACTORS
330
5D7
102
}
330
1F
100
AcDbEntity
  8
LC-002-002-----0
 62
     7
370
    25
100
AcDbLine
 10
868.79142
 20
2279.997792
 30
0.0
 11
868.79142
 21
2224.588205
 31
0.0
  0
ARC
  5
333
102
{ACAD_REACTORS
330
5D7
102
}
330
1F
100
AcDbEntity
  8
LC-002-002-----0
 62
     7
370
    25
100
AcDbCircle
 10
851.79142
 20
2228.492999
 30
0.0
 40
2.0
100
AcDbArc
 50
180.0
 51
270.0
  0
INSERT
  5
343
102
{ACAD_REACTORS
330
5D7
102
}
330
1F
100
AcDbEntity
  8
LC-002-002-----0
 62
     7
370
    25
100
AcDbBlockReference
  2
POLY1
 10
0.0
 20
0.0
 30
0.0
  0
LINE
  5
344
102
{ACAD_REACTORS
330
5D7
102
}
330
1F
100
AcDbEntity
  8
LC-002-002-----0
 62
     7
370
    25
100
AcDbLine
 10
865.29142
 20
2252.291546
 30
0.0
 11
851.79142
 21
2252.291546
 31
0.0
  0
ARC
  5
345
102
{ACAD_REACTORS
330
5D7
102
}
330
1F
100
AcDbEntity
  8
LC-002-002-----0
 62
     7
370
    25
100
AcDbCircle
 10
742.069343
 20
2309.292999
 30
0.0
 40
22.0
100
AcDbArc
 50
180.0
 51
0.0
  0
LINE
  5
346
102
{ACAD_REACTORS
330
5D7
102
}
330
1F
100
AcDbEntity
  8
LC-002-002-----0
 62
     7
370
    25
100
AcDbLine
 10
764.069343
 20
2309.292999
 30
0.0
 11
764.069343
 21
2322.984183
 31
0.0
  0
LINE
  5
347
102
{ACAD_REACTORS
330
5D7
102
}
330
1F
100
AcDbEntity
  8
LC-002-002-----0
 62
     7
370
    25
100
AcDbLine
 10
720.069343
 20
2309.292999
 30
0.0
 11
720.069343
 21
2322.984183
 31
0.0
  0
LINE
  5
348
102
{ACAD_REACTORS
330
5D7
102
}
330
1F
100
AcDbEntity
  8
LC-002-002-----0
 62
     7
370
    25
100
AcDbLine
 10
704.569343
 20
2341.252546
 30
0.0
 11
779.569343
 21
2341.252546
 31
0.0
  0
LINE
  5
349
102
{ACAD_REACTORS
330
5D7
102
}
330
1F
100
AcDbEntity
  8
LC-002-002-----0
 62
     7
370
    25
100
AcDbLine
 10
706.571206
 20
2340.549301
 30
0.0
 11
706.571206
 21
2341.252546
 31
0.0
  0
LINE
  5
34A
102
{ACAD_REACTORS
330
5D7
102
}
330
1F
100
AcDbEntity
  8
LC-002-002-----0
 62
     7
370
    25
100
AcDbLine
 10
704.569343
 20
2343.752546
 30
0.0
 11
704.569343
 21
2341.252546
 31
0.0
  0
LINE
  5
34B
102
{ACAD_REACTORS
330
5D7
102
}
330
1F
100
AcDbEntity
  8
LC-002-002-----0
 62
     7
370
    25
100
AcDbLine
 10
713.780404
 20
2330.794165
 30
0.0
 11
713.301958
 21
2333.413029
 31
0.0
  0
ARC
  5
34C
102
{ACAD_REACTORS
330
5D7
102
}
330
1F
100
AcDbEntity
  8
LC-002-002-----0
 62
     7
370
    25
100
AcDbCircle
 10
720.174568
 20
2331.962356
 30
0.0
 40
6.500000000000002
100
AcDbArc
 50
190.354177
 51
250.92296
  0
ARC
  5
34D
102
{ACAD_REACTORS
330
5D7
102
}
330
1F
100
AcDbEntity
  8
LC-002-002-----0
 62
     7
370
    25
100
AcDbCircle
 10
717.069343
 20
2322.984183
 30
0.0
 40
3.000000000000341
100
AcDbArc
 50
0.0
 51
70.944552
  0
ARC
  5
34E
102
{ACAD_REACTORS
330
5D7
102
}
330
1F
100
AcDbEntity
  8
LC-002-002-----0
 62
     7
370
    25
100
AcDbCircle
 10
708.571206
 20
2340.549301
 30
0.0
 40
1.999999999999773
100
AcDbArc
 50
180.0
 51
205.847369
  0
ARC
  5
34F
102
{ACAD_REACTORS
330
5D7
102
}
330
1F
100
AcDbEntity
  8
LC-002-002-----0
 62
     7
370
    25
100
AcDbCircle
 10
712.171139
 20
2342.292999
 30
0.0
 40
6.000000000000001
100
AcDbArc
 50
205.844972
 51
253.716483
  0
ARC
  5
350
102
{ACAD_REACTORS
330
5D7
102
}
330
1F
100
AcDbEntity
  8
LC-002-002-----0
 62
     7
370
    25
100
AcDbCircle
 10
709.367081
 20
2332.694183
 30
0.0
 40
4.000000000000244
100
AcDbArc
 50
10.352952
 51
73.718249
  0
LINE
  5
351
102
{ACAD_REACTORS
330
5D7
102
}
330
1F
100
AcDbEntity
  8
LC-002-002-----0
 62
     7
370
    25
100
AcDbLine
 10
777.567481
 20
2340.549301
 30
0.0
 11
777.567481
 21
2341.252546
 31
0.0
  0
LINE
  5
352
102
{ACAD_REACTORS
330
5D7
102
}
330
1F
100
AcDbEntity
  8
LC-002-002-----0
 62
     7
370
    25
100
AcDbLine
 10
770.358282
 20
2330.794165
 30
0.0
 11
770.836729
 21
2333.413029
 31
0.0
  0
ARC
  5
353
102
{ACAD_REACTORS
330
5D7
102
}
330
1F
100
AcDbEntity
  8
LC-002-002-----0
 62
     7
370
    25
100
AcDbCircle
 10
763.964118
 20
2331.962356
 30
0.0
 40
6.500000000000005
100
AcDbArc
 50
289.07704
 51
349.645823
  0
ARC
  5
354
102
{ACAD_REACTORS
330
5D7
102
}
330
1F
100
AcDbEntity
  8
LC-002-002-----0
 62
     7
370
    25
100
AcDbCircle
 10
767.069343
 20
2322.984183
 30
0.0
 40
2.999999995699702
100
AcDbArc
 50
109.055448
 51
180.0
  0
ARC
  5
355
102
{ACAD_REACTORS
330
5D7
102
}
330
1F
100
AcDbEntity
  8
LC-002-002-----0
 62
     7
370
    25
100
AcDbCircle
 10
775.567481
 20
2340.549301
 30
0.0
 40
1.999999999999772
100
AcDbArc
 50
334.152631
 51
0.0
  0
ARC
  5
356
102
{ACAD_REACTORS
330
5D7
102
}
330
1F
100
AcDbEntity
  8
LC-002-002-----0
 62
     7
370
    25
100
AcDbCircle
 10
771.967547
 20
2342.292999
 30
0.0
 40
5.999999999999909
100
AcDbArc
 50
286.283517
 51
334.155028
  0
ARC
  5
357
102
{ACAD_REACTORS
330
5D7
102
}
330
1F
100
AcDbEntity
  8
LC-002-002-----0
 62
     7
370
    25
100
AcDbCircle
 10
774.771606
 20
2332.694183
 30
0.0
 40
3.999999999999869
100
AcDbArc
 50
106.281751
 51
169.647048
  0
ARC
  5
358
102
{ACAD_REACTORS
330
5D7
102
}
330
1F
100
AcDbEntity
  8
LC-002-002-----0
 62
     7
370
    25
100
AcDbCircle
 10
742.069343
 20
2309.292999
 30
0.0
 40
27.7047932413002
100
AcDbArc
 50
145.394244
 51
34.605756
  0
LINE
  5
359
102
{ACAD_REACTORS
330
5D7
102
}
330
1F
100
AcDbEntity
  8
LC-002-002-----0
 62
     7
370
    25
100
AcDbLine
 10
797.069343
 20
2383.895227
 30
0.0
 11
687.069343
 21
2383.895227
 31
0.0
  0
LINE
  5
35A
102
{ACAD_REACTORS
330
5D7
102
}
330
1F
100
AcDbEntity
  8
LC-002-002-----0
 62
     7
370
    25
100
AcDbLine
 10
687.069343
 20
2379.895227
 30
0.0
 11
687.069343
 21
2383.895227
 31
0.0
  0
LINE
  5
35B
102
{ACAD_REACTORS
330
5D7
102
}
330
1F
100
AcDbEntity
  8
LC-002-002-----0
 62
     7
370
    25
100
AcDbLine
 10
702.56438
 20
2343.752546
 30
0.0
 11
704.569343
 21
2343.752546
 31
0.0
  0
LINE
  5
35C
102
{ACAD_REACTORS
330
5D7
102
}
330
1F
100
AcDbEntity
  8
LC-002-002-----0
 62
     7
370
    25
100
AcDbLine
 10
699.319953
 20
2348.08232
 30
0.0
 11
697.569978
 21
2349.092669
 31
0.0
  0
LINE
  5
35D
102
{ACAD_REACTORS
330
5D7
102
}
330
1F
100
AcDbEntity
  8
LC-002-002-----0
 62
     7
370
    25
100
AcDbLine
 10
694.569343
 20
2354.289188
 30
0.0
 11
694.569343
 21
2369.752546
 31
0.0
  0
LINE
  5
35E
102
{ACAD_REACTORS
330
5D7
102
}
330
1F
100
AcDbEntity
  8
LC-002-002-----0
 62
     7
370
    25
100
AcDbLine
 10
687.069343
 20
2379.435004
 30
0.0
 11
687.069343
 21
2379.895227
 31
0.0
  0
ARC
  5
35F
102
{ACAD_REACTORS
330
5D7
102
}
330
1F
100
AcDbEntity
  8
LC-002-002-----0
 62
     7
370
    25
100
AcDbCircle
 10
690.569343
 20
2369.752546
 30
0.0
 40
3.999999999999773
100
AcDbArc
 50
0.0
 51
75.507853
  0
ARC
  5
360
102
{ACAD_REACTORS
330
5D7
102
}
330
1F
100
AcDbEntity
  8
LC-002-002-----0
 62
     7
370
    25
100
AcDbCircle
 10
693.069343
 20
2379.435004
 30
0.0
 40
5.999999999999659
100
AcDbArc
 50
180.0
 51
255.530548
  0
ARC
  5
361
102
{ACAD_REACTORS
330
5D7
102
}
330
1F
100
AcDbEntity
  8
LC-002-002-----0
 62
     7
370
    25
100
AcDbCircle
 10
700.569343
 20
2354.289188
 30
0.0
 40
6.0
100
AcDbArc
 50
180.0
 51
240.011524
  0
ARC
  5
362
102
{ACAD_REACTORS
330
5D7
102
}
330
1F
100
AcDbEntity
  8
LC-002-002-----0
 62
     7
370
    25
100
AcDbCircle
 10
696.819343
 20
2343.752546
 30
0.0
 40
4.999999999999856
100
AcDbArc
 50
7.927775
 51
59.983847
  0
ARC
  5
363
102
{ACAD_REACTORS
330
5D7
102
}
330
1F
100
AcDbEntity
  8
LC-002-002-----0
 62
     7
370
    25
100
AcDbCircle
 10
702.563906
 20
2344.552546
 30
0.0
 40
0.7999999999997687
100
AcDbArc
 50
187.937394
 51
270.0
  0
LINE
  5
364
102
{ACAD_REACTORS
330
5D7
102
}
330
1F
100
AcDbEntity
  8
LC-002-002-----0
 62
     7
370
    25
100
AcDbLine
 10
949.069343
 20
2232.292999
 30
0.0
 11
868.79142
 21
2232.292999
 31
0.0
  0
LINE
  5
365
102
{ACAD_REACTORS
330
5D7
102
}
330
1F
100
AcDbEntity
  8
LC-002-002-----0
 62
     7
370
    25
100
AcDbLine
 10
922.652721
 20
2272.292999
 30
0.0
 11
868.79142
 21
2272.292999
 31
0.0
  0
ARC
  5
366
102
{ACAD_REACTORS
330
5D7
102
}
330
1F
100
AcDbEntity
  8
LC-002-002-----0
 62
     7
370
    25
100
AcDbCircle
 10
949.069343
 20
2254.292999
 30
0.0
 40
22.0
100
AcDbArc
 50
180.0
 51
0.0
  0
LINE
  5
367
102
{ACAD_REACTORS
330
5D7
102
}
330
1F
100
AcDbEntity
  8
LC-002-002-----0
 62
     7
370
    25
100
AcDbLine
 10
971.069343
 20
2254.292999
 30
0.0
 11
971.069343
 21
2267.984183
 31
0.0
  0
LINE
  5
368
102
{ACAD_REACTORS
330
5D7
102
}
330
1F
100
AcDbEntity
  8
LC-002-002-----0
 62
     7
370
    25
100
AcDbLine
 10
927.069343
 20
2254.292999
 30
0.0
 11
927.069343
 21
2267.984183
 31
0.0
  0
LINE
  5
369
102
{ACAD_REACTORS
330
5D7
102
}
330
1F
100
AcDbEntity
  8
LC-002-002-----0
 62
     7
370
    25
100
AcDbLine
 10
1004.069343
 20
2328.895227
 30
0.0
 11
894.069343
 21
2328.895227
 31
0.0
  0
LINE
  5
36A
102
{ACAD_REACTORS
330
5D7
102
}
330
1F
100
AcDbEntity
  8
LC-002-002-----0
 62
     7
370
    25
100
AcDbLine
 10
894.069343
 20
2324.895227
 30
0.0
 11
894.069343
 21
2328.895227
 31
0.0
  0
LINE
  5
36B
102
{ACAD_REACTORS
330
5D7
102
}
330
1F
100
AcDbEntity
  8
LC-002-002-----0
 62
     7
370
    25
100
AcDbLine
 10
911.569343
 20
2286.252546
 30
0.0
 11
986.569343
 21
2286.252546
 31
0.0
  0
LINE
  5
36C
102
{ACAD_REACTORS
330
5D7
102
}
330
1F
100
AcDbEntity
  8
LC-002-002-----0
 62
     7
370
    25
100
AcDbLine
 10
909.56438
 20
2288.752546
 30
0.0
 11
911.569343
 21
2288.752546
 31
0.0
  0
LINE
  5
36D
102
{ACAD_REACTORS
330
5D7
102
}
330
1F
100
AcDbEntity
  8
LC-002-002-----0
 62
     7
370
    25
100
AcDbLine
 10
906.319953
 20
2293.08232
 30
0.0
 11
904.569978
 21
2294.092669
 31
0.0
  0
LINE
  5
36E
102
{ACAD_REACTORS
330
5D7
102
}
330
1F
100
AcDbEntity
  8
LC-002-002-----0
 62
     7
370
    25
100
AcDbLine
 10
913.571206
 20
2285.549301
 30
0.0
 11
913.571206
 21
2286.252546
 31
0.0
  0
LINE
  5
36F
102
{ACAD_REACTORS
330
5D7
102
}
330
1F
100
AcDbEntity
  8
LC-002-002-----0
 62
     7
370
    25
100
AcDbLine
 10
911.569343
 20
2288.752546
 30
0.0
 11
911.569343
 21
2286.252546
 31
0.0
  0
LINE
  5
370
102
{ACAD_REACTORS
330
5D7
102
}
330
1F
100
AcDbEntity
  8
LC-002-002-----0
 62
     7
370
    25
100
AcDbLine
 10
901.569343
 20
2299.289188
 30
0.0
 11
901.569343
 21
2314.752546
 31
0.0
  0
LINE
  5
371
102
{ACAD_REACTORS
330
5D7
102
}
330
1F
100
AcDbEntity
  8
LC-002-002-----0
 62
     7
370
    25
100
AcDbLine
 10
920.780404
 20
2275.794165
 30
0.0
 11
920.301958
 21
2278.413029
 31
0.0
  0
LINE
  5
372
102
{ACAD_REACTORS
330
5D7
102
}
330
1F
100
AcDbEntity
  8
LC-002-002-----0
 62
     7
370
    25
100
AcDbLine
 10
894.069343
 20
2324.435004
 30
0.0
 11
894.069343
 21
2324.895227
 31
0.0
  0
ARC
  5
373
102
{ACAD_REACTORS
330
5D7
102
}
330
1F
100
AcDbEntity
  8
LC-002-002-----0
 62
     7
370
    25
100
AcDbCircle
 10
897.569343
 20
2314.752546
 30
0.0
 40
3.999999999999773
100
AcDbArc
 50
0.0
 51
75.507853
  0
ARC
  5
374
102
{ACAD_REACTORS
330
5D7
102
}
330
1F
100
AcDbEntity
  8
LC-002-002-----0
 62
     7
370
    25
100
AcDbCircle
 10
900.069343
 20
2324.435004
 30
0.0
 40
5.999999999999545
100
AcDbArc
 50
180.0
 51
255.530548
  0
ARC
  5
375
102
{ACAD_REACTORS
330
5D7
102
}
330
1F
100
AcDbEntity
  8
LC-002-002-----0
 62
     7
370
    25
100
AcDbCircle
 10
907.569343
 20
2299.289188
 30
0.0
 40
6.0
100
AcDbArc
 50
180.0
 51
240.011524
  0
ARC
  5
376
102
{ACAD_REACTORS
330
5D7
102
}
330
1F
100
AcDbEntity
  8
LC-002-002-----0
 62
     7
370
    25
100
AcDbCircle
 10
903.819343
 20
2288.752546
 30
0.0
 40
4.999999999999969
100
AcDbArc
 50
7.927775
 51
59.983847
  0
ARC
  5
377
102
{ACAD_REACTORS
330
5D7
102
}
330
1F
100
AcDbEntity
  8
LC-002-002-----0
 62
     7
370
    25
100
AcDbCircle
 10
909.563906
 20
2289.552546
 30
0.0
 40
0.7999999999996561
100
AcDbArc
 50
187.937394
 51
270.0
  0
ARC
  5
378
102
{ACAD_REACTORS
330
5D7
102
}
330
1F
100
AcDbEntity
  8
LC-002-002-----0
 62
     7
370
    25
100
AcDbCircle
 10
927.174568
 20
2276.962356
 30
0.0
 40
6.499999999999891
100
AcDbArc
 50
190.354177
 51
250.92296
  0
ARC
  5
379
102
{ACAD_REACTORS
330
5D7
102
}
330
1F
100
AcDbEntity
  8
LC-002-002-----0
 62
     7
370
    25
100
AcDbCircle
 10
924.069343
 20
2267.984183
 30
0.0
 40
3.000000000000227
100
AcDbArc
 50
0.0
 51
70.944552
  0
ARC
  5
37A
102
{ACAD_REACTORS
330
5D7
102
}
330
1F
100
AcDbEntity
  8
LC-002-002-----0
 62
     7
370
    25
100
AcDbCircle
 10
915.571206
 20
2285.549301
 30
0.0
 40
2.0
100
AcDbArc
 50
180.0
 51
205.847369
  0
ARC
  5
37B
102
{ACAD_REACTORS
330
5D7
102
}
330
1F
100
AcDbEntity
  8
LC-002-002-----0
 62
     7
370
    25
100
AcDbCircle
 10
919.171139
 20
2287.292999
 30
0.0
 40
6.000000000000001
100
AcDbArc
 50
205.844972
 51
253.716483
  0
ARC
  5
37C
102
{ACAD_REACTORS
330
5D7
102
}
330
1F
100
AcDbEntity
  8
LC-002-002-----0
 62
     7
370
    25
100
AcDbCircle
 10
916.367081
 20
2277.694183
 30
0.0
 40
4.000000000000468
100
AcDbArc
 50
10.352952
 51
73.718249
  0
LINE
  5
37D
102
{ACAD_REACTORS
330
5D7
102
}
330
1F
100
AcDbEntity
  8
LC-002-002-----0
 62
     7
370
    25
100
AcDbLine
 10
1004.069343
 20
2324.895227
 30
0.0
 11
1004.069343
 21
2328.895227
 31
0.0
  0
LINE
  5
37E
102
{ACAD_REACTORS
330
5D7
102
}
330
1F
100
AcDbEntity
  8
LC-002-002-----0
 62
     7
370
    25
100
AcDbLine
 10
991.818733
 20
2293.08232
 30
0.0
 11
993.568708
 21
2294.092669
 31
0.0
  0
LINE
  5
37F
102
{ACAD_REACTORS
330
5D7
102
}
330
1F
100
AcDbEntity
  8
LC-002-002-----0
 62
     7
370
    25
100
AcDbLine
 10
984.567481
 20
2285.549301
 30
0.0
 11
984.567481
 21
2286.252546
 31
0.0
  0
LINE
  5
380
102
{ACAD_REACTORS
330
5D7
102
}
330
1F
100
AcDbEntity
  8
LC-002-002-----0
 62
     7
370
    25
100
AcDbLine
 10
986.569343
 20
2288.752546
 30
0.0
 11
986.569343
 21
2286.252546
 31
0.0
  0
LINE
  5
381
102
{ACAD_REACTORS
330
5D7
102
}
330
1F
100
AcDbEntity
  8
LC-002-002-----0
 62
     7
370
    25
100
AcDbLine
 10
996.569343
 20
2299.289188
 30
0.0
 11
996.569343
 21
2314.752546
 31
0.0
  0
LINE
  5
382
102
{ACAD_REACTORS
330
5D7
102
}
330
1F
100
AcDbEntity
  8
LC-002-002-----0
 62
     7
370
    25
100
AcDbLine
 10
977.358282
 20
2275.794165
 30
0.0
 11
977.836729
 21
2278.413029
 31
0.0
  0
LINE
  5
383
102
{ACAD_REACTORS
330
5D7
102
}
330
1F
100
AcDbEntity
  8
LC-002-002-----0
 62
     7
370
    25
100
AcDbLine
 10
1004.069343
 20
2324.435004
 30
0.0
 11
1004.069343
 21
2324.895227
 31
0.0
  0
ARC
  5
384
102
{ACAD_REACTORS
330
5D7
102
}
330
1F
100
AcDbEntity
  8
LC-002-002-----0
 62
     7
370
    25
100
AcDbCircle
 10
1000.569343
 20
2314.752546
 30
0.0
 40
3.999999999999755
100
AcDbArc
 50
104.492147
 51
180.0
  0
ARC
  5
385
102
{ACAD_REACTORS
330
5D7
102
}
330
1F
100
AcDbEntity
  8
LC-002-002-----0
 62
     7
370
    25
100
AcDbCircle
 10
998.069343
 20
2324.435004
 30
0.0
 40
6.000000000000098
100
AcDbArc
 50
284.469452
 51
0.0
  0
ARC
  5
386
102
{ACAD_REACTORS
330
5D7
102
}
330
1F
100
AcDbEntity
  8
LC-002-002-----0
 62
     7
370
    25
100
AcDbCircle
 10
990.569343
 20
2299.289188
 30
0.0
 40
6.000000000000091
100
AcDbArc
 50
299.988476
 51
0.0
  0
ARC
  5
387
102
{ACAD_REACTORS
330
5D7
102
}
330
1F
100
AcDbEntity
  8
LC-002-002-----0
 62
     7
370
    25
100
AcDbCircle
 10
994.319343
 20
2288.752546
 30
0.0
 40
5.000000000000187
100
AcDbArc
 50
120.016153
 51
172.072225
  0
ARC
  5
388
102
{ACAD_REACTORS
330
5D7
102
}
330
1F
100
AcDbEntity
  8
LC-002-002-----0
 62
     7
370
    25
100
AcDbCircle
 10
988.574781
 20
2289.552546
 30
0.0
 40
0.7999999999997272
100
AcDbArc
 50
270.0
 51
352.062606
  0
ARC
  5
389
102
{ACAD_REACTORS
330
5D7
102
}
330
1F
100
AcDbEntity
  8
LC-002-002-----0
 62
     7
370
    25
100
AcDbCircle
 10
970.964118
 20
2276.962356
 30
0.0
 40
6.500000000000005
100
AcDbArc
 50
289.07704
 51
349.645823
  0
ARC
  5
38A
102
{ACAD_REACTORS
330
5D7
102
}
330
1F
100
AcDbEntity
  8
LC-002-002-----0
 62
     7
370
    25
100
AcDbCircle
 10
974.069343
 20
2267.984183
 30
0.0
 40
2.999999995699235
100
AcDbArc
 50
109.055448
 51
180.0
  0
ARC
  5
38B
102
{ACAD_REACTORS
330
5D7
102
}
330
1F
100
AcDbEntity
  8
LC-002-002-----0
 62
     7
370
    25
100
AcDbCircle
 10
982.567481
 20
2285.549301
 30
0.0
 40
1.999999999999567
100
AcDbArc
 50
334.152631
 51
0.0
  0
ARC
  5
38C
102
{ACAD_REACTORS
330
5D7
102
}
330
1F
100
AcDbEntity
  8
LC-002-002-----0
 62
     7
370
    25
100
AcDbCircle
 10
978.967547
 20
2287.292999
 30
0.0
 40
5.999999999999846
100
AcDbArc
 50
286.283517
 51
334.155028
  0
ARC
  5
38D
102
{ACAD_REACTORS
330
5D7
102
}
330
1F
100
AcDbEntity
  8
LC-002-002-----0
 62
     7
370
    25
100
AcDbCircle
 10
981.771606
 20
2277.694183
 30
0.0
 40
4.000000000000243
100
AcDbArc
 50
106.281751
 51
169.647048
  0
ARC
  5
38E
102
{ACAD_REACTORS
330
5D7
102
}
330
1F
100
AcDbEntity
  8
LC-002-002-----0
 62
     7
370
    25
100
AcDbCircle
 10
949.069343
 20
2254.292999
 30
0.0
 40
27.70479324130065
100
AcDbArc
 50
145.394244
 51
34.605756
  0
LINE
  5
38F
102
{ACAD_REACTORS
330
5D7
102
}
330
1F
100
AcDbEntity
  8
LC-002-002-----0
 62
     7
370
    25
100
AcDbLine
 10
986.569343
 20
2288.752546
 30
0.0
 11
988.574781
 21
2288.752546
 31
0.0
  0
LINE
  5
390
102
{ACAD_REACTORS
330
5D7
102
}
330
1F
100
AcDbEntity
  8
LC-002-002-----0
 62
     7
370
    25
100
AcDbLine
 10
865.29142
 20
2226.492999
 30
0.0
 11
865.29142
 21
2225.338223
 31
0.0
  0
LINE
  5
391
102
{ACAD_REACTORS
330
5D7
102
}
330
1F
100
AcDbEntity
  8
LC-002-002-----0
 62
     7
370
    25
100
AcDbLine
 10
722.069343
 20
2252.292999
 30
0.0
 11
722.069343
 21
2300.127847
 31
0.0
  0
LINE
  5
392
102
{ACAD_REACTORS
330
5D7
102
}
330
1F
100
AcDbEntity
  8
LC-002-002-----0
 62
     7
370
    25
100
AcDbLine
 10
762.069343
 20
2272.292999
 30
0.0
 11
762.069343
 21
2300.127847
 31
0.0
  0
LINE
  5
393
102
{ACAD_REACTORS
330
5D7
102
}
330
1F
100
AcDbEntity
  8
LC-002-002-----0
 62
     7
370
    25
100
AcDbLine
 10
866.29142
 20
2279.997792
 30
0.0
 11
868.79142
 21
2279.997792
 31
0.0
  0
LINE
  5
394
102
{ACAD_REACTORS
330
5D7
102
}
330
1F
100
AcDbEntity
  8
LC-002-002-----0
 62
     7
370
    25
100
AcDbLine
 10
865.29142
 20
2279.247792
 30
0.0
 11
865.54142
 21
2279.247792
 31
0.0
  0
LINE
  5
395
102
{ACAD_REACTORS
330
5D7
102
}
330
1F
100
AcDbEntity
  8
LC-002-002-----0
 62
     7
370
    25
100
AcDbLine
 10
865.29142
 20
2278.092999
 30
0.0
 11
851.79142
 21
2278.092999
 31
0.0
  0
LINE
  5
396
102
{ACAD_REACTORS
330
5D7
102
}
330
1F
100
AcDbEntity
  8
LC-002-002-----0
 62
     7
370
    25
100
AcDbLine
 10
865.541419
 20
2279.247791
 30
0.0
 11
866.291419
 21
2279.997791
 31
0.0
  0
ARC
  5
397
102
{ACAD_REACTORS
330
5D7
102
}
330
1F
100
AcDbEntity
  8
LC-002-002-----0
 62
     7
370
    25
100
AcDbCircle
 10
851.79142
 20
2276.092999
 30
0.0
 40
2.0
100
AcDbArc
 50
90.0
 51
180.0
  0
LINE
  5
398
102
{ACAD_REACTORS
330
5D7
102
}
330
1F
100
AcDbEntity
  8
LC-002-002-----0
 62
     7
370
    25
100
AcDbLine
 10
865.29142
 20
2278.092999
 30
0.0
 11
865.29142
 21
2279.247774
 31
0.0
  0
LINE
  5
399
102
{ACAD_REACTORS
330
5D7
102
}
330
1F
100
AcDbEntity
  8
LC-002-002-----0
 62
     7
370
    25
100
AcDbLine
 10
849.79142
 20
2272.292999
 30
0.0
 11
762.069343
 21
2272.292999
 31
0.0
  0
LINE
  5
39A
102
{ACAD_REACTORS
330
5D7
102
}
330
1F
100
AcDbEntity
  8
LC-002-002-----0
 62
     7
370
    25
100
AcDbLine
 10
849.79142
 20
2232.292999
 30
0.0
 11
742.069343
 21
2232.292999
 31
0.0
  0
LINE
  5
39B
102
{ACAD_REACTORS
330
5D1
102
}
330
1F
100
AcDbEntity
  8
LC-002-002-----0
 62
     7
370
    25
100
AcDbLine
 10
1433.097735
 20
1847.682587
 30
0.0
 11
1433.86828
 21
1849.162789
 31
0.0
  0
LINE
  5
39C
102
{ACAD_REACTORS
330
5D1
102
}
330
1F
100
AcDbEntity
  8
LC-002-002-----0
 62
     7
370
    25
100
AcDbLine
 10
1434.638555
 20
1847.682475
 30
0.0
 11
1435.409213
 21
1849.162894
 31
0.0
  0
LINE
  5
39D
102
{ACAD_REACTORS
330
5D1
102
}
330
1F
100
AcDbEntity
  8
LC-002-002-----0
 62
     7
370
    25
100
AcDbLine
 10
1436.179492
 20
1847.682587
 30
0.0
 11
1436.949925
 21
1849.162574
 31
0.0
  0
LINE
  5
39E
102
{ACAD_REACTORS
330
5D1
102
}
330
1F
100
AcDbEntity
  8
LC-002-002-----0
 62
     7
370
    25
100
AcDbLine
 10
1437.720371
 20
1847.682587
 30
0.0
 11
1438.490803
 21
1849.162574
 31
0.0
  0
LINE
  5
39F
102
{ACAD_REACTORS
330
5D1
102
}
330
1F
100
AcDbEntity
  8
LC-002-002-----0
 62
     7
370
    25
100
AcDbLine
 10
1439.261249
 20
1847.682587
 30
0.0
 11
1440.031682
 21
1849.162574
 31
0.0
  0
LINE
  5
3A0
102
{ACAD_REACTORS
330
5D1
102
}
330
1F
100
AcDbEntity
  8
LC-002-002-----0
 62
     7
370
    25
100
AcDbLine
 10
1440.802128
 20
1847.682587
 30
0.0
 11
1441.57256
 21
1849.162574
 31
0.0
  0
LINE
  5
3A1
102
{ACAD_REACTORS
330
5D1
102
}
330
1F
100
AcDbEntity
  8
LC-002-002-----0
 62
     7
370
    25
100
AcDbLine
 10
1442.343006
 20
1847.682587
 30
0.0
 11
1443.113439
 21
1849.162574
 31
0.0
  0
LINE
  5
3A2
102
{ACAD_REACTORS
330
5D1
102
}
330
1F
100
AcDbEntity
  8
LC-002-002-----0
 62
     7
370
    25
100
AcDbLine
 10
1445.113465
 20
1848.448657
 30
0.0
 11
1448.227213
 21
1851.562405
 31
0.0
  0
LINE
  5
3A3
102
{ACAD_REACTORS
330
5D1
102
}
330
1F
100
AcDbEntity
  8
LC-002-002-----0
 62
     7
370
    25
100
AcDbLine
 10
1431.327189
 20
1849.162381
 30
0.0
 11
1431.327189
 21
1893.962381
 31
0.0
  0
LINE
  5
3A4
102
{ACAD_REACTORS
330
5D1
102
}
330
1F
100
AcDbEntity
  8
LC-002-002-----0
 62
     7
370
    25
100
AcDbLine
 10
1449.327309
 20
1843.657288
 30
0.0
 11
1451.327213
 21
1845.657192
 31
0.0
  0
LINE
  5
3A5
102
{ACAD_REACTORS
330
5D1
102
}
330
1F
100
AcDbEntity
  8
LC-002-002-----0
 62
     7
370
    25
100
AcDbLine
 10
1448.227189
 20
1891.562381
 30
0.0
 11
1451.327189
 21
1891.562381
 31
0.0
  0
LINE
  5
3A6
102
{ACAD_REACTORS
330
5D1
102
}
330
1F
100
AcDbEntity
  8
LC-002-002-----0
 62
     7
370
    25
100
AcDbLine
 10
1443.622396
 20
1819.157168
 30
0.0
 11
1443.622396
 21
1821.657168
 31
0.0
  0
LINE
  5
3A7
102
{ACAD_REACTORS
330
5D1
102
}
330
1F
100
AcDbEntity
  8
LC-002-002-----0
 62
     7
370
    25
100
AcDbLine
 10
1444.372396
 20
1818.157168
 30
0.0
 11
1444.372396
 21
1818.407168
 31
0.0
  0
LINE
  5
3A8
102
{ACAD_REACTORS
330
5D1
102
}
330
1F
100
AcDbEntity
  8
LC-002-002-----0
 62
     7
370
    25
100
AcDbLine
 10
1445.113465
 20
1848.448657
 30
0.0
 11
1445.113465
 21
1894.676105
 31
0.0
  0
LINE
  5
3A9
102
{ACAD_REACTORS
330
5D1
102
}
330
1F
100
AcDbEntity
  8
LC-002-002-----0
 62
     7
370
    25
100
AcDbLine
 10
1445.527189
 20
1818.157168
 30
0.0
 11
1445.527189
 21
1804.657168
 31
0.0
  0
LINE
  5
3AA
102
{ACAD_REACTORS
330
5D1
102
}
330
1F
100
AcDbEntity
  8
LC-002-002-----0
 62
     7
370
    25
100
AcDbLine
 10
1449.327189
 20
1821.657168
 30
0.0
 11
1449.327189
 21
1843.657168
 31
0.0
  0
LINE
  5
3AB
102
{ACAD_REACTORS
330
5D1
102
}
330
1F
100
AcDbEntity
  8
LC-002-002-----0
 62
     7
370
    25
100
AcDbLine
 10
1451.327189
 20
1781.479867
 30
0.0
 11
1451.327189
 21
1802.657168
 31
0.0
  0
LINE
  5
3AC
102
{ACAD_REACTORS
330
5D1
102
}
330
1F
100
AcDbEntity
  8
LC-002-002-----0
 62
     7
370
    25
100
AcDbLine
 10
1451.327189
 20
1851.057766
 30
0.0
 11
1451.327189
 21
1845.657168
 31
0.0
  0
LINE
  5
3AD
102
{ACAD_REACTORS
330
5D1
102
}
330
1F
100
AcDbEntity
  8
LC-002-002-----0
 62
     7
370
    25
100
AcDbLine
 10
1491.327189
 20
1781.479867
 30
0.0
 11
1491.327189
 21
1802.657168
 31
0.0
  0
LINE
  5
3AE
102
{ACAD_REACTORS
330
5D1
102
}
330
1F
100
AcDbEntity
  8
LC-002-002-----0
 62
     7
370
    25
100
AcDbLine
 10
1491.327189
 20
1851.562381
 30
0.0
 11
1491.327189
 21
1845.657168
 31
0.0
  0
LINE
  5
3AF
102
{ACAD_REACTORS
330
5D1
102
}
330
1F
100
AcDbEntity
  8
LC-002-002-----0
 62
     7
370
    25
100
AcDbLine
 10
1493.327189
 20
1821.657168
 30
0.0
 11
1493.327189
 21
1843.657168
 31
0.0
  0
LINE
  5
3B0
102
{ACAD_REACTORS
330
5D1
102
}
330
1F
100
AcDbEntity
  8
LC-002-002-----0
 62
     7
370
    25
100
AcDbLine
 10
1498.281981
 20
1818.407167
 30
0.0
 11
1499.031981
 21
1819.157167
 31
0.0
  0
LINE
  5
3B1
102
{ACAD_REACTORS
330
5D1
102
}
330
1F
100
AcDbEntity
  8
LC-002-002-----0
 62
     7
370
    25
100
AcDbLine
 10
1448.227189
 20
1851.562381
 30
0.0
 11
1450.822573
 21
1851.562381
 31
0.0
  0
LINE
  5
3B2
102
{ACAD_REACTORS
330
5D1
102
}
330
1F
100
AcDbEntity
  8
LC-002-002-----0
 62
     7
370
    25
100
AcDbLine
 10
1431.327189
 20
1849.162381
 30
0.0
 11
1432.327189
 21
1849.162381
 31
0.0
  0
LINE
  5
3B3
102
{ACAD_REACTORS
330
5D1
102
}
330
1F
100
AcDbEntity
  8
LC-002-002-----0
 62
     7
370
    25
100
AcDbLine
 10
1443.113338
 20
1849.162381
 30
0.0
 11
1445.113338
 21
1849.162381
 31
0.0
  0
LINE
  5
3B4
102
{ACAD_REACTORS
330
5D1
102
}
330
1F
100
AcDbEntity
  8
LC-002-002-----0
 62
     7
370
    25
100
AcDbLine
 10
1497.127189
 20
1818.157168
 30
0.0
 11
1497.127189
 21
1804.657168
 31
0.0
  0
LINE
  5
3B5
102
{ACAD_REACTORS
330
5D1
102
}
330
1F
100
AcDbEntity
  8
LC-002-002-----0
 62
     7
370
    25
100
AcDbLine
 10
1498.281982
 20
1818.157168
 30
0.0
 11
1498.281982
 21
1818.407168
 31
0.0
  0
LINE
  5
3B6
102
{ACAD_REACTORS
330
5D1
102
}
330
1F
100
AcDbEntity
  8
LC-002-002-----0
 62
     7
370
    25
100
AcDbLine
 10
1499.031982
 20
1819.157168
 30
0.0
 11
1499.031982
 21
1821.657168
 31
0.0
  0
LINE
  5
3B7
102
{ACAD_REACTORS
330
5D1
102
}
330
1F
100
AcDbEntity
  8
LC-002-002-----0
 62
     7
370
    25
100
AcDbLine
 10
1443.622396
 20
1821.657168
 30
0.0
 11
1499.031982
 21
1821.657168
 31
0.0
  0
LINE
  5
3B8
102
{ACAD_REACTORS
330
5D1
102
}
330
1F
100
AcDbEntity
  8
LC-002-002-----0
 62
     7
370
    25
100
AcDbLine
 10
1498.281982
 20
1818.157168
 30
0.0
 11
1497.127189
 21
1818.157168
 31
0.0
  0
LINE
  5
3B9
102
{ACAD_REACTORS
330
5D1
102
}
330
1F
100
AcDbEntity
  8
LC-002-002-----0
 62
     7
370
    25
100
AcDbLine
 10
1495.127309
 20
1802.657168
 30
0.0
 11
1447.527189
 21
1802.657168
 31
0.0
  0
LINE
  5
3BA
102
{ACAD_REACTORS
330
5D1
102
}
330
1F
100
AcDbEntity
  8
LC-002-002-----0
 62
     7
370
    25
100
AcDbLine
 10
1445.113465
 20
1894.676105
 30
0.0
 11
1448.227213
 21
1891.562357
 31
0.0
  0
LINE
  5
3BB
102
{ACAD_REACTORS
330
5D1
102
}
330
1F
100
AcDbEntity
  8
LC-002-002-----0
 62
     7
370
    25
100
AcDbLine
 10
1493.327069
 20
1843.657288
 30
0.0
 11
1491.327131
 21
1845.657225
 31
0.0
  0
LINE
  5
3BC
102
{ACAD_REACTORS
330
5D1
102
}
330
1F
100
AcDbEntity
  8
LC-002-002-----0
 62
     7
370
    25
100
AcDbLine
 10
1444.372397
 20
1818.407167
 30
0.0
 11
1443.622397
 21
1819.157167
 31
0.0
  0
LINE
  5
3BD
102
{ACAD_REACTORS
330
5D1
102
}
330
1F
100
AcDbEntity
  8
LC-002-002-----0
 62
     7
370
    25
100
AcDbLine
 10
1441.572414
 20
1849.162469
 30
0.0
 11
1442.34285
 21
1847.682475
 31
0.0
  0
LINE
  5
3BE
102
{ACAD_REACTORS
330
5D1
102
}
330
1F
100
AcDbEntity
  8
LC-002-002-----0
 62
     7
370
    25
100
AcDbLine
 10
1440.031536
 20
1849.162469
 30
0.0
 11
1440.801972
 21
1847.682475
 31
0.0
  0
LINE
  5
3BF
102
{ACAD_REACTORS
330
5D1
102
}
330
1F
100
AcDbEntity
  8
LC-002-002-----0
 62
     7
370
    25
100
AcDbLine
 10
1438.490657
 20
1849.162469
 30
0.0
 11
1439.261093
 21
1847.682475
 31
0.0
  0
LINE
  5
3C0
102
{ACAD_REACTORS
330
5D1
102
}
330
1F
100
AcDbEntity
  8
LC-002-002-----0
 62
     7
370
    25
100
AcDbLine
 10
1436.949779
 20
1849.162469
 30
0.0
 11
1437.720215
 21
1847.682475
 31
0.0
  0
LINE
  5
3C1
102
{ACAD_REACTORS
330
5D1
102
}
330
1F
100
AcDbEntity
  8
LC-002-002-----0
 62
     7
370
    25
100
AcDbLine
 10
1435.408734
 20
1849.162789
 30
0.0
 11
1436.179336
 21
1847.682475
 31
0.0
  0
LINE
  5
3C2
102
{ACAD_REACTORS
330
5D1
102
}
330
1F
100
AcDbEntity
  8
LC-002-002-----0
 62
     7
370
    25
100
AcDbLine
 10
1433.8678
 20
1849.162894
 30
0.0
 11
1434.6384
 21
1847.682587
 31
0.0
  0
LINE
  5
3C3
102
{ACAD_REACTORS
330
5D1
102
}
330
1F
100
AcDbEntity
  8
LC-002-002-----0
 62
     7
370
    25
100
AcDbLine
 10
1432.326977
 20
1849.162789
 30
0.0
 11
1433.09758
 21
1847.682475
 31
0.0
  0
ARC
  5
3C4
102
{ACAD_REACTORS
330
5D1
102
}
330
1F
100
AcDbEntity
  8
LC-002-002-----0
 62
     7
370
    25
100
AcDbCircle
 10
1451.327189
 20
1851.562381
 30
0.0
 40
39.99972357249999
100
AcDbArc
 50
0.0
 51
90.0
  0
ARC
  5
3C5
102
{ACAD_REACTORS
330
5D1
102
}
330
1F
100
AcDbEntity
  8
LC-002-002-----0
 62
     7
370
    25
100
AcDbCircle
 10
1447.527189
 20
1804.657168
 30
0.0
 40
2.0
100
AcDbArc
 50
180.0
 51
270.0
  0
ARC
  5
3C6
102
{ACAD_REACTORS
330
5D1
102
}
330
1F
100
AcDbEntity
  8
LC-002-002-----0
 62
     7
370
    25
100
AcDbCircle
 10
1495.127189
 20
1804.657168
 30
0.0
 40
2.0
100
AcDbArc
 50
270.0
 51
360.0
  0
LINE
  5
3C7
102
{ACAD_REACTORS
330
5D1
102
}
330
1F
100
AcDbEntity
  8
LC-002-002-----0
 62
     7
370
    25
100
AcDbLine
 10
1450.822573
 20
1851.562381
 30
0.0
 11
1451.180742
 21
1851.415934
 31
0.0
  0
LINE
  5
3C8
102
{ACAD_REACTORS
330
5D1
102
}
330
1F
100
AcDbEntity
  8
LC-002-002-----0
 62
     7
370
    25
100
AcDbLine
 10
1451.180742
 20
1851.415934
 30
0.0
 11
1451.327189
 21
1851.057766
 31
0.0
  0
LINE
  5
3C9
102
{ACAD_REACTORS
330
5D1
102
}
330
1F
100
AcDbEntity
  8
LC-002-002-----0
 62
     7
370
    25
100
AcDbLine
 10
1433.097735
 20
1895.442175
 30
0.0
 11
1433.86828
 21
1893.961973
 31
0.0
  0
LINE
  5
3CA
102
{ACAD_REACTORS
330
5D1
102
}
330
1F
100
AcDbEntity
  8
LC-002-002-----0
 62
     7
370
    25
100
AcDbLine
 10
1434.638555
 20
1895.442287
 30
0.0
 11
1435.409213
 21
1893.961868
 31
0.0
  0
LINE
  5
3CB
102
{ACAD_REACTORS
330
5D1
102
}
330
1F
100
AcDbEntity
  8
LC-002-002-----0
 62
     7
370
    25
100
AcDbLine
 10
1436.179492
 20
1895.442175
 30
0.0
 11
1436.949925
 21
1893.962188
 31
0.0
  0
LINE
  5
3CC
102
{ACAD_REACTORS
330
5D1
102
}
330
1F
100
AcDbEntity
  8
LC-002-002-----0
 62
     7
370
    25
100
AcDbLine
 10
1437.720371
 20
1895.442175
 30
0.0
 11
1438.490803
 21
1893.962188
 31
0.0
  0
LINE
  5
3CD
102
{ACAD_REACTORS
330
5D1
102
}
330
1F
100
AcDbEntity
  8
LC-002-002-----0
 62
     7
370
    25
100
AcDbLine
 10
1439.261249
 20
1895.442175
 30
0.0
 11
1440.031682
 21
1893.962188
 31
0.0
  0
LINE
  5
3CE
102
{ACAD_REACTORS
330
5D1
102
}
330
1F
100
AcDbEntity
  8
LC-002-002-----0
 62
     7
370
    25
100
AcDbLine
 10
1440.802128
 20
1895.442175
 30
0.0
 11
1441.57256
 21
1893.962188
 31
0.0
  0
LINE
  5
3CF
102
{ACAD_REACTORS
330
5D1
102
}
330
1F
100
AcDbEntity
  8
LC-002-002-----0
 62
     7
370
    25
100
AcDbLine
 10
1442.343006
 20
1895.442175
 30
0.0
 11
1443.113439
 21
1893.962188
 31
0.0
  0
LINE
  5
3D0
102
{ACAD_REACTORS
330
5D1
102
}
330
1F
100
AcDbEntity
  8
LC-002-002-----0
 62
     7
370
    25
100
AcDbLine
 10
1431.327189
 20
1893.962381
 30
0.0
 11
1432.327189
 21
1893.962381
 31
0.0
  0
LINE
  5
3D1
102
{ACAD_REACTORS
330
5D1
102
}
330
1F
100
AcDbEntity
  8
LC-002-002-----0
 62
     7
370
    25
100
AcDbLine
 10
1443.113338
 20
1893.962381
 30
0.0
 11
1445.113338
 21
1893.962381
 31
0.0
  0
LINE
  5
3D2
102
{ACAD_REACTORS
330
5D1
102
}
330
1F
100
AcDbEntity
  8
LC-002-002-----0
 62
     7
370
    25
100
AcDbLine
 10
1441.572414
 20
1893.962293
 30
0.0
 11
1442.34285
 21
1895.442287
 31
0.0
  0
LINE
  5
3D3
102
{ACAD_REACTORS
330
5D1
102
}
330
1F
100
AcDbEntity
  8
LC-002-002-----0
 62
     7
370
    25
100
AcDbLine
 10
1440.031536
 20
1893.962293
 30
0.0
 11
1440.801972
 21
1895.442287
 31
0.0
  0
LINE
  5
3D4
102
{ACAD_REACTORS
330
5D1
102
}
330
1F
100
AcDbEntity
  8
LC-002-002-----0
 62
     7
370
    25
100
AcDbLine
 10
1438.490657
 20
1893.962293
 30
0.0
 11
1439.261093
 21
1895.442287
 31
0.0
  0
LINE
  5
3D5
102
{ACAD_REACTORS
330
5D1
102
}
330
1F
100
AcDbEntity
  8
LC-002-002-----0
 62
     7
370
    25
100
AcDbLine
 10
1436.949779
 20
1893.962293
 30
0.0
 11
1437.720215
 21
1895.442287
 31
0.0
  0
LINE
  5
3D6
102
{ACAD_REACTORS
330
5D1
102
}
330
1F
100
AcDbEntity
  8
LC-002-002-----0
 62
     7
370
    25
100
AcDbLine
 10
1435.408734
 20
1893.961973
 30
0.0
 11
1436.179336
 21
1895.442287
 31
0.0
  0
LINE
  5
3D7
102
{ACAD_REACTORS
330
5D1
102
}
330
1F
100
AcDbEntity
  8
LC-002-002-----0
 62
     7
370
    25
100
AcDbLine
 10
1433.8678
 20
1893.961868
 30
0.0
 11
1434.6384
 21
1895.442175
 31
0.0
  0
LINE
  5
3D8
102
{ACAD_REACTORS
330
5D1
102
}
330
1F
100
AcDbEntity
  8
LC-002-002-----0
 62
     7
370
    25
100
AcDbLine
 10
1432.326977
 20
1893.961973
 30
0.0
 11
1433.09758
 21
1895.442287
 31
0.0
  0
LINE
  5
3D9
102
{ACAD_REACTORS
330
5D1
102
}
330
1F
100
AcDbEntity
  8
LC-002-002-----0
 62
     7
370
    25
100
AcDbLine
 10
1471.325737
 20
1818.157168
 30
0.0
 11
1471.325737
 21
1804.657168
 31
0.0
  0
INSERT
  5
3E9
102
{ACAD_REACTORS
330
5D1
102
}
330
1F
100
AcDbEntity
  8
LC-002-002-----0
 62
     7
370
    25
100
AcDbBlockReference
  2
POLY2
 10
0.0
 20
0.0
 30
0.0
  0
LINE
  5
3EA
102
{ACAD_REACTORS
330
5D3
102
}
330
1F
100
AcDbEntity
  8
LC-002-002-----0
 62
     7
370
    25
100
AcDbLine
 10
1448.927189
 20
1683.808128
 30
0.0
 11
1448.927189
 21
1707.308128
 31
0.0
  0
LINE
  5
3EB
102
{ACAD_REACTORS
330
5D2
102
}
330
1F
100
AcDbEntity
  8
LC-002-002-----0
 62
     7
370
    25
100
AcDbLine
 10
1451.327189
 20
1726.308128
 30
0.0
 11
1451.327189
 21
1762.308128
 31
0.0
  0
LINE
  5
3EC
102
{ACAD_REACTORS
330
5D2
102
}
330
1F
100
AcDbEntity
  8
LC-002-002-----0
 62
     7
370
    25
100
AcDbLine
 10
1491.327189
 20
1726.308128
 30
0.0
 11
1491.327189
 21
1762.308128
 31
0.0
  0
LINE
  5
3ED
102
{ACAD_REACTORS
330
5D3
102
}
330
1F
100
AcDbEntity
  8
LC-002-002-----0
 62
     7
370
    25
100
AcDbLine
 10
1493.727189
 20
1685.761277
 30
0.0
 11
1493.727189
 21
1707.308128
 31
0.0
  0
ARC
  5
3EE
102
{ACAD_REACTORS
330
5D2
102
}
330
1F
100
AcDbEntity
  8
LC-002-002-----0
 62
     7
370
    25
100
AcDbCircle
 10
1471.327189
 20
1762.308128
 30
0.0
 40
20.0
100
AcDbArc
 50
0.0
 51
180.0
  0
LINE
  5
3EF
102
{ACAD_REACTORS
330
5D3
102
}
330
1F
100
AcDbEntity
  8
LC-002-002-----0
 62
     7
370
    25
100
AcDbLine
 10
1443.622396
 20
1709.808128
 30
0.0
 11
1443.622396
 21
1707.308128
 31
0.0
  0
LINE
  5
3F0
102
{ACAD_REACTORS
330
5D3
102
}
330
1F
100
AcDbEntity
  8
LC-002-002-----0
 62
     7
370
    25
100
AcDbLine
 10
1444.372396
 20
1710.808128
 30
0.0
 11
1444.372396
 21
1710.558128
 31
0.0
  0
LINE
  5
3F1
102
{ACAD_REACTORS
330
5D3
102
}
330
1F
100
AcDbEntity
  8
LC-002-002-----0
 62
     7
370
    25
100
AcDbLine
 10
1445.527189
 20
1710.808128
 30
0.0
 11
1445.527189
 21
1724.308128
 31
0.0
  0
LINE
  5
3F2
102
{ACAD_REACTORS
330
5D3
102
}
330
1F
100
AcDbEntity
  8
LC-002-002-----0
 62
     7
370
    25
100
AcDbLine
 10
1497.127189
 20
1710.808128
 30
0.0
 11
1497.127189
 21
1724.308128
 31
0.0
  0
LINE
  5
3F3
102
{ACAD_REACTORS
330
5D3
102
}
330
1F
100
AcDbEntity
  8
LC-002-002-----0
 62
     7
370
    25
100
AcDbLine
 10
1498.281982
 20
1710.808128
 30
0.0
 11
1498.281982
 21
1710.558128
 31
0.0
  0
LINE
  5
3F4
102
{ACAD_REACTORS
330
5D3
102
}
330
1F
100
AcDbEntity
  8
LC-002-002-----0
 62
     7
370
    25
100
AcDbLine
 10
1499.031982
 20
1709.808128
 30
0.0
 11
1499.031982
 21
1707.308128
 31
0.0
  0
LINE
  5
3F5
102
{ACAD_REACTORS
330
5D3
102
}
330
1F
100
AcDbEntity
  8
LC-002-002-----0
 62
     7
370
    25
100
AcDbLine
 10
1444.372397
 20
1710.55813
 30
0.0
 11
1443.622397
 21
1709.80813
 31
0.0
  0
LINE
  5
3F6
102
{ACAD_REACTORS
330
5D3
102
}
330
1F
100
AcDbEntity
  8
LC-002-002-----0
 62
     7
370
    25
100
AcDbLine
 10
1495.127189
 20
1726.308128
 30
0.0
 11
1447.527189
 21
1726.308128
 31
0.0
  0
LINE
  5
3F7
102
{ACAD_REACTORS
330
5D3
102
}
330
1F
100
AcDbEntity
  8
LC-002-002-----0
 62
     7
370
    25
100
AcDbLine
 10
1498.281965
 20
1710.808128
 30
0.0
 11
1497.127189
 21
1710.808128
 31
0.0
  0
LINE
  5
3F8
102
{ACAD_REACTORS
330
5D3
102
}
330
1F
100
AcDbEntity
  8
LC-002-002-----0
 62
     7
370
    25
100
AcDbLine
 10
1499.031982
 20
1707.308128
 30
0.0
 11
1443.622396
 21
1707.308128
 31
0.0
  0
LINE
  5
3F9
102
{ACAD_REACTORS
330
5D3
102
}
330
1F
100
AcDbEntity
  8
LC-002-002-----0
 62
     7
370
    25
100
AcDbLine
 10
1498.281981
 20
1710.55813
 30
0.0
 11
1499.031981
 21
1709.80813
 31
0.0
  0
ARC
  5
3FA
102
{ACAD_REACTORS
330
5D3
102
}
330
1F
100
AcDbEntity
  8
LC-002-002-----0
 62
     7
370
    25
100
AcDbCircle
 10
1495.127189
 20
1724.308128
 30
0.0
 40
2.0
100
AcDbArc
 50
0.0
 51
90.0
  0
ARC
  5
3FB
102
{ACAD_REACTORS
330
5D3
102
}
330
1F
100
AcDbEntity
  8
LC-002-002-----0
 62
     7
370
    25
100
AcDbCircle
 10
1447.527189
 20
1724.308128
 30
0.0
 40
2.0
100
AcDbArc
 50
90.0
 51
180.0
  0
LINE
  5
3FC
102
{ACAD_REACTORS
330
5D3
102
}
330
1F
100
AcDbEntity
  8
LC-002-002-----0
 62
     7
370
    25
100
AcDbLine
 10
1471.325737
 20
1710.808128
 30
0.0
 11
1471.325737
 21
1724.308128
 31
0.0
  0
INSERT
  5
40C
102
{ACAD_REACTORS
330
5D3
102
}
330
1F
100
AcDbEntity
  8
LC-002-002-----0
 62
     7
370
    25
100
AcDbBlockReference
  2
POLY3
 10
0.0
 20
0.0
 30
0.0
  0
ARC
  5
40D
102
{ACAD_REACTORS
330
5D2
102
}
330
1F
100
AcDbEntity
  8
LC-002-002-----0
 62
     7
370
    25
100
AcDbCircle
 10
1471.327189
 20
1762.308128
 30
0.0
 40
27.70479324130114
100
AcDbArc
 50
316.211302
 51
223.788698
  0
LINE
  5
40E
102
{ACAD_REACTORS
330
5D3
102
}
330
1F
100
AcDbEntity
  8
LC-002-002-----0
 62
     7
370
    25
100
AcDbLine
 10
1449.327189
 20
1657.308128
 30
0.0
 11
1449.327189
 21
1683.408128
 31
0.0
  0
ARC
  5
40F
102
{ACAD_REACTORS
330
5D3
102
}
330
1F
100
AcDbEntity
  8
LC-004-002-RND-0
 62
     7
370
    25
100
AcDbCircle
 10
1471.327189
 20
1657.308128
 30
0.0
 40
22.0
100
AcDbArc
 50
180.0
 51
270.0
  0
LINE
  5
410
102
{ACAD_REACTORS
330
5D3
102
}
330
1F
100
AcDbEntity
  8
LC-002-002-----0
 62
     7
370
    25
100
AcDbLine
 10
1503.286736
 20
1619.808128
 30
0.0
 11
1503.286736
 21
1641.923295
 31
0.0
  0
LINE
  5
411
102
{ACAD_REACTORS
330
5D3
102
}
330
1F
100
AcDbEntity
  8
LC-002-002-----0
 62
     7
370
    25
100
AcDbLine
 10
1493.727189
 20
1685.761277
 30
0.0
 11
1495.447219
 21
1686.075514
 31
0.0
  0
LINE
  5
412
102
{ACAD_REACTORS
330
5D3
102
}
330
1F
100
AcDbEntity
  8
LC-002-002-----0
 62
     7
370
    25
100
AcDbLine
 10
1505.786736
 20
1694.808128
 30
0.0
 11
1503.286736
 21
1694.808128
 31
0.0
  0
LINE
  5
413
102
{ACAD_REACTORS
330
5D3
102
}
330
1F
100
AcDbEntity
  8
LC-002-002-----0
 62
     7
370
    25
100
AcDbLine
 10
1502.583492
 20
1692.806266
 30
0.0
 11
1503.286736
 21
1692.806266
 31
0.0
  0
LINE
  5
414
102
{ACAD_REACTORS
330
5D3
102
}
330
1F
100
AcDbEntity
  8
LC-002-002-----0
 62
     7
370
    25
100
AcDbLine
 10
1471.327189
 20
1635.308128
 30
0.0
 11
1485.018374
 21
1635.308128
 31
0.0
  0
LINE
  5
415
102
{ACAD_REACTORS
330
5D3
102
}
330
1F
100
AcDbEntity
  8
LC-002-002-----0
 62
     7
370
    25
100
AcDbLine
 10
1502.583492
 20
1621.809991
 30
0.0
 11
1503.286736
 21
1621.809991
 31
0.0
  0
LINE
  5
416
102
{ACAD_REACTORS
330
5D3
102
}
330
1F
100
AcDbEntity
  8
LC-002-002-----0
 62
     7
370
    25
100
AcDbLine
 10
1505.786736
 20
1619.808128
 30
0.0
 11
1503.286736
 21
1619.808128
 31
0.0
  0
LINE
  5
417
102
{ACAD_REACTORS
330
5D3
102
}
330
1F
100
AcDbEntity
  8
LC-002-002-----0
 62
     7
370
    25
100
AcDbLine
 10
1492.828356
 20
1629.019189
 30
0.0
 11
1495.447219
 21
1628.540743
 31
0.0
  0
LINE
  5
418
102
{ACAD_REACTORS
330
5D3
102
}
330
1F
100
AcDbEntity
  8
LC-002-002-----0
 62
     7
370
    25
100
AcDbLine
 10
1448.927216
 20
1683.808101
 30
0.0
 11
1449.327297
 21
1683.408021
 31
0.0
  0
ARC
  5
419
102
{ACAD_REACTORS
330
5D3
102
}
330
1F
100
AcDbEntity
  8
LC-002-002-----0
 62
     7
370
    25
100
AcDbCircle
 10
1493.996546
 20
1635.413353
 30
0.0
 40
6.500000000000005
100
AcDbArc
 50
199.07704
 51
259.645823
  0
ARC
  5
41A
102
{ACAD_REACTORS
330
5D3
102
}
330
1F
100
AcDbEntity
  8
LC-002-002-----0
 62
     7
370
    25
100
AcDbCircle
 10
1485.018374
 20
1632.308128
 30
0.0
 40
3.000000000000295
100
AcDbArc
 50
19.055448
 51
90.0
  0
ARC
  5
41B
102
{ACAD_REACTORS
330
5D3
102
}
330
1F
100
AcDbEntity
  8
LC-002-002-----0
 62
     7
370
    25
100
AcDbCircle
 10
1502.583492
 20
1623.809991
 30
0.0
 40
1.999999999999667
100
AcDbArc
 50
244.152631
 51
270.0
  0
ARC
  5
41C
102
{ACAD_REACTORS
330
5D3
102
}
330
1F
100
AcDbEntity
  8
LC-002-002-----0
 62
     7
370
    25
100
AcDbCircle
 10
1502.583492
 20
1690.806266
 30
0.0
 40
2.0
100
AcDbArc
 50
90.0
 51
115.847369
  0
ARC
  5
41D
102
{ACAD_REACTORS
330
5D3
102
}
330
1F
100
AcDbEntity
  8
LC-002-002-----0
 62
     7
370
    25
100
AcDbCircle
 10
1504.327189
 20
1627.409924
 30
0.0
 40
6.0000000000001
100
AcDbArc
 50
196.283517
 51
244.155028
  0
ARC
  5
41E
102
{ACAD_REACTORS
330
5D3
102
}
330
1F
100
AcDbEntity
  8
LC-002-002-----0
 62
     7
370
    25
100
AcDbCircle
 10
1504.327189
 20
1687.206333
 30
0.0
 40
6.000000000000001
100
AcDbArc
 50
115.844972
 51
163.716483
  0
ARC
  5
41F
102
{ACAD_REACTORS
330
5D3
102
}
330
1F
100
AcDbEntity
  8
LC-002-002-----0
 62
     7
370
    25
100
AcDbCircle
 10
1494.728374
 20
1624.605866
 30
0.0
 40
3.999999999999806
100
AcDbArc
 50
16.281751
 51
79.647048
  0
ARC
  5
420
102
{ACAD_REACTORS
330
5D3
102
}
330
1F
100
AcDbEntity
  8
LC-002-002-----0
 62
     7
370
    25
100
AcDbCircle
 10
1494.728374
 20
1690.010391
 30
0.0
 40
4.00000000000002
100
AcDbArc
 50
280.352952
 51
343.718249
  0
LINE
  5
421
102
{ACAD_REACTORS
330
5D3
102
}
330
1F
100
AcDbEntity
  8
LC-002-002-----0
 62
     7
370
    25
100
AcDbLine
 10
1545.929417
 20
1712.308128
 30
0.0
 11
1545.929417
 21
1602.308128
 31
0.0
  0
LINE
  5
422
102
{ACAD_REACTORS
330
5D3
102
}
330
1F
100
AcDbEntity
  8
LC-002-002-----0
 62
     7
370
    25
100
AcDbLine
 10
1541.929417
 20
1602.308128
 30
0.0
 11
1545.929417
 21
1602.308128
 31
0.0
  0
LINE
  5
423
102
{ACAD_REACTORS
330
5D3
102
}
330
1F
100
AcDbEntity
  8
LC-002-002-----0
 62
     7
370
    25
100
AcDbLine
 10
1505.786736
 20
1617.803165
 30
0.0
 11
1505.786736
 21
1619.808128
 31
0.0
  0
LINE
  5
424
102
{ACAD_REACTORS
330
5D3
102
}
330
1F
100
AcDbEntity
  8
LC-002-002-----0
 62
     7
370
    25
100
AcDbLine
 10
1510.116511
 20
1614.558739
 30
0.0
 11
1511.126859
 21
1612.808764
 31
0.0
  0
LINE
  5
425
102
{ACAD_REACTORS
330
5D3
102
}
330
1F
100
AcDbEntity
  8
LC-002-002-----0
 62
     7
370
    25
100
AcDbLine
 10
1516.323379
 20
1609.808128
 30
0.0
 11
1531.786736
 21
1609.808128
 31
0.0
  0
LINE
  5
426
102
{ACAD_REACTORS
330
5D3
102
}
330
1F
100
AcDbEntity
  8
LC-002-002-----0
 62
     7
370
    25
100
AcDbLine
 10
1541.469194
 20
1602.308128
 30
0.0
 11
1541.929417
 21
1602.308128
 31
0.0
  0
ARC
  5
427
102
{ACAD_REACTORS
330
5D3
102
}
330
1F
100
AcDbEntity
  8
LC-002-002-----0
 62
     7
370
    25
100
AcDbCircle
 10
1531.786736
 20
1605.808128
 30
0.0
 40
3.999999999999641
100
AcDbArc
 50
14.492147
 51
90.0
  0
ARC
  5
428
102
{ACAD_REACTORS
330
5D3
102
}
330
1F
100
AcDbEntity
  8
LC-002-002-----0
 62
     7
370
    25
100
AcDbCircle
 10
1541.469194
 20
1608.308128
 30
0.0
 40
5.999999999999878
100
AcDbArc
 50
194.469452
 51
270.0
  0
ARC
  5
429
102
{ACAD_REACTORS
330
5D3
102
}
330
1F
100
AcDbEntity
  8
LC-002-002-----0
 62
     7
370
    25
100
AcDbCircle
 10
1516.323379
 20
1615.808128
 30
0.0
 40
6.000000000000091
100
AcDbArc
 50
209.988476
 51
270.0
  0
ARC
  5
42A
102
{ACAD_REACTORS
330
5D3
102
}
330
1F
100
AcDbEntity
  8
LC-002-002-----0
 62
     7
370
    25
100
AcDbCircle
 10
1505.786736
 20
1612.058128
 30
0.0
 40
4.999999999999792
100
AcDbArc
 50
30.016153
 51
82.072225
  0
ARC
  5
42B
102
{ACAD_REACTORS
330
5D3
102
}
330
1F
100
AcDbEntity
  8
LC-002-002-----0
 62
     7
370
    25
100
AcDbCircle
 10
1506.586736
 20
1617.802691
 30
0.0
 40
0.7999999999997272
100
AcDbArc
 50
180.0
 51
262.062606
  0
LINE
  5
42C
102
{ACAD_REACTORS
330
5D3
102
}
330
1F
100
AcDbEntity
  8
LC-002-002-----0
 62
     7
370
    25
100
AcDbLine
 10
1541.929417
 20
1712.308128
 30
0.0
 11
1545.929417
 21
1712.308128
 31
0.0
  0
LINE
  5
42D
102
{ACAD_REACTORS
330
5D3
102
}
330
1F
100
AcDbEntity
  8
LC-002-002-----0
 62
     7
370
    25
100
AcDbLine
 10
1510.116511
 20
1700.057518
 30
0.0
 11
1511.126859
 21
1701.807493
 31
0.0
  0
LINE
  5
42E
102
{ACAD_REACTORS
330
5D3
102
}
330
1F
100
AcDbEntity
  8
LC-002-002-----0
 62
     7
370
    25
100
AcDbLine
 10
1516.323379
 20
1704.808128
 30
0.0
 11
1531.786736
 21
1704.808128
 31
0.0
  0
LINE
  5
42F
102
{ACAD_REACTORS
330
5D3
102
}
330
1F
100
AcDbEntity
  8
LC-002-002-----0
 62
     7
370
    25
100
AcDbLine
 10
1541.469194
 20
1712.308128
 30
0.0
 11
1541.929417
 21
1712.308128
 31
0.0
  0
ARC
  5
430
102
{ACAD_REACTORS
330
5D3
102
}
330
1F
100
AcDbEntity
  8
LC-002-002-----0
 62
     7
370
    25
100
AcDbCircle
 10
1531.786736
 20
1708.808128
 30
0.0
 40
4.0
100
AcDbArc
 50
270.0
 51
345.507853
  0
ARC
  5
431
102
{ACAD_REACTORS
330
5D3
102
}
330
1F
100
AcDbEntity
  8
LC-002-002-----0
 62
     7
370
    25
100
AcDbCircle
 10
1541.469194
 20
1706.308128
 30
0.0
 40
6.0
100
AcDbArc
 50
90.0
 51
165.530548
  0
ARC
  5
432
102
{ACAD_REACTORS
330
5D3
102
}
330
1F
100
AcDbEntity
  8
LC-002-002-----0
 62
     7
370
    25
100
AcDbCircle
 10
1516.323379
 20
1698.808128
 30
0.0
 40
6.0
100
AcDbArc
 50
90.0
 51
150.011524
  0
ARC
  5
433
102
{ACAD_REACTORS
330
5D3
102
}
330
1F
100
AcDbEntity
  8
LC-002-002-----0
 62
     7
370
    25
100
AcDbCircle
 10
1505.786736
 20
1702.558128
 30
0.0
 40
4.999999999999969
100
AcDbArc
 50
277.927775
 51
329.983847
  0
ARC
  5
434
102
{ACAD_REACTORS
330
5D3
102
}
330
1F
100
AcDbEntity
  8
LC-002-002-----0
 62
     7
370
    25
100
AcDbCircle
 10
1506.586736
 20
1696.813566
 30
0.0
 40
0.7999999999996874
100
AcDbArc
 50
97.937394
 51
180.0
  0
LINE
  5
435
102
{ACAD_REACTORS
330
5D3
102
}
330
1F
100
AcDbEntity
  8
LC-002-002-----0
 62
     7
370
    25
100
AcDbLine
 10
1505.786736
 20
1694.808128
 30
0.0
 11
1505.786736
 21
1696.813566
 31
0.0
  0
LINE
  5
436
102
{ACAD_REACTORS
330
5D1
102
}
330
1F
100
AcDbEntity
  8
LC-002-002-----0
 62
     7
370
    25
100
AcDbLine
 10
1445.527189
 20
1818.157168
 30
0.0
 11
1444.372396
 21
1818.157168
 31
0.0
  0
LINE
  5
437
102
{ACAD_REACTORS
330
5D3
102
}
330
1F
100
AcDbEntity
  8
LC-002-002-----0
 62
     7
370
    25
100
AcDbLine
 10
1445.527189
 20
1710.808128
 30
0.0
 11
1444.372413
 21
1710.808128
 31
0.0
  0
ARC
  5
438
330
1F
100
AcDbEntity
  8
LC-002-002-----0
 62
     7
370
    25
100
AcDbCircle
 10
1560.786736
 20
1612.058128
 30
0.0
 40
4.999999999999792
100
AcDbArc
 50
30.016153
 51
82.072225
  0
ARC
  5
439
330
1F
100
AcDbEntity
  8
LC-002-002-----0
 62
     7
370
    25
100
AcDbCircle
 10
1560.786736
 20
1612.058128
 30
0.0
 40
4.999999999999792
100
AcDbArc
 50
30.016153
 51
82.072225
  0
ARC
  5
43A
330
1F
100
AcDbEntity
  8
LC-002-002-----0
 62
     7
370
    25
100
AcDbCircle
 10
1560.786736
 20
1612.058128
 30
0.0
 40
4.999999999999792
100
AcDbArc
 50
30.016153
 51
82.072225
  0
ARC
  5
43B
102
{ACAD_REACTORS
330
5DA
102
}
330
1F
100
AcDbEntity
  8
LC-002-002-----0
 62
     7
370
    25
100
AcDbCircle
 10
1561.586736
 20
1617.802691
 30
0.0
 40
0.7999999999997272
100
AcDbArc
 50
180.0
 51
262.062606
  0
LINE
  5
43C
330
1F
100
AcDbEntity
  8
LC-002-002-----0
 62
     7
370
    25
100
AcDbLine
 10
1560.786736
 20
1617.803165
 30
0.0
 11
1560.786736
 21
1619.808128
 31
0.0
  0
LINE
  5
43D
330
1F
100
AcDbEntity
  8
LC-002-002-----0
 62
     7
370
    25
100
AcDbLine
 10
1560.786736
 20
1619.808128
 30
0.0
 11
1559.984286
 21
1619.808128
 31
0.0
  0
LINE
  5
43E
330
1F
100
AcDbEntity
  8
LC-002-002-----0
 62
     7
370
    25
100
AcDbLine
 10
1560.786736
 20
1694.808128
 30
0.0
 11
1560.786736
 21
1696.813566
 31
0.0
  0
LINE
  5
43F
330
1F
100
AcDbEntity
  8
LC-002-002-----0
 62
     7
370
    25
100
AcDbLine
 10
1560.786736
 20
1694.808128
 30
0.0
 11
1559.984286
 21
1694.808128
 31
0.0
  0
DIMENSION
  5
440
330
1F
100
AcDbEntity
  8
LC-006-003-----0
 62
     7
370
    25
100
AcDbDimension
  2
*D20
 10
1443.622396
 20
1300.0
 30
0.0
 11
1598.303341
 21
1330.0
 31
0.0
 70
   160
 71
     5
 42
309.361891
  3
LC-DIM-L-0025-00-02
100
AcDbAlignedDimension
 13
1752.984286
 23
1397.308128
 33
0.0
 14
1443.622396
 24
1697.308128
 34
0.0
100
AcDbRotatedDimension
  0
LINE
  5
44D
102
{ACAD_REACTORS
330
5D7
102
}
330
1F
100
AcDbEntity
  8
LC-002-002-----0
 62
     7
370
    25
100
AcDbLine
 10
779.569343
 20
2343.752546
 30
0.0
 11
779.569343
 21
2341.252546
 31
0.0
  0
LINE
  5
44E
102
{ACAD_REACTORS
330
5D7
102
}
330
1F
100
AcDbEntity
  8
LC-002-002-----0
 62
     7
370
    25
100
AcDbLine
 10
797.069343
 20
2379.895227
 30
0.0
 11
797.069343
 21
2383.895227
 31
0.0
  0
LINE
  5
44F
102
{ACAD_REACTORS
330
5D7
102
}
330
1F
100
AcDbEntity
  8
LC-002-002-----0
 62
     7
370
    25
100
AcDbLine
 10
781.574307
 20
2343.752546
 30
0.0
 11
779.569343
 21
2343.752546
 31
0.0
  0
LINE
  5
450
102
{ACAD_REACTORS
330
5D7
102
}
330
1F
100
AcDbEntity
  8
LC-002-002-----0
 62
     7
370
    25
100
AcDbLine
 10
784.818733
 20
2348.08232
 30
0.0
 11
786.568708
 21
2349.092669
 31
0.0
  0
LINE
  5
451
102
{ACAD_REACTORS
330
5D7
102
}
330
1F
100
AcDbEntity
  8
LC-002-002-----0
 62
     7
370
    25
100
AcDbLine
 10
789.569343
 20
2354.289188
 30
0.0
 11
789.569343
 21
2369.752546
 31
0.0
  0
LINE
  5
452
102
{ACAD_REACTORS
330
5D7
102
}
330
1F
100
AcDbEntity
  8
LC-002-002-----0
 62
     7
370
    25
100
AcDbLine
 10
797.069343
 20
2379.435004
 30
0.0
 11
797.069343
 21
2379.895227
 31
0.0
  0
ARC
  5
453
102
{ACAD_REACTORS
330
5D7
102
}
330
1F
100
AcDbEntity
  8
LC-002-002-----0
 62
     7
370
    25
100
AcDbCircle
 10
793.569343
 20
2369.752546
 30
0.0
 40
3.999999999999783
100
AcDbArc
 50
104.492147
 51
180.0
  0
ARC
  5
454
102
{ACAD_REACTORS
330
5D7
102
}
330
1F
100
AcDbEntity
  8
LC-002-002-----0
 62
     7
370
    25
100
AcDbCircle
 10
791.069343
 20
2379.435004
 30
0.0
 40
5.999999999999658
100
AcDbArc
 50
284.469452
 51
0.0
  0
ARC
  5
455
102
{ACAD_REACTORS
330
5D7
102
}
330
1F
100
AcDbEntity
  8
LC-002-002-----0
 62
     7
370
    25
100
AcDbCircle
 10
783.569343
 20
2354.289188
 30
0.0
 40
5.999999999999977
100
AcDbArc
 50
299.988476
 51
0.0
  0
ARC
  5
456
102
{ACAD_REACTORS
330
5D7
102
}
330
1F
100
AcDbEntity
  8
LC-002-002-----0
 62
     7
370
    25
100
AcDbCircle
 10
787.319343
 20
2343.752546
 30
0.0
 40
4.999999999999906
100
AcDbArc
 50
120.016153
 51
172.072225
  0
ARC
  5
457
102
{ACAD_REACTORS
330
5D7
102
}
330
1F
100
AcDbEntity
  8
LC-002-002-----0
 62
     7
370
    25
100
AcDbCircle
 10
781.574781
 20
2344.552546
 30
0.0
 40
0.7999999999997272
100
AcDbArc
 50
270.0
 51
352.062606
  0
INSERT
  5
463
102
{ACAD_REACTORS
330
5D4
102
}
330
1F
100
AcDbEntity
  8
LC-008-005-----0
 62
     7
370
    25
100
AcDbBlockReference
  2
*X221
 10
0.0
 20
0.0
 30
0.0
  0
INSERT
  5
46F
102
{ACAD_REACTORS
330
5D4
102
}
330
1F
100
AcDbEntity
  8
LC-008-005-----0
 62
     7
370
    25
100
AcDbBlockReference
  2
*X322
 10
0.0
 20
0.0
 30
0.0
  0
LINE
  5
470
102
{ACAD_REACTORS
330
5D8
102
}
330
1F
100
AcDbEntity
  8
LC-002-002-----0
 62
     7
370
    25
100
AcDbLine
 10
1596.469194
 20
1604.421552
 30
0.0
 11
1600.929417
 21
1604.421552
 31
0.0
  0
LINE
  5
471
102
{ACAD_REACTORS
330
5D8
102
}
330
1F
100
AcDbEntity
  8
LC-002-002-----0
 62
     7
370
    25
100
AcDbLine
 10
1731.9484
 20
1509.534303
 30
0.0
 11
1695.089196
 21
1512.759065
 31
0.0
  0
LINE
  5
472
102
{ACAD_REACTORS
330
5D8
102
}
330
1F
100
AcDbEntity
  8
LC-002-002-----0
 62
     7
370
    25
100
AcDbLine
 10
1578.679417
 20
1577.808128
 30
0.0
 11
1578.679417
 21
1589.558141
 31
0.0
  0
LINE
  5
473
102
{ACAD_REACTORS
330
5D8
102
}
330
1F
100
AcDbEntity
  8
LC-002-002-----0
 62
     7
370
    25
100
AcDbLine
 10
1600.929417
 20
1602.308128
 30
0.0
 11
1600.929417
 21
1712.308128
 31
0.0
  0
LINE
  5
474
102
{ACAD_REACTORS
330
5D8
102
}
330
1F
100
AcDbEntity
  8
LC-002-002-----0
 62
     7
370
    25
100
AcDbLine
 10
1596.929417
 20
1712.308128
 30
0.0
 11
1600.929417
 21
1712.308128
 31
0.0
  0
LINE
  5
475
102
{ACAD_REACTORS
330
5D8
102
}
330
1F
100
AcDbEntity
  8
LC-002-002-----0
 62
     7
370
    25
100
AcDbLine
 10
1558.286736
 20
1694.808128
 30
0.0
 11
1558.286736
 21
1619.808128
 31
0.0
  0
LINE
  5
476
102
{ACAD_REACTORS
330
5D8
102
}
330
1F
100
AcDbEntity
  8
LC-002-002-----0
 62
     7
370
    25
100
AcDbLine
 10
1560.786736
 20
1696.813092
 30
0.0
 11
1560.786736
 21
1694.808128
 31
0.0
  0
LINE
  5
477
102
{ACAD_REACTORS
330
5D8
102
}
330
1F
100
AcDbEntity
  8
LC-002-002-----0
 62
     7
370
    25
100
AcDbLine
 10
1563.534417
 20
1597.053399
 30
0.0
 11
1563.534417
 21
1597.308128
 31
0.0
  0
LINE
  5
478
102
{ACAD_REACTORS
330
5D8
102
}
330
1F
100
AcDbEntity
  8
LC-002-002-----0
 62
     7
370
    25
100
AcDbLine
 10
1563.579417
 20
1597.308128
 30
0.0
 11
1563.579417
 21
1616.205529
 31
0.0
  0
LINE
  5
479
102
{ACAD_REACTORS
330
5D8
102
}
330
1F
100
AcDbEntity
  8
LC-002-002-----0
 62
     7
370
    25
100
AcDbLine
 10
1566.179417
 20
1577.808128
 30
0.0
 11
1566.179417
 21
1504.736556
 31
0.0
  0
LINE
  5
47A
102
{ACAD_REACTORS
330
5D8
102
}
330
1F
100
AcDbEntity
  8
LC-002-002-----0
 62
     7
370
    25
100
AcDbLine
 10
1727.520317
 20
1494.140657
 30
0.0
 11
1688.714324
 21
1489.856436
 31
0.0
  0
LINE
  5
47B
102
{ACAD_REACTORS
330
5D8
102
}
330
1F
100
AcDbEntity
  8
LC-002-002-----0
 62
     7
370
    25
100
AcDbLine
 10
1598.651858
 20
1491.539103
 30
0.0
 11
1578.679407
 21
1492.236556
 31
0.0
  0
LINE
  5
47C
102
{ACAD_REACTORS
330
5D8
102
}
330
1F
100
AcDbEntity
  8
LC-002-002-----0
 62
     7
370
    25
100
AcDbLine
 10
1613.679417
 20
1484.736556
 30
0.0
 11
1619.679417
 21
1484.736556
 31
0.0
  0
LINE
  5
47D
102
{ACAD_REACTORS
330
5D8
102
}
330
1F
100
AcDbEntity
  8
LC-002-002-----0
 62
     7
370
    25
100
AcDbLine
 10
1632.005626
 20
1490.672961
 30
0.0
 11
1625.223126
 21
1491.266353
 31
0.0
  0
LINE
  5
47E
102
{ACAD_REACTORS
330
5D8
102
}
330
1F
100
AcDbEntity
  8
LC-002-002-----0
 62
     7
370
    25
100
AcDbLine
 10
1641.099166
 20
1491.182345
 30
0.0
 11
1649.173311
 21
1491.680533
 31
0.0
  0
LINE
  5
47F
102
{ACAD_REACTORS
330
5D8
102
}
330
1F
100
AcDbEntity
  8
LC-002-002-----0
 62
     7
370
    25
100
AcDbLine
 10
1591.179417
 20
1577.808128
 30
0.0
 11
1591.179417
 21
1517.673066
 31
0.0
  0
LINE
  5
480
102
{ACAD_REACTORS
330
5D8
102
}
330
1F
100
AcDbEntity
  8
LC-002-002-----0
 62
     7
370
    25
100
AcDbLine
 10
1593.779417
 20
1597.308128
 30
0.0
 11
1593.779417
 21
1602.325542
 31
0.0
  0
LINE
  5
481
102
{ACAD_REACTORS
330
5D8
102
}
330
1F
100
AcDbEntity
  8
LC-002-002-----0
 62
     7
370
    25
100
AcDbLine
 10
1593.824417
 20
1597.053399
 30
0.0
 11
1593.824417
 21
1597.308128
 31
0.0
  0
LINE
  5
482
102
{ACAD_REACTORS
330
5D8
102
}
330
1F
100
AcDbEntity
  8
LC-002-002-----0
 62
     7
370
    25
100
AcDbLine
 10
1680.085262
 20
1490.421588
 30
0.0
 11
1679.19306
 21
1490.596446
 31
0.0
  0
LINE
  5
483
102
{ACAD_REACTORS
330
5D8
102
}
330
1F
100
AcDbEntity
  8
LC-002-002-----0
 62
     7
370
    25
100
AcDbLine
 10
1632.617025
 20
1491.924437
 30
0.0
 11
1641.099166
 21
1491.182345
 31
0.0
  0
LINE
  5
484
102
{ACAD_REACTORS
330
5D8
102
}
330
1F
100
AcDbEntity
  8
LC-002-002-----0
 62
     7
370
    25
100
AcDbLine
 10
1678.659947
 20
1489.100787
 30
0.0
 11
1649.173311
 21
1491.680533
 31
0.0
  0
LINE
  5
485
102
{ACAD_REACTORS
330
5D8
102
}
330
1F
100
AcDbEntity
  8
LC-002-002-----0
 62
     7
370
    25
100
AcDbLine
 10
1688.419147
 20
1489.853079
 30
0.0
 11
1680.099207
 21
1490.580979
 31
0.0
  0
LINE
  5
486
102
{ACAD_REACTORS
330
5D8
102
}
330
1F
100
AcDbEntity
  8
LC-002-002-----0
 62
     7
370
    25
100
AcDbLine
 10
1680.772944
 20
1508.654603
 30
0.0
 11
1681.681955
 21
1508.671875
 31
0.0
  0
LINE
  5
487
102
{ACAD_REACTORS
330
5D8
102
}
330
1F
100
AcDbEntity
  8
LC-002-002-----0
 62
     7
370
    25
100
AcDbLine
 10
1619.679417
 20
1484.736556
 30
0.0
 11
1619.679417
 21
1524.736556
 31
0.0
  0
LINE
  5
488
102
{ACAD_REACTORS
330
5D8
102
}
330
1F
100
AcDbEntity
  8
LC-002-002-----0
 62
     7
370
    25
100
AcDbLine
 10
1695.917146
 20
1505.760116
 30
0.0
 11
1731.09762
 21
1502.682224
 31
0.0
  0
LINE
  5
489
102
{ACAD_REACTORS
330
5D8
102
}
330
1F
100
AcDbEntity
  8
LC-002-002-----0
 62
     7
370
    25
100
AcDbLine
 10
1681.66801
 20
1508.512484
 30
0.0
 11
1693.871425
 21
1507.444824
 31
0.0
  0
LINE
  5
48A
102
{ACAD_REACTORS
330
5D8
102
}
330
1F
100
AcDbEntity
  8
LC-002-002-----0
 62
     7
370
    25
100
AcDbLine
 10
1643.051454
 20
1513.4971
 30
0.0
 11
1651.021012
 21
1512.799855
 31
0.0
  0
LINE
  5
48B
102
{ACAD_REACTORS
330
5D8
102
}
330
1F
100
AcDbEntity
  8
LC-002-002-----0
 62
     7
370
    25
100
AcDbLine
 10
1634.569314
 20
1514.239198
 30
0.0
 11
1643.051455
 21
1513.497107
 31
0.0
  0
LINE
  5
48C
102
{ACAD_REACTORS
330
5D8
102
}
330
1F
100
AcDbEntity
  8
LC-002-002-----0
 62
     7
370
    25
100
AcDbLine
 10
1651.021012
 20
1512.799861
 30
0.0
 11
1680.507928
 21
1510.22009
 31
0.0
  0
LINE
  5
48D
102
{ACAD_REACTORS
330
5D8
102
}
330
1F
100
AcDbEntity
  8
LC-002-002-----0
 62
     7
370
    25
100
AcDbLine
 10
1634.184519
 20
1515.577829
 30
0.0
 11
1627.40202
 21
1516.171221
 31
0.0
  0
LINE
  5
48E
102
{ACAD_REACTORS
330
5D8
102
}
330
1F
100
AcDbEntity
  8
LC-002-002-----0
 62
     7
370
    25
100
AcDbLine
 10
1694.132862
 20
1510.43341
 30
0.0
 11
1732.486358
 21
1507.077914
 31
0.0
  0
LINE
  5
48F
102
{ACAD_REACTORS
330
5D8
102
}
330
1F
100
AcDbEntity
  8
LC-002-002-----0
 62
     7
370
    25
100
AcDbLine
 10
1613.679417
 20
1524.736556
 30
0.0
 11
1619.679417
 21
1524.736556
 31
0.0
  0
LINE
  5
490
102
{ACAD_REACTORS
330
5D8
102
}
330
1F
100
AcDbEntity
  8
LC-002-002-----0
 62
     7
370
    25
100
AcDbLine
 10
1598.651858
 20
1517.934009
 30
0.0
 11
1591.176789
 21
1517.672974
 31
0.0
  0
LINE
  5
491
102
{ACAD_REACTORS
330
5D8
102
}
330
1F
100
AcDbEntity
  8
LC-002-002-----0
 62
     7
370
    25
100
AcDbLine
 10
1627.40202
 20
1516.171221
 30
0.0
 11
1625.223126
 21
1491.266353
 31
0.0
  0
LINE
  5
492
102
{ACAD_REACTORS
330
5D8
102
}
330
1F
100
AcDbEntity
  8
LC-002-002-----0
 62
     7
370
    25
100
AcDbLine
 10
1563.534417
 20
1592.430764
 30
0.0
 11
1562.054469
 21
1593.201176
 31
0.0
  0
LINE
  5
493
102
{ACAD_REACTORS
330
5D8
102
}
330
1F
100
AcDbEntity
  8
LC-002-002-----0
 62
     7
370
    25
100
AcDbLine
 10
1563.534417
 20
1593.971642
 30
0.0
 11
1562.054469
 21
1594.742055
 31
0.0
  0
LINE
  5
494
102
{ACAD_REACTORS
330
5D8
102
}
330
1F
100
AcDbEntity
  8
LC-002-002-----0
 62
     7
370
    25
100
AcDbLine
 10
1563.534417
 20
1595.512521
 30
0.0
 11
1562.054469
 21
1596.282933
 31
0.0
  0
LINE
  5
495
102
{ACAD_REACTORS
330
5D8
102
}
330
1F
100
AcDbEntity
  8
LC-002-002-----0
 62
     7
370
    25
100
AcDbLine
 10
1634.639039
 20
1515.036154
 30
0.0
 11
1632.547301
 21
1491.127481
 31
0.0
  0
LINE
  5
496
102
{ACAD_REACTORS
330
5D8
102
}
330
1F
100
AcDbEntity
  8
LC-002-002-----0
 62
     7
370
    25
100
AcDbLine
 10
1595.304366
 20
1593.20123
 30
0.0
 11
1593.824417
 21
1593.971642
 31
0.0
  0
LINE
  5
497
102
{ACAD_REACTORS
330
5D8
102
}
330
1F
100
AcDbEntity
  8
LC-002-002-----0
 62
     7
370
    25
100
AcDbLine
 10
1595.304366
 20
1594.742108
 30
0.0
 11
1593.824417
 21
1595.512521
 31
0.0
  0
LINE
  5
498
102
{ACAD_REACTORS
330
5D8
102
}
330
1F
100
AcDbEntity
  8
LC-002-002-----0
 62
     7
370
    25
100
AcDbLine
 10
1595.304366
 20
1596.282987
 30
0.0
 11
1593.824417
 21
1597.053399
 31
0.0
  0
LINE
  5
499
102
{ACAD_REACTORS
330
5D8
102
}
330
1F
100
AcDbEntity
  8
LC-002-002-----0
 62
     7
370
    25
100
AcDbLine
 10
1593.71625
 20
1602.308128
 30
0.0
 11
1596.929417
 21
1602.308128
 31
0.0
  0
LINE
  5
49A
102
{ACAD_REACTORS
330
5D8
102
}
330
1F
100
AcDbEntity
  8
LC-002-002-----0
 62
     7
370
    25
100
AcDbLine
 10
1593.824417
 20
1592.430764
 30
0.0
 11
1595.304366
 21
1593.201176
 31
0.0
  0
LINE
  5
49B
102
{ACAD_REACTORS
330
5D8
102
}
330
1F
100
AcDbEntity
  8
LC-002-002-----0
 62
     7
370
    25
100
AcDbLine
 10
1593.824417
 20
1593.971642
 30
0.0
 11
1595.304366
 21
1594.742055
 31
0.0
  0
LINE
  5
49C
102
{ACAD_REACTORS
330
5D8
102
}
330
1F
100
AcDbEntity
  8
LC-002-002-----0
 62
     7
370
    25
100
AcDbLine
 10
1593.824417
 20
1595.512521
 30
0.0
 11
1595.304366
 21
1596.282933
 31
0.0
  0
LINE
  5
49D
102
{ACAD_REACTORS
330
5D8
102
}
330
1F
100
AcDbEntity
  8
LC-002-002-----0
 62
     7
370
    25
100
AcDbLine
 10
1641.099166
 20
1491.182345
 30
0.0
 11
1643.051598
 21
1513.497094
 31
0.0
  0
LINE
  5
49E
102
{ACAD_REACTORS
330
5D8
102
}
330
1F
100
AcDbEntity
  8
LC-002-002-----0
 62
     7
370
    25
100
AcDbLine
 10
1651.021012
 20
1512.799861
 30
0.0
 11
1649.173311
 21
1491.680533
 31
0.0
  0
LINE
  5
49F
102
{ACAD_REACTORS
330
5D8
102
}
330
1F
100
AcDbEntity
  8
LC-002-002-----0
 62
     7
370
    25
100
AcDbLine
 10
1560.786736
 20
1619.808128
 30
0.0
 11
1558.286736
 21
1619.808128
 31
0.0
  0
LINE
  5
4A0
102
{ACAD_REACTORS
330
5D8
102
}
330
1F
100
AcDbEntity
  8
LC-002-002-----0
 62
     7
370
    25
100
AcDbLine
 10
1562.054469
 20
1593.20123
 30
0.0
 11
1563.534417
 21
1593.971642
 31
0.0
  0
LINE
  5
4A1
102
{ACAD_REACTORS
330
5D8
102
}
330
1F
100
AcDbEntity
  8
LC-002-002-----0
 62
     7
370
    25
100
AcDbLine
 10
1562.054469
 20
1594.742108
 30
0.0
 11
1563.534417
 21
1595.512521
 31
0.0
  0
LINE
  5
4A2
102
{ACAD_REACTORS
330
5D8
102
}
330
1F
100
AcDbEntity
  8
LC-002-002-----0
 62
     7
370
    25
100
AcDbLine
 10
1562.054469
 20
1596.282987
 30
0.0
 11
1563.534417
 21
1597.053399
 31
0.0
  0
LINE
  5
4A3
102
{ACAD_REACTORS
330
5D8
102
}
330
1F
100
AcDbEntity
  8
LC-002-002-----0
 62
     7
370
    25
100
AcDbLine
 10
1680.863267
 20
1509.686997
 30
0.0
 11
1679.102736
 21
1489.564036
 31
0.0
  0
LINE
  5
4A4
102
{ACAD_REACTORS
330
5D8
102
}
330
1F
100
AcDbEntity
  8
LC-002-002-----0
 62
     7
370
    25
100
AcDbLine
 10
1681.681955
 20
1508.671875
 30
0.0
 11
1681.66801
 21
1508.512484
 31
0.0
  0
LINE
  5
4A5
102
{ACAD_REACTORS
330
5D8
102
}
330
1F
100
AcDbEntity
  8
LC-002-002-----0
 62
     7
370
    25
100
AcDbLine
 10
1694.132862
 20
1510.43341
 30
0.0
 11
1693.871395
 21
1507.444826
 31
0.0
  0
LINE
  5
4A6
102
{ACAD_REACTORS
330
5D8
102
}
330
1F
100
AcDbEntity
  8
LC-002-002-----0
 62
     7
370
    25
100
AcDbLine
 10
1694.880008
 20
1510.368043
 30
0.0
 11
1695.089196
 21
1512.759065
 31
0.0
  0
LINE
  5
4A7
102
{ACAD_REACTORS
330
5D8
102
}
330
1F
100
AcDbEntity
  8
LC-002-002-----0
 62
     7
370
    25
100
AcDbLine
 10
1565.116511
 20
1700.057518
 30
0.0
 11
1566.126859
 21
1701.807493
 31
0.0
  0
LINE
  5
4A8
102
{ACAD_REACTORS
330
5D8
102
}
330
1F
100
AcDbEntity
  8
LC-002-002-----0
 62
     7
370
    25
100
AcDbLine
 10
1729.267466
 20
1501.838522
 30
0.0
 11
1728.700913
 21
1495.362792
 31
0.0
  0
LINE
  5
4A9
102
{ACAD_REACTORS
330
5D8
102
}
330
1F
100
AcDbEntity
  8
LC-002-002-----0
 62
     7
370
    25
100
AcDbLine
 10
1731.739212
 20
1507.143281
 30
0.0
 11
1731.9484
 21
1509.534303
 31
0.0
  0
LINE
  5
4AA
102
{ACAD_REACTORS
330
5D8
102
}
330
1F
100
AcDbEntity
  8
LC-002-002-----0
 62
     7
370
    25
100
AcDbLine
 10
1732.486358
 20
1507.077914
 30
0.0
 11
1732.181313
 21
1503.591233
 31
0.0
  0
LINE
  5
4AB
102
{ACAD_REACTORS
330
5D8
102
}
330
1F
100
AcDbEntity
  8
LC-002-002-----0
 62
     7
370
    25
100
AcDbLine
 10
1560.786736
 20
1694.808128
 30
0.0
 11
1558.286736
 21
1694.808128
 31
0.0
  0
LINE
  5
4AC
102
{ACAD_REACTORS
330
5D8
102
}
330
1F
100
AcDbEntity
  8
LC-002-002-----0
 62
     7
370
    25
100
AcDbLine
 10
1571.323379
 20
1704.808128
 30
0.0
 11
1586.786736
 21
1704.808128
 31
0.0
  0
LINE
  5
4AD
102
{ACAD_REACTORS
330
5D8
102
}
330
1F
100
AcDbEntity
  8
LC-002-002-----0
 62
     7
370
    25
100
AcDbLine
 10
1596.469194
 20
1712.308128
 30
0.0
 11
1596.929417
 21
1712.308128
 31
0.0
  0
ARC
  5
4AE
102
{ACAD_REACTORS
330
5D8
102
}
330
1F
100
AcDbEntity
  8
LC-002-002-----0
 62
     7
370
    25
100
AcDbCircle
 10
1586.786736
 20
1708.808128
 30
0.0
 40
3.999999999999773
100
AcDbArc
 50
270.0
 51
345.507853
  0
ARC
  5
4AF
102
{ACAD_REACTORS
330
5D8
102
}
330
1F
100
AcDbEntity
  8
LC-002-002-----0
 62
     7
370
    25
100
AcDbCircle
 10
1596.469194
 20
1706.308128
 30
0.0
 40
5.999999999999545
100
AcDbArc
 50
90.0
 51
165.530548
  0
ARC
  5
4B0
102
{ACAD_REACTORS
330
5D8
102
}
330
1F
100
AcDbEntity
  8
LC-002-002-----0
 62
     7
370
    25
100
AcDbCircle
 10
1571.323379
 20
1698.808128
 30
0.0
 40
6.0
100
AcDbArc
 50
90.0
 51
150.011524
  0
ARC
  5
4B1
102
{ACAD_REACTORS
330
5D8
102
}
330
1F
100
AcDbEntity
  8
LC-002-002-----0
 62
     7
370
    25
100
AcDbCircle
 10
1560.786736
 20
1702.558128
 30
0.0
 40
4.999999999999969
100
AcDbArc
 50
277.927775
 51
329.983847
  0
ARC
  5
4B2
102
{ACAD_REACTORS
330
5D8
102
}
330
1F
100
AcDbEntity
  8
LC-002-002-----0
 62
     7
370
    25
100
AcDbCircle
 10
1560.786736
 20
1612.058128
 30
0.0
 40
4.999999999999975
100
AcDbArc
 50
56.045368
 51
82.072225
  0
ARC
  5
4B3
102
{ACAD_REACTORS
330
5D8
102
}
330
1F
100
AcDbEntity
  8
LC-002-002-----0
 62
     7
370
    25
100
AcDbCircle
 10
1561.586736
 20
1696.813566
 30
0.0
 40
0.8000000000001692
100
AcDbArc
 50
97.937394
 51
180.0
  0
ARC
  5
4B4
102
{ACAD_REACTORS
330
5D8
102
}
330
1F
100
AcDbEntity
  8
LC-002-002-----0
 62
     7
370
    25
100
AcDbCircle
 10
1561.586736
 20
1617.802691
 30
0.0
 40
0.8000000000001819
100
AcDbArc
 50
180.0
 51
262.062606
  0
ARC
  5
4B5
102
{ACAD_REACTORS
330
5D8
102
}
330
1F
100
AcDbEntity
  8
LC-002-002-----0
 62
     7
370
    25
100
AcDbCircle
 10
1634.140941
 20
1515.079731
 30
0.0
 40
0.4999999999997134
100
AcDbArc
 50
355.0
 51
85.0
  0
ARC
  5
4B6
102
{ACAD_REACTORS
330
5D8
102
}
330
1F
100
AcDbEntity
  8
LC-002-002-----0
 62
     7
370
    25
100
AcDbCircle
 10
1632.049203
 20
1491.171059
 30
0.0
 40
0.5000000000001268
100
AcDbArc
 50
265.0
 51
355.0
  0
ARC
  5
4B7
102
{ACAD_REACTORS
330
5D8
102
}
330
1F
100
AcDbEntity
  8
LC-002-002-----0
 62
     7
370
    25
100
AcDbCircle
 10
1627.489176
 20
1517.167415
 30
0.0
 40
1.000000000000052
100
AcDbArc
 50
221.862322
 51
265.0
  0
ARC
  5
4B8
102
{ACAD_REACTORS
330
5D8
102
}
330
1F
100
AcDbEntity
  8
LC-002-002-----0
 62
     7
370
    25
100
AcDbCircle
 10
1625.135971
 20
1490.270158
 30
0.0
 40
0.9999999999998402
100
AcDbArc
 50
85.0
 51
128.137678
  0
ARC
  5
4B9
102
{ACAD_REACTORS
330
5D8
102
}
330
1F
100
AcDbEntity
  8
LC-002-002-----0
 62
     7
370
    25
100
AcDbCircle
 10
1613.711596
 20
1504.821229
 30
0.0
 40
17.50000000000011
100
AcDbArc
 50
289.938929
 51
308.14165
  0
ARC
  5
4BA
102
{ACAD_REACTORS
330
5D8
102
}
330
1F
100
AcDbEntity
  8
LC-002-002-----0
 62
     7
370
    25
100
AcDbCircle
 10
1613.711596
 20
1504.821229
 30
0.0
 40
17.49999999999992
100
AcDbArc
 50
41.858194
 51
70.06107
  0
ARC
  5
4BB
102
{ACAD_REACTORS
330
5D8
102
}
330
1F
100
AcDbEntity
  8
LC-002-002-----0
 62
     7
370
    25
100
AcDbCircle
 10
1731.185119
 20
1503.678388
 30
0.0
 40
0.9999999999998402
100
AcDbArc
 50
265.0
 51
355.0
  0
ARC
  5
4BC
102
{ACAD_REACTORS
330
5D8
102
}
330
1F
100
AcDbEntity
  8
LC-002-002-----0
 62
     7
370
    25
100
AcDbCircle
 10
1730.263661
 20
1501.751366
 30
0.0
 40
1.000000000000411
100
AcDbArc
 50
85.012737
 51
175.0
  0
ARC
  5
4BD
102
{ACAD_REACTORS
330
5D8
102
}
330
1F
100
AcDbEntity
  8
LC-002-002-----0
 62
     7
370
    25
100
AcDbCircle
 10
1613.679417
 20
1504.736556
 30
0.0
 40
19.99999999999955
100
AcDbArc
 50
90.0
 51
138.709574
  0
ARC
  5
4BE
102
{ACAD_REACTORS
330
5D8
102
}
330
1F
100
AcDbEntity
  8
LC-002-002-----0
 62
     7
370
    25
100
AcDbCircle
 10
1613.679417
 20
1504.736556
 30
0.0
 40
20.00000000000009
100
AcDbArc
 50
221.290562
 51
270.0
  0
ARC
  5
4BF
102
{ACAD_REACTORS
330
5D8
102
}
330
1F
100
AcDbEntity
  8
LC-002-002-----0
 62
     7
370
    25
100
AcDbCircle
 10
1578.679417
 20
1504.736556
 30
0.0
 40
12.5
100
AcDbArc
 50
180.0
 51
270.0
  0
INSERT
  5
4C9
102
{ACAD_REACTORS
330
5D8
102
}
330
1F
100
AcDbEntity
  8
LC-002-002-----0
 62
     7
370
    25
100
AcDbBlockReference
  2
POLY4
 10
0.0
 20
0.0
 30
0.0
  0
INSERT
  5
4D3
102
{ACAD_REACTORS
330
5D8
102
}
330
1F
100
AcDbEntity
  8
LC-002-002-----0
 62
     7
370
    25
100
AcDbBlockReference
  2
POLY5
 10
0.0
 20
0.0
 30
0.0
  0
INSERT
  5
4E1
102
{ACAD_REACTORS
330
5D8
102
}
330
1F
100
AcDbEntity
  8
LC-002-002-----0
 62
     7
370
    25
100
AcDbBlockReference
  2
POLY6
 10
0.0
 20
0.0
 30
0.0
  0
INSERT
  5
4EF
102
{ACAD_REACTORS
330
5D8
102
}
330
1F
100
AcDbEntity
  8
LC-002-002-----0
 62
     7
370
    25
100
AcDbBlockReference
  2
POLY7
 10
0.0
 20
0.0
 30
0.0
  0
INSERT
  5
507
102
{ACAD_REACTORS
330
5D8
102
}
330
1F
100
AcDbEntity
  8
LC-002-002-----0
 62
     7
370
    25
100
AcDbBlockReference
  2
POLY8
 10
0.0
 20
0.0
 30
0.0
  0
INSERT
  5
511
102
{ACAD_REACTORS
330
5D8
102
}
330
1F
100
AcDbEntity
  8
LC-002-002-----0
 62
     7
370
    25
100
AcDbBlockReference
  2
POLY9
 10
0.0
 20
0.0
 30
0.0
  0
INSERT
  5
523
102
{ACAD_REACTORS
330
5D8
102
}
330
1F
100
AcDbEntity
  8
LC-002-002-----0
 62
     7
370
    25
100
AcDbBlockReference
  2
POLY10
 10
0.0
 20
0.0
 30
0.0
  0
INSERT
  5
54D
102
{ACAD_REACTORS
330
5D8
102
}
330
1F
100
AcDbEntity
  8
LC-002-002-----0
 62
     7
370
    25
100
AcDbBlockReference
  2
POLY11
 10
0.0
 20
0.0
 30
0.0
  0
LINE
  5
54E
102
{ACAD_REACTORS
330
5D8
102
}
330
1F
100
AcDbEntity
  8
LC-002-002-----0
 62
     7
370
    25
100
AcDbLine
 10
1680.507928
 20
1510.22009
 30
0.0
 11
1680.722351
 21
1510.080346
 31
0.0
  0
LINE
  5
54F
102
{ACAD_REACTORS
330
5D8
102
}
330
1F
100
AcDbEntity
  8
LC-002-002-----0
 62
     7
370
    25
100
AcDbLine
 10
1680.722351
 20
1510.080346
 30
0.0
 11
1680.836766
 21
1509.896597
 31
0.0
  0
LINE
  5
550
102
{ACAD_REACTORS
330
5D8
102
}
330
1F
100
AcDbEntity
  8
LC-002-002-----0
 62
     7
370
    25
100
AcDbLine
 10
1680.836766
 20
1509.896597
 30
0.0
 11
1680.863267
 21
1509.686997
 31
0.0
  0
LINE
  5
551
102
{ACAD_REACTORS
330
5D8
102
}
330
1F
100
AcDbEntity
  8
LC-002-002-----0
 62
     7
370
    25
100
AcDbLine
 10
1679.102736
 20
1489.564036
 30
0.0
 11
1679.040116
 21
1489.362
 31
0.0
  0
LINE
  5
552
102
{ACAD_REACTORS
330
5D8
102
}
330
1F
100
AcDbEntity
  8
LC-002-002-----0
 62
     7
370
    25
100
AcDbLine
 10
1679.040116
 20
1489.362
 30
0.0
 11
1678.895299
 21
1489.200878
 31
0.0
  0
LINE
  5
553
102
{ACAD_REACTORS
330
5D8
102
}
330
1F
100
AcDbEntity
  8
LC-002-002-----0
 62
     7
370
    25
100
AcDbLine
 10
1678.895299
 20
1489.200878
 30
0.0
 11
1678.659947
 21
1489.100787
 31
0.0
  0
LINE
  5
554
102
{ACAD_REACTORS
330
5D8
102
}
330
1F
100
AcDbEntity
  8
LC-002-002-----0
 62
     7
370
    25
100
AcDbLine
 10
1728.690037
 20
1495.331509
 30
0.0
 11
1728.690037
 21
1495.331509
 31
0.0
  0
LINE
  5
555
102
{ACAD_REACTORS
330
5D8
102
}
330
1F
100
AcDbEntity
  8
LC-002-002-----0
 62
     7
370
    25
100
AcDbLine
 10
1728.700913
 20
1495.362792
 30
0.0
 11
1728.549028
 21
1494.925937
 31
0.0
  0
LINE
  5
556
102
{ACAD_REACTORS
330
5D8
102
}
330
1F
100
AcDbEntity
  8
LC-002-002-----0
 62
     7
370
    25
100
AcDbLine
 10
1728.549028
 20
1494.925937
 30
0.0
 11
1728.549028
 21
1494.925937
 31
0.0
  0
LINE
  5
557
102
{ACAD_REACTORS
330
5D8
102
}
330
1F
100
AcDbEntity
  8
LC-002-002-----0
 62
     7
370
    25
100
AcDbLine
 10
1728.549028
 20
1494.925937
 30
0.0
 11
1728.298632
 21
1494.576681
 31
0.0
  0
LINE
  5
558
102
{ACAD_REACTORS
330
5D8
102
}
330
1F
100
AcDbEntity
  8
LC-002-002-----0
 62
     7
370
    25
100
AcDbLine
 10
1728.298632
 20
1494.576681
 30
0.0
 11
1728.298632
 21
1494.576681
 31
0.0
  0
LINE
  5
559
102
{ACAD_REACTORS
330
5D8
102
}
330
1F
100
AcDbEntity
  8
LC-002-002-----0
 62
     7
370
    25
100
AcDbLine
 10
1728.298632
 20
1494.576681
 30
0.0
 11
1727.959277
 21
1494.312674
 31
0.0
  0
LINE
  5
55A
102
{ACAD_REACTORS
330
5D8
102
}
330
1F
100
AcDbEntity
  8
LC-002-002-----0
 62
     7
370
    25
100
AcDbLine
 10
1727.959277
 20
1494.312674
 30
0.0
 11
1727.959277
 21
1494.312674
 31
0.0
  0
LINE
  5
55B
102
{ACAD_REACTORS
330
5D8
102
}
330
1F
100
AcDbEntity
  8
LC-002-002-----0
 62
     7
370
    25
100
AcDbLine
 10
1727.959277
 20
1494.312674
 30
0.0
 11
1727.520317
 21
1494.140657
 31
0.0
  0
INSERT
  5
569
102
{ACAD_REACTORS
330
5D8
102
}
330
1F
100
AcDbEntity
  8
LC-002-002-----0
 62
     7
370
    25
100
AcDbBlockReference
  2
POLY12
 10
0.0
 20
0.0
 30
0.0
  0
LINE
  5
56A
102
{ACAD_REACTORS
330
5D8
102
}
330
1F
100
AcDbEntity
  8
LC-002-002-----0
 62
     7
370
    25
100
AcDbLine
 10
1586.786736
 20
1612.272516
 30
0.0
 11
1578.679417
 21
1612.272516
 31
0.0
  0
LINE
  5
56B
102
{ACAD_REACTORS
330
5D8
102
}
330
1F
100
AcDbEntity
  8
LC-002-002-----0
 62
     7
370
    25
100
AcDbLine
 10
1558.679417
 20
1592.308128
 30
0.0
 11
1558.679417
 21
1590.308128
 31
0.0
  0
LINE
  5
56C
102
{ACAD_REACTORS
330
5D8
102
}
330
1F
100
AcDbEntity
  8
LC-002-002-----0
 62
     7
370
    25
100
AcDbLine
 10
1560.722179
 20
1589.558127
 30
0.0
 11
1560.722179
 21
1577.818894
 31
0.0
  0
LINE
  5
56D
102
{ACAD_REACTORS
330
5D8
102
}
330
1F
100
AcDbEntity
  8
LC-002-002-----0
 62
     7
370
    25
100
AcDbLine
 10
1596.636656
 20
1589.558127
 30
0.0
 11
1596.636656
 21
1577.818894
 31
0.0
  0
LINE
  5
56E
102
{ACAD_REACTORS
330
5D8
102
}
330
1F
100
AcDbEntity
  8
LC-002-002-----0
 62
     7
370
    25
100
AcDbLine
 10
1598.679417
 20
1592.308128
 30
0.0
 11
1598.679417
 21
1590.308128
 31
0.0
  0
LINE
  5
56F
102
{ACAD_REACTORS
330
5D8
102
}
330
1F
100
AcDbEntity
  8
LC-002-002-----0
 62
     7
370
    25
100
AcDbLine
 10
1558.679514
 20
1590.308032
 30
0.0
 11
1559.429405
 21
1589.558141
 31
0.0
  0
LINE
  5
570
102
{ACAD_REACTORS
330
5D8
102
}
330
1F
100
AcDbEntity
  8
LC-002-002-----0
 62
     7
370
    25
100
AcDbLine
 10
1560.929608
 20
1577.808128
 30
0.0
 11
1596.429227
 21
1577.808128
 31
0.0
  0
LINE
  5
571
102
{ACAD_REACTORS
330
5D8
102
}
330
1F
100
AcDbEntity
  8
LC-002-002-----0
 62
     7
370
    25
100
AcDbLine
 10
1559.429405
 20
1589.558141
 30
0.0
 11
1560.722179
 21
1589.558141
 31
0.0
  0
LINE
  5
572
102
{ACAD_REACTORS
330
5D8
102
}
330
1F
100
AcDbEntity
  8
LC-002-002-----0
 62
     7
370
    25
100
AcDbLine
 10
1596.636656
 20
1589.558132
 30
0.0
 11
1597.92943
 21
1589.558141
 31
0.0
  0
LINE
  5
573
102
{ACAD_REACTORS
330
5D8
102
}
330
1F
100
AcDbEntity
  8
LC-002-002-----0
 62
     7
370
    25
100
AcDbLine
 10
1558.679417
 20
1592.308128
 30
0.0
 11
1598.679417
 21
1592.308128
 31
0.0
  0
LINE
  5
574
102
{ACAD_REACTORS
330
5D8
102
}
330
1F
100
AcDbEntity
  8
LC-002-002-----0
 62
     7
370
    25
100
AcDbLine
 10
1598.679321
 20
1590.308032
 30
0.0
 11
1597.92943
 21
1589.558141
 31
0.0
  0
ARC
  5
575
102
{ACAD_REACTORS
330
5D8
102
}
330
1F
100
AcDbEntity
  8
LC-002-002-----0
 62
     7
370
    25
100
AcDbCircle
 10
1596.429417
 20
1579.808128
 30
0.0
 40
2.0
100
AcDbArc
 50
270.0
 51
275.94761
  0
ARC
  5
576
102
{ACAD_REACTORS
330
5D8
102
}
330
1F
100
AcDbEntity
  8
LC-002-002-----0
 62
     7
370
    25
100
AcDbCircle
 10
1567.518274
 20
1579.808128
 30
0.0
 40
1.999999999999995
100
AcDbArc
 50
264.05239
 51
270.0
  0
LINE
  5
577
102
{ACAD_REACTORS
330
5D8
102
}
330
1F
100
AcDbEntity
  8
LC-002-002-----0
 62
     7
370
    25
100
AcDbLine
 10
1563.298837
 20
1592.308128
 30
0.0
 11
1563.534417
 21
1592.430764
 31
0.0
  0
LINE
  5
578
102
{ACAD_REACTORS
330
5D8
102
}
330
1F
100
AcDbEntity
  8
LC-002-002-----0
 62
     7
370
    25
100
AcDbLine
 10
1594.059998
 20
1592.308128
 30
0.0
 11
1593.824417
 21
1592.430764
 31
0.0
  0
LINE
  5
579
102
{ACAD_REACTORS
330
5D8
102
}
330
1F
100
AcDbEntity
  8
LC-002-002-----0
 62
     7
370
    25
100
AcDbLine
 10
1596.929417
 20
1602.308128
 30
0.0
 11
1600.929417
 21
1602.308128
 31
0.0
  0
ARC
  5
57A
102
{ACAD_REACTORS
330
5D8
102
}
330
1F
100
AcDbEntity
  8
LC-002-002-----0
 62
     7
370
    25
100
AcDbCircle
 10
1526.327189
 20
1657.308128
 30
0.0
 40
22.0
100
AcDbArc
 50
90.0
 51
270.0
  0
LINE
  5
57B
102
{ACAD_REACTORS
330
5D8
102
}
330
1F
100
AcDbEntity
  8
LC-002-002-----0
 62
     7
370
    25
100
AcDbLine
 10
1526.327189
 20
1635.308128
 30
0.0
 11
1540.018374
 21
1635.308128
 31
0.0
  0
LINE
  5
57C
102
{ACAD_REACTORS
330
5D8
102
}
330
1F
100
AcDbEntity
  8
LC-002-002-----0
 62
     7
370
    25
100
AcDbLine
 10
1526.327189
 20
1679.308128
 30
0.0
 11
1540.018374
 21
1679.308128
 31
0.0
  0
LINE
  5
57D
102
{ACAD_REACTORS
330
5D8
102
}
330
1F
100
AcDbEntity
  8
LC-002-002-----0
 62
     7
370
    25
100
AcDbLine
 10
1547.828356
 20
1685.597068
 30
0.0
 11
1550.447219
 21
1686.075514
 31
0.0
  0
ARC
  5
57E
102
{ACAD_REACTORS
330
5D8
102
}
330
1F
100
AcDbEntity
  8
LC-002-002-----0
 62
     7
370
    25
100
AcDbCircle
 10
1548.996546
 20
1679.202904
 30
0.0
 40
6.499999999999891
100
AcDbArc
 50
100.354177
 51
160.92296
  0
ARC
  5
57F
102
{ACAD_REACTORS
330
5D8
102
}
330
1F
100
AcDbEntity
  8
LC-002-002-----0
 62
     7
370
    25
100
AcDbCircle
 10
1540.018374
 20
1682.308128
 30
0.0
 40
2.999999999999773
100
AcDbArc
 50
270.0
 51
340.944552
  0
ARC
  5
580
102
{ACAD_REACTORS
330
5D8
102
}
330
1F
100
AcDbEntity
  8
LC-002-002-----0
 62
     7
370
    25
100
AcDbCircle
 10
1557.583492
 20
1690.806266
 30
0.0
 40
2.000000000000227
100
AcDbArc
 50
90.0
 51
115.847369
  0
ARC
  5
581
102
{ACAD_REACTORS
330
5D8
102
}
330
1F
100
AcDbEntity
  8
LC-002-002-----0
 62
     7
370
    25
100
AcDbCircle
 10
1559.327189
 20
1687.206333
 30
0.0
 40
6.000000000000001
100
AcDbArc
 50
115.844972
 51
163.716483
  0
ARC
  5
582
102
{ACAD_REACTORS
330
5D8
102
}
330
1F
100
AcDbEntity
  8
LC-002-002-----0
 62
     7
370
    25
100
AcDbCircle
 10
1549.728374
 20
1690.010391
 30
0.0
 40
3.999999999999492
100
AcDbArc
 50
280.352952
 51
343.718249
  0
LINE
  5
583
102
{ACAD_REACTORS
330
5D8
102
}
330
1F
100
AcDbEntity
  8
LC-002-002-----0
 62
     7
370
    25
100
AcDbLine
 10
1547.828356
 20
1629.019189
 30
0.0
 11
1550.447219
 21
1628.540743
 31
0.0
  0
ARC
  5
584
102
{ACAD_REACTORS
330
5D8
102
}
330
1F
100
AcDbEntity
  8
LC-002-002-----0
 62
     7
370
    25
100
AcDbCircle
 10
1548.996546
 20
1635.413353
 30
0.0
 40
6.500000000000005
100
AcDbArc
 50
199.07704
 51
259.645823
  0
ARC
  5
585
102
{ACAD_REACTORS
330
5D8
102
}
330
1F
100
AcDbEntity
  8
LC-002-002-----0
 62
     7
370
    25
100
AcDbCircle
 10
1540.018374
 20
1632.308128
 30
0.0
 40
2.999999995699664
100
AcDbArc
 50
19.055448
 51
90.0
  0
ARC
  5
586
102
{ACAD_REACTORS
330
5D8
102
}
330
1F
100
AcDbEntity
  8
LC-002-002-----0
 62
     7
370
    25
100
AcDbCircle
 10
1557.583492
 20
1623.809991
 30
0.0
 40
1.999999999999772
100
AcDbArc
 50
244.152631
 51
270.0
  0
ARC
  5
587
102
{ACAD_REACTORS
330
5D8
102
}
330
1F
100
AcDbEntity
  8
LC-002-002-----0
 62
     7
370
    25
100
AcDbCircle
 10
1559.327189
 20
1627.409924
 30
0.0
 40
5.999999999999909
100
AcDbArc
 50
196.283517
 51
244.155028
  0
ARC
  5
588
102
{ACAD_REACTORS
330
5D8
102
}
330
1F
100
AcDbEntity
  8
LC-002-002-----0
 62
     7
370
    25
100
AcDbCircle
 10
1549.728374
 20
1624.605866
 30
0.0
 40
3.999999999999869
100
AcDbArc
 50
16.281751
 51
79.647048
  0
ARC
  5
589
102
{ACAD_REACTORS
330
5D8
102
}
330
1F
100
AcDbEntity
  8
LC-002-002-----0
 62
     7
370
    25
100
AcDbCircle
 10
1526.327189
 20
1657.308128
 30
0.0
 40
27.70479324130046
100
AcDbArc
 50
55.394244
 51
304.605756
  0
LINE
  5
58A
102
{ACAD_REACTORS
330
5D8
102
}
330
1F
100
AcDbEntity
  8
LC-002-002-----0
 62
     7
370
    25
100
AcDbLine
 10
1680.099207
 20
1490.580979
 30
0.0
 11
1680.085262
 21
1490.421588
 31
0.0
  0
LINE
  5
58B
102
{ACAD_REACTORS
330
5D8
102
}
330
1F
100
AcDbEntity
  8
LC-002-002-----0
 62
     7
370
    25
100
AcDbLine
 10
1560.786736
 20
1619.808128
 30
0.0
 11
1560.786736
 21
1617.803165
 31
0.0
  0
LINE
  5
58C
102
{ACAD_REACTORS
330
5D8
102
}
330
1F
100
AcDbEntity
  8
LC-002-002-----0
 62
     7
370
    25
100
AcDbLine
 10
1596.469194
 20
1604.421552
 30
0.0
 11
1596.469194
 21
1604.421552
 31
0.0
  0
LINE
  5
58D
102
{ACAD_REACTORS
330
5D8
102
}
330
1F
100
AcDbEntity
  8
LC-002-002-----0
 62
     7
370
    25
100
AcDbLine
 10
1596.469194
 20
1604.421552
 30
0.0
 11
1595.182953
 21
1604.566632
 31
0.0
  0
LINE
  5
58E
102
{ACAD_REACTORS
330
5D8
102
}
330
1F
100
AcDbEntity
  8
LC-002-002-----0
 62
     7
370
    25
100
AcDbLine
 10
1595.182953
 20
1604.566632
 30
0.0
 11
1595.182953
 21
1604.566632
 31
0.0
  0
LINE
  5
58F
102
{ACAD_REACTORS
330
5D8
102
}
330
1F
100
AcDbEntity
  8
LC-002-002-----0
 62
     7
370
    25
100
AcDbLine
 10
1595.182953
 20
1604.566632
 30
0.0
 11
1593.953175
 21
1604.996905
 31
0.0
  0
LINE
  5
590
102
{ACAD_REACTORS
330
5D8
102
}
330
1F
100
AcDbEntity
  8
LC-002-002-----0
 62
     7
370
    25
100
AcDbLine
 10
1593.953175
 20
1604.996905
 30
0.0
 11
1593.953175
 21
1604.996905
 31
0.0
  0
LINE
  5
591
102
{ACAD_REACTORS
330
5D8
102
}
330
1F
100
AcDbEntity
  8
LC-002-002-----0
 62
     7
370
    25
100
AcDbLine
 10
1593.953175
 20
1604.996905
 30
0.0
 11
1592.83442
 21
1605.698023
 31
0.0
  0
LINE
  5
592
102
{ACAD_REACTORS
330
5D8
102
}
330
1F
100
AcDbEntity
  8
LC-002-002-----0
 62
     7
370
    25
100
AcDbLine
 10
1592.83442
 20
1605.698023
 30
0.0
 11
1592.83442
 21
1605.698023
 31
0.0
  0
LINE
  5
593
102
{ACAD_REACTORS
330
5D8
102
}
330
1F
100
AcDbEntity
  8
LC-002-002-----0
 62
     7
370
    25
100
AcDbLine
 10
1592.83442
 20
1605.698023
 30
0.0
 11
1591.880099
 21
1606.645271
 31
0.0
  0
LINE
  5
594
102
{ACAD_REACTORS
330
5D8
102
}
330
1F
100
AcDbEntity
  8
LC-002-002-----0
 62
     7
370
    25
100
AcDbLine
 10
1591.880099
 20
1606.645271
 30
0.0
 11
1591.880099
 21
1606.645271
 31
0.0
  0
LINE
  5
595
102
{ACAD_REACTORS
330
5D8
102
}
330
1F
100
AcDbEntity
  8
LC-002-002-----0
 62
     7
370
    25
100
AcDbLine
 10
1591.880099
 20
1606.645271
 30
0.0
 11
1591.14051
 21
1607.802031
 31
0.0
  0
LINE
  5
596
102
{ACAD_REACTORS
330
5D8
102
}
330
1F
100
AcDbEntity
  8
LC-002-002-----0
 62
     7
370
    25
100
AcDbLine
 10
1591.14051
 20
1607.802031
 30
0.0
 11
1591.14051
 21
1607.802031
 31
0.0
  0
LINE
  5
597
102
{ACAD_REACTORS
330
5D8
102
}
330
1F
100
AcDbEntity
  8
LC-002-002-----0
 62
     7
370
    25
100
AcDbLine
 10
1591.14051
 20
1607.802031
 30
0.0
 11
1590.659719
 21
1609.118503
 31
0.0
  0
LINE
  5
598
102
{ACAD_REACTORS
330
5D3
102
}
330
1F
100
AcDbEntity
  8
LC-002-002-----0
 62
     7
370
    25
100
AcDbLine
 10
1503.286736
 20
1672.692962
 30
0.0
 11
1503.286736
 21
1694.808128
 31
0.0
  0
DIMENSION
  5
599
330
1F
100
AcDbEntity
  8
LC-006-003-----0
 62
     7
370
    25
100
AcDbDimension
  2
*D32
 10
350.0
 20
1407.308128
 30
0.0
 11
320.0
 21
1657.308128
 31
0.0
 70
   160
 71
     5
 42
500.0
 53
90.0
  3
LC-DIM-L-0025-02-02
100
AcDbAlignedDimension
 13
445.069343
 23
1907.308128
 33
0.0
 14
445.069343
 24
1407.308128
 34
0.0
 50
90.0
100
AcDbRotatedDimension
  0
DIMENSION
  5
5A6
330
1F
100
AcDbEntity
  8
LC-006-003-----0
 62
     7
370
    25
100
AcDbDimension
  2
*D33
 10
819.069343
 20
2000.0
 30
0.0
 11
764.069343
 21
2030.0
 31
0.0
 70
   160
 71
     5
 42
110.0
  3
LC-DIM-L-0025-02-02
100
AcDbAlignedDimension
 13
709.069343
 23
1917.308128
 33
0.0
 14
819.069343
 24
1917.308128
 34
0.0
100
AcDbRotatedDimension
  0
DIMENSION
  5
5B3
330
1F
100
AcDbEntity
  8
LC-006-003-----0
 62
     7
370
    25
100
AcDbDimension
  2
*D34
 10
1235.069343
 20
2000.0
 30
0.0
 11
1027.069343
 21
2030.0
 31
0.0
 70
   160
 71
     5
 42
416.0
  3
LC-DIM-L-0025-02-02
100
AcDbAlignedDimension
 13
819.069343
 23
1917.308128
 33
0.0
 14
1235.069343
 24
1917.308128
 34
0.0
100
AcDbRotatedDimension
  0
DIMENSION
  5
5C0
330
1F
100
AcDbEntity
  8
LC-006-003-----0
 62
     7
370
    25
100
AcDbDimension
  2
*D35
 10
950.0
 20
1835.308128
 30
0.0
 11
920.0
 21
1933.515051
 31
0.0
 70
   160
 71
     5
 42
72.0
 53
90.0
  3
LC-DIM-L-0025-02-02
100
AcDbAlignedDimension
 13
895.069343
 23
1907.308128
 33
0.0
 14
869.069343
 24
1835.308128
 34
0.0
 50
90.0
100
AcDbRotatedDimension
  0
ENDSEC
  0
SECTION
  2
OBJECTS
  0
DICTIONARY
  5
C
330
0
100
AcDbDictionary
281
     1
  3
ACAD_GROUP
350
D
  3
ACAD_LAYOUT
350
1A
  3
ACAD_MLINESTYLE
350
17
  3
ACAD_PLOTSETTINGS
350
19
  3
ACAD_PLOTSTYLENAME
350
E
  0
DICTIONARY
  5
D
102
{ACAD_REACTORS
330
C
102
}
330
C
100
AcDbDictionary
281
     1
  3
LCGROUP10
350
5D0
  3
LCGROUP1218
350
5D9
  3
LCGROUP1378
350
5D5
  3
LCGROUP1744
350
5D7
  3
LCGROUP1928
350
5D3
  3
LCGROUP1929
350
5D2
  3
LCGROUP1930
350
5D1
  3
LCGROUP2061
350
5DA
  3
LCGROUP2309
350
5D8
  3
LCGROUP27
350
5D4
  3
LCGROUP30
350
5D6
  3
LCGROUP828
350
5CF
  0
DICTIONARY
  5
1A
102
{ACAD_REACTORS
330
C
102
}
330
C
100
AcDbDictionary
281
     1
  3
Layout1
350
1E
  3
Layout2
350
26
  3
Model
350
22
  0
DICTIONARY
  5
17
102
{ACAD_REACTORS
330
C
102
}
330
C
100
AcDbDictionary
281
     1
  3
Standard
350
18
  0
DICTIONARY
  5
19
102
{ACAD_REACTORS
330
C
102
}
330
C
100
AcDbDictionary
281
     1
  0
ACDBDICTIONARYWDFLT
  5
E
102
{ACAD_REACTORS
330
C
102
}
330
C
100
AcDbDictionary
281
     1
  3
Normal
350
F
100
AcDbDictionaryWithDefault
340
F
  0
GROUP
  5
5D0
102
{ACAD_REACTORS
330
D
102
}
330
D
100
AcDbGroup
300
GRP10
 70
     1
 71
     1
340
103
340
104
340
105
340
106
340
107
340
108
340
109
340
10A
340
10B
340
10C
340
10D
340
10E
340
10F
340
110
340
111
340
112
340
113
340
114
340
115
340
116
340
119
340
11A
340
11B
340
11C
340
11F
340
120
340
123
340
124
340
133
340
134
340
135
340
136
340
137
340
138
340
139
340
13A
340
13B
340
13C
340
13D
340
13E
340
13F
340
140
340
141
340
142
340
143
340
144
340
145
340
146
340
24C
340
24D
340
24E
340
24F
340
296
  0
GROUP
  5
5D9
102
{ACAD_REACTORS
330
D
102
}
330
D
100
AcDbGroup
300
GRP1218
 70
     1
 71
     1
340
12B
340
1E5
340
1E6
340
1E7
340
1E8
340
1E9
340
1EA
340
1EB
340
1EC
340
1ED
340
1EE
340
1EF
340
1F0
340
1F1
340
1F2
340
1F3
340
1F4
340
1F5
340
1F6
340
1F7
340
1F8
340
1F9
340
1FA
340
1FB
340
1FC
340
1FD
340
1FE
340
1FF
340
200
340
201
340
202
340
203
340
204
340
205
340
206
340
207
340
208
340
209
340
20A
340
20B
340
20C
340
20D
340
20E
340
20F
340
210
340
211
340
212
340
213
340
214
340
215
340
216
340
217
340
289
  0
GROUP
  5
5D5
102
{ACAD_REACTORS
330
D
102
}
330
D
100
AcDbGroup
300
GRP1378-LCMaster-LCGROUP1218
 70
     1
 71
     1
340
129
340
12A
340
218
340
219
340
21A
340
21B
340
21C
340
21D
340
21E
340
21F
340
220
340
221
340
222
340
223
340
224
340
225
340
226
340
227
340
228
340
229
340
22A
340
22B
340
22C
340
22D
340
22E
340
22F
340
230
340
231
340
232
340
233
340
234
340
235
340
236
340
237
340
238
340
239
340
23A
340
23B
340
23C
340
23D
340
23E
340
23F
340
240
340
241
340
242
340
243
340
244
340
245
340
246
340
247
340
248
340
249
340
24A
340
24B
340
2B0
  0
GROUP
  5
5D7
102
{ACAD_REACTORS
330
D
102
}
330
D
100
AcDbGroup
300
GRP1744
 70
     1
 71
     1
340
32C
340
32D
340
32E
340
32F
340
330
340
331
340
332
340
333
340
343
340
344
340
345
340
346
340
347
340
348
340
349
340
34A
340
34B
340
34C
340
34D
340
34E
340
34F
340
350
340
351
340
352
340
353
340
354
340
355
340
356
340
357
340
358
340
359
340
35A
340
35B
340
35C
340
35D
340
35E
340
35F
340
360
340
361
340
362
340
363
340
364
340
365
340
366
340
367
340
368
340
369
340
36A
340
36B
340
36C
340
36D
340
36E
340
36F
340
370
340
371
340
372
340
373
340
374
340
375
340
376
340
377
340
378
340
379
340
37A
340
37B
340
37C
340
37D
340
37E
340
37F
340
380
340
381
340
382
340
383
340
384
340
385
340
386
340
387
340
388
340
389
340
38A
340
38B
340
38C
340
38D
340
38E
340
38F
340
390
340
391
340
392
340
393
340
394
340
395
340
396
340
397
340
398
340
399
340
39A
340
44D
340
44E
340
44F
340
450
340
451
340
452
340
453
340
454
340
455
340
456
340
457
  0
GROUP
  5
5D3
102
{ACAD_REACTORS
330
D
102
}
330
D
100
AcDbGroup
300
GRP1928
 70
     1
 71
     1
340
3EA
340
3ED
340
3EF
340
3F0
340
3F1
340
3F2
340
3F3
340
3F4
340
3F5
340
3F6
340
3F7
340
3F8
340
3F9
340
3FA
340
3FB
340
3FC
340
40C
340
40E
340
40F
340
410
340
411
340
412
340
413
340
414
340
415
340
416
340
417
340
418
340
419
340
41A
340
41B
340
41C
340
41D
340
41E
340
41F
340
420
340
421
340
422
340
423
340
424
340
425
340
426
340
427
340
428
340
429
340
42A
340
42B
340
42C
340
42D
340
42E
340
42F
340
430
340
431
340
432
340
433
340
434
340
435
340
437
340
598
  0
GROUP
  5
5D2
102
{ACAD_REACTORS
330
D
102
}
330
D
100
AcDbGroup
300
GRP1929-LCMaster-LCGROUP1928
 70
     1
 71
     1
340
3EB
340
3EC
340
3EE
340
40D
  0
GROUP
  5
5D1
102
{ACAD_REACTORS
330
D
102
}
330
D
100
AcDbGroup
300
GRP2961-LCMaster-LCGROUP1929
 70
     1
 71
     1
340
39B
340
39C
340
39D
340
39E
340
39F
340
3A0
340
3A1
340
3A2
340
3A3
340
3A4
340
3A5
340
3A6
340
3A7
340
3A8
340
3A9
340
3AA
340
3AB
340
3AC
340
3AD
340
3AE
340
3AF
340
3B0
340
3B1
340
3B2
340
3B3
340
3B4
340
3B5
340
3B6
340
3B7
340
3B8
340
3B9
340
3BA
340
3BB
340
3BC
340
3BD
340
3BE
340
3BF
340
3C0
340
3C1
340
3C2
340
3C3
340
3C4
340
3C5
340
3C6
340
3C7
340
3C8
340
3C9
340
3CA
340
3CB
340
3CC
340
3CD
340
3CE
340
3CF
340
3D0
340
3D1
340
3D2
340
3D3
340
3D4
340
3D5
340
3D6
340
3D7
340
3D8
340
3D9
340
3E9
340
436
  0
GROUP
  5
5DA
102
{ACAD_REACTORS
330
D
102
}
330
D
100
AcDbGroup
300
Gruppe 2061
 70
     1
 71
     1
340
43B
  0
GROUP
  5
5D8
102
{ACAD_REACTORS
330
D
102
}
330
D
100
AcDbGroup
300
GRP2309
 70
     1
 71
     1
340
470
340
471
340
472
340
473
340
474
340
475
340
476
340
477
340
478
340
479
340
47A
340
47B
340
47C
340
47D
340
47E
340
47F
340
480
340
481
340
482
340
483
340
484
340
485
340
486
340
487
340
488
340
489
340
48A
340
48B
340
48C
340
48D
340
48E
340
48F
340
490
340
491
340
492
340
493
340
494
340
495
340
496
340
497
340
498
340
499
340
49A
340
49B
340
49C
340
49D
340
49E
340
49F
340
4A0
340
4A1
340
4A2
340
4A3
340
4A4
340
4A5
340
4A6
340
4A7
340
4A8
340
4A9
340
4AA
340
4AB
340
4AC
340
4AD
340
4AE
340
4AF
340
4B0
340
4B1
340
4B2
340
4B3
340
4B4
340
4B5
340
4B6
340
4B7
340
4B8
340
4B9
340
4BA
340
4BB
340
4BC
340
4BD
340
4BE
340
4BF
340
4C9
340
4D3
340
4E1
340
4EF
340
507
340
511
340
523
340
54D
340
54E
340
54F
340
550
340
551
340
552
340
553
340
554
340
555
340
556
340
557
340
558
340
559
340
55A
340
55B
340
569
340
56A
340
56B
340
56C
340
56D
340
56E
340
56F
340
570
340
571
340
572
340
573
340
574
340
575
340
576
340
577
340
578
340
579
340
57A
340
57B
340
57C
340
57D
340
57E
340
57F
340
580
340
581
340
582
340
583
340
584
340
585
340
586
340
587
340
588
340
589
340
58A
340
58B
340
58C
340
58D
340
58E
340
58F
340
590
340
591
340
592
340
593
340
594
340
595
340
596
340
597
  0
GROUP
  5
5D4
102
{ACAD_REACTORS
330
D
102
}
330
D
100
AcDbGroup
300
GRP27
 70
     1
 71
     1
340
1DD
340
1DE
340
1DF
340
1E0
340
1E1
340
1E2
340
2C1
340
2C2
340
2C3
340
2C4
340
2C5
340
2C6
340
2C7
340
2C8
340
2C9
340
2CA
340
2D7
340
463
340
46F
  0
GROUP
  5
5D6
102
{ACAD_REACTORS
330
D
102
}
330
D
100
AcDbGroup
300
Äquidistante 1728
 70
     1
 71
     1
340
118
340
11D
340
11E
340
122
340
12C
340
130
340
131
340
132
340
2D8
340
2D9
340
2DA
340
2DB
340
2EB
340
2F8
340
307
340
314
340
322
340
32B
  0
GROUP
  5
5CF
102
{ACAD_REACTORS
330
D
102
}
330
D
100
AcDbGroup
300
GRP828
 70
     1
 71
     1
340
121
340
125
340
126
340
127
340
128
340
12D
340
12E
340
12F
340
147
340
148
340
149
340
14A
340
14B
340
14C
340
14D
340
14E
340
14F
340
150
340
151
340
152
340
153
340
154
340
155
340
156
340
157
340
158
340
159
340
15A
340
15B
340
15C
340
15D
340
15E
340
15F
340
160
340
161
340
162
340
163
340
164
340
165
340
166
340
167
340
168
340
169
340
16A
340
16B
340
16C
340
16D
340
16E
340
16F
340
170
340
171
340
172
340
173
340
174
340
175
340
176
340
177
340
178
340
179
340
17A
340
17B
340
17C
340
17D
340
17E
340
17F
340
180
340
181
340
182
340
183
340
184
340
185
340
186
340
187
340
188
340
18A
340
18B
340
18C
340
18D
340
18E
340
18F
340
190
340
191
340
192
340
193
340
194
340
195
340
196
340
197
340
198
340
199
340
19A
340
19B
340
19C
340
19D
340
19E
340
19F
340
1A0
340
1A1
340
1A2
340
1A3
340
1A4
340
1A5
340
1A6
340
1A7
340
1A8
340
1A9
340
1AA
340
1AB
340
1AC
340
1AD
340
1AE
340
1AF
340
1B0
340
1B1
340
1B2
340
1B3
340
1B4
340
1B5
340
1B6
340
1B7
340
1B8
340
1B9
340
1BA
340
1BB
340
1BC
340
1BD
340
1BE
340
1BF
340
1C0
340
1C1
340
1C2
340
1C3
340
1C4
340
1C5
340
1C6
340
1C7
340
1C8
340
1C9
340
1CA
340
1CB
340
1CC
340
1CD
340
1CE
340
1CF
340
1D0
340
1D1
340
1D2
340
1D3
340
1D4
340
1D5
340
1D6
340
1D7
340
1D8
340
1D9
340
1DA
340
1DB
340
1DC
340
1E3
340
1E4
340
250
340
253
340
261
340
26F
340
27C
340
2A3
  0
LAYOUT
  5
1E
102
{ACAD_REACTORS
330
1A
102
}
330
1A
100
AcDbPlotSettings
  1

  2

  4

  6

 40
0.0
 41
0.0
 42
0.0
 43
0.0
 44
0.0
 45
0.0
 46
0.0
 47
0.0
 48
0.0
 49
0.0
140
0.0
141
0.0
142
1.0
143
1.0
 70
   688
 72
     0
 73
     0
 74
     5
  7

 75
    16
 76
     0
 77
     2
 78
   300
147
1.0
148
0.0
149
0.0
100
AcDbLayout
  1
Layout1
 70
     1
 71
     1
 10
0.0
 20
0.0
 11
2100.0
 21
2970.0
 12
0.0
 22
0.0
 32
0.0
 14
0.0
 24
0.0
 34
0.0
 15
2100.0
 25
2970.0
 35
0.0
146
0.0
 13
0.0
 23
0.0
 33
0.0
 16
1.0
 26
0.0
 36
0.0
 17
0.0
 27
1.0
 37
0.0
 76
     0
330
1B
  0
LAYOUT
  5
26
102
{ACAD_REACTORS
330
1A
102
}
330
1A
100
AcDbPlotSettings
  1

  2

  4

  6

 40
0.0
 41
0.0
 42
0.0
 43
0.0
 44
0.0
 45
0.0
 46
0.0
 47
0.0
 48
0.0
 49
0.0
140
0.0
141
0.0
142
1.0
143
1.0
 70
   688
 72
     0
 73
     0
 74
     5
  7

 75
    16
 76
     0
 77
     2
 78
   300
147
1.0
148
0.0
149
0.0
100
AcDbLayout
  1
Layout2
 70
     1
 71
     2
 10
0.0
 20
0.0
 11
0.0
 21
0.0
 12
0.0
 22
0.0
 32
0.0
 14
0.0
 24
0.0
 34
0.0
 15
0.0
 25
0.0
 35
0.0
146
0.0
 13
0.0
 23
0.0
 33
0.0
 16
1.0
 26
0.0
 36
0.0
 17
0.0
 27
1.0
 37
0.0
 76
     0
330
23
  0
LAYOUT
  5
22
102
{ACAD_REACTORS
330
1A
102
}
330
1A
100
AcDbPlotSettings
  1

  2

  4

  6

 40
0.0
 41
0.0
 42
0.0
 43
0.0
 44
0.0
 45
0.0
 46
0.0
 47
0.0
 48
0.0
 49
0.0
140
0.0
141
0.0
142
1.0
143
1.0
 70
  1776
 72
     0
 73
     0
 74
     0
  7

 75
     0
 76
     0
 77
     2
 78
   300
147
1.0
148
0.0
149
0.0
100
AcDbLayout
  1
Model
 70
     1
 71
     0
 10
0.0
 20
0.0
 11
2100.0
 21
2970.0
 12
0.0
 22
0.0
 32
0.0
 14
0.0
 24
0.0
 34
0.0
 15
2100.0
 25
2970.0
 35
0.0
146
0.0
 13
0.0
 23
0.0
 33
0.0
 16
1.0
 26
0.0
 36
0.0
 17
0.0
 27
1.0
 37
0.0
 76
     0
330
1F
  0
MLINESTYLE
  5
18
102
{ACAD_REACTORS
330
17
102
}
330
17
100
AcDbMlineStyle
  2
Standard
 70
     0
  3

 62
   256
 51
90.0
 52
90.0
 71
     2
 49
0.5
 62
   256
  6
BYLAYER
 49
-0.5
 62
   256
  6
BYLAYER
  0
ACDBPLACEHOLDER
  5
F
102
{ACAD_REACTORS
330
E
102
}
330
E
  0
ENDSEC
  0
EOF
