  0
SECTION
  2
HEADER
  9
$ACADVER
  1
AC1018
  9
$ACADMAINTVER
 70
     0
  9
$DWGCODEPAGE
  3
ANSI_1252
  9
$INSBASE
 10
1682.0
 20
1188.0
 30
0.0
  9
$EXTMIN
 10
0.0
 20
0.0
 30
0.0
  9
$EXTMAX
 10
2100.0
 20
2970.0
 30
0.0
  9
$LIMMIN
 10
0.0
 20
0.0
  9
$LIMMAX
 10
2100.0
 20
2970.0
  9
$ORTHOMODE
 70
     0
  9
$REGENMODE
 70
     1
  9
$FILLMODE
 70
     1
  9
$QTEXTMODE
 70
     0
  9
$MIRRTEXT
 70
     1
  9
$LTSCALE
 40
10.0
  9
$ATTMODE
 70
     1
  9
$TEXTSIZE
 40
2.5
  9
$TRACEWID
 40
1.0
  9
$TEXTSTYLE
  7
Standard
  9
$CLAYER
  8
0
  9
$CELTYPE
  6
ByLayer
  9
$CECOLOR
 62
     7
  9
$CELTSCALE
 40
1.0
  9
$DISPSILH
 70
     0
  9
$DIMSCALE
 40
10.0
  9
$DIMASZ
 40
3.5
  9
$DIMEXO
 40
0.625
  9
$DIMDLI
 40
3.75
  9
$DIMRND
 40
0.0
  9
$DIMDLE
 40
0.0
  9
$DIMEXE
 40
1.25
  9
$DIMTP
 40
0.0
  9
$DIMTM
 40
0.0
  9
$DIMTXT
 40
3.5
  9
$DIMCEN
 40
2.5
  9
$DIMTSZ
 40
0.0
  9
$DIMTOL
 70
     0
  9
$DIMLIM
 70
     0
  9
$DIMTIH
 70
     0
  9
$DIMTOH
 70
     0
  9
$DIMSE1
 70
     0
  9
$DIMSE2
 70
     0
  9
$DIMTAD
 70
     1
  9
$DIMZIN
 70
     8
  9
$DIMBLK
  1

  9
$DIMASO
 70
     1
  9
$DIMSHO
 70
     1
  9
$DIMPOST
  1

  9
$DIMAPOST
  1

  9
$DIMALT
 70
     0
  9
$DIMALTD
 70
     3
  9
$DIMALTF
 40
0.03937
  9
$DIMLFAC
 40
1.0
  9
$DIMTOFL
 70
     1
  9
$DIMTVP
 40
0.0
  9
$DIMTIX
 70
     0
  9
$DIMSOXD
 70
     0
  9
$DIMSAH
 70
     0
  9
$DIMBLK1
  1

  9
$DIMBLK2
  1

  9
$DIMSTYLE
  2
ISO-25
  9
$DIMCLRD
 70
     0
  9
$DIMCLRE
 70
     0
  9
$DIMCLRT
 70
     0
  9
$DIMTFAC
 40
1.0
  9
$DIMGAP
 40
0.625
  9
$DIMJUST
 70
     0
  9
$DIMSD1
 70
     0
  9
$DIMSD2
 70
     0
  9
$DIMTOLJ
 70
     0
  9
$DIMTZIN
 70
     8
  9
$DIMALTZ
 70
     0
  9
$DIMALTTZ
 70
     0
  9
$DIMUPT
 70
     0
  9
$DIMDEC
 70
     2
  9
$DIMTDEC
 70
     2
  9
$DIMALTU
 70
     2
  9
$DIMALTTD
 70
     3
  9
$DIMTXSTY
  7
Standard
  9
$DIMAUNIT
 70
     0
  9
$DIMADEC
 70
     0
  9
$DIMALTRND
 40
0.0
  9
$DIMAZIN
 70
     0
  9
$DIMDSEP
 70
    44
  9
$DIMATFIT
 70
     3
  9
$DIMFRAC
 70
     0
  9
$DIMLDRBLK
  1

  9
$DIMLUNIT
 70
     2
  9
$DIMLWD
 70
    -2
  9
$DIMLWE
 70
    -2
  9
$DIMTMOVE
 70
     0
  9
$LUNITS
 70
     2
  9
$LUPREC
 70
     4
  9
$SKETCHINC
 40
1.0
  9
$FILLETRAD
 40
10.0
  9
$AUNITS
 70
     0
  9
$AUPREC
 70
     0
  9
$MENU
  1
.
  9
$ELEVATION
 40
0.0
  9
$PELEVATION
 40
0.0
  9
$THICKNESS
 40
0.0
  9
$LIMCHECK
 70
     0
  9
$CHAMFERA
 40
10.0
  9
$CHAMFERB
 40
10.0
  9
$CHAMFERC
 40
20.0
  9
$CHAMFERD
 40
0.0
  9
$SKPOLY
 70
     0
  9
$TDCREATE
 40
2456575.612635625
  9
$TDUCREATE
 40
2456575.529302292
  9
$TDUPDATE
 40
2456575.612635637
  9
$TDUUPDATE
 40
2456575.529302303
  9
$TDINDWG
 40
0.0000000116
  9
$TDUSRTIMER
 40
0.0000000116
  9
$USRTIMER
 70
     1
  9
$ANGBASE
 50
0.0
  9
$ANGDIR
 70
     0
  9
$PDMODE
 70
     0
  9
$PDSIZE
 40
0.0
  9
$PLINEWID
 40
0.0
  9
$SPLFRAME
 70
     0
  9
$SPLINETYPE
 70
     6
  9
$SPLINESEGS
 70
     8
  9
$HANDSEED
  5
5A5
  9
$SURFTAB1
 70
     6
  9
$SURFTAB2
 70
     6
  9
$SURFTYPE
 70
     6
  9
$SURFU
 70
     6
  9
$SURFV
 70
     6
  9
$UCSBASE
  2

  9
$UCSNAME
  2

  9
$UCSORG
 10
0.0
 20
0.0
 30
0.0
  9
$UCSXDIR
 10
1.0
 20
0.0
 30
0.0
  9
$UCSYDIR
 10
0.0
 20
1.0
 30
0.0
  9
$UCSORTHOREF
  2

  9
$UCSORTHOVIEW
 70
     0
  9
$UCSORGTOP
 10
0.0
 20
0.0
 30
0.0
  9
$UCSORGBOTTOM
 10
0.0
 20
0.0
 30
0.0
  9
$UCSORGLEFT
 10
0.0
 20
0.0
 30
0.0
  9
$UCSORGRIGHT
 10
0.0
 20
0.0
 30
0.0
  9
$UCSORGFRONT
 10
0.0
 20
0.0
 30
0.0
  9
$UCSORGBACK
 10
0.0
 20
0.0
 30
0.0
  9
$PUCSBASE
  2

  9
$PUCSNAME
  2

  9
$PUCSORG
 10
0.0
 20
0.0
 30
0.0
  9
$PUCSXDIR
 10
1.0
 20
0.0
 30
0.0
  9
$PUCSYDIR
 10
0.0
 20
1.0
 30
0.0
  9
$PUCSORTHOREF
  2

  9
$PUCSORTHOVIEW
 70
     0
  9
$PUCSORGTOP
 10
0.0
 20
0.0
 30
0.0
  9
$PUCSORGBOTTOM
 10
0.0
 20
0.0
 30
0.0
  9
$PUCSORGLEFT
 10
0.0
 20
0.0
 30
0.0
  9
$PUCSORGRIGHT
 10
0.0
 20
0.0
 30
0.0
  9
$PUCSORGFRONT
 10
0.0
 20
0.0
 30
0.0
  9
$PUCSORGBACK
 10
0.0
 20
0.0
 30
0.0
  9
$USERI1
 70
     0
  9
$USERI2
 70
     0
  9
$USERI3
 70
     0
  9
$USERI4
 70
     0
  9
$USERI5
 70
     0
  9
$USERR1
 40
0.0
  9
$USERR2
 40
0.0
  9
$USERR3
 40
0.0
  9
$USERR4
 40
0.0
  9
$USERR5
 40
0.0
  9
$WORLDVIEW
 70
     1
  9
$SHADEDGE
 70
     3
  9
$SHADEDIF
 70
    70
  9
$TILEMODE
 70
     1
  9
$MAXACTVP
 70
    64
  9
$PINSBASE
 10
0.0
 20
0.0
 30
0.0
  9
$PLIMCHECK
 70
     0
  9
$PEXTMIN
 10
0.0
 20
0.0
 30
0.0
  9
$PEXTMAX
 10
2100.0
 20
2970.0
 30
0.0
  9
$PLIMMIN
 10
0.0
 20
0.0
  9
$PLIMMAX
 10
2100.0
 20
2970.0
  9
$UNITMODE
 70
     0
  9
$VISRETAIN
 70
     1
  9
$PLINEGEN
 70
     0
  9
$PSLTSCALE
 70
     1
  9
$TREEDEPTH
 70
  3020
  9
$CMLSTYLE
  2
Standard
  9
$CMLJUST
 70
     0
  9
$CMLSCALE
 40
20.0
  9
$PROXYGRAPHICS
 70
     1
  9
$MEASUREMENT
 70
     1
  9
$CELWEIGHT
370
    -1
  9
$ENDCAPS
280
     0
  9
$JOINSTYLE
280
     0
  9
$LWDISPLAY
290
     0
  9
$INSUNITS
 70
     4
  9
$HYPERLINKBASE
  1

  9
$STYLESHEET
  1

  9
$XEDIT
290
     1
  9
$CEPSNTYPE
380
     0
  9
$PSTYLEMODE
290
     1
  9
$FINGERPRINTGUID
  2
{FAEB1C30-E019-11D5-929B-00C0DF256EC4}
  9
$VERSIONGUID
  2
{FAEB1C32-E019-11D5-929B-00C0DF256EC4}
  9
$EXTNAMES
290
     1
  9
$PSVPSCALE
 40
0.0
  9
$OLESTARTUP
290
     0
  9
$SORTENTS
280
   127
  9
$INDEXCTL
280
     0
  9
$HIDETEXT
280
     1
  9
$XCLIPFRAME
290
     0
  9
$HALOGAP
280
     0
  9
$OBSCOLOR
 70
   257
  9
$OBSLTYPE
280
     0
  9
$INTERSECTIONDISPLAY
280
     0
  9
$INTERSECTIONCOLOR
 70
   257
  9
$DIMASSOC
280
     2
  9
$PROJECTNAME
  1

  0
ENDSEC
  0
SECTION
  2
CLASSES
  0
CLASS
  1
ACDBDICTIONARYWDFLT
  2
AcDbDictionaryWithDefault
  3
ObjectDBX Classes
 90
        0
 91
        1
280
     0
281
     0
  0
ENDSEC
  0
SECTION
  2
TABLES
  0
TABLE
  2
VPORT
  5
8
330
0
100
AcDbSymbolTable
 70
     2
  0
VPORT
  5
29
330
8
100
AcDbSymbolTableRecord
100
AcDbViewportTableRecord
  2
*ACTIVE
 70
     0
 10
0.0
 20
0.0
 11
1.0
 21
1.0
 12
1050.0
 22
1485.0
 13
0.0
 23
0.0
 14
1.0
 24
1.0
 15
0.0
 25
0.0
 16
0.0
 26
0.0
 36
1.0
 17
0.0
 27
0.0
 37
0.0
 40
2970.0
 41
0.707071
 42
50.0
 43
0.0
 44
0.0
 50
0.0
 51
0.0
 71
    16
 72
   100
 73
     1
 74
     0
 75
     0
 76
     0
 77
     0
 78
     0
281
     0
 65
     0
110
0.0
120
0.0
130
0.0
111
1.0
121
0.0
131
0.0
112
0.0
122
1.0
132
0.0
 79
     0
146
0.0
  0
ENDTAB
  0
TABLE
  2
LTYPE
  5
5
330
0
100
AcDbSymbolTable
 70
     4
  0
LTYPE
  5
14
330
5
100
AcDbSymbolTableRecord
100
AcDbLinetypeTableRecord
  2
ByBlock
 70
     0
  3

 72
    65
 73
     0
 40
0.0
  0
LTYPE
  5
15
330
5
100
AcDbSymbolTableRecord
100
AcDbLinetypeTableRecord
  2
ByLayer
 70
     0
  3

 72
    65
 73
     0
 40
0.0
  0
LTYPE
  5
16
330
5
100
AcDbSymbolTableRecord
100
AcDbLinetypeTableRecord
  2
Continuous
 70
     0
  3
Solid line
 72
    65
 73
     0
 40
0.0
  0
LTYPE
  5
2A
330
5
100
AcDbSymbolTableRecord
100
AcDbLinetypeTableRecord
  2
DASHED
 70
     0
  3
__ __ __ __ __
 72
    65
 73
     2
 40
6.25
 49
5.0
 74
     4
 75
     0
340
0
 46
1.0
 50
0.0
 44
0.0
 45
0.0
 49
-1.25
 74
     4
 75
     0
340
0
 46
1.0
 50
0.0
 44
0.0
 45
0.0
  0
LTYPE
  5
108
330
5
100
AcDbSymbolTableRecord
100
AcDbLinetypeTableRecord
  2
DASHDOT
 70
     0
  3
__ . __ . __ . __ . __
 72
    65
 73
     4
 40
7.5
 49
5.0
 74
     4
 75
     0
340
0
 46
1.0
 50
0.0
 44
0.0
 45
0.0
 49
-1.25
 74
     4
 75
     0
340
0
 46
1.0
 50
0.0
 44
0.0
 45
0.0
 49
0.0
 74
     4
 75
     0
340
0
 46
1.0
 50
0.0
 44
0.0
 45
0.0
 49
-1.25
 74
     4
 75
     0
340
0
 46
1.0
 50
0.0
 44
0.0
 45
0.0
  0
LTYPE
  5
111
330
5
100
AcDbSymbolTableRecord
100
AcDbLinetypeTableRecord
  2
CENTER
 70
     0
  3
__ . __ . __ . __ . __
 72
    65
 73
     4
 40
7.5
 49
5.0
 74
     4
 75
     0
340
0
 46
1.0
 50
0.0
 44
0.0
 45
0.0
 49
-1.25
 74
     4
 75
     0
340
0
 46
1.0
 50
0.0
 44
0.0
 45
0.0
 49
0.0
 74
     4
 75
     0
340
0
 46
1.0
 50
0.0
 44
0.0
 45
0.0
 49
-1.25
 74
     4
 75
     0
340
0
 46
1.0
 50
0.0
 44
0.0
 45
0.0
  0
ENDTAB
  0
TABLE
  2
LAYER
  5
2
330
0
100
AcDbSymbolTable
 70
    19
  0
LAYER
  5
10
330
2
100
AcDbSymbolTableRecord
100
AcDbLayerTableRecord
  2
0
 70
     0
 62
     7
  6
Continuous
370
    -3
390
F
  0
LAYER
  5
2B
330
2
100
AcDbSymbolTableRecord
100
AcDbLayerTableRecord
  2
LC-INFO-1-10-mm-A4H-0
 70
     1
 62
     7
  6
ByBlock
370
    -3
390
F
  0
LAYER
  5
2C
330
2
100
AcDbSymbolTableRecord
100
AcDbLayerTableRecord
  2
LC-CUT-HIDDEN
 70
     0
 62
     7
  6
DASHED
370
    -3
390
F
  0
LAYER
  5
2D
330
2
100
AcDbSymbolTableRecord
100
AcDbLayerTableRecord
  2
LC-VIEWPORT
 70
     0
 62
     7
  6
ByBlock
370
    -3
390
F
  0
LAYER
  5
2E
330
2
100
AcDbSymbolTableRecord
100
AcDbLayerTableRecord
  2
LC-3D-HIDDEN
 70
     0
 62
     9
  6
DASHED
370
    -3
390
F
  0
LAYER
  5
33
330
2
100
AcDbSymbolTableRecord
100
AcDbLayerTableRecord
  2
LC-001-111-----0
 70
     0
 62
   253
  6
ByBlock
370
    -3
390
F
  0
LAYER
  5
A0
330
2
100
AcDbSymbolTableRecord
100
AcDbLayerTableRecord
  2
LC-002-002-----0
 70
     0
 62
     1
  6
ByBlock
370
    -3
390
F
  0
LAYER
  5
102
330
2
100
AcDbSymbolTableRecord
100
AcDbLayerTableRecord
  2
LC-003-230-ZVN-0
 70
     0
 62
     7
  6
Continuous
370
    -3
390
F
  0
LAYER
  5
10A
330
2
100
AcDbSymbolTableRecord
100
AcDbLayerTableRecord
  2
LC-004-002-RND-0
 70
     0
 62
     2
  6
ByBlock
370
    -3
390
F
  0
LAYER
  5
112
330
2
100
AcDbSymbolTableRecord
100
AcDbLayerTableRecord
  2
LC-005-006-MLN-0
 70
     0
 62
     2
  6
CENTER
370
    -3
390
F
  0
LAYER
  5
1A1
330
2
100
AcDbSymbolTableRecord
100
AcDbLayerTableRecord
  2
LC-006-000-___-0
 70
     0
 62
     7
  6
Continuous
370
    -3
390
F
  0
LAYER
  5
1A7
330
2
100
AcDbSymbolTableRecord
100
AcDbLayerTableRecord
  2
LC-007-003-----0
 70
     0
 62
     2
  6
ByBlock
370
    -3
390
F
  0
LAYER
  5
1A9
330
2
100
AcDbSymbolTableRecord
100
AcDbLayerTableRecord
  2
Defpoints
 70
     0
 62
     7
  6
Continuous
290
     0
370
    -3
390
F
  0
LAYER
  5
1F3
330
2
100
AcDbSymbolTableRecord
100
AcDbLayerTableRecord
  2
LC-008-100-D01-0
 70
     0
 62
     1
  6
ByBlock
370
    -3
390
F
  0
LAYER
  5
1F7
330
2
100
AcDbSymbolTableRecord
100
AcDbLayerTableRecord
  2
LC-009-100-D02-0
 70
     0
 62
     1
  6
ByBlock
370
    -3
390
F
  0
LAYER
  5
20A
330
2
100
AcDbSymbolTableRecord
100
AcDbLayerTableRecord
  2
LC-010-100-D07-0
 70
     0
 62
     1
  6
ByBlock
370
    -3
390
F
  0
LAYER
  5
27D
330
2
100
AcDbSymbolTableRecord
100
AcDbLayerTableRecord
  2
LC-011-004-----0
 70
     0
 62
     7
  6
ByBlock
370
    -3
390
F
  0
LAYER
  5
2F3
330
2
100
AcDbSymbolTableRecord
100
AcDbLayerTableRecord
  2
LC-012-100-D00-0
 70
     0
 62
     6
  6
ByBlock
370
    -3
390
F
  0
LAYER
  5
51C
330
2
100
AcDbSymbolTableRecord
100
AcDbLayerTableRecord
  2
LC-013-005-----0
 70
     0
 62
     2
  6
ByBlock
370
    -3
390
F
  0
ENDTAB
  0
TABLE
  2
STYLE
  5
3
330
0
100
AcDbSymbolTable
 70
     2
  0
STYLE
  5
11
330
3
100
AcDbSymbolTableRecord
100
AcDbTextStyleTableRecord
  2
Standard
 70
     0
 40
0.0
 41
1.0
 50
0.0
 71
     0
 42
2.5
  3
txt
  4

  0
STYLE
  5
2F
330
3
100
AcDbSymbolTableRecord
100
AcDbTextStyleTableRecord
  2
LCTX0-400-0-0pDIN-Schrift
 70
     0
 40
0.0
 41
0.7
 50
0.0
 71
     0
 42
3.5
  3
TXT
  4

  0
ENDTAB
  0
TABLE
  2
VIEW
  5
6
330
0
100
AcDbSymbolTable
 70
     0
  0
ENDTAB
  0
TABLE
  2
UCS
  5
7
330
0
100
AcDbSymbolTable
 70
     0
  0
ENDTAB
  0
TABLE
  2
APPID
  5
9
330
0
100
AcDbSymbolTable
 70
     1
  0
APPID
  5
12
330
9
100
AcDbSymbolTableRecord
100
AcDbRegAppTableRecord
  2
ACAD
 70
     0
  0
ENDTAB
  0
TABLE
  2
DIMSTYLE
  5
A
330
0
100
AcDbSymbolTable
 70
     5
100
AcDbDimStyleTable
  0
DIMSTYLE
105
27
330
A
100
AcDbSymbolTableRecord
100
AcDbDimStyleTableRecord
  2
ISO-25
 70
     0
 41
2.5
 42
0.625
 43
3.75
 44
1.25
 73
     0
 74
     0
 77
     1
 78
     8
140
2.5
141
2.5
143
0.03937
147
0.625
171
     3
172
     1
271
     2
272
     2
274
     3
278
    44
283
     0
284
     8
340
11
  0
DIMSTYLE
105
1A6
102
{ACAD_REACTORS
330
1A8
330
1D1
330
1DE
330
250
330
265
330
288
330
532
330
53F
330
54C
330
56B
330
578
102
}
330
A
100
AcDbSymbolTableRecord
100
AcDbDimStyleTableRecord
  2
LC-DIM-L-0025-02-02
 70
     0
 40
10.0
 41
2.5
 42
0.0
 43
7.5
 44
1.8
 73
     0
 74
     0
 77
     1
 78
     8
 79
     2
140
2.5
141
0.0
146
0.71
147
1.5
172
     1
176
     2
177
     2
178
     2
179
     2
271
     2
278
    44
289
     1
340
2F
  0
DIMSTYLE
105
1B6
102
{ACAD_REACTORS
330
1B7
330
1C4
330
239
330
55B
102
}
330
A
100
AcDbSymbolTableRecord
100
AcDbDimStyleTableRecord
  2
LC-DIM-L-0025-00-02
 70
     0
 40
10.0
 41
2.5
 42
0.0
 43
7.5
 44
1.8
 73
     0
 74
     0
 77
     1
 78
     8
140
2.5
141
0.0
146
0.71
147
1.5
172
     1
176
     2
177
     2
178
     2
271
     0
278
    44
289
     1
340
2F
  0
DIMSTYLE
105
272
102
{ACAD_REACTORS
330
273
102
}
330
A
100
AcDbSymbolTableRecord
100
AcDbDimStyleTableRecord
  2
LC-DIM-M-0025-02-02
 70
     0
 40
10.0
 41
2.5
 42
0.0
 43
7.5
 44
1.8
 73
     0
 74
     0
 77
     1
 78
     8
 79
     2
140
2.5
141
0.0
146
0.71
147
1.5
172
     1
176
     2
177
     2
178
     2
179
     2
271
     2
278
    44
289
     1
340
2F
  0
DIMSTYLE
105
585
102
{ACAD_REACTORS
330
586
102
}
330
A
100
AcDbSymbolTableRecord
100
AcDbDimStyleTableRecord
  2
LC-DIM-R-0025-02-02
 70
     0
 40
10.0
 41
2.5
 42
0.0
 43
7.5
 44
1.8
 73
     0
 74
     0
 77
     1
 78
     8
 79
     2
140
2.5
141
0.0
146
0.71
147
1.5
176
     2
177
     2
178
     2
179
     2
271
     2
278
    44
289
     1
340
2F
  0
ENDTAB
  0
TABLE
  2
BLOCK_RECORD
  5
1
330
0
100
AcDbSymbolTable
 70
    35
  0
BLOCK_RECORD
  5
1F
330
1
100
AcDbSymbolTableRecord
100
AcDbBlockTableRecord
  2
*Model_Space
340
22
  0
BLOCK_RECORD
  5
1B
330
1
100
AcDbSymbolTableRecord
100
AcDbBlockTableRecord
  2
*Paper_Space
340
1E
  0
BLOCK_RECORD
  5
23
330
1
100
AcDbSymbolTableRecord
100
AcDbBlockTableRecord
  2
*Paper_Space0
340
26
  0
BLOCK_RECORD
  5
30
330
1
100
AcDbSymbolTableRecord
100
AcDbBlockTableRecord
  2
SYM1
340
0
102
{BLKREFS
331
103
102
}
  0
BLOCK_RECORD
  5
1AA
330
1
100
AcDbSymbolTableRecord
100
AcDbBlockTableRecord
  2
*D2
340
0
  0
BLOCK_RECORD
  5
1B8
330
1
100
AcDbSymbolTableRecord
100
AcDbBlockTableRecord
  2
*D3
340
0
  0
BLOCK_RECORD
  5
1C5
330
1
100
AcDbSymbolTableRecord
100
AcDbBlockTableRecord
  2
*D4
340
0
  0
BLOCK_RECORD
  5
1D2
330
1
100
AcDbSymbolTableRecord
100
AcDbBlockTableRecord
  2
*D5
340
0
  0
BLOCK_RECORD
  5
1DF
330
1
100
AcDbSymbolTableRecord
100
AcDbBlockTableRecord
  2
*D6
340
0
  0
BLOCK_RECORD
  5
23A
330
1
100
AcDbSymbolTableRecord
100
AcDbBlockTableRecord
  2
*D7
340
0
  0
BLOCK_RECORD
  5
251
330
1
100
AcDbSymbolTableRecord
100
AcDbBlockTableRecord
  2
*D8
340
0
  0
BLOCK_RECORD
  5
266
330
1
100
AcDbSymbolTableRecord
100
AcDbBlockTableRecord
  2
*D9
340
0
  0
BLOCK_RECORD
  5
274
330
1
100
AcDbSymbolTableRecord
100
AcDbBlockTableRecord
  2
*D10
340
0
  0
BLOCK_RECORD
  5
289
330
1
100
AcDbSymbolTableRecord
100
AcDbBlockTableRecord
  2
*D11
340
0
  0
BLOCK_RECORD
  5
2A9
330
1
100
AcDbSymbolTableRecord
100
AcDbBlockTableRecord
  2
POLY1
340
0
102
{BLKREFS
331
2C0
102
}
  0
BLOCK_RECORD
  5
2C1
330
1
100
AcDbSymbolTableRecord
100
AcDbBlockTableRecord
  2
POLY2
340
0
102
{BLKREFS
331
2CA
102
}
  0
BLOCK_RECORD
  5
2CB
330
1
100
AcDbSymbolTableRecord
100
AcDbBlockTableRecord
  2
POLY3
340
0
102
{BLKREFS
331
2DC
102
}
  0
BLOCK_RECORD
  5
2F0
330
1
100
AcDbSymbolTableRecord
100
AcDbBlockTableRecord
  2
POLY4
340
0
102
{BLKREFS
331
2FA
102
}
  0
BLOCK_RECORD
  5
32F
330
1
100
AcDbSymbolTableRecord
100
AcDbBlockTableRecord
  2
POLY5
340
0
102
{BLKREFS
331
33E
102
}
  0
BLOCK_RECORD
  5
363
330
1
100
AcDbSymbolTableRecord
100
AcDbBlockTableRecord
  2
POLY6
340
0
102
{BLKREFS
331
36C
102
}
  0
BLOCK_RECORD
  5
36D
330
1
100
AcDbSymbolTableRecord
100
AcDbBlockTableRecord
  2
POLY7
340
0
102
{BLKREFS
331
376
102
}
  0
BLOCK_RECORD
  5
377
330
1
100
AcDbSymbolTableRecord
100
AcDbBlockTableRecord
  2
POLY8
340
0
102
{BLKREFS
331
384
102
}
  0
BLOCK_RECORD
  5
385
330
1
100
AcDbSymbolTableRecord
100
AcDbBlockTableRecord
  2
POLY9
340
0
102
{BLKREFS
331
392
102
}
  0
BLOCK_RECORD
  5
393
330
1
100
AcDbSymbolTableRecord
100
AcDbBlockTableRecord
  2
POLY10
340
0
102
{BLKREFS
331
3A2
102
}
  0
BLOCK_RECORD
  5
3A3
330
1
100
AcDbSymbolTableRecord
100
AcDbBlockTableRecord
  2
POLY11
340
0
102
{BLKREFS
331
3B0
102
}
  0
BLOCK_RECORD
  5
3D7
330
1
100
AcDbSymbolTableRecord
100
AcDbBlockTableRecord
  2
POLY12
340
0
102
{BLKREFS
331
400
102
}
  0
BLOCK_RECORD
  5
4AA
330
1
100
AcDbSymbolTableRecord
100
AcDbBlockTableRecord
  2
POLY13
340
0
102
{BLKREFS
331
4B9
102
}
  0
BLOCK_RECORD
  5
4DC
330
1
100
AcDbSymbolTableRecord
100
AcDbBlockTableRecord
  2
POLY14
340
0
102
{BLKREFS
331
4EB
102
}
  0
BLOCK_RECORD
  5
519
330
1
100
AcDbSymbolTableRecord
100
AcDbBlockTableRecord
  2
*X126
340
0
102
{BLKREFS
331
525
102
}
  0
BLOCK_RECORD
  5
526
330
1
100
AcDbSymbolTableRecord
100
AcDbBlockTableRecord
  2
*X227
340
0
102
{BLKREFS
331
531
102
}
  0
BLOCK_RECORD
  5
533
330
1
100
AcDbSymbolTableRecord
100
AcDbBlockTableRecord
  2
*D28
340
0
  0
BLOCK_RECORD
  5
540
330
1
100
AcDbSymbolTableRecord
100
AcDbBlockTableRecord
  2
*D29
340
0
  0
BLOCK_RECORD
  5
54D
330
1
100
AcDbSymbolTableRecord
100
AcDbBlockTableRecord
  2
*D30
340
0
  0
BLOCK_RECORD
  5
55C
330
1
100
AcDbSymbolTableRecord
100
AcDbBlockTableRecord
  2
*D31
340
0
  0
BLOCK_RECORD
  5
56C
330
1
100
AcDbSymbolTableRecord
100
AcDbBlockTableRecord
  2
*D32
340
0
  0
BLOCK_RECORD
  5
579
330
1
100
AcDbSymbolTableRecord
100
AcDbBlockTableRecord
  2
*D33
340
0
  0
BLOCK_RECORD
  5
587
330
1
100
AcDbSymbolTableRecord
100
AcDbBlockTableRecord
  2
*D34
340
0
  0
ENDTAB
  0
ENDSEC
  0
SECTION
  2
BLOCKS
  0
BLOCK
  5
20
330
1F
100
AcDbEntity
  8
0
100
AcDbBlockBegin
  2
*Model_Space
 70
     0
 71
     0
 10
0.0
 20
0.0
 30
0.0
  3
*Model_Space
  1

  0
ENDBLK
  5
21
330
1F
100
AcDbEntity
  8
0
100
AcDbBlockEnd
  0
BLOCK
  5
1C
330
1B
100
AcDbEntity
 67
     1
  8
0
100
AcDbBlockBegin
  2
*Paper_Space
 70
     0
 71
     0
 10
0.0
 20
0.0
 30
0.0
  3
*Paper_Space
  1

  0
ENDBLK
  5
1D
330
1B
100
AcDbEntity
 67
     1
  8
0
100
AcDbBlockEnd
  0
BLOCK
  5
24
330
23
100
AcDbEntity
  8
0
100
AcDbBlockBegin
  2
*Paper_Space0
 70
     0
 71
     0
 10
0.0
 20
0.0
 30
0.0
  3
*Paper_Space0
  1

  0
ENDBLK
  5
25
330
23
100
AcDbEntity
  8
0
100
AcDbBlockEnd
  0
BLOCK
  5
31
330
30
100
AcDbEntity
  8
0
100
AcDbBlockBegin
  2
SYM1
 70
     0
 71
     0
 10
0.0
 20
0.0
 30
0.0
  3
SYM1
  1

  4
SYM1
  0
LINE
  5
34
330
30
100
AcDbEntity
  8
LC-001-111-----0
 62
   253
370
    50
100
AcDbLine
 10
2050.0
 20
50.0
 30
0.0
 11
2050.0
 21
2920.0
 31
0.0
  0
LINE
  5
35
330
30
100
AcDbEntity
  8
LC-001-111-----0
 62
   253
370
    25
100
AcDbLine
 10
178.0
 20
220.0
 30
0.0
 11
724.0
 21
220.0
 31
0.0
  0
LINE
  5
36
330
30
100
AcDbEntity
  8
LC-001-111-----0
 62
   253
370
    35
100
AcDbLine
 10
724.0
 20
220.0
 30
0.0
 11
2050.0
 21
220.0
 31
0.0
  0
LINE
  5
37
330
30
100
AcDbEntity
  8
LC-001-111-----0
 62
   253
370
    50
100
AcDbLine
 10
178.0
 20
602.5
 30
0.0
 11
2050.0
 21
602.5
 31
0.0
  0
LINE
  5
38
330
30
100
AcDbEntity
  8
LC-001-111-----0
 62
   253
370
    25
100
AcDbLine
 10
178.0
 20
92.5
 30
0.0
 11
2050.0
 21
92.5
 31
0.0
  0
LINE
  5
39
330
30
100
AcDbEntity
  8
LC-001-111-----0
 62
   253
370
    25
100
AcDbLine
 10
178.0
 20
135.0
 30
0.0
 11
724.0
 21
135.0
 31
0.0
  0
LINE
  5
3A
330
30
100
AcDbEntity
  8
LC-001-111-----0
 62
   253
370
    25
100
AcDbLine
 10
178.0
 20
177.5
 30
0.0
 11
724.0
 21
177.5
 31
0.0
  0
LINE
  5
3B
330
30
100
AcDbEntity
  8
LC-001-111-----0
 62
   253
370
    25
100
AcDbLine
 10
178.0
 20
262.5
 30
0.0
 11
1166.0
 21
262.5
 31
0.0
  0
LINE
  5
3C
330
30
100
AcDbEntity
  8
LC-001-111-----0
 62
   253
370
    25
100
AcDbLine
 10
178.0
 20
305.0
 30
0.0
 11
1166.0
 21
305.0
 31
0.0
  0
LINE
  5
3D
330
30
100
AcDbEntity
  8
LC-001-111-----0
 62
   253
370
    25
100
AcDbLine
 10
178.0
 20
347.5
 30
0.0
 11
1166.0
 21
347.5
 31
0.0
  0
LINE
  5
3E
330
30
100
AcDbEntity
  8
LC-001-111-----0
 62
   253
370
    25
100
AcDbLine
 10
178.0
 20
390.0
 30
0.0
 11
1166.0
 21
390.0
 31
0.0
  0
LINE
  5
3F
330
30
100
AcDbEntity
  8
LC-001-111-----0
 62
   253
370
    35
100
AcDbLine
 10
178.0
 20
432.5
 30
0.0
 11
2050.0
 21
432.5
 31
0.0
  0
LINE
  5
40
330
30
100
AcDbEntity
  8
LC-001-111-----0
 62
   253
370
    25
100
AcDbLine
 10
828.0
 20
262.5
 30
0.0
 11
828.0
 21
432.5
 31
0.0
  0
LINE
  5
41
330
30
100
AcDbEntity
  8
LC-001-111-----0
 62
   253
370
    35
100
AcDbLine
 10
1920.0
 20
92.5
 30
0.0
 11
1920.0
 21
220.0
 31
0.0
  0
LINE
  5
42
330
30
100
AcDbEntity
  8
LC-001-111-----0
 62
   253
370
    25
100
AcDbLine
 10
1166.0
 20
538.75
 30
0.0
 11
2050.0
 21
538.75
 31
0.0
  0
LINE
  5
43
330
30
100
AcDbEntity
  8
LC-001-111-----0
 62
   253
370
    25
100
AcDbLine
 10
256.0
 20
50.0
 30
0.0
 11
256.0
 21
432.5
 31
0.0
  0
LINE
  5
44
330
30
100
AcDbEntity
  8
LC-001-111-----0
 62
   253
370
    25
100
AcDbLine
 10
516.0
 20
50.0
 30
0.0
 11
516.0
 21
432.5
 31
0.0
  0
LINE
  5
45
330
30
100
AcDbEntity
  8
LC-001-111-----0
 62
   253
370
    25
100
AcDbLine
 10
646.0
 20
50.0
 30
0.0
 11
646.0
 21
432.5
 31
0.0
  0
LINE
  5
46
330
30
100
AcDbEntity
  8
LC-001-111-----0
 62
   253
370
    35
100
AcDbLine
 10
724.0
 20
50.0
 30
0.0
 11
724.0
 21
602.5
 31
0.0
  0
LINE
  5
47
330
30
100
AcDbEntity
  8
LC-001-111-----0
 62
   253
370
    35
100
AcDbLine
 10
1166.0
 20
50.0
 30
0.0
 11
1166.0
 21
602.5
 31
0.0
  0
LINE
  5
48
330
30
100
AcDbEntity
  8
LC-001-111-----0
 62
   253
370
    25
100
AcDbLine
 10
1920.0
 20
135.0
 30
0.0
 11
2050.0
 21
135.0
 31
0.0
  0
LINE
  5
49
330
30
100
AcDbEntity
  8
LC-001-111-----0
 62
   253
370
    25
100
AcDbLine
 10
984.0
 20
220.0
 30
0.0
 11
984.0
 21
602.5
 31
0.0
  0
LINE
  5
4A
330
30
100
AcDbEntity
  8
LC-001-111-----0
 62
   253
370
    25
100
AcDbLine
 10
1686.0
 20
538.75
 30
0.0
 11
1686.0
 21
602.5
 31
0.0
  0
LINE
  5
4B
330
30
100
AcDbEntity
  8
LC-001-111-----0
 62
   253
370
    25
100
AcDbLine
 10
1608.0
 20
50.0
 30
0.0
 11
1608.0
 21
92.5
 31
0.0
  0
LINE
  5
4C
330
30
100
AcDbEntity
  8
LC-001-111-----0
 62
   253
370
    50
100
AcDbLine
 10
178.0
 20
50.0
 30
0.0
 11
178.0
 21
2920.0
 31
0.0
  0
LINE
  5
4D
330
30
100
AcDbEntity
  8
LC-001-111-----0
 62
   253
370
    50
100
AcDbLine
 10
178.0
 20
2920.0
 30
0.0
 11
2050.0
 21
2920.0
 31
0.0
  0
TEXT
  5
4E
330
30
100
AcDbEntity
  8
LC-001-111-----0
 62
     7
370
    25
100
AcDbText
 10
1471.410714
 20
558.125
 30
0.0
 40
25.0
  1
1:10
 41
0.75
  7
LCTX0-400-0-0pDIN-Schrift
 72
     1
 11
1504.0
 21
558.125
 31
0.0
100
AcDbText
  0
TEXT
  5
4F
330
30
100
AcDbEntity
  8
LC-001-111-----0
 62
     7
370
    25
100
AcDbText
 10
742.964286
 20
398.75
 30
0.0
 40
25.0
  1
2001
 41
0.75
  7
LCTX0-400-0-0pDIN-Schrift
 72
     1
 11
776.0
 21
398.75
 31
0.0
100
AcDbText
  0
TEXT
  5
50
330
30
100
AcDbEntity
  8
LC-001-111-----0
 62
     7
370
    25
100
AcDbText
 10
861.803571
 20
356.25
 30
0.0
 40
25.0
  1
01.10.
 41
0.75
  7
LCTX0-400-0-0pDIN-Schrift
 72
     1
 11
906.0
 21
356.25
 31
0.0
100
AcDbText
  0
TEXT
  5
51
330
30
100
AcDbEntity
  8
LC-001-111-----0
 62
     7
370
    25
100
AcDbText
 10
1056.696429
 20
356.25
 30
0.0
 40
25.0
  1
HÄ
 41
0.75
  7
LCTX0-400-0-0pDIN-Schrift
 72
     1
 11
1075.0
 21
356.25
 31
0.0
100
AcDbText
  0
TEXT
  5
52
330
30
100
AcDbEntity
  8
LC-001-111-----0
 62
   253
370
    20
100
AcDbText
 10
1183.923077
 20
560.625
 30
0.0
 40
20.0
  1
Maßstab
 41
0.75
  7
LCTX0-400-0-0pDIN-Schrift
100
AcDbText
  0
TEXT
  5
53
330
30
100
AcDbEntity
  8
LC-001-111-----0
 62
   253
370
    20
100
AcDbText
 10
869.928571
 20
401.25
 30
0.0
 40
20.0
  1
Datum
 41
0.75
  7
LCTX0-400-0-0pDIN-Schrift
 72
     1
 11
906.0
 21
401.25
 31
0.0
100
AcDbText
  0
TEXT
  5
54
330
30
100
AcDbEntity
  8
LC-001-111-----0
 62
   253
370
    20
100
AcDbText
 10
1042.857143
 20
401.25
 30
0.0
 40
20.0
  1
Name
 41
0.75
  7
LCTX0-400-0-0pDIN-Schrift
 72
     1
 11
1075.0
 21
401.25
 31
0.0
100
AcDbText
  0
TEXT
  5
55
330
30
100
AcDbEntity
  8
LC-001-111-----0
 62
   253
370
    20
100
AcDbText
 10
741.923077
 20
358.75
 30
0.0
 40
20.0
  1
Bearb.
 41
0.75
  7
LCTX0-400-0-0pDIN-Schrift
100
AcDbText
  0
TEXT
  5
56
330
30
100
AcDbEntity
  8
LC-001-111-----0
 62
   253
370
    20
100
AcDbText
 10
741.923077
 20
316.25
 30
0.0
 40
20.0
  1
Gepr.
 41
0.75
  7
LCTX0-400-0-0pDIN-Schrift
100
AcDbText
  0
TEXT
  5
57
330
30
100
AcDbEntity
  8
LC-001-111-----0
 62
   253
370
    20
100
AcDbText
 10
741.923077
 20
273.75
 30
0.0
 40
20.0
  1
Norm
 41
0.75
  7
LCTX0-400-0-0pDIN-Schrift
100
AcDbText
  0
TEXT
  5
58
330
30
100
AcDbEntity
  8
LC-001-111-----0
 62
   253
370
    20
100
AcDbText
 10
1937.923077
 20
188.75
 30
0.0
 40
20.0
  1
Blatt
 41
0.75
  7
LCTX0-400-0-0pDIN-Schrift
100
AcDbText
  0
TEXT
  5
59
330
30
100
AcDbEntity
  8
LC-001-111-----0
 62
   253
370
    20
100
AcDbText
 10
2012.076923
 20
103.75
 30
0.0
 40
20.0
  1
Bl.
 41
0.75
  7
LCTX0-400-0-0pDIN-Schrift
 72
     2
 11
2037.076923
 21
103.75
 31
0.0
100
AcDbText
  0
TEXT
  5
5A
330
30
100
AcDbEntity
  8
LC-001-111-----0
 62
   253
370
    20
100
AcDbText
 10
200.0
 20
61.25
 30
0.0
 40
20.0
  1
Zust.
 41
0.6
  7
LCTX0-400-0-0pDIN-Schrift
 72
     1
 11
222.0
 21
61.25
 31
0.0
100
AcDbText
  0
TEXT
  5
5B
330
30
100
AcDbEntity
  8
LC-001-111-----0
 62
   253
370
    20
100
AcDbText
 10
334.928571
 20
61.25
 30
0.0
 40
20.0
  1
Änderung
 41
0.75
  7
LCTX0-400-0-0pDIN-Schrift
 72
     1
 11
386.0
 21
61.25
 31
0.0
100
AcDbText
  0
TEXT
  5
5C
330
30
100
AcDbEntity
  8
LC-001-111-----0
 62
   253
370
    20
100
AcDbText
 10
544.928571
 20
61.25
 30
0.0
 40
20.0
  1
Datum
 41
0.75
  7
LCTX0-400-0-0pDIN-Schrift
 72
     1
 11
581.0
 21
61.25
 31
0.0
100
AcDbText
  0
TEXT
  5
5D
330
30
100
AcDbEntity
  8
LC-001-111-----0
 62
   253
370
    20
100
AcDbText
 10
652.857143
 20
61.25
 30
0.0
 40
20.0
  1
Name
 41
0.75
  7
LCTX0-400-0-0pDIN-Schrift
 72
     1
 11
685.0
 21
61.25
 31
0.0
100
AcDbText
  0
TEXT
  5
5E
330
30
100
AcDbEntity
  8
LC-001-111-----0
 62
     7
370
    50
100
AcDbText
 10
1453.535714
 20
343.75
 30
0.0
 40
50.0
  1
Viola N200
 41
0.75
  7
LCTX0-400-0-0pDIN-Schrift
 72
     1
 11
1608.0
 21
343.75
 31
0.0
100
AcDbText
  0
TEXT
  5
5F
330
30
100
AcDbEntity
  8
LC-001-111-----0
 62
     7
370
    50
100
AcDbText
 10
1328.714286
 20
131.25
 30
0.0
 40
50.0
  1
4.97.588.04.00
 41
0.75
  7
LCTX0-400-0-0pDIN-Schrift
 72
     1
 11
1543.0
 21
131.25
 31
0.0
100
AcDbText
  0
ARC
  5
60
330
30
100
AcDbEntity
  8
LC-001-111-----0
 62
   253
370
    25
100
AcDbCircle
 10
758.903191
 20
174.567744
 30
0.0
 40
20.81533311668208
100
AcDbArc
 50
62.408264
 51
94.48185
  0
LINE
  5
61
330
30
100
AcDbEntity
  8
LC-001-111-----0
 62
   253
370
    50
100
AcDbLine
 10
178.0
 20
50.0
 30
0.0
 11
2050.0
 21
50.0
 31
0.0
  0
LINE
  5
62
330
30
100
AcDbEntity
  8
LC-001-111-----0
 62
   253
370
    25
100
AcDbLine
 10
50.0
 20
1485.0
 30
0.0
 11
0.0
 21
1485.0
 31
0.0
  0
LINE
  5
63
330
30
100
AcDbEntity
  8
LC-001-111-----0
 62
   253
370
    25
100
AcDbLine
 10
1063.835603
 20
195.169147
 30
0.0
 11
1063.835603
 21
157.149147
 31
0.0
  0
LINE
  5
64
330
30
100
AcDbEntity
  8
LC-001-111-----0
 62
   253
370
    25
100
AcDbLine
 10
2100.0
 20
2970.0
 30
0.0
 11
2100.0
 21
0.0
 31
0.0
  0
LINE
  5
65
330
30
100
AcDbEntity
  8
LC-001-111-----0
 62
   253
370
    25
100
AcDbLine
 10
2100.0
 20
0.0
 30
0.0
 11
0.0
 21
0.0
 31
0.0
  0
LINE
  5
66
330
30
100
AcDbEntity
  8
LC-001-111-----0
 62
   253
370
    25
100
AcDbLine
 10
0.0
 20
0.0
 30
0.0
 11
0.0
 21
2970.0
 31
0.0
  0
LINE
  5
67
330
30
100
AcDbEntity
  8
LC-001-111-----0
 62
   253
370
    25
100
AcDbLine
 10
2100.0
 20
2970.0
 30
0.0
 11
0.0
 21
2970.0
 31
0.0
  0
TEXT
  5
68
330
30
100
AcDbEntity
  8
LC-001-111-----0
 62
   253
370
    20
100
AcDbText
 10
743.5
 20
111.159147
 30
0.0
 40
20.0
  1
Hofbauerstraße 1  ·  D-94209 REGEN
 41
0.65
  7
LCTX0-400-0-0pDIN-Schrift
 72
     1
 11
945.0
 21
111.159147
 31
0.0
100
AcDbText
  0
ARC
  5
69
330
30
100
AcDbEntity
  8
LC-001-111-----0
 62
   253
370
    25
100
AcDbCircle
 10
758.032826
 20
185.671748
 30
0.0
 40
9.677270814709853
100
AcDbArc
 50
94.48185
 51
252.731329
  0
ARC
  5
6A
330
30
100
AcDbEntity
  8
LC-001-111-----0
 62
   253
370
    25
100
AcDbCircle
 10
823.845603
 20
176.159147
 30
0.0
 40
19.01000000000008
100
AcDbArc
 50
74.719456
 51
285.280544
  0
LINE
  5
6B
330
30
100
AcDbEntity
  8
LC-001-111-----0
 62
   253
370
    25
100
AcDbLine
 10
828.855603
 20
157.821208
 30
0.0
 11
828.855603
 21
163.204148
 31
0.0
  0
ARC
  5
6C
330
30
100
AcDbEntity
  8
LC-001-111-----0
 62
   253
370
    25
100
AcDbCircle
 10
823.845603
 20
176.159147
 30
0.0
 40
13.88999999999995
100
AcDbArc
 50
68.857352
 51
291.142648
  0
ARC
  5
6D
330
30
100
AcDbEntity
  8
LC-001-111-----0
 62
   253
370
    25
100
AcDbCircle
 10
823.845603
 20
176.159147
 30
0.0
 40
12.39000000000002
100
AcDbArc
 50
58.303227
 51
301.696773
  0
ARC
  5
6E
330
30
100
AcDbEntity
  8
LC-001-111-----0
 62
   253
370
    25
100
AcDbCircle
 10
1019.845603
 20
176.159147
 30
0.0
 40
19.01000000000008
100
AcDbArc
 50
74.719456
 51
285.280544
  0
LINE
  5
6F
330
30
100
AcDbEntity
  8
LC-001-111-----0
 62
   253
370
    25
100
AcDbLine
 10
830.355603
 20
165.617231
 30
0.0
 11
830.355603
 21
156.709726
 31
0.0
  0
LINE
  5
70
330
30
100
AcDbEntity
  8
LC-001-111-----0
 62
   253
370
    25
100
AcDbLine
 10
755.160101
 20
176.430697
 30
0.0
 11
762.683613
 21
174.091896
 31
0.0
  0
ARC
  5
71
330
30
100
AcDbEntity
  8
LC-001-111-----0
 62
   253
370
    25
100
AcDbCircle
 10
823.845603
 20
176.159147
 30
0.0
 40
20.51000000000012
100
AcDbArc
 50
71.493868
 51
288.506132
  0
LINE
  5
72
330
30
100
AcDbEntity
  8
LC-001-111-----0
 62
   253
370
    25
100
AcDbLine
 10
1024.855603
 20
157.821208
 30
0.0
 11
1024.855603
 21
163.204148
 31
0.0
  0
LINE
  5
73
330
30
100
AcDbEntity
  8
LC-001-111-----0
 62
   253
370
    25
100
AcDbLine
 10
830.355603
 20
195.608569
 30
0.0
 11
830.355603
 21
186.701063
 31
0.0
  0
ARC
  5
74
330
30
100
AcDbEntity
  8
LC-001-111-----0
 62
   253
370
    25
100
AcDbCircle
 10
1019.845603
 20
176.159147
 30
0.0
 40
13.88999999999995
100
AcDbArc
 50
68.857352
 51
291.142648
  0
LINE
  5
75
330
30
100
AcDbEntity
  8
LC-001-111-----0
 62
   253
370
    25
100
AcDbLine
 10
862.835603
 20
155.649147
 30
0.0
 11
862.835603
 21
196.669147
 31
0.0
  0
LINE
  5
76
330
30
100
AcDbEntity
  8
LC-001-111-----0
 62
   253
370
    25
100
AcDbLine
 10
862.835603
 20
196.669147
 30
0.0
 11
872.355603
 21
196.669147
 31
0.0
  0
LINE
  5
77
330
30
100
AcDbEntity
  8
LC-001-111-----0
 62
   253
370
    25
100
AcDbLine
 10
872.355603
 20
196.669147
 30
0.0
 11
872.355603
 21
179.519147
 31
0.0
  0
LINE
  5
78
330
30
100
AcDbEntity
  8
LC-001-111-----0
 62
   253
370
    25
100
AcDbLine
 10
872.355603
 20
179.519147
 30
0.0
 11
887.335603
 21
179.519147
 31
0.0
  0
LINE
  5
79
330
30
100
AcDbEntity
  8
LC-001-111-----0
 62
   253
370
    25
100
AcDbLine
 10
887.335603
 20
179.519147
 30
0.0
 11
887.335603
 21
196.669147
 31
0.0
  0
LINE
  5
7A
330
30
100
AcDbEntity
  8
LC-001-111-----0
 62
   253
370
    25
100
AcDbLine
 10
887.335603
 20
196.669147
 30
0.0
 11
896.855603
 21
196.669147
 31
0.0
  0
LINE
  5
7B
330
30
100
AcDbEntity
  8
LC-001-111-----0
 62
   253
370
    25
100
AcDbLine
 10
896.855603
 20
196.669147
 30
0.0
 11
896.855603
 21
155.649147
 31
0.0
  0
LINE
  5
7C
330
30
100
AcDbEntity
  8
LC-001-111-----0
 62
   253
370
    25
100
AcDbLine
 10
896.855603
 20
155.649147
 30
0.0
 11
887.335603
 21
155.649147
 31
0.0
  0
LINE
  5
7D
330
30
100
AcDbEntity
  8
LC-001-111-----0
 62
   253
370
    25
100
AcDbLine
 10
887.335603
 20
155.649147
 30
0.0
 11
887.335603
 21
172.799147
 31
0.0
  0
LINE
  5
7E
330
30
100
AcDbEntity
  8
LC-001-111-----0
 62
   253
370
    25
100
AcDbLine
 10
887.335603
 20
172.799147
 30
0.0
 11
872.355603
 21
172.799147
 31
0.0
  0
LINE
  5
7F
330
30
100
AcDbEntity
  8
LC-001-111-----0
 62
   253
370
    25
100
AcDbLine
 10
872.355603
 20
172.799147
 30
0.0
 11
872.355603
 21
155.649147
 31
0.0
  0
LINE
  5
80
330
30
100
AcDbEntity
  8
LC-001-111-----0
 62
   253
370
    25
100
AcDbLine
 10
872.355603
 20
155.649147
 30
0.0
 11
862.835603
 21
155.649147
 31
0.0
  0
CIRCLE
  5
81
330
30
100
AcDbEntity
  8
LC-001-111-----0
 62
   253
370
    25
100
AcDbCircle
 10
946.345603
 20
176.159147
 30
0.0
 40
12.39000000000044
  0
CIRCLE
  5
82
330
30
100
AcDbEntity
  8
LC-001-111-----0
 62
   253
370
    25
100
AcDbCircle
 10
946.345603
 20
176.159147
 30
0.0
 40
20.51000000000049
  0
ARC
  5
83
330
30
100
AcDbEntity
  8
LC-001-111-----0
 62
   253
370
    25
100
AcDbCircle
 10
1019.845603
 20
176.159147
 30
0.0
 40
12.39000000000002
100
AcDbArc
 50
58.303227
 51
301.696773
  0
LINE
  5
84
330
30
100
AcDbEntity
  8
LC-001-111-----0
 62
   253
370
    25
100
AcDbLine
 10
864.335603
 20
195.169147
 30
0.0
 11
864.335603
 21
157.149147
 31
0.0
  0
LINE
  5
85
330
30
100
AcDbEntity
  8
LC-001-111-----0
 62
   253
370
    25
100
AcDbLine
 10
1026.355603
 20
165.617231
 30
0.0
 11
1026.355603
 21
156.709726
 31
0.0
  0
LINE
  5
86
330
30
100
AcDbEntity
  8
LC-001-111-----0
 62
   253
370
    25
100
AcDbLine
 10
864.335603
 20
157.149147
 30
0.0
 11
870.855603
 21
157.149147
 31
0.0
  0
LINE
  5
87
330
30
100
AcDbEntity
  8
LC-001-111-----0
 62
   253
370
    25
100
AcDbLine
 10
870.855603
 20
157.149147
 30
0.0
 11
870.855603
 21
174.299147
 31
0.0
  0
LINE
  5
88
330
30
100
AcDbEntity
  8
LC-001-111-----0
 62
   253
370
    25
100
AcDbLine
 10
870.855603
 20
174.299147
 30
0.0
 11
888.835603
 21
174.299147
 31
0.0
  0
LINE
  5
89
330
30
100
AcDbEntity
  8
LC-001-111-----0
 62
   253
370
    25
100
AcDbLine
 10
888.835603
 20
174.299147
 30
0.0
 11
888.835603
 21
157.149147
 31
0.0
  0
LINE
  5
8A
330
30
100
AcDbEntity
  8
LC-001-111-----0
 62
   253
370
    25
100
AcDbLine
 10
888.835603
 20
157.149147
 30
0.0
 11
895.355603
 21
157.149147
 31
0.0
  0
LINE
  5
8B
330
30
100
AcDbEntity
  8
LC-001-111-----0
 62
   253
370
    25
100
AcDbLine
 10
895.355603
 20
157.149147
 30
0.0
 11
895.355603
 21
195.169147
 31
0.0
  0
LINE
  5
8C
330
30
100
AcDbEntity
  8
LC-001-111-----0
 62
   253
370
    25
100
AcDbLine
 10
895.355603
 20
195.169147
 30
0.0
 11
888.835603
 21
195.169147
 31
0.0
  0
LINE
  5
8D
330
30
100
AcDbEntity
  8
LC-001-111-----0
 62
   253
370
    25
100
AcDbLine
 10
888.835603
 20
195.169147
 30
0.0
 11
888.835603
 21
178.019147
 31
0.0
  0
LINE
  5
8E
330
30
100
AcDbEntity
  8
LC-001-111-----0
 62
   253
370
    25
100
AcDbLine
 10
888.835603
 20
178.019147
 30
0.0
 11
870.855603
 21
178.019147
 31
0.0
  0
LINE
  5
8F
330
30
100
AcDbEntity
  8
LC-001-111-----0
 62
   253
370
    25
100
AcDbLine
 10
870.855603
 20
178.019147
 30
0.0
 11
870.855603
 21
195.169147
 31
0.0
  0
CIRCLE
  5
90
330
30
100
AcDbEntity
  8
LC-001-111-----0
 62
   253
370
    25
100
AcDbCircle
 10
946.345603
 20
176.159147
 30
0.0
 40
19.01000000000055
  0
ARC
  5
91
330
30
100
AcDbEntity
  8
LC-001-111-----0
 62
   253
370
    25
100
AcDbCircle
 10
760.836588
 20
168.15034
 30
0.0
 40
6.222024781007809
100
AcDbArc
 50
268.246912
 51
72.731329
  0
ARC
  5
92
330
30
100
AcDbEntity
  8
LC-001-111-----0
 62
   253
370
    25
100
AcDbCircle
 10
761.412387
 20
186.963179
 30
0.0
 40
25.04367341134793
100
AcDbArc
 50
239.19233
 51
268.246912
  0
LINE
  5
93
330
30
100
AcDbEntity
  8
LC-001-111-----0
 62
   253
370
    25
100
AcDbLine
 10
748.586073
 20
165.453385
 30
0.0
 11
748.586073
 21
160.350534
 31
0.0
  0
ARC
  5
94
330
30
100
AcDbEntity
  8
LC-001-111-----0
 62
   253
370
    25
100
AcDbCircle
 10
760.81067
 20
180.45076
 30
0.0
 40
23.52572762426598
100
AcDbArc
 50
238.692783
 51
274.343327
  0
ARC
  5
95
330
30
100
AcDbEntity
  8
LC-001-111-----0
 62
   253
370
    25
100
AcDbCircle
 10
1019.845603
 20
176.159147
 30
0.0
 40
20.51000000000012
100
AcDbArc
 50
71.493868
 51
288.506132
  0
ARC
  5
96
330
30
100
AcDbEntity
  8
LC-001-111-----0
 62
   253
370
    25
100
AcDbCircle
 10
761.779647
 20
167.692822
 30
0.0
 40
10.73104525444839
100
AcDbArc
 50
274.343327
 51
74.255463
  0
LINE
  5
97
330
30
100
AcDbEntity
  8
LC-001-111-----0
 62
   253
370
    25
100
AcDbLine
 10
1026.355603
 20
195.608569
 30
0.0
 11
1026.355603
 21
186.701063
 31
0.0
  0
LINE
  5
98
330
30
100
AcDbEntity
  8
LC-001-111-----0
 62
   253
370
    25
100
AcDbLine
 10
764.691502
 20
178.02125
 30
0.0
 11
757.135251
 21
180.151556
 31
0.0
  0
LINE
  5
99
330
30
100
AcDbEntity
  8
LC-001-111-----0
 62
   253
370
    25
100
AcDbLine
 10
1024.855603
 20
189.114146
 30
0.0
 11
1024.855603
 21
194.497086
 31
0.0
  0
ARC
  5
9A
330
30
100
AcDbEntity
  8
LC-001-111-----0
 62
   253
370
    25
100
AcDbCircle
 10
758.632108
 20
185.460948
 30
0.0
 40
5.51636013010035
100
AcDbArc
 50
90.951212
 51
254.255463
  0
ARC
  5
9B
330
30
100
AcDbEntity
  8
LC-001-111-----0
 62
   253
370
    25
100
AcDbCircle
 10
758.906662
 20
168.924866
 30
0.0
 40
22.05472179307849
100
AcDbArc
 50
64.088485
 51
90.951212
  0
LINE
  5
9C
330
30
100
AcDbEntity
  8
LC-001-111-----0
 62
   253
370
    25
100
AcDbLine
 10
768.544191
 20
188.762426
 30
0.0
 11
768.544191
 21
193.015758
 31
0.0
  0
LINE
  5
9D
330
30
100
AcDbEntity
  8
LC-001-111-----0
 62
   253
370
    25
100
AcDbLine
 10
1071.855603
 20
177.513832
 30
0.0
 11
1087.818366
 21
196.669147
 31
0.0
  0
LINE
  5
9E
330
30
100
AcDbEntity
  8
LC-001-111-----0
 62
   253
370
    25
100
AcDbLine
 10
1087.818366
 20
196.669147
 30
0.0
 11
1099.299433
 21
196.669147
 31
0.0
  0
LINE
  5
9F
330
30
100
AcDbEntity
  8
LC-001-111-----0
 62
   253
370
    25
100
AcDbLine
 10
1099.299433
 20
196.669147
 30
0.0
 11
1082.207766
 21
176.159147
 31
0.0
  0
LINE
  5
A1
330
30
100
AcDbEntity
  8
LC-002-002-----0
 62
     1
370
    25
100
AcDbLine
 10
1143.855603
 20
159.963432
 30
0.0
 11
1143.855603
 21
192.354862
 31
0.0
  0
LINE
  5
A2
330
30
100
AcDbEntity
  8
LC-002-002-----0
 62
     1
370
    25
100
AcDbLine
 10
1143.855603
 20
192.354862
 30
0.0
 11
1127.659888
 21
176.159147
 31
0.0
  0
LINE
  5
A3
330
30
100
AcDbEntity
  8
LC-002-002-----0
 62
     1
370
    25
100
AcDbLine
 10
1127.659888
 20
176.159147
 30
0.0
 11
1143.855603
 21
159.963432
 31
0.0
  0
LINE
  5
A4
330
30
100
AcDbEntity
  8
LC-002-002-----0
 62
     1
370
    25
100
AcDbLine
 10
1142.355603
 20
163.584752
 30
0.0
 11
1142.355603
 21
188.733542
 31
0.0
  0
LINE
  5
A5
330
30
100
AcDbEntity
  8
LC-001-111-----0
 62
   253
370
    25
100
AcDbLine
 10
1082.207766
 20
176.159147
 30
0.0
 11
1099.299433
 21
155.649147
 31
0.0
  0
LINE
  5
A6
330
30
100
AcDbEntity
  8
LC-001-111-----0
 62
   253
370
    25
100
AcDbLine
 10
1099.299433
 20
155.649147
 30
0.0
 11
1087.818366
 21
155.649147
 31
0.0
  0
LINE
  5
A7
330
30
100
AcDbEntity
  8
LC-001-111-----0
 62
   253
370
    25
100
AcDbLine
 10
1087.818366
 20
155.649147
 30
0.0
 11
1071.855603
 21
174.804462
 31
0.0
  0
LINE
  5
A8
330
30
100
AcDbEntity
  8
LC-001-111-----0
 62
   253
370
    25
100
AcDbLine
 10
1062.335603
 20
155.649147
 30
0.0
 11
1062.335603
 21
196.669147
 31
0.0
  0
LINE
  5
A9
330
30
100
AcDbEntity
  8
LC-001-111-----0
 62
   253
370
    25
100
AcDbLine
 10
828.855603
 20
189.114146
 30
0.0
 11
828.855603
 21
194.497086
 31
0.0
  0
ARC
  5
AA
330
30
100
AcDbEntity
  8
LC-001-111-----0
 62
   253
370
    25
100
AcDbCircle
 10
758.903191
 20
174.567744
 30
0.0
 40
19.31533311668209
100
AcDbArc
 50
65.072024
 51
94.48185
  0
LINE
  5
AB
330
30
100
AcDbEntity
  8
LC-001-111-----0
 62
   253
370
    25
100
AcDbLine
 10
1063.835603
 20
157.149147
 30
0.0
 11
1070.355603
 21
157.149147
 31
0.0
  0
LINE
  5
AC
330
30
100
AcDbEntity
  8
LC-001-111-----0
 62
   253
370
    25
100
AcDbLine
 10
1070.355603
 20
157.149147
 30
0.0
 11
1070.355603
 21
195.169147
 31
0.0
  0
LINE
  5
AD
330
30
100
AcDbEntity
  8
LC-001-111-----0
 62
   253
370
    25
100
AcDbLine
 10
1070.355603
 20
195.169147
 30
0.0
 11
1063.835603
 21
195.169147
 31
0.0
  0
LINE
  5
AE
330
30
100
AcDbEntity
  8
LC-001-111-----0
 62
   253
370
    25
100
AcDbLine
 10
1065.335603
 20
193.669147
 30
0.0
 11
1065.335603
 21
158.649147
 31
0.0
  0
LINE
  5
AF
330
30
100
AcDbEntity
  8
LC-002-002-----0
 62
     1
370
    25
100
AcDbLine
 10
1142.355603
 20
188.733542
 30
0.0
 11
1129.781208
 21
176.159147
 31
0.0
  0
LINE
  5
B0
330
30
100
AcDbEntity
  8
LC-002-002-----0
 62
     1
370
    25
100
AcDbLine
 10
1129.781208
 20
176.159147
 30
0.0
 11
1142.355603
 21
163.584752
 31
0.0
  0
LINE
  5
B1
330
30
100
AcDbEntity
  8
LC-001-111-----0
 62
   253
370
    25
100
AcDbLine
 10
1062.335603
 20
196.669147
 30
0.0
 11
1071.855603
 21
196.669147
 31
0.0
  0
LINE
  5
B2
330
30
100
AcDbEntity
  8
LC-001-111-----0
 62
   253
370
    25
100
AcDbLine
 10
1071.855603
 20
196.669147
 30
0.0
 11
1071.855603
 21
155.649147
 31
0.0
  0
LINE
  5
B3
330
30
100
AcDbEntity
  8
LC-001-111-----0
 62
   253
370
    25
100
AcDbLine
 10
1071.855603
 20
155.649147
 30
0.0
 11
1062.335603
 21
155.649147
 31
0.0
  0
ARC
  5
B4
330
30
100
AcDbEntity
  8
LC-001-111-----0
 62
   253
370
    25
100
AcDbCircle
 10
758.032826
 20
185.671748
 30
0.0
 40
8.177270814709827
100
AcDbArc
 50
94.48185
 51
252.731329
  0
LINE
  5
B5
330
30
100
AcDbEntity
  8
LC-001-111-----0
 62
   253
370
    25
100
AcDbLine
 10
755.60538
 20
177.863082
 30
0.0
 11
763.128892
 21
175.524281
 31
0.0
  0
ARC
  5
B6
330
30
100
AcDbEntity
  8
LC-001-111-----0
 62
   253
370
    25
100
AcDbCircle
 10
760.836588
 20
168.15034
 30
0.0
 40
7.72202478100773
100
AcDbArc
 50
268.246912
 51
72.731329
  0
LINE
  5
B7
330
30
100
AcDbEntity
  8
LC-001-111-----0
 62
   253
370
    25
100
AcDbLine
 10
827.355603
 20
191.143539
 30
0.0
 11
827.355603
 21
193.313738
 31
0.0
  0
ARC
  5
B8
330
30
100
AcDbEntity
  8
LC-001-111-----0
 62
   253
370
    25
100
AcDbCircle
 10
823.845603
 20
176.159147
 30
0.0
 40
17.50999999999996
100
AcDbArc
 50
78.436322
 51
281.563678
  0
LINE
  5
B9
330
30
100
AcDbEntity
  8
LC-001-111-----0
 62
   253
370
    25
100
AcDbLine
 10
827.355603
 20
159.004556
 30
0.0
 11
827.355603
 21
161.174755
 31
0.0
  0
LINE
  5
BA
330
30
100
AcDbEntity
  8
LC-002-002-----0
 62
     1
370
    25
100
AcDbLine
 10
1145.355603
 20
195.976182
 30
0.0
 11
1145.355603
 21
156.342112
 31
0.0
  0
LINE
  5
BB
330
30
100
AcDbEntity
  8
LC-002-002-----0
 62
     1
370
    25
100
AcDbLine
 10
1145.355603
 20
156.342112
 30
0.0
 11
1125.538568
 21
176.159147
 31
0.0
  0
LINE
  5
BC
330
30
100
AcDbEntity
  8
LC-002-002-----0
 62
     1
370
    25
100
AcDbLine
 10
1125.538568
 20
176.159147
 30
0.0
 11
1145.355603
 21
195.976182
 31
0.0
  0
LINE
  5
BD
330
30
100
AcDbEntity
  8
LC-001-111-----0
 62
   253
370
    25
100
AcDbLine
 10
1065.335603
 20
158.649147
 30
0.0
 11
1068.855603
 21
158.649147
 31
0.0
  0
LINE
  5
BE
330
30
100
AcDbEntity
  8
LC-001-111-----0
 62
   253
370
    25
100
AcDbLine
 10
1068.855603
 20
158.649147
 30
0.0
 11
1068.855603
 21
193.669147
 31
0.0
  0
LINE
  5
BF
330
30
100
AcDbEntity
  8
LC-001-111-----0
 62
   253
370
    25
100
AcDbLine
 10
1068.855603
 20
193.669147
 30
0.0
 11
1065.335603
 21
193.669147
 31
0.0
  0
LINE
  5
C0
330
30
100
AcDbEntity
  8
LC-001-111-----0
 62
   253
370
    25
100
AcDbLine
 10
1067.095603
 20
192.169147
 30
0.0
 11
1067.095603
 21
160.149147
 31
0.0
  0
ARC
  5
C1
330
30
100
AcDbEntity
  8
LC-001-111-----0
 62
   253
370
    25
100
AcDbCircle
 10
823.845603
 20
176.159147
 30
0.0
 40
15.38999999999992
100
AcDbArc
 50
76.816519
 51
283.183481
  0
LINE
  5
C2
330
30
100
AcDbEntity
  8
LC-001-111-----0
 62
   253
370
    25
100
AcDbLine
 10
870.855603
 20
195.169147
 30
0.0
 11
864.335603
 21
195.169147
 31
0.0
  0
LINE
  5
C3
330
30
100
AcDbEntity
  8
LC-001-111-----0
 62
   253
370
    25
100
AcDbLine
 10
1096.09687
 20
195.169147
 30
0.0
 11
1088.520928
 21
195.169147
 31
0.0
  0
LINE
  5
C4
330
30
100
AcDbEntity
  8
LC-001-111-----0
 62
   253
370
    25
100
AcDbLine
 10
865.835603
 20
158.649147
 30
0.0
 11
869.355603
 21
158.649147
 31
0.0
  0
LINE
  5
C5
330
30
100
AcDbEntity
  8
LC-001-111-----0
 62
   253
370
    25
100
AcDbLine
 10
1023.355603
 20
191.143539
 30
0.0
 11
1023.355603
 21
193.313738
 31
0.0
  0
LINE
  5
C6
330
30
100
AcDbEntity
  8
LC-001-111-----0
 62
   253
370
    25
100
AcDbLine
 10
892.095603
 20
192.169147
 30
0.0
 11
892.095603
 21
160.149147
 31
0.0
  0
TEXT
  5
C7
330
30
100
AcDbEntity
  8
LC-001-111-----0
 62
     1
370
    15
100
AcDbText
 10
1118.321429
 20
21.25
 30
0.0
 40
15.0
  1
Viola-N200
 41
0.75
  7
LCTX0-400-0-0pDIN-Schrift
 72
     1
 11
1166.0
 21
21.25
 31
0.0
100
AcDbText
  0
CIRCLE
  5
C8
330
30
100
AcDbEntity
  8
LC-001-111-----0
 62
   253
370
    25
100
AcDbCircle
 10
946.345603
 20
176.159147
 30
0.0
 40
17.51000000000047
  0
LINE
  5
C9
330
30
100
AcDbEntity
  8
LC-001-111-----0
 62
   253
370
    25
100
AcDbLine
 10
1088.520928
 20
195.169147
 30
0.0
 11
1072.679261
 21
176.159147
 31
0.0
  0
ARC
  5
CA
330
30
100
AcDbEntity
  8
LC-001-111-----0
 62
   253
370
    25
100
AcDbCircle
 10
1019.845603
 20
176.159147
 30
0.0
 40
17.50999999999996
100
AcDbArc
 50
78.436322
 51
281.563678
  0
ARC
  5
CB
330
30
100
AcDbEntity
  8
LC-001-111-----0
 62
   253
370
    25
100
AcDbCircle
 10
761.412387
 20
186.963179
 30
0.0
 40
26.54367341134783
100
AcDbArc
 50
244.741378
 51
268.246912
  0
LINE
  5
CC
330
30
100
AcDbEntity
  8
LC-001-111-----0
 62
   253
370
    25
100
AcDbLine
 10
1023.355603
 20
159.004556
 30
0.0
 11
1023.355603
 21
161.174755
 31
0.0
  0
LINE
  5
CD
330
30
100
AcDbEntity
  8
LC-002-002-----0
 62
     1
370
    25
100
AcDbLine
 10
1140.855603
 20
167.206073
 30
0.0
 11
1140.855603
 21
185.112221
 31
0.0
  0
LINE
  5
CE
330
30
100
AcDbEntity
  8
LC-002-002-----0
 62
     1
370
    25
100
AcDbLine
 10
1140.855603
 20
185.112221
 30
0.0
 11
1131.902529
 21
176.159147
 31
0.0
  0
LINE
  5
CF
330
30
100
AcDbEntity
  8
LC-002-002-----0
 62
     1
370
    25
100
AcDbLine
 10
1131.902529
 20
176.159147
 30
0.0
 11
1140.855603
 21
167.206073
 31
0.0
  0
CIRCLE
  5
D0
330
30
100
AcDbEntity
  8
LC-001-111-----0
 62
   253
370
    25
100
AcDbCircle
 10
946.345603
 20
176.159147
 30
0.0
 40
13.89000000000002
  0
LINE
  5
D1
330
30
100
AcDbEntity
  8
LC-001-111-----0
 62
   253
370
    25
100
AcDbLine
 10
890.335603
 20
158.649147
 30
0.0
 11
893.855603
 21
158.649147
 31
0.0
  0
LINE
  5
D2
330
30
100
AcDbEntity
  8
LC-001-111-----0
 62
   253
370
    25
100
AcDbLine
 10
893.855603
 20
158.649147
 30
0.0
 11
893.855603
 21
193.669147
 31
0.0
  0
ARC
  5
D3
330
30
100
AcDbEntity
  8
LC-001-111-----0
 62
   253
370
    25
100
AcDbCircle
 10
758.906662
 20
168.924866
 30
0.0
 40
20.55472179307891
100
AcDbArc
 50
57.190491
 51
90.951212
  0
ARC
  5
D4
330
30
100
AcDbEntity
  8
LC-001-111-----0
 62
   253
370
    25
100
AcDbCircle
 10
761.779647
 20
167.692822
 30
0.0
 40
12.23104525444841
100
AcDbArc
 50
274.343327
 51
74.255463
  0
LINE
  5
D5
330
30
100
AcDbEntity
  8
LC-001-111-----0
 62
   253
370
    25
100
AcDbLine
 10
893.855603
 20
193.669147
 30
0.0
 11
890.335603
 21
193.669147
 31
0.0
  0
LINE
  5
D6
330
30
100
AcDbEntity
  8
LC-001-111-----0
 62
   253
370
    25
100
AcDbLine
 10
890.335603
 20
193.669147
 30
0.0
 11
890.335603
 21
158.649147
 31
0.0
  0
LINE
  5
D7
330
30
100
AcDbEntity
  8
LC-001-111-----0
 62
   253
370
    25
100
AcDbLine
 10
890.335603
 20
176.159147
 30
0.0
 11
869.355603
 21
176.159147
 31
0.0
  0
TEXT
  5
D8
330
30
100
AcDbEntity
  8
LC-001-111-----0
 62
     7
370
    25
100
AcDbText
 10
1977.410714
 20
143.75
 30
0.0
 40
25.0
  1
1
 41
0.75
  7
LCTX0-400-0-0pDIN-Schrift
 72
     1
 11
1985.0
 21
143.75
 31
0.0
100
AcDbText
  0
LINE
  5
D9
330
30
100
AcDbEntity
  8
LC-001-111-----0
 62
   253
370
    25
100
AcDbLine
 10
869.355603
 20
158.649147
 30
0.0
 11
869.355603
 21
193.669147
 31
0.0
  0
LINE
  5
DA
330
30
100
AcDbEntity
  8
LC-001-111-----0
 62
   253
370
    25
100
AcDbLine
 10
869.355603
 20
193.669147
 30
0.0
 11
865.835603
 21
193.669147
 31
0.0
  0
LINE
  5
DB
330
30
100
AcDbEntity
  8
LC-001-111-----0
 62
   253
370
    25
100
AcDbLine
 10
865.835603
 20
193.669147
 30
0.0
 11
865.835603
 21
158.649147
 31
0.0
  0
LINE
  5
DC
330
30
100
AcDbEntity
  8
LC-001-111-----0
 62
   253
370
    25
100
AcDbLine
 10
867.595603
 20
192.169147
 30
0.0
 11
867.595603
 21
160.149147
 31
0.0
  0
CIRCLE
  5
DD
330
30
100
AcDbEntity
  8
LC-001-111-----0
 62
   253
370
    25
100
AcDbCircle
 10
946.345603
 20
176.159147
 30
0.0
 40
15.38999999999984
  0
LINE
  5
DE
330
30
100
AcDbEntity
  8
LC-001-111-----0
 62
   253
370
    25
100
AcDbLine
 10
1072.679261
 20
176.159147
 30
0.0
 11
1088.520928
 21
157.149147
 31
0.0
  0
LINE
  5
DF
330
30
100
AcDbEntity
  8
LC-001-111-----0
 62
   253
370
    25
100
AcDbLine
 10
1088.520928
 20
157.149147
 30
0.0
 11
1096.09687
 21
157.149147
 31
0.0
  0
LINE
  5
E0
330
30
100
AcDbEntity
  8
LC-001-111-----0
 62
   253
370
    25
100
AcDbLine
 10
1096.09687
 20
157.149147
 30
0.0
 11
1080.255204
 21
176.159147
 31
0.0
  0
LINE
  5
E1
330
30
100
AcDbEntity
  8
LC-001-111-----0
 62
   253
370
    25
100
AcDbLine
 10
770.044191
 20
186.20063
 30
0.0
 11
770.044191
 21
193.903002
 31
0.0
  0
ARC
  5
E2
330
30
100
AcDbEntity
  8
LC-001-111-----0
 62
   253
370
    25
100
AcDbCircle
 10
761.412387
 20
186.963179
 30
0.0
 40
23.54367341134796
100
AcDbArc
 50
232.518913
 51
268.246912
  0
ARC
  5
E3
330
30
100
AcDbEntity
  8
LC-001-111-----0
 62
   253
370
    25
100
AcDbCircle
 10
760.836588
 20
168.15034
 30
0.0
 40
4.722024781007908
100
AcDbArc
 50
268.246912
 51
72.731329
  0
LINE
  5
E4
330
30
100
AcDbEntity
  8
LC-001-111-----0
 62
   253
370
    25
100
AcDbLine
 10
757.542274
 20
181.595277
 30
0.0
 11
765.098525
 21
179.464972
 31
0.0
  0
ARC
  5
E5
330
30
100
AcDbEntity
  8
LC-001-111-----0
 62
   253
370
    25
100
AcDbCircle
 10
758.632108
 20
185.460948
 30
0.0
 40
4.016360130100384
100
AcDbArc
 50
90.951212
 51
254.255463
  0
ARC
  5
E6
330
30
100
AcDbEntity
  8
LC-001-111-----0
 62
   253
370
    25
100
AcDbCircle
 10
758.032826
 20
185.671748
 30
0.0
 40
11.17727081470983
100
AcDbArc
 50
94.48185
 51
252.731329
  0
LINE
  5
E7
330
30
100
AcDbEntity
  8
LC-001-111-----0
 62
   253
370
    25
100
AcDbLine
 10
762.238334
 20
172.659511
 30
0.0
 11
754.714822
 21
174.998312
 31
0.0
  0
LINE
  5
E8
330
30
100
AcDbEntity
  8
LC-001-111-----0
 62
   253
370
    25
100
AcDbLine
 10
747.086073
 20
168.279997
 30
0.0
 11
747.086073
 21
159.524163
 31
0.0
  0
ARC
  5
E9
330
30
100
AcDbEntity
  8
LC-001-111-----0
 62
   253
370
    25
100
AcDbCircle
 10
758.903191
 20
174.567744
 30
0.0
 40
22.31533311668187
100
AcDbArc
 50
60.049399
 51
94.48185
  0
ARC
  5
EA
330
30
100
AcDbEntity
  8
LC-001-111-----0
 62
   253
370
    25
100
AcDbCircle
 10
760.81067
 20
180.45076
 30
0.0
 40
25.02572762426604
100
AcDbArc
 50
236.741348
 51
274.343327
  0
LINE
  5
EB
330
30
100
AcDbEntity
  8
LC-001-111-----0
 62
   253
370
    25
100
AcDbLine
 10
1080.255204
 20
176.159147
 30
0.0
 11
1096.09687
 21
195.169147
 31
0.0
  0
LINE
  5
EC
330
30
100
AcDbEntity
  8
LC-001-111-----0
 62
   253
370
    25
100
AcDbLine
 10
750.086073
 20
162.957321
 30
0.0
 11
750.086073
 21
161.212369
 31
0.0
  0
LINE
  5
ED
330
30
100
AcDbEntity
  8
LC-001-111-----0
 62
   253
370
    25
100
AcDbLine
 10
1078.302641
 20
176.159147
 30
0.0
 11
1092.894308
 21
193.669147
 31
0.0
  0
LINE
  5
EE
330
30
100
AcDbEntity
  8
LC-002-002-----0
 62
     1
370
    25
100
AcDbLine
 10
1139.355603
 20
170.827393
 30
0.0
 11
1139.355603
 21
181.490901
 31
0.0
  0
LINE
  5
EF
330
30
100
AcDbEntity
  8
LC-002-002-----0
 62
     1
370
    25
100
AcDbLine
 10
1139.355603
 20
181.490901
 30
0.0
 11
1134.023849
 21
176.159147
 31
0.0
  0
LINE
  5
F0
330
30
100
AcDbEntity
  8
LC-002-002-----0
 62
     1
370
    25
100
AcDbLine
 10
1134.023849
 20
176.159147
 30
0.0
 11
1139.355603
 21
170.827393
 31
0.0
  0
LINE
  5
F1
330
30
100
AcDbEntity
  8
LC-002-002-----0
 62
     1
370
    25
100
AcDbLine
 10
1137.855603
 20
174.448713
 30
0.0
 11
1137.855603
 21
177.869581
 31
0.0
  0
LINE
  5
F2
330
30
100
AcDbEntity
  8
LC-002-002-----0
 62
     1
370
    25
100
AcDbLine
 10
1137.855603
 20
177.869581
 30
0.0
 11
1136.145169
 21
176.159147
 31
0.0
  0
LINE
  5
F3
330
30
100
AcDbEntity
  8
LC-002-002-----0
 62
     1
370
    25
100
AcDbLine
 10
1136.145169
 20
176.159147
 30
0.0
 11
1137.855603
 21
174.448713
 31
0.0
  0
LINE
  5
F4
330
30
100
AcDbEntity
  8
LC-001-111-----0
 62
   253
370
    25
100
AcDbLine
 10
1092.894308
 20
193.669147
 30
0.0
 11
1089.22349
 21
193.669147
 31
0.0
  0
LINE
  5
F5
330
30
100
AcDbEntity
  8
LC-001-111-----0
 62
   253
370
    25
100
AcDbLine
 10
1089.22349
 20
193.669147
 30
0.0
 11
1074.631824
 21
176.159147
 31
0.0
  0
ARC
  5
F6
330
30
100
AcDbEntity
  8
LC-001-111-----0
 62
   253
370
    25
100
AcDbCircle
 10
1019.845603
 20
176.159147
 30
0.0
 40
15.38999999999992
100
AcDbArc
 50
76.816519
 51
283.183481
  0
LINE
  5
F7
330
30
100
AcDbEntity
  8
LC-001-111-----0
 62
   253
370
    25
100
AcDbLine
 10
1074.631824
 20
176.159147
 30
0.0
 11
1089.22349
 21
158.649147
 31
0.0
  0
LINE
  5
F8
330
30
100
AcDbEntity
  8
LC-001-111-----0
 62
   253
370
    25
100
AcDbLine
 10
1089.22349
 20
158.649147
 30
0.0
 11
1092.894308
 21
158.649147
 31
0.0
  0
LINE
  5
F9
330
30
100
AcDbEntity
  8
LC-001-111-----0
 62
   253
370
    25
100
AcDbLine
 10
1092.894308
 20
158.649147
 30
0.0
 11
1078.302641
 21
176.159147
 31
0.0
  0
LINE
  5
FA
330
30
100
AcDbEntity
  8
LC-001-111-----0
 62
   253
370
    25
100
AcDbLine
 10
1076.467232
 20
176.159147
 30
0.0
 11
1090.098623
 21
192.516815
 31
0.0
  0
LINE
  5
FB
330
30
100
AcDbEntity
  8
LC-001-111-----0
 62
   253
370
    25
100
AcDbLine
 10
1076.467232
 20
176.159147
 30
0.0
 11
1090.098623
 21
159.801479
 31
0.0
  0
ARC
  5
FC
330
30
100
AcDbEntity
  8
LC-001-111-----0
 62
   253
370
    25
100
AcDbCircle
 10
760.81067
 20
180.45076
 30
0.0
 40
22.02572762426587
100
AcDbArc
 50
240.862164
 51
274.343327
  0
ARC
  5
FD
330
30
100
AcDbEntity
  8
LC-001-111-----0
 62
   253
370
    25
100
AcDbCircle
 10
761.779647
 20
167.692822
 30
0.0
 40
9.231045254448425
100
AcDbArc
 50
274.343327
 51
74.255463
  0
LINE
  5
FE
330
30
100
AcDbEntity
  8
LC-001-111-----0
 62
   253
370
    25
100
AcDbLine
 10
764.284479
 20
176.577529
 30
0.0
 11
756.728228
 21
178.707834
 31
0.0
  0
ARC
  5
FF
330
30
100
AcDbEntity
  8
LC-001-111-----0
 62
   253
370
    25
100
AcDbCircle
 10
758.632108
 20
185.460948
 30
0.0
 40
7.016360130100396
100
AcDbArc
 50
90.951212
 51
254.255463
  0
ARC
  5
100
330
30
100
AcDbEntity
  8
LC-001-111-----0
 62
   253
370
    25
100
AcDbCircle
 10
758.906662
 20
168.924866
 30
0.0
 40
23.55472179307856
100
AcDbArc
 50
69.789306
 51
90.951212
  0
LINE
  5
101
330
30
100
AcDbEntity
  8
LC-001-111-----0
 62
   253
370
    25
100
AcDbLine
 10
767.044191
 20
191.029289
 30
0.0
 11
767.044191
 21
192.083629
 31
0.0
  0
ENDBLK
  5
32
330
30
100
AcDbEntity
  8
0
100
AcDbBlockEnd
  0
BLOCK
  5
1B4
330
1AA
100
AcDbEntity
  8
0
100
AcDbBlockBegin
  2
*D2
 70
     1
 71
     0
 10
0.0
 20
0.0
 30
0.0
  3
*D2
  1

  0
LINE
  5
1AB
330
1AA
100
AcDbEntity
  8
LC-007-003-----0
 62
     2
370
    -2
100
AcDbLine
 10
1276.789534
 20
2523.412337
 30
0.0
 11
1276.789534
 21
2282.0
 31
0.0
  0
LINE
  5
1AC
330
1AA
100
AcDbEntity
  8
LC-007-003-----0
 62
     2
370
    -2
100
AcDbLine
 10
376.789534
 20
2523.412337
 30
0.0
 11
376.789534
 21
2282.0
 31
0.0
  0
LINE
  5
1AD
330
1AA
100
AcDbEntity
  8
LC-007-003-----0
 62
     2
370
    -2
100
AcDbLine
 10
1251.789534
 20
2300.0
 30
0.0
 11
401.789534
 21
2300.0
 31
0.0
  0
SOLID
  5
1AE
330
1AA
100
AcDbEntity
  8
LC-007-003-----0
 62
     2
100
AcDbTrace
 10
1251.789534
 20
2295.833333
 30
0.0
 11
1251.789534
 21
2304.166667
 31
0.0
 12
1276.789534
 22
2300.0
 32
0.0
 13
1276.789534
 23
2300.0
 33
0.0
  0
SOLID
  5
1AF
330
1AA
100
AcDbEntity
  8
LC-007-003-----0
 62
     2
100
AcDbTrace
 10
401.789534
 20
2304.166667
 30
0.0
 11
401.789534
 21
2295.833333
 31
0.0
 12
376.789534
 22
2300.0
 32
0.0
 13
376.789534
 23
2300.0
 33
0.0
  0
MTEXT
  5
1B0
330
1AA
100
AcDbEntity
  8
LC-007-003-----0
 62
     2
100
AcDbMText
 10
863.700121
 20
2330.0
 30
0.0
 40
25.0
 41
0.0
 71
     5
 72
     1
  1
\A1;900
  7
LCTX0-400-0-0pDIN-Schrift
 73
     1
 44
1.0
  0
POINT
  5
1B1
330
1AA
100
AcDbEntity
  8
Defpoints
 62
     0
100
AcDbPoint
 10
1276.789534
 20
2523.412337
 30
0.0
  0
POINT
  5
1B2
330
1AA
100
AcDbEntity
  8
Defpoints
 62
     0
100
AcDbPoint
 10
376.789534
 20
2523.412337
 30
0.0
  0
POINT
  5
1B3
330
1AA
100
AcDbEntity
  8
Defpoints
 62
     0
100
AcDbPoint
 10
376.789534
 20
2300.0
 30
0.0
  0
ENDBLK
  5
1B5
330
1AA
100
AcDbEntity
  8
0
100
AcDbBlockEnd
  0
BLOCK
  5
1C2
330
1B8
100
AcDbEntity
  8
0
100
AcDbBlockBegin
  2
*D3
 70
     1
 71
     0
 10
0.0
 20
0.0
 30
0.0
  3
*D3
  1

  0
LINE
  5
1B9
330
1B8
100
AcDbEntity
  8
LC-007-003-----0
 62
     2
370
    -2
100
AcDbLine
 10
436.24205
 20
2666.127171
 30
0.0
 11
436.24205
 21
2768.0
 31
0.0
  0
LINE
  5
1BA
330
1B8
100
AcDbEntity
  8
LC-007-003-----0
 62
     2
370
    -2
100
AcDbLine
 10
809.112636
 20
2666.127171
 30
0.0
 11
809.112636
 21
2768.0
 31
0.0
  0
LINE
  5
1BB
330
1B8
100
AcDbEntity
  8
LC-007-003-----0
 62
     2
370
    -2
100
AcDbLine
 10
461.24205
 20
2750.0
 30
0.0
 11
784.112636
 21
2750.0
 31
0.0
  0
SOLID
  5
1BC
330
1B8
100
AcDbEntity
  8
LC-007-003-----0
 62
     2
100
AcDbTrace
 10
461.24205
 20
2754.166667
 30
0.0
 11
461.24205
 21
2745.833333
 31
0.0
 12
436.24205
 22
2750.0
 32
0.0
 13
436.24205
 23
2750.0
 33
0.0
  0
SOLID
  5
1BD
330
1B8
100
AcDbEntity
  8
LC-007-003-----0
 62
     2
100
AcDbTrace
 10
784.112636
 20
2745.833333
 30
0.0
 11
784.112636
 21
2754.166667
 31
0.0
 12
809.112636
 22
2750.0
 32
0.0
 13
809.112636
 23
2750.0
 33
0.0
  0
MTEXT
  5
1BE
330
1B8
100
AcDbEntity
  8
LC-007-003-----0
 62
     2
100
AcDbMText
 10
615.544378
 20
2780.0
 30
0.0
 40
25.0
 41
0.0
 71
     5
 72
     1
  1
\A1;373
  7
LCTX0-400-0-0pDIN-Schrift
 73
     1
 44
1.0
  0
POINT
  5
1BF
330
1B8
100
AcDbEntity
  8
Defpoints
 62
     0
100
AcDbPoint
 10
436.24205
 20
2666.127171
 30
0.0
  0
POINT
  5
1C0
330
1B8
100
AcDbEntity
  8
Defpoints
 62
     0
100
AcDbPoint
 10
809.112636
 20
2666.127171
 30
0.0
  0
POINT
  5
1C1
330
1B8
100
AcDbEntity
  8
Defpoints
 62
     0
100
AcDbPoint
 10
809.112636
 20
2750.0
 30
0.0
  0
ENDBLK
  5
1C3
330
1B8
100
AcDbEntity
  8
0
100
AcDbBlockEnd
  0
BLOCK
  5
1CF
330
1C5
100
AcDbEntity
  8
0
100
AcDbBlockBegin
  2
*D4
 70
     1
 71
     0
 10
0.0
 20
0.0
 30
0.0
  3
*D4
  1

  0
LINE
  5
1C6
330
1C5
100
AcDbEntity
  8
LC-007-003-----0
 62
     2
370
    -2
100
AcDbLine
 10
844.24205
 20
2666.127171
 30
0.0
 11
844.24205
 21
2768.0
 31
0.0
  0
LINE
  5
1C7
330
1C5
100
AcDbEntity
  8
LC-007-003-----0
 62
     2
370
    -2
100
AcDbLine
 10
1217.112636
 20
2666.127171
 30
0.0
 11
1217.112636
 21
2768.0
 31
0.0
  0
LINE
  5
1C8
330
1C5
100
AcDbEntity
  8
LC-007-003-----0
 62
     2
370
    -2
100
AcDbLine
 10
869.24205
 20
2750.0
 30
0.0
 11
1192.112636
 21
2750.0
 31
0.0
  0
SOLID
  5
1C9
330
1C5
100
AcDbEntity
  8
LC-007-003-----0
 62
     2
100
AcDbTrace
 10
869.24205
 20
2754.166667
 30
0.0
 11
869.24205
 21
2745.833333
 31
0.0
 12
844.24205
 22
2750.0
 32
0.0
 13
844.24205
 23
2750.0
 33
0.0
  0
SOLID
  5
1CA
330
1C5
100
AcDbEntity
  8
LC-007-003-----0
 62
     2
100
AcDbTrace
 10
1192.112636
 20
2745.833333
 30
0.0
 11
1192.112636
 21
2754.166667
 31
0.0
 12
1217.112636
 22
2750.0
 32
0.0
 13
1217.112636
 23
2750.0
 33
0.0
  0
MTEXT
  5
1CB
330
1C5
100
AcDbEntity
  8
LC-007-003-----0
 62
     2
100
AcDbMText
 10
1016.102546
 20
2780.0
 30
0.0
 40
25.0
 41
0.0
 71
     5
 72
     1
  1
\A1;373
  7
LCTX0-400-0-0pDIN-Schrift
 73
     1
 44
1.0
  0
POINT
  5
1CC
330
1C5
100
AcDbEntity
  8
Defpoints
 62
     0
100
AcDbPoint
 10
844.24205
 20
2666.127171
 30
0.0
  0
POINT
  5
1CD
330
1C5
100
AcDbEntity
  8
Defpoints
 62
     0
100
AcDbPoint
 10
1217.112636
 20
2666.127171
 30
0.0
  0
POINT
  5
1CE
330
1C5
100
AcDbEntity
  8
Defpoints
 62
     0
100
AcDbPoint
 10
1217.112636
 20
2750.0
 30
0.0
  0
ENDBLK
  5
1D0
330
1C5
100
AcDbEntity
  8
0
100
AcDbBlockEnd
  0
BLOCK
  5
1DC
330
1D2
100
AcDbEntity
  8
0
100
AcDbBlockBegin
  2
*D5
 70
     1
 71
     0
 10
0.0
 20
0.0
 30
0.0
  3
*D5
  1

  0
LINE
  5
1D3
330
1D2
100
AcDbEntity
  8
LC-007-003-----0
 62
     2
370
    -2
100
AcDbLine
 10
932.305602
 20
2680.5
 30
0.0
 11
968.0
 21
2680.5
 31
0.0
  0
LINE
  5
1D4
330
1D2
100
AcDbEntity
  8
LC-007-003-----0
 62
     2
370
    -2
100
AcDbLine
 10
948.712919
 20
2475.5
 30
0.0
 11
968.0
 21
2475.5
 31
0.0
  0
LINE
  5
1D5
330
1D2
100
AcDbEntity
  8
LC-007-003-----0
 62
     2
370
    -2
100
AcDbLine
 10
950.0
 20
2655.5
 30
0.0
 11
950.0
 21
2500.5
 31
0.0
  0
SOLID
  5
1D6
330
1D2
100
AcDbEntity
  8
LC-007-003-----0
 62
     2
100
AcDbTrace
 10
954.166667
 20
2655.5
 30
0.0
 11
945.833333
 21
2655.5
 31
0.0
 12
950.0
 22
2680.5
 32
0.0
 13
950.0
 23
2680.5
 33
0.0
  0
SOLID
  5
1D7
330
1D2
100
AcDbEntity
  8
LC-007-003-----0
 62
     2
100
AcDbTrace
 10
945.833333
 20
2500.5
 30
0.0
 11
954.166667
 21
2500.5
 31
0.0
 12
950.0
 22
2475.5
 32
0.0
 13
950.0
 23
2475.5
 33
0.0
  0
MTEXT
  5
1D8
330
1D2
100
AcDbEntity
  8
LC-007-003-----0
 62
     2
100
AcDbMText
 10
920.0
 20
2580.212338
 30
0.0
 40
25.0
 41
0.0
 71
     5
 72
     1
  1
\A1;205
  7
LCTX0-400-0-0pDIN-Schrift
 11
6.123031769111886E-17
 21
1.0
 31
0.0
 73
     1
 44
1.0
  0
POINT
  5
1D9
330
1D2
100
AcDbEntity
  8
Defpoints
 62
     0
100
AcDbPoint
 10
932.305602
 20
2680.5
 30
0.0
  0
POINT
  5
1DA
330
1D2
100
AcDbEntity
  8
Defpoints
 62
     0
100
AcDbPoint
 10
948.712919
 20
2475.5
 30
0.0
  0
POINT
  5
1DB
330
1D2
100
AcDbEntity
  8
Defpoints
 62
     0
100
AcDbPoint
 10
950.0
 20
2475.5
 30
0.0
  0
ENDBLK
  5
1DD
330
1D2
100
AcDbEntity
  8
0
100
AcDbBlockEnd
  0
BLOCK
  5
1E9
330
1DF
100
AcDbEntity
  8
0
100
AcDbBlockBegin
  2
*D6
 70
     1
 71
     0
 10
0.0
 20
0.0
 30
0.0
  3
*D6
  1

  0
LINE
  5
1E0
330
1DF
100
AcDbEntity
  8
LC-007-003-----0
 62
     2
370
    -2
100
AcDbLine
 10
678.54892
 20
2680.5
 30
0.0
 11
718.0
 21
2680.5
 31
0.0
  0
LINE
  5
1E1
330
1DF
100
AcDbEntity
  8
LC-007-003-----0
 62
     2
370
    -2
100
AcDbLine
 10
704.677343
 20
2475.5
 30
0.0
 11
682.0
 21
2475.5
 31
0.0
  0
LINE
  5
1E2
330
1DF
100
AcDbEntity
  8
LC-007-003-----0
 62
     2
370
    -2
100
AcDbLine
 10
700.0
 20
2655.5
 30
0.0
 11
700.0
 21
2500.5
 31
0.0
  0
SOLID
  5
1E3
330
1DF
100
AcDbEntity
  8
LC-007-003-----0
 62
     2
100
AcDbTrace
 10
704.166667
 20
2655.5
 30
0.0
 11
695.833333
 21
2655.5
 31
0.0
 12
700.0
 22
2680.5
 32
0.0
 13
700.0
 23
2680.5
 33
0.0
  0
SOLID
  5
1E4
330
1DF
100
AcDbEntity
  8
LC-007-003-----0
 62
     2
100
AcDbTrace
 10
695.833333
 20
2500.5
 30
0.0
 11
704.166667
 21
2500.5
 31
0.0
 12
700.0
 22
2475.5
 32
0.0
 13
700.0
 23
2475.5
 33
0.0
  0
MTEXT
  5
1E5
330
1DF
100
AcDbEntity
  8
LC-007-003-----0
 62
     2
100
AcDbMText
 10
670.0
 20
2573.386912
 30
0.0
 40
25.0
 41
0.0
 71
     5
 72
     1
  1
\A1;205
  7
LCTX0-400-0-0pDIN-Schrift
 11
6.123031769111886E-17
 21
1.0
 31
0.0
 73
     1
 44
1.0
  0
POINT
  5
1E6
330
1DF
100
AcDbEntity
  8
Defpoints
 62
     0
100
AcDbPoint
 10
678.54892
 20
2680.5
 30
0.0
  0
POINT
  5
1E7
330
1DF
100
AcDbEntity
  8
Defpoints
 62
     0
100
AcDbPoint
 10
704.677343
 20
2475.5
 30
0.0
  0
POINT
  5
1E8
330
1DF
100
AcDbEntity
  8
Defpoints
 62
     0
100
AcDbPoint
 10
700.0
 20
2475.5
 30
0.0
  0
ENDBLK
  5
1EA
330
1DF
100
AcDbEntity
  8
0
100
AcDbBlockEnd
  0
BLOCK
  5
244
330
23A
100
AcDbEntity
  8
0
100
AcDbBlockBegin
  2
*D7
 70
     1
 71
     0
 10
0.0
 20
0.0
 30
0.0
  3
*D7
  1

  0
LINE
  5
23B
330
23A
100
AcDbEntity
  8
LC-007-003-----0
 62
     2
370
    -2
100
AcDbLine
 10
1821.166613
 20
1942.925079
 30
0.0
 11
1968.0
 21
1942.925079
 31
0.0
  0
LINE
  5
23C
330
23A
100
AcDbEntity
  8
LC-007-003-----0
 62
     2
370
    -2
100
AcDbLine
 10
1821.166613
 20
1522.387584
 30
0.0
 11
1968.0
 21
1522.387584
 31
0.0
  0
LINE
  5
23D
330
23A
100
AcDbEntity
  8
LC-007-003-----0
 62
     2
370
    -2
100
AcDbLine
 10
1950.0
 20
1917.925079
 30
0.0
 11
1950.0
 21
1547.387584
 31
0.0
  0
SOLID
  5
23E
330
23A
100
AcDbEntity
  8
LC-007-003-----0
 62
     2
100
AcDbTrace
 10
1954.166667
 20
1917.925079
 30
0.0
 11
1945.833333
 21
1917.925079
 31
0.0
 12
1950.0
 22
1942.925079
 32
0.0
 13
1950.0
 23
1942.925079
 33
0.0
  0
SOLID
  5
23F
330
23A
100
AcDbEntity
  8
LC-007-003-----0
 62
     2
100
AcDbTrace
 10
1945.833333
 20
1547.387584
 30
0.0
 11
1954.166667
 21
1547.387584
 31
0.0
 12
1950.0
 22
1522.387584
 32
0.0
 13
1950.0
 23
1522.387584
 33
0.0
  0
MTEXT
  5
240
330
23A
100
AcDbEntity
  8
LC-007-003-----0
 62
     2
100
AcDbMText
 10
1920.0
 20
1741.385412
 30
0.0
 40
25.0
 41
0.0
 71
     5
 72
     1
  1
\A1;421
  7
LCTX0-400-0-0pDIN-Schrift
 11
6.123031769111886E-17
 21
1.0
 31
0.0
 73
     1
 44
1.0
  0
POINT
  5
241
330
23A
100
AcDbEntity
  8
Defpoints
 62
     0
100
AcDbPoint
 10
1821.166613
 20
1942.925079
 30
0.0
  0
POINT
  5
242
330
23A
100
AcDbEntity
  8
Defpoints
 62
     0
100
AcDbPoint
 10
1821.166613
 20
1522.387584
 30
0.0
  0
POINT
  5
243
330
23A
100
AcDbEntity
  8
Defpoints
 62
     0
100
AcDbPoint
 10
1950.0
 20
1522.387584
 30
0.0
  0
ENDBLK
  5
245
330
23A
100
AcDbEntity
  8
0
100
AcDbBlockEnd
  0
BLOCK
  5
25B
330
251
100
AcDbEntity
  8
0
100
AcDbBlockBegin
  2
*D8
 70
     1
 71
     0
 10
0.0
 20
0.0
 30
0.0
  3
*D8
  1

  0
LINE
  5
252
330
251
100
AcDbEntity
  8
LC-007-003-----0
 62
     2
370
    -2
100
AcDbLine
 10
1251.677343
 20
1982.49
 30
0.0
 11
1368.0
 21
1982.49
 31
0.0
  0
LINE
  5
253
330
251
100
AcDbEntity
  8
LC-007-003-----0
 62
     2
370
    -2
100
AcDbLine
 10
1251.677343
 20
1482.49
 30
0.0
 11
1368.0
 21
1482.49
 31
0.0
  0
LINE
  5
254
330
251
100
AcDbEntity
  8
LC-007-003-----0
 62
     2
370
    -2
100
AcDbLine
 10
1350.0
 20
1957.49
 30
0.0
 11
1350.0
 21
1507.49
 31
0.0
  0
SOLID
  5
255
330
251
100
AcDbEntity
  8
LC-007-003-----0
 62
     2
100
AcDbTrace
 10
1354.166667
 20
1957.49
 30
0.0
 11
1345.833333
 21
1957.49
 31
0.0
 12
1350.0
 22
1982.49
 32
0.0
 13
1350.0
 23
1982.49
 33
0.0
  0
SOLID
  5
256
330
251
100
AcDbEntity
  8
LC-007-003-----0
 62
     2
100
AcDbTrace
 10
1345.833333
 20
1507.49
 30
0.0
 11
1354.166667
 21
1507.49
 31
0.0
 12
1350.0
 22
1482.49
 32
0.0
 13
1350.0
 23
1482.49
 33
0.0
  0
MTEXT
  5
257
330
251
100
AcDbEntity
  8
LC-007-003-----0
 62
     2
100
AcDbMText
 10
1320.0
 20
1731.51
 30
0.0
 40
25.0
 41
0.0
 71
     5
 72
     1
  1
\A1;500
  7
LCTX0-400-0-0pDIN-Schrift
 11
6.123031769111886E-17
 21
1.0
 31
0.0
 73
     1
 44
1.0
  0
POINT
  5
258
330
251
100
AcDbEntity
  8
Defpoints
 62
     0
100
AcDbPoint
 10
1251.677343
 20
1982.49
 30
0.0
  0
POINT
  5
259
330
251
100
AcDbEntity
  8
Defpoints
 62
     0
100
AcDbPoint
 10
1251.677343
 20
1482.49
 30
0.0
  0
POINT
  5
25A
330
251
100
AcDbEntity
  8
Defpoints
 62
     0
100
AcDbPoint
 10
1350.0
 20
1482.49
 30
0.0
  0
ENDBLK
  5
25C
330
251
100
AcDbEntity
  8
0
100
AcDbBlockEnd
  0
BLOCK
  5
270
330
266
100
AcDbEntity
  8
0
100
AcDbBlockBegin
  2
*D9
 70
     1
 71
     0
 10
0.0
 20
0.0
 30
0.0
  3
*D9
  1

  0
LINE
  5
267
330
266
100
AcDbEntity
  8
LC-007-003-----0
 62
     2
370
    -2
100
AcDbLine
 10
903.022369
 20
1065.882484
 30
0.0
 11
1010.195009
 21
1065.882484
 31
0.0
  0
LINE
  5
268
330
266
100
AcDbEntity
  8
LC-007-003-----0
 62
     2
370
    -2
100
AcDbLine
 10
903.022369
 20
825.882484
 30
0.0
 11
1010.195009
 21
825.882484
 31
0.0
  0
LINE
  5
269
330
266
100
AcDbEntity
  8
LC-007-003-----0
 62
     2
370
    -2
100
AcDbLine
 10
992.195009
 20
1040.882484
 30
0.0
 11
992.195009
 21
850.882484
 31
0.0
  0
SOLID
  5
26A
330
266
100
AcDbEntity
  8
LC-007-003-----0
 62
     2
100
AcDbTrace
 10
996.361675
 20
1040.882484
 30
0.0
 11
988.028342
 21
1040.882484
 31
0.0
 12
992.195009
 22
1065.882484
 32
0.0
 13
992.195009
 23
1065.882484
 33
0.0
  0
SOLID
  5
26B
330
266
100
AcDbEntity
  8
LC-007-003-----0
 62
     2
100
AcDbTrace
 10
988.028342
 20
850.882484
 30
0.0
 11
996.361675
 21
850.882484
 31
0.0
 12
992.195009
 22
825.882484
 32
0.0
 13
992.195009
 23
825.882484
 33
0.0
  0
MTEXT
  5
26C
330
266
100
AcDbEntity
  8
LC-007-003-----0
 62
     2
100
AcDbMText
 10
962.195009
 20
936.375985
 30
0.0
 40
25.0
 41
0.0
 71
     5
 72
     1
  1
\A1;480
  7
LCTX0-400-0-0pDIN-Schrift
 11
6.123031769111886E-17
 21
1.0
 31
0.0
 73
     1
 44
1.0
  0
POINT
  5
26D
330
266
100
AcDbEntity
  8
Defpoints
 62
     0
100
AcDbPoint
 10
903.022369
 20
1065.882484
 30
0.0
  0
POINT
  5
26E
330
266
100
AcDbEntity
  8
Defpoints
 62
     0
100
AcDbPoint
 10
903.022369
 20
825.882484
 30
0.0
  0
POINT
  5
26F
330
266
100
AcDbEntity
  8
Defpoints
 62
     0
100
AcDbPoint
 10
992.195009
 20
825.882484
 30
0.0
  0
ENDBLK
  5
271
330
266
100
AcDbEntity
  8
0
100
AcDbBlockEnd
  0
BLOCK
  5
27B
330
274
100
AcDbEntity
  8
0
100
AcDbBlockBegin
  2
*D10
 70
     1
 71
     0
 10
0.0
 20
0.0
 30
0.0
  3
*D10
  1

  0
LINE
  5
275
330
274
100
AcDbEntity
  8
LC-007-003-----0
 62
     2
370
    -2
100
AcDbLine
 10
516.626588
 20
847.77256
 30
0.0
 11
517.419738
 21
848.340101
 31
0.0
  0
MTEXT
  5
276
330
274
100
AcDbEntity
  8
LC-007-003-----0
 62
     2
100
AcDbMText
 10
554.305118
 20
859.557845
 30
0.0
 40
25.0
 41
0.0
 71
     5
 72
     1
  1
\A1;R10
  7
LCTX0-400-0-0pDIN-Schrift
 11
0.8132456311926983
 21
0.5819205644639051
 31
0.0
 73
     1
 44
1.0
  0
SOLID
  5
277
330
274
100
AcDbEntity
  8
LC-007-003-----0
 62
     2
100
AcDbTrace
 10
479.182125
 20
815.855549
 30
0.0
 11
474.332787
 21
822.632596
 31
0.0
 12
497.088597
 22
833.792086
 32
0.0
 13
497.088597
 23
833.792086
 33
0.0
  0
LINE
  5
278
330
274
100
AcDbEntity
  8
LC-007-003-----0
 62
     2
370
    -2
100
AcDbLine
 10
493.022369
 20
830.882484
 30
0.0
 11
497.088597
 21
833.792086
 31
0.0
  0
POINT
  5
279
330
274
100
AcDbEntity
  8
Defpoints
 62
     0
100
AcDbPoint
 10
497.088597
 20
833.792086
 30
0.0
  0
POINT
  5
27A
330
274
100
AcDbEntity
  8
Defpoints
 62
     0
100
AcDbPoint
 10
493.022369
 20
830.882484
 30
0.0
  0
ENDBLK
  5
27C
330
274
100
AcDbEntity
  8
0
100
AcDbBlockEnd
  0
BLOCK
  5
293
330
289
100
AcDbEntity
  8
0
100
AcDbBlockBegin
  2
*D11
 70
     1
 71
     0
 10
0.0
 20
0.0
 30
0.0
  3
*D11
  1

  0
LINE
  5
28A
330
289
100
AcDbEntity
  8
LC-007-003-----0
 62
     2
370
    -2
100
AcDbLine
 10
488.022369
 20
830.882484
 30
0.0
 11
488.022369
 21
731.641552
 31
0.0
  0
LINE
  5
28B
330
289
100
AcDbEntity
  8
LC-007-003-----0
 62
     2
370
    -2
100
AcDbLine
 10
908.022369
 20
830.882484
 30
0.0
 11
908.022369
 21
731.641552
 31
0.0
  0
LINE
  5
28C
330
289
100
AcDbEntity
  8
LC-007-003-----0
 62
     2
370
    -2
100
AcDbLine
 10
513.022369
 20
749.641552
 30
0.0
 11
883.022369
 21
749.641552
 31
0.0
  0
SOLID
  5
28D
330
289
100
AcDbEntity
  8
LC-007-003-----0
 62
     2
100
AcDbTrace
 10
513.022369
 20
753.808218
 30
0.0
 11
513.022369
 21
745.474885
 31
0.0
 12
488.022369
 22
749.641552
 32
0.0
 13
488.022369
 23
749.641552
 33
0.0
  0
SOLID
  5
28E
330
289
100
AcDbEntity
  8
LC-007-003-----0
 62
     2
100
AcDbTrace
 10
883.022369
 20
745.474885
 30
0.0
 11
883.022369
 21
753.808218
 31
0.0
 12
908.022369
 22
749.641552
 32
0.0
 13
908.022369
 23
749.641552
 33
0.0
  0
MTEXT
  5
28F
330
289
100
AcDbEntity
  8
LC-007-003-----0
 62
     2
100
AcDbMText
 10
692.700267
 20
779.641552
 30
0.0
 40
25.0
 41
0.0
 71
     5
 72
     1
  1
\A1;840
  7
LCTX0-400-0-0pDIN-Schrift
 73
     1
 44
1.0
  0
POINT
  5
290
330
289
100
AcDbEntity
  8
Defpoints
 62
     0
100
AcDbPoint
 10
488.022369
 20
830.882484
 30
0.0
  0
POINT
  5
291
330
289
100
AcDbEntity
  8
Defpoints
 62
     0
100
AcDbPoint
 10
908.022369
 20
830.882484
 30
0.0
  0
POINT
  5
292
330
289
100
AcDbEntity
  8
Defpoints
 62
     0
100
AcDbPoint
 10
908.022369
 20
749.641552
 30
0.0
  0
ENDBLK
  5
294
330
289
100
AcDbEntity
  8
0
100
AcDbBlockEnd
  0
BLOCK
  5
2AA
330
2A9
100
AcDbEntity
  8
0
100
AcDbBlockBegin
  2
POLY1
 70
     0
 71
     0
 10
0.0
 20
0.0
 30
0.0
  3
POLY1
  1

  4
POLY1
  0
LINE
  5
2AC
330
2A9
100
AcDbEntity
  8
LC-002-002-----0
 62
     7
370
    25
100
AcDbLine
 10
817.010303
 20
2612.117033
 30
0.0
 11
817.010303
 21
2612.117033
 31
0.0
  0
LINE
  5
2AD
330
2A9
100
AcDbEntity
  8
LC-002-002-----0
 62
     7
370
    25
100
AcDbLine
 10
817.010303
 20
2612.117033
 30
0.0
 11
816.969139
 21
2611.902099
 31
0.0
  0
LINE
  5
2AE
330
2A9
100
AcDbEntity
  8
LC-002-002-----0
 62
     7
370
    25
100
AcDbLine
 10
816.969139
 20
2611.902099
 30
0.0
 11
816.969139
 21
2611.902099
 31
0.0
  0
LINE
  5
2AF
330
2A9
100
AcDbEntity
  8
LC-002-002-----0
 62
     7
370
    25
100
AcDbLine
 10
816.969139
 20
2611.902099
 30
0.0
 11
816.896071
 21
2611.687137
 31
0.0
  0
LINE
  5
2B0
330
2A9
100
AcDbEntity
  8
LC-002-002-----0
 62
     7
370
    25
100
AcDbLine
 10
816.896071
 20
2611.687137
 30
0.0
 11
816.896071
 21
2611.687137
 31
0.0
  0
LINE
  5
2B1
330
2A9
100
AcDbEntity
  8
LC-002-002-----0
 62
     7
370
    25
100
AcDbLine
 10
816.896071
 20
2611.687137
 30
0.0
 11
816.79953
 21
2611.481629
 31
0.0
  0
LINE
  5
2B2
330
2A9
100
AcDbEntity
  8
LC-002-002-----0
 62
     7
370
    25
100
AcDbLine
 10
816.79953
 20
2611.481629
 30
0.0
 11
816.79953
 21
2611.481629
 31
0.0
  0
LINE
  5
2B3
330
2A9
100
AcDbEntity
  8
LC-002-002-----0
 62
     7
370
    25
100
AcDbLine
 10
816.79953
 20
2611.481629
 30
0.0
 11
816.684944
 21
2611.287529
 31
0.0
  0
LINE
  5
2B4
330
2A9
100
AcDbEntity
  8
LC-002-002-----0
 62
     7
370
    25
100
AcDbLine
 10
816.684944
 20
2611.287529
 30
0.0
 11
816.684944
 21
2611.287529
 31
0.0
  0
LINE
  5
2B5
330
2A9
100
AcDbEntity
  8
LC-002-002-----0
 62
     7
370
    25
100
AcDbLine
 10
816.684944
 20
2611.287529
 30
0.0
 11
816.558636
 21
2611.107827
 31
0.0
  0
LINE
  5
2B6
330
2A9
100
AcDbEntity
  8
LC-002-002-----0
 62
     7
370
    25
100
AcDbLine
 10
816.558636
 20
2611.107827
 30
0.0
 11
816.558636
 21
2611.107827
 31
0.0
  0
LINE
  5
2B7
330
2A9
100
AcDbEntity
  8
LC-002-002-----0
 62
     7
370
    25
100
AcDbLine
 10
816.558636
 20
2611.107827
 30
0.0
 11
816.422888
 21
2610.941652
 31
0.0
  0
LINE
  5
2B8
330
2A9
100
AcDbEntity
  8
LC-002-002-----0
 62
     7
370
    25
100
AcDbLine
 10
816.422888
 20
2610.941652
 30
0.0
 11
816.422888
 21
2610.941652
 31
0.0
  0
LINE
  5
2B9
330
2A9
100
AcDbEntity
  8
LC-002-002-----0
 62
     7
370
    25
100
AcDbLine
 10
816.422888
 20
2610.941652
 30
0.0
 11
816.279045
 21
2610.789468
 31
0.0
  0
LINE
  5
2BA
330
2A9
100
AcDbEntity
  8
LC-002-002-----0
 62
     7
370
    25
100
AcDbLine
 10
816.279045
 20
2610.789468
 30
0.0
 11
816.279045
 21
2610.789468
 31
0.0
  0
LINE
  5
2BB
330
2A9
100
AcDbEntity
  8
LC-002-002-----0
 62
     7
370
    25
100
AcDbLine
 10
816.279045
 20
2610.789468
 30
0.0
 11
816.129328
 21
2610.652883
 31
0.0
  0
LINE
  5
2BC
330
2A9
100
AcDbEntity
  8
LC-002-002-----0
 62
     7
370
    25
100
AcDbLine
 10
816.129328
 20
2610.652883
 30
0.0
 11
816.129328
 21
2610.652883
 31
0.0
  0
LINE
  5
2BD
330
2A9
100
AcDbEntity
  8
LC-002-002-----0
 62
     7
370
    25
100
AcDbLine
 10
816.129328
 20
2610.652883
 30
0.0
 11
815.977339
 21
2610.534002
 31
0.0
  0
LINE
  5
2BE
330
2A9
100
AcDbEntity
  8
LC-002-002-----0
 62
     7
370
    25
100
AcDbLine
 10
815.977339
 20
2610.534002
 30
0.0
 11
815.977339
 21
2610.534002
 31
0.0
  0
LINE
  5
2BF
330
2A9
100
AcDbEntity
  8
LC-002-002-----0
 62
     7
370
    25
100
AcDbLine
 10
815.977339
 20
2610.534002
 30
0.0
 11
815.827984
 21
2610.434788
 31
0.0
  0
ENDBLK
  5
2AB
330
2A9
100
AcDbEntity
  8
0
100
AcDbBlockEnd
  0
BLOCK
  5
2C2
330
2C1
100
AcDbEntity
  8
0
100
AcDbBlockBegin
  2
POLY2
 70
     0
 71
     0
 10
0.0
 20
0.0
 30
0.0
  3
POLY2
  1

  4
POLY2
  0
LINE
  5
2C4
330
2C1
100
AcDbEntity
  8
LC-002-002-----0
 62
     7
370
    25
100
AcDbLine
 10
815.290159
 20
2610.101112
 30
0.0
 11
815.290159
 21
2610.101112
 31
0.0
  0
LINE
  5
2C5
330
2C1
100
AcDbEntity
  8
LC-002-002-----0
 62
     7
370
    25
100
AcDbLine
 10
815.290159
 20
2610.101112
 30
0.0
 11
815.349611
 21
2610.138734
 31
0.0
  0
LINE
  5
2C6
330
2C1
100
AcDbEntity
  8
LC-002-002-----0
 62
     7
370
    25
100
AcDbLine
 10
815.349611
 20
2610.138734
 30
0.0
 11
815.349611
 21
2610.138734
 31
0.0
  0
LINE
  5
2C7
330
2C1
100
AcDbEntity
  8
LC-002-002-----0
 62
     7
370
    25
100
AcDbLine
 10
815.349611
 20
2610.138734
 30
0.0
 11
815.528754
 21
2610.250642
 31
0.0
  0
LINE
  5
2C8
330
2C1
100
AcDbEntity
  8
LC-002-002-----0
 62
     7
370
    25
100
AcDbLine
 10
815.528754
 20
2610.250642
 30
0.0
 11
815.528754
 21
2610.250642
 31
0.0
  0
LINE
  5
2C9
330
2C1
100
AcDbEntity
  8
LC-002-002-----0
 62
     7
370
    25
100
AcDbLine
 10
815.528754
 20
2610.250642
 30
0.0
 11
815.827984
 21
2610.434788
 31
0.0
  0
ENDBLK
  5
2C3
330
2C1
100
AcDbEntity
  8
0
100
AcDbBlockEnd
  0
BLOCK
  5
2CC
330
2CB
100
AcDbEntity
  8
0
100
AcDbBlockBegin
  2
POLY3
 70
     0
 71
     0
 10
0.0
 20
0.0
 30
0.0
  3
POLY3
  1

  4
POLY3
  0
LINE
  5
2CE
330
2CB
100
AcDbEntity
  8
LC-002-002-----0
 62
     7
370
    25
100
AcDbLine
 10
832.76897
 20
2604.762706
 30
0.0
 11
832.76897
 21
2604.762706
 31
0.0
  0
LINE
  5
2CF
330
2CB
100
AcDbEntity
  8
LC-002-002-----0
 62
     7
370
    25
100
AcDbLine
 10
832.76897
 20
2604.762706
 30
0.0
 11
832.785864
 21
2604.637906
 31
0.0
  0
LINE
  5
2D0
330
2CB
100
AcDbEntity
  8
LC-002-002-----0
 62
     7
370
    25
100
AcDbLine
 10
832.785864
 20
2604.637906
 30
0.0
 11
832.785864
 21
2604.637906
 31
0.0
  0
LINE
  5
2D1
330
2CB
100
AcDbEntity
  8
LC-002-002-----0
 62
     7
370
    25
100
AcDbLine
 10
832.785864
 20
2604.637906
 30
0.0
 11
832.790166
 21
2604.5789
 31
0.0
  0
LINE
  5
2D2
330
2CB
100
AcDbEntity
  8
LC-002-002-----0
 62
     7
370
    25
100
AcDbLine
 10
832.790166
 20
2604.5789
 30
0.0
 11
832.790166
 21
2604.5789
 31
0.0
  0
LINE
  5
2D3
330
2CB
100
AcDbEntity
  8
LC-002-002-----0
 62
     7
370
    25
100
AcDbLine
 10
832.790166
 20
2604.5789
 30
0.0
 11
832.792138
 21
2604.51977
 31
0.0
  0
LINE
  5
2D4
330
2CB
100
AcDbEntity
  8
LC-002-002-----0
 62
     7
370
    25
100
AcDbLine
 10
832.792138
 20
2604.51977
 30
0.0
 11
832.792138
 21
2604.51977
 31
0.0
  0
LINE
  5
2D5
330
2CB
100
AcDbEntity
  8
LC-002-002-----0
 62
     7
370
    25
100
AcDbLine
 10
832.792138
 20
2604.51977
 30
0.0
 11
832.791776
 21
2604.460608
 31
0.0
  0
LINE
  5
2D6
330
2CB
100
AcDbEntity
  8
LC-002-002-----0
 62
     7
370
    25
100
AcDbLine
 10
832.791776
 20
2604.460608
 30
0.0
 11
832.791776
 21
2604.460608
 31
0.0
  0
LINE
  5
2D7
330
2CB
100
AcDbEntity
  8
LC-002-002-----0
 62
     7
370
    25
100
AcDbLine
 10
832.791776
 20
2604.460608
 30
0.0
 11
832.789082
 21
2604.401507
 31
0.0
  0
LINE
  5
2D8
330
2CB
100
AcDbEntity
  8
LC-002-002-----0
 62
     7
370
    25
100
AcDbLine
 10
832.789082
 20
2604.401507
 30
0.0
 11
832.789082
 21
2604.401507
 31
0.0
  0
LINE
  5
2D9
330
2CB
100
AcDbEntity
  8
LC-002-002-----0
 62
     7
370
    25
100
AcDbLine
 10
832.789082
 20
2604.401507
 30
0.0
 11
832.78406
 21
2604.342558
 31
0.0
  0
LINE
  5
2DA
330
2CB
100
AcDbEntity
  8
LC-002-002-----0
 62
     7
370
    25
100
AcDbLine
 10
832.78406
 20
2604.342558
 30
0.0
 11
832.78406
 21
2604.342558
 31
0.0
  0
LINE
  5
2DB
330
2CB
100
AcDbEntity
  8
LC-002-002-----0
 62
     7
370
    25
100
AcDbLine
 10
832.78406
 20
2604.342558
 30
0.0
 11
832.730466
 21
2604.073552
 31
0.0
  0
ENDBLK
  5
2CD
330
2CB
100
AcDbEntity
  8
0
100
AcDbBlockEnd
  0
BLOCK
  5
2F1
330
2F0
100
AcDbEntity
  8
0
100
AcDbBlockBegin
  2
POLY4
 70
     0
 71
     0
 10
0.0
 20
0.0
 30
0.0
  3
POLY4
  1

  4
POLY4
  0
LINE
  5
2F4
330
2F0
100
AcDbEntity
  8
LC-012-100-D00-0
 62
     6
370
    25
100
AcDbLine
 10
724.385092
 20
2384.491034
 30
0.0
 11
724.385092
 21
2384.491034
 31
0.0
  0
LINE
  5
2F5
330
2F0
100
AcDbEntity
  8
LC-012-100-D00-0
 62
     6
370
    25
100
AcDbLine
 10
724.385092
 20
2384.491034
 30
0.0
 11
724.383129
 21
2384.471284
 31
0.0
  0
LINE
  5
2F6
330
2F0
100
AcDbEntity
  8
LC-012-100-D00-0
 62
     6
370
    25
100
AcDbLine
 10
724.383129
 20
2384.471284
 30
0.0
 11
724.383129
 21
2384.471284
 31
0.0
  0
LINE
  5
2F7
330
2F0
100
AcDbEntity
  8
LC-012-100-D00-0
 62
     6
370
    25
100
AcDbLine
 10
724.383129
 20
2384.471284
 30
0.0
 11
724.383129
 21
2384.441788
 31
0.0
  0
LINE
  5
2F8
330
2F0
100
AcDbEntity
  8
LC-012-100-D00-0
 62
     6
370
    25
100
AcDbLine
 10
724.383129
 20
2384.441788
 30
0.0
 11
724.383129
 21
2384.441788
 31
0.0
  0
LINE
  5
2F9
330
2F0
100
AcDbEntity
  8
LC-012-100-D00-0
 62
     6
370
    25
100
AcDbLine
 10
724.383129
 20
2384.441788
 30
0.0
 11
724.385092
 21
2384.405881
 31
0.0
  0
ENDBLK
  5
2F2
330
2F0
100
AcDbEntity
  8
0
100
AcDbBlockEnd
  0
BLOCK
  5
330
330
32F
100
AcDbEntity
  8
0
100
AcDbBlockBegin
  2
POLY5
 70
     0
 71
     0
 10
0.0
 20
0.0
 30
0.0
  3
POLY5
  1

  4
POLY5
  0
LINE
  5
332
330
32F
100
AcDbEntity
  8
LC-002-002-----0
 62
     7
370
    25
100
AcDbLine
 10
771.581064
 20
2387.897772
 30
0.0
 11
771.581064
 21
2387.897772
 31
0.0
  0
LINE
  5
333
330
32F
100
AcDbEntity
  8
LC-002-002-----0
 62
     7
370
    25
100
AcDbLine
 10
771.581064
 20
2387.897772
 30
0.0
 11
772.095852
 21
2387.897805
 31
0.0
  0
LINE
  5
334
330
32F
100
AcDbEntity
  8
LC-002-002-----0
 62
     7
370
    25
100
AcDbLine
 10
772.095852
 20
2387.897805
 30
0.0
 11
772.095852
 21
2387.897805
 31
0.0
  0
LINE
  5
335
330
32F
100
AcDbEntity
  8
LC-002-002-----0
 62
     7
370
    25
100
AcDbLine
 10
772.095852
 20
2387.897805
 30
0.0
 11
772.577222
 21
2387.897769
 31
0.0
  0
LINE
  5
336
330
32F
100
AcDbEntity
  8
LC-002-002-----0
 62
     7
370
    25
100
AcDbLine
 10
772.577222
 20
2387.897769
 30
0.0
 11
772.577222
 21
2387.897769
 31
0.0
  0
LINE
  5
337
330
32F
100
AcDbEntity
  8
LC-002-002-----0
 62
     7
370
    25
100
AcDbLine
 10
772.577222
 20
2387.897769
 30
0.0
 11
772.990793
 21
2387.897775
 31
0.0
  0
LINE
  5
338
330
32F
100
AcDbEntity
  8
LC-002-002-----0
 62
     7
370
    25
100
AcDbLine
 10
772.990793
 20
2387.897775
 30
0.0
 11
772.990793
 21
2387.897775
 31
0.0
  0
LINE
  5
339
330
32F
100
AcDbEntity
  8
LC-002-002-----0
 62
     7
370
    25
100
AcDbLine
 10
772.990793
 20
2387.897775
 30
0.0
 11
773.309729
 21
2387.89775
 31
0.0
  0
LINE
  5
33A
330
32F
100
AcDbEntity
  8
LC-002-002-----0
 62
     7
370
    25
100
AcDbLine
 10
773.309729
 20
2387.89775
 30
0.0
 11
773.309729
 21
2387.89775
 31
0.0
  0
LINE
  5
33B
330
32F
100
AcDbEntity
  8
LC-002-002-----0
 62
     7
370
    25
100
AcDbLine
 10
773.309729
 20
2387.89775
 30
0.0
 11
773.511685
 21
2387.897798
 31
0.0
  0
LINE
  5
33C
330
32F
100
AcDbEntity
  8
LC-002-002-----0
 62
     7
370
    25
100
AcDbLine
 10
773.511685
 20
2387.897798
 30
0.0
 11
773.511685
 21
2387.897798
 31
0.0
  0
LINE
  5
33D
330
32F
100
AcDbEntity
  8
LC-002-002-----0
 62
     7
370
    25
100
AcDbLine
 10
773.511685
 20
2387.897798
 30
0.0
 11
773.581064
 21
2387.89778
 31
0.0
  0
ENDBLK
  5
331
330
32F
100
AcDbEntity
  8
0
100
AcDbBlockEnd
  0
BLOCK
  5
364
330
363
100
AcDbEntity
  8
0
100
AcDbBlockBegin
  2
POLY6
 70
     0
 71
     0
 10
0.0
 20
0.0
 30
0.0
  3
POLY6
  1

  4
POLY6
  0
LINE
  5
366
330
363
100
AcDbEntity
  8
LC-002-002-----0
 62
     7
370
    25
100
AcDbLine
 10
750.31013
 20
2432.89395
 30
0.0
 11
750.31013
 21
2432.89395
 31
0.0
  0
LINE
  5
367
330
363
100
AcDbEntity
  8
LC-002-002-----0
 62
     7
370
    25
100
AcDbLine
 10
750.31013
 20
2432.89395
 30
0.0
 11
749.990336
 21
2435.247213
 31
0.0
  0
LINE
  5
368
330
363
100
AcDbEntity
  8
LC-002-002-----0
 62
     7
370
    25
100
AcDbLine
 10
749.990336
 20
2435.247213
 30
0.0
 11
749.990336
 21
2435.247213
 31
0.0
  0
LINE
  5
369
330
363
100
AcDbEntity
  8
LC-002-002-----0
 62
     7
370
    25
100
AcDbLine
 10
749.990336
 20
2435.247213
 30
0.0
 11
749.784053
 21
2437.7256
 31
0.0
  0
LINE
  5
36A
330
363
100
AcDbEntity
  8
LC-002-002-----0
 62
     7
370
    25
100
AcDbLine
 10
749.784053
 20
2437.7256
 30
0.0
 11
749.784053
 21
2437.7256
 31
0.0
  0
LINE
  5
36B
330
363
100
AcDbEntity
  8
LC-002-002-----0
 62
     7
370
    25
100
AcDbLine
 10
749.784053
 20
2437.7256
 30
0.0
 11
749.713328
 21
2440.25
 31
0.0
  0
ENDBLK
  5
365
330
363
100
AcDbEntity
  8
0
100
AcDbBlockEnd
  0
BLOCK
  5
36E
330
36D
100
AcDbEntity
  8
0
100
AcDbBlockBegin
  2
POLY7
 70
     0
 71
     0
 10
0.0
 20
0.0
 30
0.0
  3
POLY7
  1

  4
POLY7
  0
LINE
  5
370
330
36D
100
AcDbEntity
  8
LC-002-002-----0
 62
     7
370
    25
100
AcDbLine
 10
748.378573
 20
2427.697809
 30
0.0
 11
748.378573
 21
2427.697809
 31
0.0
  0
LINE
  5
371
330
36D
100
AcDbEntity
  8
LC-002-002-----0
 62
     7
370
    25
100
AcDbLine
 10
748.378573
 20
2427.697809
 30
0.0
 11
747.840393
 21
2427.331396
 31
0.0
  0
LINE
  5
372
330
36D
100
AcDbEntity
  8
LC-002-002-----0
 62
     7
370
    25
100
AcDbLine
 10
747.840393
 20
2427.331396
 30
0.0
 11
747.840393
 21
2427.331396
 31
0.0
  0
LINE
  5
373
330
36D
100
AcDbEntity
  8
LC-002-002-----0
 62
     7
370
    25
100
AcDbLine
 10
747.840393
 20
2427.331396
 30
0.0
 11
747.350416
 21
2426.994309
 31
0.0
  0
LINE
  5
374
330
36D
100
AcDbEntity
  8
LC-002-002-----0
 62
     7
370
    25
100
AcDbLine
 10
747.350416
 20
2426.994309
 30
0.0
 11
747.350416
 21
2426.994309
 31
0.0
  0
LINE
  5
375
330
36D
100
AcDbEntity
  8
LC-002-002-----0
 62
     7
370
    25
100
AcDbLine
 10
747.350416
 20
2426.994309
 30
0.0
 11
746.908793
 21
2426.687425
 31
0.0
  0
ENDBLK
  5
36F
330
36D
100
AcDbEntity
  8
0
100
AcDbBlockEnd
  0
BLOCK
  5
378
330
377
100
AcDbEntity
  8
0
100
AcDbBlockBegin
  2
POLY8
 70
     0
 71
     0
 10
0.0
 20
0.0
 30
0.0
  3
POLY8
  1

  4
POLY8
  0
LINE
  5
37A
330
377
100
AcDbEntity
  8
LC-002-002-----0
 62
     7
370
    25
100
AcDbLine
 10
750.31013
 20
2432.89395
 30
0.0
 11
750.31013
 21
2432.89395
 31
0.0
  0
LINE
  5
37B
330
377
100
AcDbEntity
  8
LC-002-002-----0
 62
     7
370
    25
100
AcDbLine
 10
750.31013
 20
2432.89395
 30
0.0
 11
750.390169
 21
2431.598803
 31
0.0
  0
LINE
  5
37C
330
377
100
AcDbEntity
  8
LC-002-002-----0
 62
     7
370
    25
100
AcDbLine
 10
750.390169
 20
2431.598803
 30
0.0
 11
750.390169
 21
2431.598803
 31
0.0
  0
LINE
  5
37D
330
377
100
AcDbEntity
  8
LC-002-002-----0
 62
     7
370
    25
100
AcDbLine
 10
750.390169
 20
2431.598803
 30
0.0
 11
750.219104
 21
2430.402562
 31
0.0
  0
LINE
  5
37E
330
377
100
AcDbEntity
  8
LC-002-002-----0
 62
     7
370
    25
100
AcDbLine
 10
750.219104
 20
2430.402562
 30
0.0
 11
750.219104
 21
2430.402562
 31
0.0
  0
LINE
  5
37F
330
377
100
AcDbEntity
  8
LC-002-002-----0
 62
     7
370
    25
100
AcDbLine
 10
750.219104
 20
2430.402562
 30
0.0
 11
749.821099
 21
2429.341499
 31
0.0
  0
LINE
  5
380
330
377
100
AcDbEntity
  8
LC-002-002-----0
 62
     7
370
    25
100
AcDbLine
 10
749.821099
 20
2429.341499
 30
0.0
 11
749.821099
 21
2429.341499
 31
0.0
  0
LINE
  5
381
330
377
100
AcDbEntity
  8
LC-002-002-----0
 62
     7
370
    25
100
AcDbLine
 10
749.821099
 20
2429.341499
 30
0.0
 11
749.209701
 21
2428.433974
 31
0.0
  0
LINE
  5
382
330
377
100
AcDbEntity
  8
LC-002-002-----0
 62
     7
370
    25
100
AcDbLine
 10
749.209701
 20
2428.433974
 30
0.0
 11
749.209701
 21
2428.433974
 31
0.0
  0
LINE
  5
383
330
377
100
AcDbEntity
  8
LC-002-002-----0
 62
     7
370
    25
100
AcDbLine
 10
749.209701
 20
2428.433974
 30
0.0
 11
748.378573
 21
2427.697809
 31
0.0
  0
ENDBLK
  5
379
330
377
100
AcDbEntity
  8
0
100
AcDbBlockEnd
  0
BLOCK
  5
386
330
385
100
AcDbEntity
  8
0
100
AcDbBlockBegin
  2
POLY9
 70
     0
 71
     0
 10
0.0
 20
0.0
 30
0.0
  3
POLY9
  1

  4
POLY9
  0
LINE
  5
388
330
385
100
AcDbEntity
  8
LC-002-002-----0
 62
     7
370
    25
100
AcDbLine
 10
746.907764
 20
2426.686685
 30
0.0
 11
746.907764
 21
2426.686685
 31
0.0
  0
LINE
  5
389
330
385
100
AcDbEntity
  8
LC-002-002-----0
 62
     7
370
    25
100
AcDbLine
 10
746.907764
 20
2426.686685
 30
0.0
 11
746.435537
 21
2426.279952
 31
0.0
  0
LINE
  5
38A
330
385
100
AcDbEntity
  8
LC-002-002-----0
 62
     7
370
    25
100
AcDbLine
 10
746.435537
 20
2426.279952
 30
0.0
 11
746.435537
 21
2426.279952
 31
0.0
  0
LINE
  5
38B
330
385
100
AcDbEntity
  8
LC-002-002-----0
 62
     7
370
    25
100
AcDbLine
 10
746.435537
 20
2426.279952
 30
0.0
 11
746.109886
 21
2425.863763
 31
0.0
  0
LINE
  5
38C
330
385
100
AcDbEntity
  8
LC-002-002-----0
 62
     7
370
    25
100
AcDbLine
 10
746.109886
 20
2425.863763
 30
0.0
 11
746.109886
 21
2425.863763
 31
0.0
  0
LINE
  5
38D
330
385
100
AcDbEntity
  8
LC-002-002-----0
 62
     7
370
    25
100
AcDbLine
 10
746.109886
 20
2425.863763
 30
0.0
 11
745.912856
 21
2425.50191
 31
0.0
  0
LINE
  5
38E
330
385
100
AcDbEntity
  8
LC-002-002-----0
 62
     7
370
    25
100
AcDbLine
 10
745.912856
 20
2425.50191
 30
0.0
 11
745.912856
 21
2425.50191
 31
0.0
  0
LINE
  5
38F
330
385
100
AcDbEntity
  8
LC-002-002-----0
 62
     7
370
    25
100
AcDbLine
 10
745.912856
 20
2425.50191
 30
0.0
 11
745.811329
 21
2425.247079
 31
0.0
  0
LINE
  5
390
330
385
100
AcDbEntity
  8
LC-002-002-----0
 62
     7
370
    25
100
AcDbLine
 10
745.811329
 20
2425.247079
 30
0.0
 11
745.811329
 21
2425.247079
 31
0.0
  0
LINE
  5
391
330
385
100
AcDbEntity
  8
LC-002-002-----0
 62
     7
370
    25
100
AcDbLine
 10
745.811329
 20
2425.247079
 30
0.0
 11
745.780048
 21
2425.150157
 31
0.0
  0
ENDBLK
  5
387
330
385
100
AcDbEntity
  8
0
100
AcDbBlockEnd
  0
BLOCK
  5
394
330
393
100
AcDbEntity
  8
0
100
AcDbBlockBegin
  2
POLY10
 70
     0
 71
     0
 10
0.0
 20
0.0
 30
0.0
  3
POLY10
  1

  4
POLY10
  0
LINE
  5
396
330
393
100
AcDbEntity
  8
LC-002-002-----0
 62
     7
370
    25
100
AcDbLine
 10
757.56392
 20
2458.039777
 30
0.0
 11
757.56392
 21
2458.039777
 31
0.0
  0
LINE
  5
397
330
393
100
AcDbEntity
  8
LC-002-002-----0
 62
     7
370
    25
100
AcDbLine
 10
757.56392
 20
2458.039777
 30
0.0
 11
757.41884
 21
2456.753536
 31
0.0
  0
LINE
  5
398
330
393
100
AcDbEntity
  8
LC-002-002-----0
 62
     7
370
    25
100
AcDbLine
 10
757.41884
 20
2456.753536
 30
0.0
 11
757.41884
 21
2456.753536
 31
0.0
  0
LINE
  5
399
330
393
100
AcDbEntity
  8
LC-002-002-----0
 62
     7
370
    25
100
AcDbLine
 10
757.41884
 20
2456.753536
 30
0.0
 11
756.988566
 21
2455.523758
 31
0.0
  0
LINE
  5
39A
330
393
100
AcDbEntity
  8
LC-002-002-----0
 62
     7
370
    25
100
AcDbLine
 10
756.988566
 20
2455.523758
 30
0.0
 11
756.988566
 21
2455.523758
 31
0.0
  0
LINE
  5
39B
330
393
100
AcDbEntity
  8
LC-002-002-----0
 62
     7
370
    25
100
AcDbLine
 10
756.988566
 20
2455.523758
 30
0.0
 11
756.287448
 21
2454.405003
 31
0.0
  0
LINE
  5
39C
330
393
100
AcDbEntity
  8
LC-002-002-----0
 62
     7
370
    25
100
AcDbLine
 10
756.287448
 20
2454.405003
 30
0.0
 11
756.287448
 21
2454.405003
 31
0.0
  0
LINE
  5
39D
330
393
100
AcDbEntity
  8
LC-002-002-----0
 62
     7
370
    25
100
AcDbLine
 10
756.287448
 20
2454.405003
 30
0.0
 11
755.340201
 21
2453.450681
 31
0.0
  0
LINE
  5
39E
330
393
100
AcDbEntity
  8
LC-002-002-----0
 62
     7
370
    25
100
AcDbLine
 10
755.340201
 20
2453.450681
 30
0.0
 11
755.340201
 21
2453.450681
 31
0.0
  0
LINE
  5
39F
330
393
100
AcDbEntity
  8
LC-002-002-----0
 62
     7
370
    25
100
AcDbLine
 10
755.340201
 20
2453.450681
 30
0.0
 11
754.18344
 21
2452.711092
 31
0.0
  0
LINE
  5
3A0
330
393
100
AcDbEntity
  8
LC-002-002-----0
 62
     7
370
    25
100
AcDbLine
 10
754.18344
 20
2452.711092
 30
0.0
 11
754.18344
 21
2452.711092
 31
0.0
  0
LINE
  5
3A1
330
393
100
AcDbEntity
  8
LC-002-002-----0
 62
     7
370
    25
100
AcDbLine
 10
754.18344
 20
2452.711092
 30
0.0
 11
752.866968
 21
2452.230302
 31
0.0
  0
ENDBLK
  5
395
330
393
100
AcDbEntity
  8
0
100
AcDbBlockEnd
  0
BLOCK
  5
3A4
330
3A3
100
AcDbEntity
  8
0
100
AcDbBlockBegin
  2
POLY11
 70
     0
 71
     0
 10
0.0
 20
0.0
 30
0.0
  3
POLY11
  1

  4
POLY11
  0
LINE
  5
3A6
330
3A3
100
AcDbEntity
  8
LC-002-002-----0
 62
     7
370
    25
100
AcDbLine
 10
752.866968
 20
2452.230302
 30
0.0
 11
752.866968
 21
2452.230302
 31
0.0
  0
LINE
  5
3A7
330
3A3
100
AcDbEntity
  8
LC-002-002-----0
 62
     7
370
    25
100
AcDbLine
 10
752.866968
 20
2452.230302
 30
0.0
 11
751.81632
 21
2451.820553
 31
0.0
  0
LINE
  5
3A8
330
3A3
100
AcDbEntity
  8
LC-002-002-----0
 62
     7
370
    25
100
AcDbLine
 10
751.81632
 20
2451.820553
 30
0.0
 11
751.81632
 21
2451.820553
 31
0.0
  0
LINE
  5
3A9
330
3A3
100
AcDbEntity
  8
LC-002-002-----0
 62
     7
370
    25
100
AcDbLine
 10
751.81632
 20
2451.820553
 30
0.0
 11
750.92799
 21
2451.167237
 31
0.0
  0
LINE
  5
3AA
330
3A3
100
AcDbEntity
  8
LC-002-002-----0
 62
     7
370
    25
100
AcDbLine
 10
750.92799
 20
2451.167237
 30
0.0
 11
750.92799
 21
2451.167237
 31
0.0
  0
LINE
  5
3AB
330
3A3
100
AcDbEntity
  8
LC-002-002-----0
 62
     7
370
    25
100
AcDbLine
 10
750.92799
 20
2451.167237
 30
0.0
 11
750.261198
 21
2450.32911
 31
0.0
  0
LINE
  5
3AC
330
3A3
100
AcDbEntity
  8
LC-002-002-----0
 62
     7
370
    25
100
AcDbLine
 10
750.261198
 20
2450.32911
 30
0.0
 11
750.261198
 21
2450.32911
 31
0.0
  0
LINE
  5
3AD
330
3A3
100
AcDbEntity
  8
LC-002-002-----0
 62
     7
370
    25
100
AcDbLine
 10
750.261198
 20
2450.32911
 30
0.0
 11
749.851114
 21
2449.371321
 31
0.0
  0
LINE
  5
3AE
330
3A3
100
AcDbEntity
  8
LC-002-002-----0
 62
     7
370
    25
100
AcDbLine
 10
749.851114
 20
2449.371321
 30
0.0
 11
749.851114
 21
2449.371321
 31
0.0
  0
LINE
  5
3AF
330
3A3
100
AcDbEntity
  8
LC-002-002-----0
 62
     7
370
    25
100
AcDbLine
 10
749.851114
 20
2449.371321
 30
0.0
 11
749.713328
 21
2448.357319
 31
0.0
  0
ENDBLK
  5
3A5
330
3A3
100
AcDbEntity
  8
0
100
AcDbBlockEnd
  0
BLOCK
  5
3D8
330
3D7
100
AcDbEntity
  8
0
100
AcDbBlockBegin
  2
POLY12
 70
     0
 71
     0
 10
0.0
 20
0.0
 30
0.0
  3
POLY12
  1

  4
POLY12
  0
LINE
  5
3DA
330
3D7
100
AcDbEntity
  8
LC-002-002-----0
 62
     7
370
    25
100
AcDbLine
 10
824.072278
 20
2460.222543
 30
0.0
 11
824.072278
 21
2460.222543
 31
0.0
  0
LINE
  5
3DB
330
3D7
100
AcDbEntity
  8
LC-002-002-----0
 62
     7
370
    25
100
AcDbLine
 10
824.072278
 20
2460.222543
 30
0.0
 11
823.909658
 21
2460.222608
 31
0.0
  0
LINE
  5
3DC
330
3D7
100
AcDbEntity
  8
LC-002-002-----0
 62
     7
370
    25
100
AcDbLine
 10
823.909658
 20
2460.222608
 30
0.0
 11
823.909658
 21
2460.222608
 31
0.0
  0
LINE
  5
3DD
330
3D7
100
AcDbEntity
  8
LC-002-002-----0
 62
     7
370
    25
100
AcDbLine
 10
823.909658
 20
2460.222608
 30
0.0
 11
823.442521
 21
2460.222964
 31
0.0
  0
LINE
  5
3DE
330
3D7
100
AcDbEntity
  8
LC-002-002-----0
 62
     7
370
    25
100
AcDbLine
 10
823.442521
 20
2460.222964
 30
0.0
 11
823.442521
 21
2460.222964
 31
0.0
  0
LINE
  5
3DF
330
3D7
100
AcDbEntity
  8
LC-002-002-----0
 62
     7
370
    25
100
AcDbLine
 10
823.442521
 20
2460.222964
 30
0.0
 11
822.689459
 21
2460.222674
 31
0.0
  0
LINE
  5
3E0
330
3D7
100
AcDbEntity
  8
LC-002-002-----0
 62
     7
370
    25
100
AcDbLine
 10
822.689459
 20
2460.222674
 30
0.0
 11
822.689459
 21
2460.222674
 31
0.0
  0
LINE
  5
3E1
330
3D7
100
AcDbEntity
  8
LC-002-002-----0
 62
     7
370
    25
100
AcDbLine
 10
822.689459
 20
2460.222674
 30
0.0
 11
821.65513
 21
2460.222432
 31
0.0
  0
LINE
  5
3E2
330
3D7
100
AcDbEntity
  8
LC-002-002-----0
 62
     7
370
    25
100
AcDbLine
 10
821.65513
 20
2460.222432
 30
0.0
 11
821.65513
 21
2460.222432
 31
0.0
  0
LINE
  5
3E3
330
3D7
100
AcDbEntity
  8
LC-002-002-----0
 62
     7
370
    25
100
AcDbLine
 10
821.65513
 20
2460.222432
 30
0.0
 11
820.307875
 21
2460.222398
 31
0.0
  0
LINE
  5
3E4
330
3D7
100
AcDbEntity
  8
LC-002-002-----0
 62
     7
370
    25
100
AcDbLine
 10
820.307875
 20
2460.222398
 30
0.0
 11
820.307875
 21
2460.222398
 31
0.0
  0
LINE
  5
3E5
330
3D7
100
AcDbEntity
  8
LC-002-002-----0
 62
     7
370
    25
100
AcDbLine
 10
820.307875
 20
2460.222398
 30
0.0
 11
818.652171
 21
2460.222482
 31
0.0
  0
LINE
  5
3E6
330
3D7
100
AcDbEntity
  8
LC-002-002-----0
 62
     7
370
    25
100
AcDbLine
 10
818.652171
 20
2460.222482
 30
0.0
 11
818.652171
 21
2460.222482
 31
0.0
  0
LINE
  5
3E7
330
3D7
100
AcDbEntity
  8
LC-002-002-----0
 62
     7
370
    25
100
AcDbLine
 10
818.652171
 20
2460.222482
 30
0.0
 11
816.704717
 21
2460.22281
 31
0.0
  0
LINE
  5
3E8
330
3D7
100
AcDbEntity
  8
LC-002-002-----0
 62
     7
370
    25
100
AcDbLine
 10
816.704717
 20
2460.22281
 30
0.0
 11
816.704717
 21
2460.22281
 31
0.0
  0
LINE
  5
3E9
330
3D7
100
AcDbEntity
  8
LC-002-002-----0
 62
     7
370
    25
100
AcDbLine
 10
816.704717
 20
2460.22281
 30
0.0
 11
814.490975
 21
2460.222662
 31
0.0
  0
LINE
  5
3EA
330
3D7
100
AcDbEntity
  8
LC-002-002-----0
 62
     7
370
    25
100
AcDbLine
 10
814.490975
 20
2460.222662
 30
0.0
 11
814.490975
 21
2460.222662
 31
0.0
  0
LINE
  5
3EB
330
3D7
100
AcDbEntity
  8
LC-002-002-----0
 62
     7
370
    25
100
AcDbLine
 10
814.490975
 20
2460.222662
 30
0.0
 11
812.07997
 21
2460.222629
 31
0.0
  0
LINE
  5
3EC
330
3D7
100
AcDbEntity
  8
LC-002-002-----0
 62
     7
370
    25
100
AcDbLine
 10
812.07997
 20
2460.222629
 30
0.0
 11
812.07997
 21
2460.222629
 31
0.0
  0
LINE
  5
3ED
330
3D7
100
AcDbEntity
  8
LC-002-002-----0
 62
     7
370
    25
100
AcDbLine
 10
812.07997
 20
2460.222629
 30
0.0
 11
809.595609
 21
2460.222631
 31
0.0
  0
LINE
  5
3EE
330
3D7
100
AcDbEntity
  8
LC-002-002-----0
 62
     7
370
    25
100
AcDbLine
 10
809.595609
 20
2460.222631
 30
0.0
 11
809.595609
 21
2460.222631
 31
0.0
  0
LINE
  5
3EF
330
3D7
100
AcDbEntity
  8
LC-002-002-----0
 62
     7
370
    25
100
AcDbLine
 10
809.595609
 20
2460.222631
 30
0.0
 11
807.195298
 21
2460.222678
 31
0.0
  0
LINE
  5
3F0
330
3D7
100
AcDbEntity
  8
LC-002-002-----0
 62
     7
370
    25
100
AcDbLine
 10
807.195298
 20
2460.222678
 30
0.0
 11
807.195298
 21
2460.222678
 31
0.0
  0
LINE
  5
3F1
330
3D7
100
AcDbEntity
  8
LC-002-002-----0
 62
     7
370
    25
100
AcDbLine
 10
807.195298
 20
2460.222678
 30
0.0
 11
805.000611
 21
2460.222815
 31
0.0
  0
LINE
  5
3F2
330
3D7
100
AcDbEntity
  8
LC-002-002-----0
 62
     7
370
    25
100
AcDbLine
 10
805.000611
 20
2460.222815
 30
0.0
 11
805.000611
 21
2460.222815
 31
0.0
  0
LINE
  5
3F3
330
3D7
100
AcDbEntity
  8
LC-002-002-----0
 62
     7
370
    25
100
AcDbLine
 10
805.000611
 20
2460.222815
 30
0.0
 11
803.073704
 21
2460.22249
 31
0.0
  0
LINE
  5
3F4
330
3D7
100
AcDbEntity
  8
LC-002-002-----0
 62
     7
370
    25
100
AcDbLine
 10
803.073704
 20
2460.22249
 30
0.0
 11
803.073704
 21
2460.22249
 31
0.0
  0
LINE
  5
3F5
330
3D7
100
AcDbEntity
  8
LC-002-002-----0
 62
     7
370
    25
100
AcDbLine
 10
803.073704
 20
2460.22249
 30
0.0
 11
801.434968
 21
2460.222407
 31
0.0
  0
LINE
  5
3F6
330
3D7
100
AcDbEntity
  8
LC-002-002-----0
 62
     7
370
    25
100
AcDbLine
 10
801.434968
 20
2460.222407
 30
0.0
 11
801.434968
 21
2460.222407
 31
0.0
  0
LINE
  5
3F7
330
3D7
100
AcDbEntity
  8
LC-002-002-----0
 62
     7
370
    25
100
AcDbLine
 10
801.434968
 20
2460.222407
 30
0.0
 11
800.097839
 21
2460.222435
 31
0.0
  0
LINE
  5
3F8
330
3D7
100
AcDbEntity
  8
LC-002-002-----0
 62
     7
370
    25
100
AcDbLine
 10
800.097839
 20
2460.222435
 30
0.0
 11
800.097839
 21
2460.222435
 31
0.0
  0
LINE
  5
3F9
330
3D7
100
AcDbEntity
  8
LC-002-002-----0
 62
     7
370
    25
100
AcDbLine
 10
800.097839
 20
2460.222435
 30
0.0
 11
799.066568
 21
2460.22266
 31
0.0
  0
LINE
  5
3FA
330
3D7
100
AcDbEntity
  8
LC-002-002-----0
 62
     7
370
    25
100
AcDbLine
 10
799.066568
 20
2460.22266
 30
0.0
 11
799.066568
 21
2460.22266
 31
0.0
  0
LINE
  5
3FB
330
3D7
100
AcDbEntity
  8
LC-002-002-----0
 62
     7
370
    25
100
AcDbLine
 10
799.066568
 20
2460.22266
 30
0.0
 11
798.312009
 21
2460.222931
 31
0.0
  0
LINE
  5
3FC
330
3D7
100
AcDbEntity
  8
LC-002-002-----0
 62
     7
370
    25
100
AcDbLine
 10
798.312009
 20
2460.222931
 30
0.0
 11
798.312009
 21
2460.222931
 31
0.0
  0
LINE
  5
3FD
330
3D7
100
AcDbEntity
  8
LC-002-002-----0
 62
     7
370
    25
100
AcDbLine
 10
798.312009
 20
2460.222931
 30
0.0
 11
797.841618
 21
2460.22258
 31
0.0
  0
LINE
  5
3FE
330
3D7
100
AcDbEntity
  8
LC-002-002-----0
 62
     7
370
    25
100
AcDbLine
 10
797.841618
 20
2460.22258
 30
0.0
 11
797.841618
 21
2460.22258
 31
0.0
  0
LINE
  5
3FF
330
3D7
100
AcDbEntity
  8
LC-002-002-----0
 62
     7
370
    25
100
AcDbLine
 10
797.841618
 20
2460.22258
 30
0.0
 11
797.677197
 21
2460.222512
 31
0.0
  0
ENDBLK
  5
3D9
330
3D7
100
AcDbEntity
  8
0
100
AcDbBlockEnd
  0
BLOCK
  5
4AB
330
4AA
100
AcDbEntity
  8
0
100
AcDbBlockBegin
  2
POLY13
 70
     0
 71
     0
 10
0.0
 20
0.0
 30
0.0
  3
POLY13
  1

  4
POLY13
  0
LINE
  5
4AD
330
4AA
100
AcDbEntity
  8
LC-002-002-----0
 62
     7
370
    25
100
AcDbLine
 10
1542.937213
 20
1935.656331
 30
0.0
 11
1542.937213
 21
1935.656331
 31
0.0
  0
LINE
  5
4AE
330
4AA
100
AcDbEntity
  8
LC-002-002-----0
 62
     7
370
    25
100
AcDbLine
 10
1542.937213
 20
1935.656331
 30
0.0
 11
1542.937247
 21
1935.141543
 31
0.0
  0
LINE
  5
4AF
330
4AA
100
AcDbEntity
  8
LC-002-002-----0
 62
     7
370
    25
100
AcDbLine
 10
1542.937247
 20
1935.141543
 30
0.0
 11
1542.937247
 21
1935.141543
 31
0.0
  0
LINE
  5
4B0
330
4AA
100
AcDbEntity
  8
LC-002-002-----0
 62
     7
370
    25
100
AcDbLine
 10
1542.937247
 20
1935.141543
 30
0.0
 11
1542.93721
 21
1934.660173
 31
0.0
  0
LINE
  5
4B1
330
4AA
100
AcDbEntity
  8
LC-002-002-----0
 62
     7
370
    25
100
AcDbLine
 10
1542.93721
 20
1934.660173
 30
0.0
 11
1542.93721
 21
1934.660173
 31
0.0
  0
LINE
  5
4B2
330
4AA
100
AcDbEntity
  8
LC-002-002-----0
 62
     7
370
    25
100
AcDbLine
 10
1542.93721
 20
1934.660173
 30
0.0
 11
1542.937217
 21
1934.246603
 31
0.0
  0
LINE
  5
4B3
330
4AA
100
AcDbEntity
  8
LC-002-002-----0
 62
     7
370
    25
100
AcDbLine
 10
1542.937217
 20
1934.246603
 30
0.0
 11
1542.937217
 21
1934.246603
 31
0.0
  0
LINE
  5
4B4
330
4AA
100
AcDbEntity
  8
LC-002-002-----0
 62
     7
370
    25
100
AcDbLine
 10
1542.937217
 20
1934.246603
 30
0.0
 11
1542.937191
 21
1933.927667
 31
0.0
  0
LINE
  5
4B5
330
4AA
100
AcDbEntity
  8
LC-002-002-----0
 62
     7
370
    25
100
AcDbLine
 10
1542.937191
 20
1933.927667
 30
0.0
 11
1542.937191
 21
1933.927667
 31
0.0
  0
LINE
  5
4B6
330
4AA
100
AcDbEntity
  8
LC-002-002-----0
 62
     7
370
    25
100
AcDbLine
 10
1542.937191
 20
1933.927667
 30
0.0
 11
1542.93724
 21
1933.72571
 31
0.0
  0
LINE
  5
4B7
330
4AA
100
AcDbEntity
  8
LC-002-002-----0
 62
     7
370
    25
100
AcDbLine
 10
1542.93724
 20
1933.72571
 30
0.0
 11
1542.93724
 21
1933.72571
 31
0.0
  0
LINE
  5
4B8
330
4AA
100
AcDbEntity
  8
LC-002-002-----0
 62
     7
370
    25
100
AcDbLine
 10
1542.93724
 20
1933.72571
 30
0.0
 11
1542.937222
 21
1933.656331
 31
0.0
  0
ENDBLK
  5
4AC
330
4AA
100
AcDbEntity
  8
0
100
AcDbBlockEnd
  0
BLOCK
  5
4DD
330
4DC
100
AcDbEntity
  8
0
100
AcDbBlockBegin
  2
POLY14
 70
     0
 71
     0
 10
0.0
 20
0.0
 30
0.0
  3
POLY14
  1

  4
POLY14
  0
LINE
  5
4DF
330
4DC
100
AcDbEntity
  8
LC-002-002-----0
 62
     7
370
    25
100
AcDbLine
 10
1542.937213
 20
1799.656331
 30
0.0
 11
1542.937213
 21
1799.656331
 31
0.0
  0
LINE
  5
4E0
330
4DC
100
AcDbEntity
  8
LC-002-002-----0
 62
     7
370
    25
100
AcDbLine
 10
1542.937213
 20
1799.656331
 30
0.0
 11
1542.937247
 21
1800.171119
 31
0.0
  0
LINE
  5
4E1
330
4DC
100
AcDbEntity
  8
LC-002-002-----0
 62
     7
370
    25
100
AcDbLine
 10
1542.937247
 20
1800.171119
 30
0.0
 11
1542.937247
 21
1800.171119
 31
0.0
  0
LINE
  5
4E2
330
4DC
100
AcDbEntity
  8
LC-002-002-----0
 62
     7
370
    25
100
AcDbLine
 10
1542.937247
 20
1800.171119
 30
0.0
 11
1542.93721
 21
1800.652489
 31
0.0
  0
LINE
  5
4E3
330
4DC
100
AcDbEntity
  8
LC-002-002-----0
 62
     7
370
    25
100
AcDbLine
 10
1542.93721
 20
1800.652489
 30
0.0
 11
1542.93721
 21
1800.652489
 31
0.0
  0
LINE
  5
4E4
330
4DC
100
AcDbEntity
  8
LC-002-002-----0
 62
     7
370
    25
100
AcDbLine
 10
1542.93721
 20
1800.652489
 30
0.0
 11
1542.937217
 21
1801.06606
 31
0.0
  0
LINE
  5
4E5
330
4DC
100
AcDbEntity
  8
LC-002-002-----0
 62
     7
370
    25
100
AcDbLine
 10
1542.937217
 20
1801.06606
 30
0.0
 11
1542.937217
 21
1801.06606
 31
0.0
  0
LINE
  5
4E6
330
4DC
100
AcDbEntity
  8
LC-002-002-----0
 62
     7
370
    25
100
AcDbLine
 10
1542.937217
 20
1801.06606
 30
0.0
 11
1542.937191
 21
1801.384996
 31
0.0
  0
LINE
  5
4E7
330
4DC
100
AcDbEntity
  8
LC-002-002-----0
 62
     7
370
    25
100
AcDbLine
 10
1542.937191
 20
1801.384996
 30
0.0
 11
1542.937191
 21
1801.384996
 31
0.0
  0
LINE
  5
4E8
330
4DC
100
AcDbEntity
  8
LC-002-002-----0
 62
     7
370
    25
100
AcDbLine
 10
1542.937191
 20
1801.384996
 30
0.0
 11
1542.93724
 21
1801.586952
 31
0.0
  0
LINE
  5
4E9
330
4DC
100
AcDbEntity
  8
LC-002-002-----0
 62
     7
370
    25
100
AcDbLine
 10
1542.93724
 20
1801.586952
 30
0.0
 11
1542.93724
 21
1801.586952
 31
0.0
  0
LINE
  5
4EA
330
4DC
100
AcDbEntity
  8
LC-002-002-----0
 62
     7
370
    25
100
AcDbLine
 10
1542.93724
 20
1801.586952
 30
0.0
 11
1542.937222
 21
1801.656331
 31
0.0
  0
ENDBLK
  5
4DE
330
4DC
100
AcDbEntity
  8
0
100
AcDbBlockEnd
  0
BLOCK
  5
51A
330
519
100
AcDbEntity
  8
0
100
AcDbBlockBegin
  2
*X126
 70
     1
 71
     0
 10
0.0
 20
0.0
 30
0.0
  3
*X126
  1

  4
*X1
  0
LINE
  5
51D
330
519
100
AcDbEntity
  8
LC-013-005-----0
 62
     7
370
    25
100
AcDbLine
 10
1304.639251
 20
2634.0
 30
0.0
 11
1307.325095
 21
2636.685844
 31
0.0
  0
LINE
  5
51E
330
519
100
AcDbEntity
  8
LC-013-005-----0
 62
     7
370
    25
100
AcDbLine
 10
1276.35498
 20
2634.0
 30
0.0
 11
1305.914271
 21
2663.55929
 31
0.0
  0
LINE
  5
51F
330
519
100
AcDbEntity
  8
LC-013-005-----0
 62
     7
370
    25
100
AcDbLine
 10
1248.070709
 20
2634.0
 30
0.0
 11
1287.070709
 21
2673.0
 31
0.0
  0
LINE
  5
520
330
519
100
AcDbEntity
  8
LC-013-005-----0
 62
     7
370
    25
100
AcDbLine
 10
1246.642379
 20
2660.855942
 30
0.0
 11
1258.786438
 21
2673.0
 31
0.0
  0
LINE
  5
521
330
519
100
AcDbEntity
  8
LC-013-005-----0
 62
     7
370
    25
100
AcDbLine
 10
399.542571
 20
2634.0
 30
0.0
 11
406.712306
 21
2641.169735
 31
0.0
  0
LINE
  5
522
330
519
100
AcDbEntity
  8
LC-013-005-----0
 62
     7
370
    25
100
AcDbLine
 10
371.2583
 20
2634.0
 30
0.0
 11
406.712306
 21
2669.454006
 31
0.0
  0
LINE
  5
523
330
519
100
AcDbEntity
  8
LC-013-005-----0
 62
     7
370
    25
100
AcDbLine
 10
345.98288
 20
2637.008851
 30
0.0
 11
381.974029
 21
2673.0
 31
0.0
  0
LINE
  5
524
330
519
100
AcDbEntity
  8
LC-013-005-----0
 62
     7
370
    25
100
AcDbLine
 10
349.334949
 20
2668.645191
 30
0.0
 11
353.689758
 21
2673.0
 31
0.0
  0
ENDBLK
  5
51B
330
519
100
AcDbEntity
  8
0
100
AcDbBlockEnd
  0
BLOCK
  5
527
330
526
100
AcDbEntity
  8
0
100
AcDbBlockBegin
  2
*X227
 70
     1
 71
     0
 10
0.0
 20
0.0
 30
0.0
  3
*X227
  1

  4
*X2
  0
LINE
  5
529
330
526
100
AcDbEntity
  8
LC-013-005-----0
 62
     7
370
    25
100
AcDbLine
 10
1257.789534
 20
2530.58174
 30
0.0
 11
1276.789534
 21
2549.58174
 31
0.0
  0
LINE
  5
52A
330
526
100
AcDbEntity
  8
LC-013-005-----0
 62
     7
370
    25
100
AcDbLine
 10
1257.789534
 20
2558.866011
 30
0.0
 11
1276.789534
 21
2577.866011
 31
0.0
  0
LINE
  5
52B
330
526
100
AcDbEntity
  8
LC-013-005-----0
 62
     7
370
    25
100
AcDbLine
 10
1257.789534
 20
2587.150282
 30
0.0
 11
1276.789534
 21
2606.150282
 31
0.0
  0
LINE
  5
52C
330
526
100
AcDbEntity
  8
LC-013-005-----0
 62
     7
370
    25
100
AcDbLine
 10
1257.789534
 20
2615.434554
 30
0.0
 11
1276.35498
 21
2634.0
 31
0.0
  0
LINE
  5
52D
330
526
100
AcDbEntity
  8
LC-013-005-----0
 62
     7
370
    25
100
AcDbLine
 10
376.789534
 20
2526.394149
 30
0.0
 11
395.789534
 21
2545.394149
 31
0.0
  0
LINE
  5
52E
330
526
100
AcDbEntity
  8
LC-013-005-----0
 62
     7
370
    25
100
AcDbLine
 10
376.789534
 20
2554.67842
 30
0.0
 11
395.789534
 21
2573.67842
 31
0.0
  0
LINE
  5
52F
330
526
100
AcDbEntity
  8
LC-013-005-----0
 62
     7
370
    25
100
AcDbLine
 10
376.789534
 20
2582.962691
 30
0.0
 11
395.789534
 21
2601.962691
 31
0.0
  0
LINE
  5
530
330
526
100
AcDbEntity
  8
LC-013-005-----0
 62
     7
370
    25
100
AcDbLine
 10
376.789534
 20
2611.246962
 30
0.0
 11
395.789534
 21
2630.246962
 31
0.0
  0
ENDBLK
  5
528
330
526
100
AcDbEntity
  8
0
100
AcDbBlockEnd
  0
BLOCK
  5
53D
330
533
100
AcDbEntity
  8
0
100
AcDbBlockBegin
  2
*D28
 70
     1
 71
     0
 10
0.0
 20
0.0
 30
0.0
  3
*D28
  1

  0
LINE
  5
534
330
533
100
AcDbEntity
  8
LC-007-003-----0
 62
     2
370
    -2
100
AcDbLine
 10
1256.677343
 20
1977.49
 30
0.0
 11
1256.677343
 21
2068.0
 31
0.0
  0
LINE
  5
535
330
533
100
AcDbEntity
  8
LC-007-003-----0
 62
     2
370
    -2
100
AcDbLine
 10
826.677343
 20
1932.99
 30
0.0
 11
826.677343
 21
2068.0
 31
0.0
  0
LINE
  5
536
330
533
100
AcDbEntity
  8
LC-007-003-----0
 62
     2
370
    -2
100
AcDbLine
 10
1231.677343
 20
2050.0
 30
0.0
 11
851.677343
 21
2050.0
 31
0.0
  0
SOLID
  5
537
330
533
100
AcDbEntity
  8
LC-007-003-----0
 62
     2
100
AcDbTrace
 10
1231.677343
 20
2045.833333
 30
0.0
 11
1231.677343
 21
2054.166667
 31
0.0
 12
1256.677343
 22
2050.0
 32
0.0
 13
1256.677343
 23
2050.0
 33
0.0
  0
SOLID
  5
538
330
533
100
AcDbEntity
  8
LC-007-003-----0
 62
     2
100
AcDbTrace
 10
851.677343
 20
2054.166667
 30
0.0
 11
851.677343
 21
2045.833333
 31
0.0
 12
826.677343
 22
2050.0
 32
0.0
 13
826.677343
 23
2050.0
 33
0.0
  0
MTEXT
  5
539
330
533
100
AcDbEntity
  8
LC-007-003-----0
 62
     2
100
AcDbMText
 10
1018.522929
 20
2080.0
 30
0.0
 40
25.0
 41
0.0
 71
     5
 72
     1
  1
\A1;430
  7
LCTX0-400-0-0pDIN-Schrift
 73
     1
 44
1.0
  0
POINT
  5
53A
330
533
100
AcDbEntity
  8
Defpoints
 62
     0
100
AcDbPoint
 10
1256.677343
 20
1977.49
 30
0.0
  0
POINT
  5
53B
330
533
100
AcDbEntity
  8
Defpoints
 62
     0
100
AcDbPoint
 10
826.677343
 20
1932.99
 30
0.0
  0
POINT
  5
53C
330
533
100
AcDbEntity
  8
Defpoints
 62
     0
100
AcDbPoint
 10
826.677343
 20
2050.0
 30
0.0
  0
ENDBLK
  5
53E
330
533
100
AcDbEntity
  8
0
100
AcDbBlockEnd
  0
BLOCK
  5
54A
330
540
100
AcDbEntity
  8
0
100
AcDbBlockBegin
  2
*D29
 70
     1
 71
     0
 10
0.0
 20
0.0
 30
0.0
  3
*D29
  1

  0
LINE
  5
541
330
540
100
AcDbEntity
  8
LC-007-003-----0
 62
     2
370
    -2
100
AcDbLine
 10
1256.677343
 20
1487.49
 30
0.0
 11
1256.677343
 21
1382.0
 31
0.0
  0
LINE
  5
542
330
540
100
AcDbEntity
  8
LC-007-003-----0
 62
     2
370
    -2
100
AcDbLine
 10
396.677343
 20
1487.49
 30
0.0
 11
396.677343
 21
1382.0
 31
0.0
  0
LINE
  5
543
330
540
100
AcDbEntity
  8
LC-007-003-----0
 62
     2
370
    -2
100
AcDbLine
 10
1231.677343
 20
1400.0
 30
0.0
 11
421.677343
 21
1400.0
 31
0.0
  0
SOLID
  5
544
330
540
100
AcDbEntity
  8
LC-007-003-----0
 62
     2
100
AcDbTrace
 10
1231.677343
 20
1395.833333
 30
0.0
 11
1231.677343
 21
1404.166667
 31
0.0
 12
1256.677343
 22
1400.0
 32
0.0
 13
1256.677343
 23
1400.0
 33
0.0
  0
SOLID
  5
545
330
540
100
AcDbEntity
  8
LC-007-003-----0
 62
     2
100
AcDbTrace
 10
421.677343
 20
1404.166667
 30
0.0
 11
421.677343
 21
1395.833333
 31
0.0
 12
396.677343
 22
1400.0
 32
0.0
 13
396.677343
 23
1400.0
 33
0.0
  0
MTEXT
  5
546
330
540
100
AcDbEntity
  8
LC-007-003-----0
 62
     2
100
AcDbMText
 10
835.993477
 20
1430.0
 30
0.0
 40
25.0
 41
0.0
 71
     5
 72
     1
  1
\A1;860
  7
LCTX0-400-0-0pDIN-Schrift
 73
     1
 44
1.0
  0
POINT
  5
547
330
540
100
AcDbEntity
  8
Defpoints
 62
     0
100
AcDbPoint
 10
1256.677343
 20
1487.49
 30
0.0
  0
POINT
  5
548
330
540
100
AcDbEntity
  8
Defpoints
 62
     0
100
AcDbPoint
 10
396.677343
 20
1487.49
 30
0.0
  0
POINT
  5
549
330
540
100
AcDbEntity
  8
Defpoints
 62
     0
100
AcDbPoint
 10
396.677343
 20
1400.0
 30
0.0
  0
ENDBLK
  5
54B
330
540
100
AcDbEntity
  8
0
100
AcDbBlockEnd
  0
BLOCK
  5
559
330
54D
100
AcDbEntity
  8
0
100
AcDbBlockBegin
  2
*D30
 70
     1
 71
     0
 10
0.0
 20
0.0
 30
0.0
  3
*D30
  1

  0
LINE
  5
54E
330
54D
100
AcDbEntity
  8
LC-007-003-----0
 62
     2
370
    -2
100
AcDbLine
 10
809.177343
 20
1915.49
 30
0.0
 11
732.0
 21
1915.49
 31
0.0
  0
LINE
  5
54F
330
54D
100
AcDbEntity
  8
LC-007-003-----0
 62
     2
370
    -2
100
AcDbLine
 10
826.677343
 20
1982.49
 30
0.0
 11
732.0
 21
1982.49
 31
0.0
  0
LINE
  5
550
330
54D
100
AcDbEntity
  8
LC-007-003-----0
 62
     2
370
    -2
100
AcDbLine
 10
750.0
 20
1890.49
 30
0.0
 11
750.0
 21
1865.49
 31
0.0
  0
LINE
  5
551
330
54D
100
AcDbEntity
  8
LC-007-003-----0
 62
     2
370
    -2
100
AcDbLine
 10
750.0
 20
2007.49
 30
0.0
 11
750.0
 21
2078.640175
 31
0.0
  0
LINE
  5
552
330
54D
100
AcDbEntity
  8
LC-007-003-----0
 62
     2
370
    -2
100
AcDbLine
 10
750.0
 20
1915.49
 30
0.0
 11
750.0
 21
1982.49
 31
0.0
  0
SOLID
  5
553
330
54D
100
AcDbEntity
  8
LC-007-003-----0
 62
     2
100
AcDbTrace
 10
754.166667
 20
1890.49
 30
0.0
 11
745.833333
 21
1890.49
 31
0.0
 12
750.0
 22
1915.49
 32
0.0
 13
750.0
 23
1915.49
 33
0.0
  0
SOLID
  5
554
330
54D
100
AcDbEntity
  8
LC-007-003-----0
 62
     2
100
AcDbTrace
 10
745.833333
 20
2007.49
 30
0.0
 11
754.166667
 21
2007.49
 31
0.0
 12
750.0
 22
1982.49
 32
0.0
 13
750.0
 23
1982.49
 33
0.0
  0
MTEXT
  5
555
330
54D
100
AcDbEntity
  8
LC-007-003-----0
 62
     2
100
AcDbMText
 10
720.0
 20
2049.890175
 30
0.0
 40
25.0
 41
0.0
 71
     5
 72
     1
  1
\A1;67
  7
LCTX0-400-0-0pDIN-Schrift
 11
6.123031769111886E-17
 21
1.0
 31
0.0
 73
     1
 44
1.0
  0
POINT
  5
556
330
54D
100
AcDbEntity
  8
Defpoints
 62
     0
100
AcDbPoint
 10
809.177343
 20
1915.49
 30
0.0
  0
POINT
  5
557
330
54D
100
AcDbEntity
  8
Defpoints
 62
     0
100
AcDbPoint
 10
826.677343
 20
1982.49
 30
0.0
  0
POINT
  5
558
330
54D
100
AcDbEntity
  8
Defpoints
 62
     0
100
AcDbPoint
 10
750.0
 20
1982.49
 30
0.0
  0
ENDBLK
  5
55A
330
54D
100
AcDbEntity
  8
0
100
AcDbBlockEnd
  0
BLOCK
  5
566
330
55C
100
AcDbEntity
  8
0
100
AcDbBlockBegin
  2
*D31
 70
     1
 71
     0
 10
0.0
 20
0.0
 30
0.0
  3
*D31
  1

  0
LINE
  5
55D
330
55C
100
AcDbEntity
  8
LC-007-003-----0
 62
     2
370
    -2
100
AcDbLine
 10
1829.039442
 20
1482.822662
 30
0.0
 11
1829.039442
 21
1432.0
 31
0.0
  0
LINE
  5
55E
330
55C
100
AcDbEntity
  8
LC-007-003-----0
 62
     2
370
    -2
100
AcDbLine
 10
1515.23242
 20
1782.656331
 30
0.0
 11
1515.23242
 21
1432.0
 31
0.0
  0
LINE
  5
55F
330
55C
100
AcDbEntity
  8
LC-007-003-----0
 62
     2
370
    -2
100
AcDbLine
 10
1804.039442
 20
1450.0
 30
0.0
 11
1540.23242
 21
1450.0
 31
0.0
  0
SOLID
  5
560
330
55C
100
AcDbEntity
  8
LC-007-003-----0
 62
     2
100
AcDbTrace
 10
1804.039442
 20
1445.833333
 30
0.0
 11
1804.039442
 21
1454.166667
 31
0.0
 12
1829.039442
 22
1450.0
 32
0.0
 13
1829.039442
 23
1450.0
 33
0.0
  0
SOLID
  5
561
330
55C
100
AcDbEntity
  8
LC-007-003-----0
 62
     2
100
AcDbTrace
 10
1540.23242
 20
1454.166667
 30
0.0
 11
1540.23242
 21
1445.833333
 31
0.0
 12
1515.23242
 22
1450.0
 32
0.0
 13
1515.23242
 23
1450.0
 33
0.0
  0
MTEXT
  5
562
330
55C
100
AcDbEntity
  8
LC-007-003-----0
 62
     2
100
AcDbMText
 10
1665.028586
 20
1480.0
 30
0.0
 40
25.0
 41
0.0
 71
     5
 72
     1
  1
\A1;314
  7
LCTX0-400-0-0pDIN-Schrift
 73
     1
 44
1.0
  0
POINT
  5
563
330
55C
100
AcDbEntity
  8
Defpoints
 62
     0
100
AcDbPoint
 10
1829.039442
 20
1482.822662
 30
0.0
  0
POINT
  5
564
330
55C
100
AcDbEntity
  8
Defpoints
 62
     0
100
AcDbPoint
 10
1515.23242
 20
1782.656331
 30
0.0
  0
POINT
  5
565
330
55C
100
AcDbEntity
  8
Defpoints
 62
     0
100
AcDbPoint
 10
1515.23242
 20
1450.0
 30
0.0
  0
ENDBLK
  5
567
330
55C
100
AcDbEntity
  8
0
100
AcDbBlockEnd
  0
BLOCK
  5
576
330
56C
100
AcDbEntity
  8
0
100
AcDbBlockBegin
  2
*D32
 70
     1
 71
     0
 10
0.0
 20
0.0
 30
0.0
  3
*D32
  1

  0
LINE
  5
56D
330
56C
100
AcDbEntity
  8
LC-007-003-----0
 62
     2
370
    -2
100
AcDbLine
 10
1672.952381
 20
1061.982444
 30
0.0
 11
1786.380768
 21
1061.982444
 31
0.0
  0
LINE
  5
56E
330
56C
100
AcDbEntity
  8
LC-007-003-----0
 62
     2
370
    -2
100
AcDbLine
 10
1672.952381
 20
819.482444
 30
0.0
 11
1786.380768
 21
819.482444
 31
0.0
  0
LINE
  5
56F
330
56C
100
AcDbEntity
  8
LC-007-003-----0
 62
     2
370
    -2
100
AcDbLine
 10
1768.380768
 20
1036.982444
 30
0.0
 11
1768.380768
 21
844.482444
 31
0.0
  0
SOLID
  5
570
330
56C
100
AcDbEntity
  8
LC-007-003-----0
 62
     2
100
AcDbTrace
 10
1772.547435
 20
1036.982444
 30
0.0
 11
1764.214102
 21
1036.982444
 31
0.0
 12
1768.380768
 22
1061.982444
 32
0.0
 13
1768.380768
 23
1061.982444
 33
0.0
  0
SOLID
  5
571
330
56C
100
AcDbEntity
  8
LC-007-003-----0
 62
     2
100
AcDbTrace
 10
1764.214102
 20
844.482444
 30
0.0
 11
1772.547435
 21
844.482444
 31
0.0
 12
1768.380768
 22
819.482444
 32
0.0
 13
1768.380768
 23
819.482444
 33
0.0
  0
MTEXT
  5
572
330
56C
100
AcDbEntity
  8
LC-007-003-----0
 62
     2
100
AcDbMText
 10
1738.380768
 20
943.571366
 30
0.0
 40
25.0
 41
0.0
 71
     5
 72
     1
  1
\A1;485
  7
LCTX0-400-0-0pDIN-Schrift
 11
6.123031769111886E-17
 21
1.0
 31
0.0
 73
     1
 44
1.0
  0
POINT
  5
573
330
56C
100
AcDbEntity
  8
Defpoints
 62
     0
100
AcDbPoint
 10
1672.952381
 20
1061.982444
 30
0.0
  0
POINT
  5
574
330
56C
100
AcDbEntity
  8
Defpoints
 62
     0
100
AcDbPoint
 10
1672.952381
 20
819.482444
 30
0.0
  0
POINT
  5
575
330
56C
100
AcDbEntity
  8
Defpoints
 62
     0
100
AcDbPoint
 10
1768.380768
 20
819.482444
 30
0.0
  0
ENDBLK
  5
577
330
56C
100
AcDbEntity
  8
0
100
AcDbBlockEnd
  0
BLOCK
  5
583
330
579
100
AcDbEntity
  8
0
100
AcDbBlockBegin
  2
*D33
 70
     1
 71
     0
 10
0.0
 20
0.0
 30
0.0
  3
*D33
  1

  0
LINE
  5
57A
330
579
100
AcDbEntity
  8
LC-007-003-----0
 62
     2
370
    -2
100
AcDbLine
 10
1270.452381
 20
839.482444
 30
0.0
 11
1270.452381
 21
738.202471
 31
0.0
  0
LINE
  5
57B
330
579
100
AcDbEntity
  8
LC-007-003-----0
 62
     2
370
    -2
100
AcDbLine
 10
1692.952381
 20
839.482444
 30
0.0
 11
1692.952381
 21
738.202471
 31
0.0
  0
LINE
  5
57C
330
579
100
AcDbEntity
  8
LC-007-003-----0
 62
     2
370
    -2
100
AcDbLine
 10
1295.452381
 20
756.202471
 30
0.0
 11
1667.952381
 21
756.202471
 31
0.0
  0
SOLID
  5
57D
330
579
100
AcDbEntity
  8
LC-007-003-----0
 62
     2
100
AcDbTrace
 10
1295.452381
 20
760.369137
 30
0.0
 11
1295.452381
 21
752.035804
 31
0.0
 12
1270.452381
 22
756.202471
 32
0.0
 13
1270.452381
 23
756.202471
 33
0.0
  0
SOLID
  5
57E
330
579
100
AcDbEntity
  8
LC-007-003-----0
 62
     2
100
AcDbTrace
 10
1667.952381
 20
752.035804
 30
0.0
 11
1667.952381
 21
760.369137
 31
0.0
 12
1692.952381
 22
756.202471
 32
0.0
 13
1692.952381
 23
756.202471
 33
0.0
  0
MTEXT
  5
57F
330
579
100
AcDbEntity
  8
LC-007-003-----0
 62
     2
100
AcDbMText
 10
1484.598123
 20
786.202471
 30
0.0
 40
25.0
 41
0.0
 71
     5
 72
     1
  1
\A1;845
  7
LCTX0-400-0-0pDIN-Schrift
 73
     1
 44
1.0
  0
POINT
  5
580
330
579
100
AcDbEntity
  8
Defpoints
 62
     0
100
AcDbPoint
 10
1270.452381
 20
839.482444
 30
0.0
  0
POINT
  5
581
330
579
100
AcDbEntity
  8
Defpoints
 62
     0
100
AcDbPoint
 10
1692.952381
 20
839.482444
 30
0.0
  0
POINT
  5
582
330
579
100
AcDbEntity
  8
Defpoints
 62
     0
100
AcDbPoint
 10
1692.952381
 20
756.202471
 30
0.0
  0
ENDBLK
  5
584
330
579
100
AcDbEntity
  8
0
100
AcDbBlockEnd
  0
BLOCK
  5
58D
330
587
100
AcDbEntity
  8
0
100
AcDbBlockBegin
  2
*D34
 70
     1
 71
     0
 10
0.0
 20
0.0
 30
0.0
  3
*D34
  1

  0
LINE
  5
588
330
587
100
AcDbEntity
  8
LC-007-003-----0
 62
     2
370
    -2
100
AcDbLine
 10
1272.814889
 20
1068.371619
 30
0.0
 11
1287.674006
 21
1046.139442
 31
0.0
  0
MTEXT
  5
589
330
587
100
AcDbEntity
  8
LC-007-003-----0
 62
     2
100
AcDbMText
 10
1276.754627
 20
1025.900123
 30
0.0
 40
25.0
 41
0.0
 71
     5
 72
     1
  1
\A1;R40
  7
LCTX0-400-0-0pDIN-Schrift
 11
0.5556749616340878
 21
-0.8313996253384741
 31
0.0
 73
     1
 44
1.0
  0
SOLID
  5
58A
330
587
100
AcDbEntity
  8
LC-007-003-----0
 62
     2
100
AcDbTrace
 10
1284.209841
 20
1043.824129
 30
0.0
 11
1291.138172
 21
1048.454754
 31
0.0
 12
1301.56588
 22
1025.354451
 32
0.0
 13
1301.56588
 23
1025.354451
 33
0.0
  0
POINT
  5
58B
330
587
100
AcDbEntity
  8
Defpoints
 62
     0
100
AcDbPoint
 10
1301.56588
 20
1025.354451
 30
0.0
  0
POINT
  5
58C
330
587
100
AcDbEntity
  8
Defpoints
 62
     0
100
AcDbPoint
 10
1290.452381
 20
1041.982444
 30
0.0
  0
ENDBLK
  5
58E
330
587
100
AcDbEntity
  8
0
100
AcDbBlockEnd
  0
ENDSEC
  0
SECTION
  2
ENTITIES
  0
INSERT
  5
103
330
1F
100
AcDbEntity
  8
LC-003-230-ZVN-0
  6
ByBlock
 62
     0
370
    -2
100
AcDbBlockReference
  2
SYM1
 10
0.0
 20
0.0
 30
0.0
  0
LINE
  5
104
102
{ACAD_REACTORS
330
599
102
}
330
1F
100
AcDbEntity
  8
LC-002-002-----0
 62
     7
370
    50
100
AcDbLine
 10
401.677343
 20
1982.49
 30
0.0
 11
1251.677343
 21
1982.49
 31
0.0
  0
LINE
  5
105
102
{ACAD_REACTORS
330
599
102
}
330
1F
100
AcDbEntity
  8
LC-002-002-----0
 62
     7
370
    50
100
AcDbLine
 10
401.677343
 20
1482.49
 30
0.0
 11
1251.677343
 21
1482.49
 31
0.0
  0
LINE
  5
106
102
{ACAD_REACTORS
330
599
102
}
330
1F
100
AcDbEntity
  8
LC-002-002-----0
 62
     7
370
    50
100
AcDbLine
 10
396.677343
 20
1977.49
 30
0.0
 11
396.677343
 21
1487.49
 31
0.0
  0
LINE
  5
107
102
{ACAD_REACTORS
330
599
102
}
330
1F
100
AcDbEntity
  8
LC-002-002-----0
 62
     7
370
    50
100
AcDbLine
 10
1256.677343
 20
1977.49
 30
0.0
 11
1256.677343
 21
1487.49
 31
0.0
  0
LINE
  5
109
330
1F
100
AcDbEntity
  8
LC-002-002-----0
  6
DASHDOT
 62
     7
370
    25
100
AcDbLine
 10
923.022369
 20
808.929212
 30
0.0
 11
923.022369
 21
1088.728205
 31
0.0
  0
ARC
  5
10B
102
{ACAD_REACTORS
330
599
102
}
330
1F
100
AcDbEntity
  8
LC-004-002-RND-0
 62
     7
370
    25
100
AcDbCircle
 10
444.677343
 20
1934.49
 30
0.0
 40
25.00000000000023
100
AcDbArc
 50
90.0
 51
180.0
  0
LINE
  5
10C
330
1F
100
AcDbEntity
  8
LC-002-002-----0
  6
DASHDOT
 62
     7
370
    25
100
AcDbLine
 10
913.522369
 20
808.929212
 30
0.0
 11
913.522369
 21
1089.400799
 31
0.0
  0
LINE
  5
10D
102
{ACAD_REACTORS
330
596
102
}
330
1F
100
AcDbEntity
  8
LC-002-002-----0
 62
     7
370
    25
100
AcDbLine
 10
376.789534
 20
2523.412337
 30
0.0
 11
386.591546
 21
2518.056258
 31
0.0
  0
LINE
  5
10E
102
{ACAD_REACTORS
330
596
102
}
330
1F
100
AcDbEntity
  8
LC-002-002-----0
 62
     7
370
    25
100
AcDbLine
 10
386.591546
 20
2518.056258
 30
0.0
 11
395.789534
 21
2523.412337
 31
0.0
  0
LINE
  5
10F
102
{ACAD_REACTORS
330
596
102
}
330
1F
100
AcDbEntity
  8
LC-002-002-----0
 62
     7
370
    25
100
AcDbLine
 10
1257.789534
 20
2523.412337
 30
0.0
 11
1269.942132
 21
2519.750993
 31
0.0
  0
LINE
  5
110
102
{ACAD_REACTORS
330
596
102
}
330
1F
100
AcDbEntity
  8
LC-002-002-----0
 62
     7
370
    25
100
AcDbLine
 10
1269.942132
 20
2519.750993
 30
0.0
 11
1276.789534
 21
2523.412337
 31
0.0
  0
LINE
  5
113
330
1F
100
AcDbEntity
  8
LC-005-006-MLN-0
 62
     7
370
    25
100
AcDbLine
 10
1267.452381
 20
940.732444
 30
0.0
 11
1695.952381
 21
940.732444
 31
0.0
  0
LINE
  5
114
330
1F
100
AcDbEntity
  8
LC-005-006-MLN-0
 62
     7
370
    25
100
AcDbLine
 10
1481.702381
 20
1064.982444
 30
0.0
 11
1481.702381
 21
816.482444
 31
0.0
  0
ARC
  5
115
102
{ACAD_REACTORS
330
599
102
}
330
1F
100
AcDbEntity
  8
LC-004-002-RND-0
 62
     7
370
    25
100
AcDbCircle
 10
444.677343
 20
1530.49
 30
0.0
 40
25.0
100
AcDbArc
 50
180.0
 51
270.0
  0
LINE
  5
116
330
1F
100
AcDbEntity
  8
LC-002-002-----0
 62
     7
370
    50
100
AcDbLine
 10
1692.952381
 20
839.482444
 30
0.0
 11
1692.952381
 21
1041.982444
 31
0.0
  0
LINE
  5
117
330
1F
100
AcDbEntity
  8
LC-002-002-----0
 62
     7
370
    50
100
AcDbLine
 10
1290.452381
 20
1061.982444
 30
0.0
 11
1672.952381
 21
1061.982444
 31
0.0
  0
ARC
  5
118
330
1F
100
AcDbEntity
  8
LC-004-002-RND-0
 62
     7
370
    50
100
AcDbCircle
 10
1290.452381
 20
1041.982444
 30
0.0
 40
20.0
100
AcDbArc
 50
90.0
 51
180.0
  0
ARC
  5
119
330
1F
100
AcDbEntity
  8
LC-004-002-RND-0
 62
     7
370
    50
100
AcDbCircle
 10
1672.952381
 20
1041.982444
 30
0.0
 40
20.0
100
AcDbArc
 50
0.0
 51
90.0
  0
ARC
  5
11A
330
1F
100
AcDbEntity
  8
LC-004-002-RND-0
 62
     7
370
    50
100
AcDbCircle
 10
1290.452381
 20
839.482444
 30
0.0
 40
20.0
100
AcDbArc
 50
180.0
 51
270.0
  0
ARC
  5
11B
330
1F
100
AcDbEntity
  8
LC-004-002-RND-0
 62
     7
370
    50
100
AcDbCircle
 10
1672.952381
 20
839.482444
 30
0.0
 40
20.0
100
AcDbArc
 50
270.0
 51
0.0
  0
ARC
  5
11C
102
{ACAD_REACTORS
330
599
102
}
330
1F
100
AcDbEntity
  8
LC-004-002-RND-0
 62
     7
370
    50
100
AcDbCircle
 10
401.677343
 20
1977.49
 30
0.0
 40
5.0
100
AcDbArc
 50
90.0
 51
180.0
  0
ARC
  5
11D
102
{ACAD_REACTORS
330
599
102
}
330
1F
100
AcDbEntity
  8
LC-004-002-RND-0
 62
     7
370
    25
100
AcDbCircle
 10
704.677343
 20
1626.49
 30
0.0
 40
105.0
100
AcDbArc
 50
270.0
 51
0.0
  0
ARC
  5
11E
102
{ACAD_REACTORS
330
599
102
}
330
1F
100
AcDbEntity
  8
LC-004-002-RND-0
 62
     7
370
    50
100
AcDbCircle
 10
401.677343
 20
1487.49
 30
0.0
 40
5.0
100
AcDbArc
 50
180.0
 51
270.0
  0
ARC
  5
11F
102
{ACAD_REACTORS
330
599
102
}
330
1F
100
AcDbEntity
  8
LC-004-002-RND-0
 62
     7
370
    25
100
AcDbCircle
 10
704.677343
 20
1838.49
 30
0.0
 40
105.0
100
AcDbArc
 50
0.0
 51
90.0
  0
LINE
  5
120
102
{ACAD_REACTORS
330
599
102
}
330
1F
100
AcDbEntity
  8
LC-002-002-----0
 62
     7
370
    25
100
AcDbLine
 10
435.677343
 20
1581.49
 30
0.0
 11
435.677343
 21
1883.49
 31
0.0
  0
LINE
  5
121
102
{ACAD_REACTORS
330
599
102
}
330
1F
100
AcDbEntity
  8
LC-002-002-----0
 62
     7
370
    25
100
AcDbLine
 10
1208.677343
 20
1959.49
 30
0.0
 11
444.677343
 21
1959.49
 31
0.0
  0
LINE
  5
122
102
{ACAD_REACTORS
330
599
102
}
330
1F
100
AcDbEntity
  8
LC-002-002-----0
 62
     7
370
    25
100
AcDbLine
 10
704.677343
 20
1943.49
 30
0.0
 11
495.677343
 21
1943.49
 31
0.0
  0
LINE
  5
123
102
{ACAD_REACTORS
330
599
102
}
330
1F
100
AcDbEntity
  8
LC-002-002-----0
 62
     7
370
    25
100
AcDbLine
 10
495.677343
 20
1521.49
 30
0.0
 11
704.677343
 21
1521.49
 31
0.0
  0
ARC
  5
124
102
{ACAD_REACTORS
330
599
102
}
330
1F
100
AcDbEntity
  8
LC-004-002-RND-0
 62
     7
370
    25
100
AcDbCircle
 10
495.677343
 20
1883.49
 30
0.0
 40
60.0
100
AcDbArc
 50
90.0
 51
180.0
  0
ARC
  5
125
102
{ACAD_REACTORS
330
599
102
}
330
1F
100
AcDbEntity
  8
LC-004-002-RND-0
 62
     7
370
    25
100
AcDbCircle
 10
495.677343
 20
1581.49
 30
0.0
 40
60.0
100
AcDbArc
 50
180.0
 51
270.0
  0
ARC
  5
126
102
{ACAD_REACTORS
330
599
102
}
330
1F
100
AcDbEntity
  8
LC-004-002-RND-0
 62
     7
370
    50
100
AcDbCircle
 10
1251.677343
 20
1977.49
 30
0.0
 40
5.0
100
AcDbArc
 50
0.0
 51
90.0
  0
LINE
  5
127
102
{ACAD_REACTORS
330
599
102
}
330
1F
100
AcDbEntity
  8
LC-002-002-----0
 62
     7
370
    25
100
AcDbLine
 10
419.677343
 20
1934.49
 30
0.0
 11
419.677343
 21
1530.49
 31
0.0
  0
LINE
  5
128
102
{ACAD_REACTORS
330
599
102
}
330
1F
100
AcDbEntity
  8
LC-002-002-----0
 62
     7
370
    25
100
AcDbLine
 10
444.677343
 20
1505.49
 30
0.0
 11
1208.677343
 21
1505.49
 31
0.0
  0
ARC
  5
129
102
{ACAD_REACTORS
330
599
102
}
330
1F
100
AcDbEntity
  8
LC-004-002-RND-0
 62
     7
370
    25
100
AcDbCircle
 10
1157.677343
 20
1581.49
 30
0.0
 40
60.0
100
AcDbArc
 50
270.0
 51
360.0
  0
LINE
  5
12A
102
{ACAD_REACTORS
330
598
102
}
330
1F
100
AcDbEntity
  8
LC-002-002-----0
 62
     7
370
    50
100
AcDbLine
 10
475.796293
 20
2487.431685
 30
0.0
 11
645.575343
 21
2475.559578
 31
0.0
  0
LINE
  5
12B
102
{ACAD_REACTORS
330
598
102
}
330
1F
100
AcDbEntity
  8
LC-002-002-----0
 62
     7
370
    50
100
AcDbLine
 10
469.554749
 20
2479.848601
 30
0.0
 11
638.400375
 21
2468.041765
 31
0.0
  0
LINE
  5
12C
102
{ACAD_REACTORS
330
598
102
}
330
1F
100
AcDbEntity
  8
LC-002-002-----0
 62
     7
370
    25
100
AcDbLine
 10
762.927343
 20
2475.5
 30
0.0
 11
646.427343
 21
2475.5
 31
0.0
  0
LINE
  5
12D
102
{ACAD_REACTORS
330
598
102
}
330
1F
100
AcDbEntity
  8
LC-002-002-----0
 62
     7
370
    50
100
AcDbLine
 10
658.809102
 20
2471.347615
 30
0.0
 11
647.35799
 21
2473.366755
 31
0.0
  0
LINE
  5
12E
102
{ACAD_REACTORS
330
598
102
}
330
1F
100
AcDbEntity
  8
LC-002-002-----0
 62
     7
370
    50
100
AcDbLine
 10
641.984879
 20
2465.084309
 30
0.0
 11
642.280145
 21
2463.982362
 31
0.0
  0
ARC
  5
12F
102
{ACAD_REACTORS
330
598
102
}
330
1F
100
AcDbEntity
  8
LC-004-002-RND-0
 62
     7
370
    50
100
AcDbCircle
 10
761.823048
 20
2474.351563
 30
0.0
 40
0.9999999999999668
100
AcDbArc
 50
280.0
 51
355.0
  0
ARC
  5
130
102
{ACAD_REACTORS
330
598
102
}
330
1F
100
AcDbEntity
  8
LC-004-002-RND-0
 62
     7
370
    50
100
AcDbCircle
 10
763.849099
 20
2474.562014
 30
0.0
 40
0.9999999999999809
100
AcDbArc
 50
94.0
 51
175.0
  0
ARC
  5
131
102
{ACAD_REACTORS
330
598
102
}
330
1F
100
AcDbEntity
  8
LC-004-002-RND-0
 62
     7
370
    50
100
AcDbCircle
 10
645.505586
 20
2474.562014
 30
0.0
 40
0.9999999999994268
100
AcDbArc
 50
5.0
 51
86.0
  0
LINE
  5
132
102
{ACAD_REACTORS
330
598
102
}
330
1F
100
AcDbEntity
  8
LC-002-002-----0
 62
     7
370
    50
100
AcDbLine
 10
646.535443
 20
2474.264407
 30
0.0
 11
646.501781
 21
2474.649169
 31
0.0
  0
ARC
  5
133
102
{ACAD_REACTORS
330
598
102
}
330
1F
100
AcDbEntity
  8
LC-004-002-RND-0
 62
     7
370
    50
100
AcDbCircle
 10
644.211997
 20
2464.5
 30
0.0
 40
2.000000000000002
100
AcDbArc
 50
195.0
 51
270.0
  0
ARC
  5
134
102
{ACAD_REACTORS
330
598
102
}
330
1F
100
AcDbEntity
  8
LC-004-002-RND-0
 62
     7
370
    50
100
AcDbCircle
 10
638.121176
 20
2464.049033
 30
0.0
 40
4.000000000000004
100
AcDbArc
 50
15.0
 51
85.999998
  0
ARC
  5
135
102
{ACAD_REACTORS
330
598
102
}
330
1F
100
AcDbEntity
  8
LC-004-002-RND-0
 62
     7
370
    50
100
AcDbCircle
 10
647.531638
 20
2474.351563
 30
0.0
 40
1.000000000000254
100
AcDbArc
 50
185.0
 51
260.0
  0
ARC
  5
136
102
{ACAD_REACTORS
330
598
102
}
330
1F
100
AcDbEntity
  8
LC-004-002-RND-0
 62
     7
370
    50
100
AcDbCircle
 10
657.940861
 20
2466.423576
 30
0.0
 40
5.000000000015024
100
AcDbArc
 50
69.677963
 51
80.0
  0
LINE
  5
137
102
{ACAD_REACTORS
330
598
102
}
330
1F
100
AcDbEntity
  8
LC-002-002-----0
 62
     7
370
    50
100
AcDbLine
 10
750.545584
 20
2471.347615
 30
0.0
 11
761.996696
 21
2473.366755
 31
0.0
  0
ARC
  5
138
102
{ACAD_REACTORS
330
598
102
}
330
1F
100
AcDbEntity
  8
LC-004-002-RND-0
 62
     7
370
    50
100
AcDbCircle
 10
751.413825
 20
2466.423576
 30
0.0
 40
4.999999999999728
100
AcDbArc
 50
100.0
 51
110.322037
  0
ARC
  5
139
102
{ACAD_REACTORS
330
598
102
}
330
1F
100
AcDbEntity
  8
LC-004-002-RND-0
 62
     7
370
    50
100
AcDbCircle
 10
765.142689
 20
2464.5
 30
0.0
 40
2.0
100
AcDbArc
 50
270.0
 51
345.0
  0
LINE
  5
13A
102
{ACAD_REACTORS
330
598
102
}
330
1F
100
AcDbEntity
  8
LC-002-002-----0
 62
     7
370
    50
100
AcDbLine
 10
767.369806
 20
2465.084309
 30
0.0
 11
767.07454
 21
2463.982362
 31
0.0
  0
ARC
  5
13B
102
{ACAD_REACTORS
330
598
102
}
330
1F
100
AcDbEntity
  8
LC-004-002-RND-0
 62
     7
370
    50
100
AcDbCircle
 10
771.23351
 20
2464.049033
 30
0.0
 40
3.999999999999916
100
AcDbArc
 50
94.000002
 51
165.0
  0
LINE
  5
13C
102
{ACAD_REACTORS
330
598
102
}
330
1F
100
AcDbEntity
  8
LC-002-002-----0
 62
     7
370
    50
100
AcDbLine
 10
762.819242
 20
2474.264407
 30
0.0
 11
762.852905
 21
2474.649169
 31
0.0
  0
LINE
  5
13D
102
{ACAD_REACTORS
330
598
102
}
330
1F
100
AcDbEntity
  8
LC-002-002-----0
 62
     7
370
    25
100
AcDbLine
 10
890.427343
 20
2475.5
 30
0.0
 11
1006.927343
 21
2475.5
 31
0.0
  0
LINE
  5
13E
102
{ACAD_REACTORS
330
598
102
}
330
1F
100
AcDbEntity
  8
LC-002-002-----0
 62
     7
370
    50
100
AcDbLine
 10
763.779343
 20
2475.559578
 30
0.0
 11
768.344134
 21
2475.878779
 31
0.0
  0
LINE
  5
13F
102
{ACAD_REACTORS
330
598
102
}
330
1F
100
AcDbEntity
  8
LC-002-002-----0
 62
     7
370
    50
100
AcDbLine
 10
902.809102
 20
2471.347615
 30
0.0
 11
891.35799
 21
2473.366755
 31
0.0
  0
LINE
  5
140
102
{ACAD_REACTORS
330
598
102
}
330
1F
100
AcDbEntity
  8
LC-002-002-----0
 62
     7
370
    50
100
AcDbLine
 10
770.954484
 20
2468.039289
 30
0.0
 11
774.585415
 21
2468.293189
 31
0.0
  0
LINE
  5
141
102
{ACAD_REACTORS
330
598
102
}
330
1F
100
AcDbEntity
  8
LC-002-002-----0
 62
     7
370
    50
100
AcDbLine
 10
885.984879
 20
2465.084309
 30
0.0
 11
886.280145
 21
2463.982362
 31
0.0
  0
ARC
  5
142
102
{ACAD_REACTORS
330
598
102
}
330
1F
100
AcDbEntity
  8
LC-004-002-RND-0
 62
     7
370
    50
100
AcDbCircle
 10
1005.823048
 20
2474.351563
 30
0.0
 40
0.9999999999999668
100
AcDbArc
 50
280.0
 51
355.0
  0
ARC
  5
143
102
{ACAD_REACTORS
330
598
102
}
330
1F
100
AcDbEntity
  8
LC-004-002-RND-0
 62
     7
370
    50
100
AcDbCircle
 10
1007.849099
 20
2474.562014
 30
0.0
 40
0.9999999999999809
100
AcDbArc
 50
94.0
 51
175.0
  0
LINE
  5
144
102
{ACAD_REACTORS
330
599
102
}
330
1F
100
AcDbEntity
  8
LC-002-002-----0
 62
     7
370
    25
100
AcDbLine
 10
843.677343
 20
1838.49
 30
0.0
 11
843.677343
 21
1626.49
 31
0.0
  0
LINE
  5
145
102
{ACAD_REACTORS
330
599
102
}
330
1F
100
AcDbEntity
  8
LC-002-002-----0
 62
     7
370
    25
100
AcDbLine
 10
1217.677343
 20
1581.49
 30
0.0
 11
1217.677343
 21
1883.49
 31
0.0
  0
ARC
  5
146
102
{ACAD_REACTORS
330
599
102
}
330
1F
100
AcDbEntity
  8
LC-004-002-RND-0
 62
     7
370
    50
100
AcDbCircle
 10
1251.677343
 20
1487.49
 30
0.0
 40
5.0
100
AcDbArc
 50
270.0
 51
0.0
  0
ARC
  5
147
102
{ACAD_REACTORS
330
598
102
}
330
1F
100
AcDbEntity
  8
LC-004-002-RND-0
 62
     7
370
    50
100
AcDbCircle
 10
889.505586
 20
2474.562014
 30
0.0
 40
0.9999999999994268
100
AcDbArc
 50
5.0
 51
86.0
  0
LINE
  5
148
102
{ACAD_REACTORS
330
598
102
}
330
1F
100
AcDbEntity
  8
LC-002-002-----0
 62
     7
370
    50
100
AcDbLine
 10
890.535443
 20
2474.264407
 30
0.0
 11
890.501781
 21
2474.649169
 31
0.0
  0
ARC
  5
149
102
{ACAD_REACTORS
330
598
102
}
330
1F
100
AcDbEntity
  8
LC-004-002-RND-0
 62
     7
370
    50
100
AcDbCircle
 10
888.211997
 20
2464.5
 30
0.0
 40
2.000000000000002
100
AcDbArc
 50
195.0
 51
270.0
  0
ARC
  5
14A
102
{ACAD_REACTORS
330
598
102
}
330
1F
100
AcDbEntity
  8
LC-004-002-RND-0
 62
     7
370
    50
100
AcDbCircle
 10
882.121176
 20
2464.049033
 30
0.0
 40
4.000000000000004
100
AcDbArc
 50
15.0
 51
85.999998
  0
ARC
  5
14B
102
{ACAD_REACTORS
330
598
102
}
330
1F
100
AcDbEntity
  8
LC-004-002-RND-0
 62
     7
370
    50
100
AcDbCircle
 10
891.531638
 20
2474.351563
 30
0.0
 40
1.000000000000254
100
AcDbArc
 50
185.0
 51
260.0
  0
ARC
  5
14C
102
{ACAD_REACTORS
330
598
102
}
330
1F
100
AcDbEntity
  8
LC-004-002-RND-0
 62
     7
370
    50
100
AcDbCircle
 10
901.940861
 20
2466.423576
 30
0.0
 40
4.99999999999975
100
AcDbArc
 50
69.242613
 51
80.0
  0
LINE
  5
14D
102
{ACAD_REACTORS
330
598
102
}
330
1F
100
AcDbEntity
  8
LC-002-002-----0
 62
     7
370
    50
100
AcDbLine
 10
994.545584
 20
2471.347615
 30
0.0
 11
1005.996696
 21
2473.366755
 31
0.0
  0
ARC
  5
14E
102
{ACAD_REACTORS
330
598
102
}
330
1F
100
AcDbEntity
  8
LC-004-002-RND-0
 62
     7
370
    50
100
AcDbCircle
 10
995.413825
 20
2466.423576
 30
0.0
 40
4.999999999999728
100
AcDbArc
 50
100.0
 51
109.887909
  0
LINE
  5
14F
102
{ACAD_REACTORS
330
599
102
}
330
1F
100
AcDbEntity
  8
LC-002-002-----0
 62
     7
370
    25
100
AcDbLine
 10
948.677343
 20
1943.49
 30
0.0
 11
1157.677343
 21
1943.49
 31
0.0
  0
LINE
  5
150
102
{ACAD_REACTORS
330
599
102
}
330
1F
100
AcDbEntity
  8
LC-002-002-----0
 62
     7
370
    25
100
AcDbLine
 10
1157.677343
 20
1521.49
 30
0.0
 11
948.677343
 21
1521.49
 31
0.0
  0
ARC
  5
151
102
{ACAD_REACTORS
330
599
102
}
330
1F
100
AcDbEntity
  8
LC-004-002-RND-0
 62
     7
370
    25
100
AcDbCircle
 10
948.677343
 20
1838.49
 30
0.0
 40
105.0
100
AcDbArc
 50
90.0
 51
180.0
  0
ARC
  5
152
102
{ACAD_REACTORS
330
599
102
}
330
1F
100
AcDbEntity
  8
LC-004-002-RND-0
 62
     7
370
    25
100
AcDbCircle
 10
948.677343
 20
1626.49
 30
0.0
 40
105.0
100
AcDbArc
 50
180.0
 51
270.0
  0
ARC
  5
153
102
{ACAD_REACTORS
330
598
102
}
330
1F
100
AcDbEntity
  8
LC-004-002-RND-0
 62
     7
370
    50
100
AcDbCircle
 10
1009.142689
 20
2464.5
 30
0.0
 40
2.0
100
AcDbArc
 50
270.0
 51
345.0
  0
CIRCLE
  5
154
102
{ACAD_REACTORS
330
599
102
}
330
1F
100
AcDbEntity
  8
LC-002-002-----0
 62
     7
370
    50
100
AcDbCircle
 10
948.677343
 20
1732.49
 30
0.0
 40
45.0
  0
CIRCLE
  5
155
102
{ACAD_REACTORS
330
599
102
}
330
1F
100
AcDbEntity
  8
LC-002-002-----0
 62
     7
370
    50
100
AcDbCircle
 10
948.677343
 20
1732.49
 30
0.0
 40
58.25
  0
LINE
  5
156
102
{ACAD_REACTORS
330
598
102
}
330
1F
100
AcDbEntity
  8
LC-002-002-----0
 62
     7
370
    50
100
AcDbLine
 10
1011.369806
 20
2465.084309
 30
0.0
 11
1011.07454
 21
2463.982362
 31
0.0
  0
ARC
  5
157
102
{ACAD_REACTORS
330
598
102
}
330
1F
100
AcDbEntity
  8
LC-004-002-RND-0
 62
     7
370
    50
100
AcDbCircle
 10
1015.23351
 20
2464.049033
 30
0.0
 40
3.999999999999916
100
AcDbArc
 50
94.000002
 51
165.0
  0
CIRCLE
  5
158
102
{ACAD_REACTORS
330
599
102
}
330
1F
100
AcDbEntity
  8
LC-002-002-----0
  6
DASHED
 62
     7
370
    25
100
AcDbCircle
 10
826.677343
 20
1549.49
 30
0.0
 40
17.5
  0
LINE
  5
159
102
{ACAD_REACTORS
330
598
102
}
330
1F
100
AcDbEntity
  8
LC-002-002-----0
 62
     7
370
    50
100
AcDbLine
 10
1006.819242
 20
2474.264407
 30
0.0
 11
1006.852905
 21
2474.649169
 31
0.0
  0
LINE
  5
15A
102
{ACAD_REACTORS
330
598
102
}
330
1F
100
AcDbEntity
  8
LC-002-002-----0
 62
     7
370
    50
100
AcDbLine
 10
844.24205
 20
2666.127171
 30
0.0
 11
861.891416
 21
2498.204669
 31
0.0
  0
LINE
  5
15B
102
{ACAD_REACTORS
330
598
102
}
330
1F
100
AcDbEntity
  8
LC-002-002-----0
 62
     7
370
    50
100
AcDbLine
 10
797.70455
 20
2490.619078
 30
0.0
 11
815.393491
 21
2658.918114
 31
0.0
  0
LINE
  5
15C
102
{ACAD_REACTORS
330
598
102
}
330
1F
100
AcDbEntity
  8
LC-002-002-----0
 62
     7
370
    50
100
AcDbLine
 10
791.46327
 20
2498.204669
 30
0.0
 11
809.112636
 21
2666.127171
 31
0.0
  0
ARC
  5
15D
102
{ACAD_REACTORS
330
598
102
}
330
1F
100
AcDbEntity
  8
LC-004-002-RND-0
 62
     7
370
    50
100
AcDbCircle
 10
815.079767
 20
2665.5
 30
0.0
 40
6.0
100
AcDbArc
 50
90.0
 51
174.0
  0
ARC
  5
15E
102
{ACAD_REACTORS
330
598
102
}
330
1F
100
AcDbEntity
  8
LC-004-002-RND-0
 62
     7
370
    50
100
AcDbCircle
 10
838.274919
 20
2665.5
 30
0.0
 40
6.000000000000069
100
AcDbArc
 50
6.0
 51
90.0
  0
ARC
  5
15F
102
{ACAD_REACTORS
330
598
102
}
330
1F
100
AcDbEntity
  8
LC-004-002-RND-0
 62
     7
370
    50
100
AcDbCircle
 10
766.600222
 20
2500.81788
 30
0.0
 40
25.00000000000035
100
AcDbArc
 50
274.0
 51
354.0
  0
LINE
  5
160
102
{ACAD_REACTORS
330
598
102
}
330
1F
100
AcDbEntity
  8
LC-002-002-----0
 62
     7
370
    50
100
AcDbLine
 10
878.769271
 20
2468.293188
 30
0.0
 11
882.400202
 21
2468.039289
 31
0.0
  0
LINE
  5
161
102
{ACAD_REACTORS
330
598
102
}
330
1F
100
AcDbEntity
  8
LC-002-002-----0
 62
     7
370
    50
100
AcDbLine
 10
1007.779343
 20
2475.559578
 30
0.0
 11
1177.558392
 21
2487.431685
 31
0.0
  0
LINE
  5
162
102
{ACAD_REACTORS
330
598
102
}
330
1F
100
AcDbEntity
  8
LC-002-002-----0
 62
     7
370
    50
100
AcDbLine
 10
427.760247
 20
2671.5
 30
0.0
 11
1225.594438
 21
2671.5
 31
0.0
  0
LINE
  5
163
102
{ACAD_REACTORS
330
598
102
}
330
1F
100
AcDbEntity
  8
LC-002-002-----0
 62
     7
370
    50
100
AcDbLine
 10
885.010552
 20
2475.878779
 30
0.0
 11
889.575343
 21
2475.559578
 31
0.0
  0
LINE
  5
164
102
{ACAD_REACTORS
330
598
102
}
330
1F
100
AcDbEntity
  8
LC-005-006-MLN-0
 62
     7
370
    25
100
AcDbLine
 10
948.712919
 20
2478.5
 30
0.0
 11
948.712919
 21
2459.5
 31
0.0
  0
ARC
  5
165
102
{ACAD_REACTORS
330
598
102
}
330
1F
100
AcDbEntity
  8
LC-004-002-RND-0
 62
     7
370
    50
100
AcDbCircle
 10
477.540205
 20
2512.370787
 30
0.0
 40
25.00000000000005
100
AcDbArc
 50
186.0
 51
266.0
  0
ARC
  5
166
102
{ACAD_REACTORS
330
598
102
}
330
1F
100
AcDbEntity
  8
LC-004-002-RND-0
 62
     7
370
    50
100
AcDbCircle
 10
471.298661
 20
2504.787703
 30
0.0
 40
25.00000000000005
100
AcDbArc
 50
186.0
 51
266.0
  0
ARC
  5
167
102
{ACAD_REACTORS
330
598
102
}
330
1F
100
AcDbEntity
  8
LC-004-002-RND-0
 62
     7
370
    50
100
AcDbCircle
 10
1225.594438
 20
2676.5
 30
0.0
 40
5.0
100
AcDbArc
 50
270.0
 51
329.999997
  0
LINE
  5
168
102
{ACAD_REACTORS
330
598
102
}
330
1F
100
AcDbEntity
  8
LC-002-002-----0
 62
     7
370
    50
100
AcDbLine
 10
429.791423
 20
2660.533379
 30
0.0
 11
446.435614
 21
2502.174491
 31
0.0
  0
ARC
  5
169
102
{ACAD_REACTORS
330
598
102
}
330
1F
100
AcDbEntity
  8
LC-004-002-RND-0
 62
     7
370
    50
100
AcDbCircle
 10
1223.079767
 20
2665.5
 30
0.0
 40
6.0
100
AcDbArc
 50
90.0
 51
174.0
  0
ARC
  5
16A
102
{ACAD_REACTORS
330
598
102
}
330
1F
100
AcDbEntity
  8
LC-004-002-RND-0
 62
     7
370
    50
100
AcDbCircle
 10
427.760247
 20
2676.5
 30
0.0
 40
5.000000000000052
100
AcDbArc
 50
210.000003
 51
270.0
  0
ARC
  5
16B
102
{ACAD_REACTORS
330
598
102
}
330
1F
100
AcDbEntity
  8
LC-004-002-RND-0
 62
     7
370
    50
100
AcDbCircle
 10
430.274919
 20
2665.5
 30
0.0
 40
6.000000000000004
100
AcDbArc
 50
6.0
 51
90.0
  0
LINE
  5
16C
102
{ACAD_REACTORS
330
598
102
}
330
1F
100
AcDbEntity
  8
LC-002-002-----0
 62
     7
370
    50
100
AcDbLine
 10
413.212306
 20
2670.5
 30
0.0
 11
415.66686
 21
2670.5
 31
0.0
  0
ARC
  5
16D
102
{ACAD_REACTORS
330
598
102
}
330
1F
100
AcDbEntity
  8
LC-004-002-RND-0
 62
     7
370
    50
100
AcDbCircle
 10
399.101787
 20
2678.5
 30
0.0
 40
2.0
100
AcDbArc
 50
90.0
 51
176.0
  0
LINE
  5
16E
102
{ACAD_REACTORS
330
598
102
}
330
1F
100
AcDbEntity
  8
LC-002-002-----0
 62
     7
370
    50
100
AcDbLine
 10
1014.954484
 20
2468.039289
 30
0.0
 11
1183.799673
 21
2479.846095
 31
0.0
  0
ARC
  5
16F
102
{ACAD_REACTORS
330
598
102
}
330
1F
100
AcDbEntity
  8
LC-004-002-RND-0
 62
     7
370
    50
100
AcDbCircle
 10
425.813336
 20
2660.115265
 30
0.0
 40
3.999999999999965
100
AcDbArc
 50
6.0
 51
83.223619
  0
ARC
  5
170
102
{ACAD_REACTORS
330
598
102
}
330
1F
100
AcDbEntity
  8
LC-002-002-----0
 62
     7
370
    50
100
AcDbCircle
 10
427.760247
 20
2676.5
 30
0.0
 40
12.50000000000008
100
AcDbArc
 50
213.485377
 51
263.223619
  0
LINE
  5
171
102
{ACAD_REACTORS
330
598
102
}
330
1F
100
AcDbEntity
  8
LC-002-002-----0
 62
     7
370
    50
100
AcDbLine
 10
1240.142379
 20
2670.5
 30
0.0
 11
1237.687825
 21
2670.5
 31
0.0
  0
LINE
  5
172
102
{ACAD_REACTORS
330
598
102
}
330
1F
100
AcDbEntity
  8
LC-002-002-----0
 62
     7
370
    50
100
AcDbLine
 10
1256.642379
 20
2673.0
 30
0.0
 11
1256.248026
 21
2678.639513
 31
0.0
  0
ARC
  5
173
102
{ACAD_REACTORS
330
598
102
}
330
1F
100
AcDbEntity
  8
LC-004-002-RND-0
 62
     7
370
    50
100
AcDbCircle
 10
1254.252898
 20
2678.5
 30
0.0
 40
2.000000000000025
100
AcDbArc
 50
4.0
 51
90.0
  0
ARC
  5
174
102
{ACAD_REACTORS
330
598
102
}
330
1F
100
AcDbEntity
  8
LC-004-002-RND-0
 62
     7
370
    50
100
AcDbCircle
 10
1175.814481
 20
2512.370787
 30
0.0
 40
25.00000000000003
100
AcDbArc
 50
274.0
 51
354.0
  0
ARC
  5
175
102
{ACAD_REACTORS
330
598
102
}
330
1F
100
AcDbEntity
  8
LC-004-002-RND-0
 62
     7
370
    50
100
AcDbCircle
 10
1182.055761
 20
2504.785196
 30
0.0
 40
25.00000000000003
100
AcDbArc
 50
274.0
 51
354.0
  0
ARC
  5
176
102
{ACAD_REACTORS
330
598
102
}
330
1F
100
AcDbEntity
  8
LC-004-002-RND-0
 62
     7
370
    50
100
AcDbCircle
 10
415.66686
 20
2668.5
 30
0.0
 40
1.999999999999874
100
AcDbArc
 50
33.485377
 51
90.0
  0
ARC
  5
177
102
{ACAD_REACTORS
330
598
102
}
330
1F
100
AcDbEntity
  8
LC-002-002-----0
 62
     7
370
    50
100
AcDbCircle
 10
1225.594438
 20
2676.5
 30
0.0
 40
12.49999999999979
100
AcDbArc
 50
276.776381
 51
326.514623
  0
ARC
  5
178
102
{ACAD_REACTORS
330
598
102
}
330
1F
100
AcDbEntity
  8
LC-004-002-RND-0
 62
     7
370
    50
100
AcDbCircle
 10
772.841502
 20
2493.23229
 30
0.0
 40
24.99999999999984
100
AcDbArc
 50
274.000002
 51
354.0
  0
ARC
  5
179
102
{ACAD_REACTORS
330
598
102
}
330
1F
100
AcDbEntity
  8
LC-004-002-RND-0
 62
     7
370
    50
100
AcDbCircle
 10
886.754463
 20
2500.81788
 30
0.0
 40
24.9999999999999
100
AcDbArc
 50
186.0
 51
266.0
  0
ARC
  5
17A
102
{ACAD_REACTORS
330
598
102
}
330
1F
100
AcDbEntity
  8
LC-004-002-RND-0
 62
     7
370
    50
100
AcDbCircle
 10
880.513183
 20
2493.23229
 30
0.0
 40
24.99999999999994
100
AcDbArc
 50
186.0
 51
266.0
  0
LINE
  5
17B
102
{ACAD_REACTORS
330
598
102
}
330
1F
100
AcDbEntity
  8
LC-002-002-----0
 62
     7
370
    50
100
AcDbLine
 10
837.961194
 20
2658.918114
 30
0.0
 11
855.650136
 21
2490.619078
 31
0.0
  0
ARC
  5
17C
102
{ACAD_REACTORS
330
599
102
}
330
1F
100
AcDbEntity
  8
LC-004-002-RND-0
 62
     7
370
    25
100
AcDbCircle
 10
1157.677343
 20
1883.49
 30
0.0
 40
60.0
100
AcDbArc
 50
0.0
 51
90.0
  0
CIRCLE
  5
17D
102
{ACAD_REACTORS
330
599
102
}
330
1F
100
AcDbEntity
  8
LC-002-002-----0
 62
     7
370
    50
100
AcDbCircle
 10
704.677343
 20
1732.49
 30
0.0
 40
58.25
  0
CIRCLE
  5
17E
102
{ACAD_REACTORS
330
599
102
}
330
1F
100
AcDbEntity
  8
LC-002-002-----0
 62
     7
370
    50
100
AcDbCircle
 10
704.677343
 20
1732.49
 30
0.0
 40
45.0
  0
LINE
  5
17F
102
{ACAD_REACTORS
330
599
102
}
330
1F
100
AcDbEntity
  8
LC-002-002-----0
 62
     7
370
    25
100
AcDbLine
 10
809.677343
 20
1838.49
 30
0.0
 11
809.677343
 21
1626.49
 31
0.0
  0
CIRCLE
  5
180
102
{ACAD_REACTORS
330
599
102
}
330
1F
100
AcDbEntity
  8
LC-002-002-----0
  6
DASHED
 62
     7
370
    25
100
AcDbCircle
 10
826.677343
 20
1915.49
 30
0.0
 40
17.5
  0
LINE
  5
181
102
{ACAD_REACTORS
330
598
102
}
330
1F
100
AcDbEntity
  8
LC-002-002-----0
 62
     7
370
    50
100
AcDbLine
 10
819.371579
 20
2662.5
 30
0.0
 11
833.983107
 21
2662.5
 31
0.0
  0
ARC
  5
182
102
{ACAD_REACTORS
330
598
102
}
330
1F
100
AcDbEntity
  8
LC-004-002-RND-0
 62
     7
370
    50
100
AcDbCircle
 10
819.371579
 20
2658.5
 30
0.0
 40
4.0
100
AcDbArc
 50
90.0
 51
174.0
  0
LINE
  5
183
102
{ACAD_REACTORS
330
598
102
}
330
1F
100
AcDbEntity
  8
LC-002-002-----0
 62
     7
370
    50
100
AcDbLine
 10
436.24205
 20
2666.127171
 30
0.0
 11
452.677158
 21
2509.757575
 31
0.0
  0
ARC
  5
184
102
{ACAD_REACTORS
330
598
102
}
330
1F
100
AcDbEntity
  8
LC-002-002-----0
 62
     7
370
    50
100
AcDbCircle
 10
418.522642
 20
2678.5
 30
0.0
 40
2.000000000000164
100
AcDbArc
 50
30.0
 51
90.0
  0
LINE
  5
185
102
{ACAD_REACTORS
330
598
102
}
330
1F
100
AcDbEntity
  8
LC-002-002-----0
 62
     7
370
    50
100
AcDbLine
 10
399.101787
 20
2680.5
 30
0.0
 11
1254.252898
 21
2680.5
 31
0.0
  0
LINE
  5
186
102
{ACAD_REACTORS
330
598
102
}
330
1F
100
AcDbEntity
  8
LC-002-002-----0
 62
     7
370
    50
100
AcDbLine
 10
423.43012
 20
2674.0
 30
0.0
 11
420.254693
 21
2679.5
 31
0.0
  0
ARC
  5
187
102
{ACAD_REACTORS
330
598
102
}
330
1F
100
AcDbEntity
  8
LC-004-002-RND-0
 62
     7
370
    50
100
AcDbCircle
 10
833.983107
 20
2658.5
 30
0.0
 40
4.000000000000122
100
AcDbArc
 50
6.0
 51
90.0
  0
ARC
  5
188
102
{ACAD_REACTORS
330
599
102
}
330
1F
100
AcDbEntity
  8
LC-004-002-RND-0
 62
     7
370
    25
100
AcDbCircle
 10
1208.677343
 20
1934.49
 30
0.0
 40
25.0
100
AcDbArc
 50
0.0
 51
90.0
  0
LINE
  5
189
102
{ACAD_REACTORS
330
599
102
}
330
1F
100
AcDbEntity
  8
LC-002-002-----0
 62
     7
370
    25
100
AcDbLine
 10
1233.677343
 20
1934.49
 30
0.0
 11
1233.677343
 21
1530.49
 31
0.0
  0
ARC
  5
18A
102
{ACAD_REACTORS
330
599
102
}
330
1F
100
AcDbEntity
  8
LC-004-002-RND-0
 62
     7
370
    25
100
AcDbCircle
 10
1208.677343
 20
1530.49
 30
0.0
 40
25.0
100
AcDbArc
 50
270.0
 51
0.0
  0
LINE
  5
18B
102
{ACAD_REACTORS
330
598
102
}
330
1F
100
AcDbEntity
  8
LC-002-002-----0
 62
     7
370
    50
100
AcDbLine
 10
1223.563262
 20
2660.533379
 30
0.0
 11
1206.918808
 21
2502.171984
 31
0.0
  0
ARC
  5
18C
102
{ACAD_REACTORS
330
598
102
}
330
1F
100
AcDbEntity
  8
LC-004-002-RND-0
 62
     7
370
    50
100
AcDbCircle
 10
1237.687825
 20
2668.5
 30
0.0
 40
2.0
100
AcDbArc
 50
90.0
 51
146.514623
  0
ARC
  5
18D
102
{ACAD_REACTORS
330
598
102
}
330
1F
100
AcDbEntity
  8
LC-004-002-RND-0
 62
     7
370
    50
100
AcDbCircle
 10
1227.54135
 20
2660.115265
 30
0.0
 40
3.999999999999917
100
AcDbArc
 50
96.776381
 51
174.0
  0
ARC
  5
18E
102
{ACAD_REACTORS
330
598
102
}
330
1F
100
AcDbEntity
  8
LC-002-002-----0
 62
     7
370
    50
100
AcDbCircle
 10
1234.832043
 20
2678.5
 30
0.0
 40
2.0
100
AcDbArc
 50
90.0
 51
150.0
  0
LINE
  5
18F
102
{ACAD_REACTORS
330
598
102
}
330
1F
100
AcDbEntity
  8
LC-002-002-----0
 62
     7
370
    50
100
AcDbLine
 10
1229.924565
 20
2674.0
 30
0.0
 11
1233.099992
 21
2679.5
 31
0.0
  0
LINE
  5
190
102
{ACAD_REACTORS
330
598
102
}
330
1F
100
AcDbEntity
  8
LC-002-002-----0
 62
     7
370
    50
100
AcDbLine
 10
1217.112636
 20
2666.127171
 30
0.0
 11
1200.677528
 21
2509.757575
 31
0.0
  0
LINE
  5
191
102
{ACAD_REACTORS
330
598
102
}
330
1F
100
AcDbEntity
  8
LC-002-002-----0
 62
     7
370
    50
100
AcDbLine
 10
806.935996
 20
2645.417828
 30
0.0
 11
813.897649
 21
2644.686129
 31
0.0
  0
LINE
  5
192
102
{ACAD_REACTORS
330
598
102
}
330
1F
100
AcDbEntity
  8
LC-002-002-----0
 62
     7
370
    50
100
AcDbLine
 10
803.800142
 20
2615.582172
 30
0.0
 11
810.761795
 21
2614.850472
 31
0.0
  0
ELLIPSE
  5
193
102
{ACAD_REACTORS
330
599
102
}
330
1F
100
AcDbEntity
  8
LC-002-002-----0
 62
     7
370
    25
100
AcDbEllipse
 10
805.368069
 20
1732.49
 30
0.0
 11
0.0
 21
-14.99999999892712
 31
0.0
210
0.0
220
0.0
230
1.0
 40
0.104528
 41
0.0
 42
6.283185307179586
  0
LINE
  5
194
102
{ACAD_REACTORS
330
598
102
}
330
1F
100
AcDbEntity
  8
LC-002-002-----0
 62
     7
370
    50
100
AcDbLine
 10
1240.142379
 20
2673.0
 30
0.0
 11
1256.642379
 21
2673.0
 31
0.0
  0
LINE
  5
195
102
{ACAD_REACTORS
330
598
102
}
330
1F
100
AcDbEntity
  8
LC-002-002-----0
 62
     7
370
    50
100
AcDbLine
 10
1240.142379
 20
2673.0
 30
0.0
 11
1240.142379
 21
2670.5
 31
0.0
  0
LINE
  5
196
102
{ACAD_REACTORS
330
596
102
}
330
1F
100
AcDbEntity
  8
LC-002-002-----0
 62
     7
370
    50
100
AcDbLine
 10
1246.642379
 20
2673.0
 30
0.0
 11
1246.642379
 21
2634.0
 31
0.0
  0
LINE
  5
197
102
{ACAD_REACTORS
330
596
102
}
330
1F
100
AcDbEntity
  8
LC-002-002-----0
 62
     7
370
    50
100
AcDbLine
 10
1246.642379
 20
2634.0
 30
0.0
 11
1306.936688
 21
2634.0
 31
0.0
  0
LINE
  5
198
102
{ACAD_REACTORS
330
596
102
}
330
1F
100
AcDbEntity
  8
LC-002-002-----0
 62
     7
370
    50
100
AcDbLine
 10
1246.642379
 20
2673.0
 30
0.0
 11
1302.397539
 21
2673.0
 31
0.0
  0
LINE
  5
199
102
{ACAD_REACTORS
330
596
102
}
330
1F
100
AcDbEntity
  8
LC-002-002-----0
 62
     7
370
    25
100
AcDbLine
 10
1306.936688
 20
2634.0
 30
0.0
 11
1309.73001
 21
2653.315888
 31
0.0
  0
LINE
  5
19A
102
{ACAD_REACTORS
330
596
102
}
330
1F
100
AcDbEntity
  8
LC-002-002-----0
 62
     7
370
    25
100
AcDbLine
 10
1309.73001
 20
2653.315888
 30
0.0
 11
1302.397539
 21
2673.0
 31
0.0
  0
LINE
  5
19B
102
{ACAD_REACTORS
330
596
102
}
330
1F
100
AcDbEntity
  8
LC-002-002-----0
 62
     7
370
    50
100
AcDbLine
 10
1276.789534
 20
2634.0
 30
0.0
 11
1276.789534
 21
2523.412337
 31
0.0
  0
LINE
  5
19C
102
{ACAD_REACTORS
330
596
102
}
330
1F
100
AcDbEntity
  8
LC-002-002-----0
 62
     7
370
    50
100
AcDbLine
 10
1257.789534
 20
2634.0
 30
0.0
 11
1257.789534
 21
2523.412337
 31
0.0
  0
LINE
  5
19D
102
{ACAD_REACTORS
330
596
102
}
330
1F
100
AcDbEntity
  8
LC-002-002-----0
 62
     7
370
    50
100
AcDbLine
 10
1257.789534
 20
2634.0
 30
0.0
 11
1276.789534
 21
2634.0
 31
0.0
  0
LINE
  5
19E
102
{ACAD_REACTORS
330
598
102
}
330
1F
100
AcDbEntity
  8
LC-002-002-----0
 62
     7
370
    50
100
AcDbLine
 10
396.712306
 20
2673.0
 30
0.0
 11
397.106659
 21
2678.639513
 31
0.0
  0
LINE
  5
19F
102
{ACAD_REACTORS
330
598
102
}
330
1F
100
AcDbEntity
  8
LC-002-002-----0
 62
     7
370
    50
100
AcDbLine
 10
396.712306
 20
2673.0
 30
0.0
 11
413.212306
 21
2673.0
 31
0.0
  0
LINE
  5
1A0
102
{ACAD_REACTORS
330
598
102
}
330
1F
100
AcDbEntity
  8
LC-002-002-----0
 62
     7
370
    50
100
AcDbLine
 10
413.212306
 20
2673.0
 30
0.0
 11
413.212306
 21
2670.5
 31
0.0
  0
LINE
  5
1A2
330
1F
100
AcDbEntity
  8
LC-006-000-___-0
  6
ByBlock
 62
     0
370
    -2
100
AcDbLine
 10
2100.0
 20
0.0
 30
0.0
 11
0.0
 21
0.0
 31
0.0
  0
LINE
  5
1A3
102
{ACAD_REACTORS
330
596
102
}
330
1F
100
AcDbEntity
  8
LC-002-002-----0
 62
     7
370
    50
100
AcDbLine
 10
395.789534
 20
2634.0
 30
0.0
 11
395.789534
 21
2523.412337
 31
0.0
  0
LINE
  5
1A4
102
{ACAD_REACTORS
330
596
102
}
330
1F
100
AcDbEntity
  8
LC-002-002-----0
 62
     7
370
    50
100
AcDbLine
 10
376.789534
 20
2634.0
 30
0.0
 11
376.789534
 21
2523.412337
 31
0.0
  0
LINE
  5
1A5
102
{ACAD_REACTORS
330
596
102
}
330
1F
100
AcDbEntity
  8
LC-002-002-----0
 62
     7
370
    50
100
AcDbLine
 10
376.789534
 20
2634.0
 30
0.0
 11
395.789534
 21
2634.0
 31
0.0
  0
DIMENSION
  5
1A8
102
{ACAD_REACTORS
330
596
102
}
330
1F
100
AcDbEntity
  8
LC-007-003-----0
 62
     7
370
    25
100
AcDbDimension
  2
*D2
 10
376.789534
 20
2300.0
 30
0.0
 11
863.700121
 21
2330.0
 31
0.0
 70
   160
 71
     5
 42
900.0
  3
LC-DIM-L-0025-02-02
100
AcDbAlignedDimension
 13
1276.789534
 23
2523.412337
 33
0.0
 14
376.789534
 24
2523.412337
 34
0.0
100
AcDbRotatedDimension
  0
DIMENSION
  5
1B7
102
{ACAD_REACTORS
330
598
102
}
330
1F
100
AcDbEntity
  8
LC-007-003-----0
 62
     7
370
    25
100
AcDbDimension
  2
*D3
 10
809.112636
 20
2750.0
 30
0.0
 11
615.544378
 21
2780.0
 31
0.0
 70
   160
 71
     5
 42
372.870586
  3
LC-DIM-L-0025-00-02
100
AcDbAlignedDimension
 13
436.24205
 23
2666.127171
 33
0.0
 14
809.112636
 24
2666.127171
 34
0.0
100
AcDbRotatedDimension
  0
DIMENSION
  5
1C4
102
{ACAD_REACTORS
330
598
102
}
330
1F
100
AcDbEntity
  8
LC-007-003-----0
 62
     7
370
    25
100
AcDbDimension
  2
*D4
 10
1217.112636
 20
2750.0
 30
0.0
 11
1016.102546
 21
2780.0
 31
0.0
 70
   160
 71
     5
 42
372.870586
  3
LC-DIM-L-0025-00-02
100
AcDbAlignedDimension
 13
844.24205
 23
2666.127171
 33
0.0
 14
1217.112636
 24
2666.127171
 34
0.0
100
AcDbRotatedDimension
  0
DIMENSION
  5
1D1
102
{ACAD_REACTORS
330
598
102
}
330
1F
100
AcDbEntity
  8
LC-007-003-----0
 62
     7
370
    25
100
AcDbDimension
  2
*D5
 10
950.0
 20
2475.5
 30
0.0
 11
920.0
 21
2580.212338
 31
0.0
 70
   160
 71
     5
 42
205.0
 53
90.0
  3
LC-DIM-L-0025-02-02
100
AcDbAlignedDimension
 13
932.305602
 23
2680.5
 33
0.0
 14
948.712919
 24
2475.5
 34
0.0
 50
90.0
100
AcDbRotatedDimension
  0
DIMENSION
  5
1DE
102
{ACAD_REACTORS
330
598
102
}
330
1F
100
AcDbEntity
  8
LC-007-003-----0
 62
     7
370
    25
100
AcDbDimension
  2
*D6
 10
700.0
 20
2475.5
 30
0.0
 11
670.0
 21
2573.386912
 31
0.0
 70
   160
 71
     5
 42
205.0
 53
90.0
  3
LC-DIM-L-0025-02-02
100
AcDbAlignedDimension
 13
678.54892
 23
2680.5
 33
0.0
 14
704.677343
 24
2475.5
 34
0.0
 50
90.0
100
AcDbRotatedDimension
  0
LINE
  5
1EB
102
{ACAD_REACTORS
330
598
102
}
330
1F
100
AcDbEntity
  8
LC-002-002-----0
 62
     7
370
    50
100
AcDbLine
 10
644.211997
 20
2462.5
 30
0.0
 11
765.142689
 21
2462.5
 31
0.0
  0
LINE
  5
1EC
102
{ACAD_REACTORS
330
598
102
}
330
1F
100
AcDbEntity
  8
LC-002-002-----0
 62
     7
370
    50
100
AcDbLine
 10
749.677343
 20
2462.5
 30
0.0
 11
749.677343
 21
2471.112353
 31
0.0
  0
LINE
  5
1ED
102
{ACAD_REACTORS
330
598
102
}
330
1F
100
AcDbEntity
  8
LC-002-002-----0
 62
     7
370
    50
100
AcDbLine
 10
659.677343
 20
2462.5
 30
0.0
 11
659.677343
 21
2471.112353
 31
0.0
  0
LINE
  5
1EE
102
{ACAD_REACTORS
330
598
102
}
330
1F
100
AcDbEntity
  8
LC-002-002-----0
 62
     7
370
    50
100
AcDbLine
 10
659.677343
 20
2471.112353
 30
0.0
 11
749.677343
 21
2471.112353
 31
0.0
  0
LINE
  5
1EF
102
{ACAD_REACTORS
330
598
102
}
330
1F
100
AcDbEntity
  8
LC-002-002-----0
 62
     7
370
    50
100
AcDbLine
 10
888.211997
 20
2462.5
 30
0.0
 11
1009.142689
 21
2462.5
 31
0.0
  0
LINE
  5
1F0
102
{ACAD_REACTORS
330
598
102
}
330
1F
100
AcDbEntity
  8
LC-002-002-----0
 62
     7
370
    50
100
AcDbLine
 10
993.712919
 20
2462.5
 30
0.0
 11
993.712919
 21
2471.125376
 31
0.0
  0
LINE
  5
1F1
102
{ACAD_REACTORS
330
598
102
}
330
1F
100
AcDbEntity
  8
LC-002-002-----0
 62
     7
370
    50
100
AcDbLine
 10
903.712919
 20
2462.5
 30
0.0
 11
903.712919
 21
2471.099024
 31
0.0
  0
LINE
  5
1F2
102
{ACAD_REACTORS
330
598
102
}
330
1F
100
AcDbEntity
  8
LC-002-002-----0
 62
     7
370
    50
100
AcDbLine
 10
993.712919
 20
2471.125376
 30
0.0
 11
903.712919
 21
2471.125376
 31
0.0
  0
LINE
  5
1F4
102
{ACAD_REACTORS
330
59B
102
}
330
1F
100
AcDbEntity
  8
LC-008-100-D01-0
 62
     7
370
    50
100
AcDbLine
 10
1623.078731
 20
1798.933472
 30
0.0
 11
1630.788024
 21
1909.181451
 31
0.0
  0
LINE
  5
1F5
102
{ACAD_REACTORS
330
59B
102
}
330
1F
100
AcDbEntity
  8
LC-008-100-D01-0
 62
     7
370
    50
100
AcDbLine
 10
1626.387057
 20
1778.524572
 30
0.0
 11
1628.406197
 21
1789.975684
 31
0.0
  0
LINE
  5
1F6
102
{ACAD_REACTORS
330
59B
102
}
330
1F
100
AcDbEntity
  8
LC-008-100-D01-0
 62
     7
370
    50
100
AcDbLine
 10
1620.123751
 20
1795.348795
 30
0.0
 11
1619.021804
 21
1795.053529
 31
0.0
  0
ARC
  5
1F8
102
{ACAD_REACTORS
330
59B
102
}
330
1F
100
AcDbEntity
  8
LC-009-100-D02-0
 62
     7
370
    50
100
AcDbCircle
 10
1629.391005
 20
1675.510626
 30
0.0
 40
0.9999999999999668
100
AcDbArc
 50
190.0
 51
265.0
  0
LINE
  5
1F9
102
{ACAD_REACTORS
330
59B
102
}
330
1F
100
AcDbEntity
  8
LC-008-100-D01-0
 62
     7
370
    50
100
AcDbLine
 10
1629.303849
 20
1790.798231
 30
0.0
 11
1629.686107
 21
1790.831674
 31
0.0
  0
ARC
  5
1FA
102
{ACAD_REACTORS
330
59B
102
}
330
1F
100
AcDbEntity
  8
LC-009-100-D02-0
 62
     7
370
    50
100
AcDbCircle
 10
1619.539442
 20
1793.121677
 30
0.0
 40
2.000000000000002
100
AcDbArc
 50
105.0
 51
180.0
  0
ARC
  5
1FB
102
{ACAD_REACTORS
330
59B
102
}
330
1F
100
AcDbEntity
  8
LC-009-100-D02-0
 62
     7
370
    50
100
AcDbCircle
 10
1619.088475
 20
1799.212498
 30
0.0
 40
4.000000000000443
100
AcDbArc
 50
285.0
 51
355.999998
  0
ARC
  5
1FC
102
{ACAD_REACTORS
330
59B
102
}
330
1F
100
AcDbEntity
  8
LC-009-100-D02-0
 62
     7
370
    50
100
AcDbCircle
 10
1629.391005
 20
1789.802036
 30
0.0
 40
1.000000000000254
100
AcDbArc
 50
95.0
 51
170.0
  0
ARC
  5
1FD
102
{ACAD_REACTORS
330
59B
102
}
330
1F
100
AcDbEntity
  8
LC-009-100-D02-0
 62
     7
370
    50
100
AcDbCircle
 10
1621.463018
 20
1779.392813
 30
0.0
 40
4.999999999995408
100
AcDbArc
 50
339.677963
 51
350.0
  0
LINE
  5
1FE
102
{ACAD_REACTORS
330
59B
102
}
330
1F
100
AcDbEntity
  8
LC-008-100-D01-0
 62
     7
370
    50
100
AcDbLine
 10
1626.387057
 20
1686.78809
 30
0.0
 11
1628.406197
 21
1675.336978
 31
0.0
  0
ARC
  5
1FF
102
{ACAD_REACTORS
330
59B
102
}
330
1F
100
AcDbEntity
  8
LC-009-100-D02-0
 62
     7
370
    50
100
AcDbCircle
 10
1621.463018
 20
1685.919849
 30
0.0
 40
4.999999999999728
100
AcDbArc
 50
10.0
 51
20.322037
  0
ARC
  5
200
102
{ACAD_REACTORS
330
59B
102
}
330
1F
100
AcDbEntity
  8
LC-009-100-D02-0
 62
     7
370
    50
100
AcDbCircle
 10
1619.539442
 20
1672.190985
 30
0.0
 40
2.0
100
AcDbArc
 50
180.0
 51
255.0
  0
LINE
  5
201
102
{ACAD_REACTORS
330
59B
102
}
330
1F
100
AcDbEntity
  8
LC-008-100-D01-0
 62
     7
370
    50
100
AcDbLine
 10
1620.123751
 20
1669.963868
 30
0.0
 11
1619.021804
 21
1670.259134
 31
0.0
  0
ARC
  5
202
102
{ACAD_REACTORS
330
59B
102
}
330
1F
100
AcDbEntity
  8
LC-009-100-D02-0
 62
     7
370
    50
100
AcDbCircle
 10
1619.088475
 20
1666.100164
 30
0.0
 40
3.999999999999916
100
AcDbArc
 50
4.000002
 51
75.0
  0
LINE
  5
203
102
{ACAD_REACTORS
330
59B
102
}
330
1F
100
AcDbEntity
  8
LC-008-100-D01-0
 62
     7
370
    50
100
AcDbLine
 10
1629.303849
 20
1674.514432
 30
0.0
 11
1629.686107
 21
1674.480988
 31
0.0
  0
LINE
  5
204
102
{ACAD_REACTORS
330
59B
102
}
330
1F
100
AcDbEntity
  8
LC-008-100-D01-0
 62
     7
370
    50
100
AcDbLine
 10
1815.199476
 20
1949.336465
 30
0.0
 11
1653.113913
 21
1932.300585
 31
0.0
  0
ARC
  5
205
102
{ACAD_REACTORS
330
59B
102
}
330
1F
100
AcDbEntity
  8
LC-009-100-D02-0
 62
     7
370
    50
100
AcDbCircle
 10
1831.539442
 20
1951.511986
 30
0.0
 40
5.000000000000052
100
AcDbArc
 50
120.000003
 51
180.0
  0
ARC
  5
206
102
{ACAD_REACTORS
330
59B
102
}
330
1F
100
AcDbEntity
  8
LC-009-100-D02-0
 62
     7
370
    50
100
AcDbCircle
 10
1820.539442
 20
1948.89221
 30
0.0
 40
6.000000000000473
100
AcDbArc
 50
276.0
 51
0.0
  0
LINE
  5
207
102
{ACAD_REACTORS
330
59B
102
}
330
1F
100
AcDbEntity
  8
LC-008-100-D01-0
 62
     7
370
    50
100
AcDbLine
 10
1825.539442
 20
1965.49
 30
0.0
 11
1825.539442
 21
1964.079785
 31
0.0
  0
LINE
  5
208
102
{ACAD_REACTORS
330
59B
102
}
330
1F
100
AcDbEntity
  8
LC-008-100-D01-0
 62
     7
370
    50
100
AcDbLine
 10
1829.039442
 20
1982.49
 30
0.0
 11
1833.678955
 21
1982.165574
 31
0.0
  0
ARC
  5
209
102
{ACAD_REACTORS
330
59B
102
}
330
1F
100
AcDbEntity
  8
LC-009-100-D02-0
 62
     7
370
    50
100
AcDbCircle
 10
1833.539442
 20
1980.170446
 30
0.0
 40
2.0
100
AcDbArc
 50
0.0
 51
86.0
  0
LINE
  5
20B
102
{ACAD_REACTORS
330
59B
102
}
330
1F
100
AcDbEntity
  8
LC-010-100-D07-0
 62
     7
370
    50
100
AcDbLine
 10
1825.539442
 20
1964.59489
 30
0.0
 11
1824.259678
 21
1964.59489
 31
0.0
  0
ARC
  5
20C
102
{ACAD_REACTORS
330
59B
102
}
330
1F
100
AcDbEntity
  8
LC-009-100-D02-0
 62
     7
370
    50
100
AcDbCircle
 10
1824.259678
 20
1961.59489
 30
0.0
 40
2.999999999999091
100
AcDbArc
 50
90.0
 51
117.0
  0
ARC
  5
20D
102
{ACAD_REACTORS
330
59B
102
}
330
1F
100
AcDbEntity
  8
LC-008-100-D01-0
 62
     7
370
    50
100
AcDbCircle
 10
1832.539442
 20
1952.089336
 30
0.0
 40
12.99999999999991
100
AcDbArc
 50
126.869898
 51
172.91632
  0
ARC
  5
20E
102
{ACAD_REACTORS
330
59B
102
}
330
1F
100
AcDbEntity
  8
LC-009-100-D02-0
 62
     7
370
    50
100
AcDbCircle
 10
1814.676834
 20
1954.309075
 30
0.0
 40
4.999999999999663
100
AcDbArc
 50
276.0
 51
352.91632
  0
ARC
  5
20F
102
{ACAD_REACTORS
330
59B
102
}
330
1F
100
AcDbEntity
  8
LC-009-100-D02-0
 62
     7
370
    50
100
AcDbCircle
 10
1823.539442
 20
1964.089336
 30
0.0
 40
2.0
100
AcDbArc
 50
306.869898
 51
0.0
  0
ARC
  5
210
102
{ACAD_REACTORS
330
59B
102
}
330
1F
100
AcDbEntity
  8
LC-009-100-D02-0
 62
     7
370
    50
100
AcDbCircle
 10
1806.536655
 20
1953.686885
 30
0.0
 40
2.000000000069763
100
AcDbArc
 50
117.0
 51
243.0
  0
LINE
  5
211
102
{ACAD_REACTORS
330
59B
102
}
330
1F
100
AcDbEntity
  8
LC-008-100-D01-0
 62
     7
370
    50
100
AcDbLine
 10
1822.897707
 20
1964.26791
 30
0.0
 11
1805.628674
 21
1955.468898
 31
0.0
  0
ARC
  5
212
102
{ACAD_REACTORS
330
59B
102
}
330
1F
100
AcDbEntity
  8
LC-009-100-D02-0
 62
     7
370
    50
100
AcDbCircle
 10
1807.98213
 20
1949.5834
 30
0.0
 40
1.000000000000275
100
AcDbArc
 50
276.0
 51
63.0
  0
LINE
  5
213
102
{ACAD_REACTORS
330
59B
102
}
330
1F
100
AcDbEntity
  8
LC-008-100-D01-0
 62
     7
370
    50
100
AcDbLine
 10
1808.436121
 20
1950.474407
 30
0.0
 11
1805.628674
 21
1951.904872
 31
0.0
  0
LINE
  5
214
102
{ACAD_REACTORS
330
59B
102
}
330
1F
100
AcDbEntity
  8
LC-008-100-D01-0
 62
     7
370
    50
100
AcDbLine
 10
1821.166613
 20
1942.925079
 30
0.0
 11
1660.696997
 21
1926.059042
 31
0.0
  0
ARC
  5
215
102
{ACAD_REACTORS
330
59B
102
}
330
1F
100
AcDbEntity
  8
LC-008-100-D01-0
 62
     7
370
    50
100
AcDbCircle
 10
1833.539442
 20
1960.749591
 30
0.0
 40
2.000000000000164
100
AcDbArc
 50
300.0
 51
0.0
  0
LINE
  5
216
102
{ACAD_REACTORS
330
59B
102
}
330
1F
100
AcDbEntity
  8
LC-008-100-D01-0
 62
     7
370
    50
100
AcDbLine
 10
1829.039442
 20
1955.842113
 30
0.0
 11
1834.539442
 21
1959.01754
 31
0.0
  0
LINE
  5
217
102
{ACAD_REACTORS
330
59B
102
}
330
1F
100
AcDbEntity
  8
LC-008-100-D01-0
 62
     7
370
    50
100
AcDbLine
 10
1630.596516
 20
1791.758112
 30
0.0
 11
1638.371108
 21
1902.939907
 31
0.0
  0
LINE
  5
218
102
{ACAD_REACTORS
330
59B
102
}
330
1F
100
AcDbEntity
  8
LC-008-100-D01-0
 62
     7
370
    50
100
AcDbLine
 10
1835.539442
 20
1980.170446
 30
0.0
 11
1835.539442
 21
1960.749591
 31
0.0
  0
LINE
  5
219
102
{ACAD_REACTORS
330
59B
102
}
330
1F
100
AcDbEntity
  8
LC-008-100-D01-0
 62
     7
370
    50
100
AcDbLine
 10
1826.539442
 20
1951.511986
 30
0.0
 11
1826.539442
 21
1948.89221
 31
0.0
  0
LINE
  5
21A
102
{ACAD_REACTORS
330
59B
102
}
330
1F
100
AcDbEntity
  8
LC-002-002-----0
 62
     7
370
    50
100
AcDbLine
 10
1829.039442
 20
1965.49
 30
0.0
 11
1825.539442
 21
1965.49
 31
0.0
  0
LINE
  5
21B
102
{ACAD_REACTORS
330
59B
102
}
330
1F
100
AcDbEntity
  8
LC-002-002-----0
 62
     7
370
    50
100
AcDbLine
 10
1829.039442
 20
1982.49
 30
0.0
 11
1829.039442
 21
1965.49
 31
0.0
  0
ARC
  5
21C
102
{ACAD_REACTORS
330
59B
102
}
330
1F
100
AcDbEntity
  8
LC-008-100-D01-0
 62
     7
370
    50
100
AcDbCircle
 10
1663.310209
 20
1901.195994
 30
0.0
 40
25.0
100
AcDbArc
 50
96.0
 51
175.999998
  0
ARC
  5
21D
102
{ACAD_REACTORS
330
59B
102
}
330
1F
100
AcDbEntity
  8
LC-008-100-D01-0
 62
     7
370
    50
100
AcDbCircle
 10
1655.727125
 20
1907.437538
 30
0.0
 40
25.0000000000001
100
AcDbArc
 50
96.0
 51
175.999998
  0
ARC
  5
21E
102
{ACAD_REACTORS
330
59B
102
}
330
1F
100
AcDbEntity
  8
LC-008-100-D01-0
 62
     7
370
    50
100
AcDbCircle
 10
1663.310209
 20
1564.116668
 30
0.0
 40
25.0000000000001
100
AcDbArc
 50
184.000002
 51
264.0
  0
ARC
  5
21F
102
{ACAD_REACTORS
330
59B
102
}
330
1F
100
AcDbEntity
  8
LC-008-100-D01-0
 62
     7
370
    50
100
AcDbCircle
 10
1655.727125
 20
1557.875124
 30
0.0
 40
25.0000000000001
100
AcDbArc
 50
184.000002
 51
264.0
  0
LINE
  5
220
102
{ACAD_REACTORS
330
59B
102
}
330
1F
100
AcDbEntity
  8
LC-008-100-D01-0
 62
     7
370
    50
100
AcDbLine
 10
1815.199476
 20
1515.976197
 30
0.0
 11
1653.113913
 21
1533.012077
 31
0.0
  0
LINE
  5
221
102
{ACAD_REACTORS
330
59B
102
}
330
1F
100
AcDbEntity
  8
LC-008-100-D01-0
 62
     7
370
    50
100
AcDbLine
 10
1821.166613
 20
1522.387584
 30
0.0
 11
1660.696997
 21
1539.253621
 31
0.0
  0
LINE
  5
222
102
{ACAD_REACTORS
330
59B
102
}
330
1F
100
AcDbEntity
  8
LC-008-100-D01-0
 62
     7
370
    50
100
AcDbLine
 10
1623.078731
 20
1666.37919
 30
0.0
 11
1630.788024
 21
1556.131212
 31
0.0
  0
LINE
  5
223
102
{ACAD_REACTORS
330
59B
102
}
330
1F
100
AcDbEntity
  8
LC-008-100-D01-0
 62
     7
370
    50
100
AcDbLine
 10
1630.596516
 20
1673.55455
 30
0.0
 11
1638.371108
 21
1562.372755
 31
0.0
  0
ARC
  5
224
102
{ACAD_REACTORS
330
59B
102
}
330
1F
100
AcDbEntity
  8
LC-009-100-D02-0
 62
     7
370
    50
100
AcDbCircle
 10
1831.539442
 20
1513.800676
 30
0.0
 40
5.0
100
AcDbArc
 50
180.0
 51
239.999997
  0
ARC
  5
225
102
{ACAD_REACTORS
330
59B
102
}
330
1F
100
AcDbEntity
  8
LC-009-100-D02-0
 62
     7
370
    50
100
AcDbCircle
 10
1820.539442
 20
1516.420452
 30
0.0
 40
6.0
100
AcDbArc
 50
0.0
 51
84.0
  0
LINE
  5
226
102
{ACAD_REACTORS
330
59B
102
}
330
1F
100
AcDbEntity
  8
LC-008-100-D01-0
 62
     7
370
    50
100
AcDbLine
 10
1825.539442
 20
1499.822662
 30
0.0
 11
1825.539442
 21
1501.223326
 31
0.0
  0
LINE
  5
227
102
{ACAD_REACTORS
330
59B
102
}
330
1F
100
AcDbEntity
  8
LC-008-100-D01-0
 62
     7
370
    50
100
AcDbLine
 10
1829.039442
 20
1482.822662
 30
0.0
 11
1833.678955
 21
1483.147089
 31
0.0
  0
ARC
  5
228
102
{ACAD_REACTORS
330
59B
102
}
330
1F
100
AcDbEntity
  8
LC-009-100-D02-0
 62
     7
370
    50
100
AcDbCircle
 10
1833.539442
 20
1485.142217
 30
0.0
 40
2.000000000000025
100
AcDbArc
 50
274.0
 51
0.0
  0
ARC
  5
229
102
{ACAD_REACTORS
330
59B
102
}
330
1F
100
AcDbEntity
  8
LC-009-100-D02-0
 62
     7
370
    50
100
AcDbCircle
 10
1824.259678
 20
1503.717772
 30
0.0
 40
2.999999999999095
100
AcDbArc
 50
243.0
 51
270.0
  0
ARC
  5
22A
102
{ACAD_REACTORS
330
59B
102
}
330
1F
100
AcDbEntity
  8
LC-008-100-D01-0
 62
     7
370
    50
100
AcDbCircle
 10
1832.539442
 20
1513.223326
 30
0.0
 40
13.00000000000024
100
AcDbArc
 50
187.08368
 51
233.130102
  0
ARC
  5
22B
102
{ACAD_REACTORS
330
59B
102
}
330
1F
100
AcDbEntity
  8
LC-009-100-D02-0
 62
     7
370
    50
100
AcDbCircle
 10
1814.676834
 20
1511.003587
 30
0.0
 40
4.999999999999772
100
AcDbArc
 50
7.08368
 51
84.0
  0
ARC
  5
22C
102
{ACAD_REACTORS
330
59B
102
}
330
1F
100
AcDbEntity
  8
LC-009-100-D02-0
 62
     7
370
    50
100
AcDbCircle
 10
1806.536655
 20
1511.625777
 30
0.0
 40
2.000000000069557
100
AcDbArc
 50
117.0
 51
243.0
  0
LINE
  5
22D
102
{ACAD_REACTORS
330
59B
102
}
330
1F
100
AcDbEntity
  8
LC-008-100-D01-0
 62
     7
370
    50
100
AcDbLine
 10
1822.897707
 20
1501.044753
 30
0.0
 11
1805.628674
 21
1509.843764
 31
0.0
  0
ARC
  5
22E
102
{ACAD_REACTORS
330
59B
102
}
330
1F
100
AcDbEntity
  8
LC-009-100-D02-0
 62
     7
370
    50
100
AcDbCircle
 10
1807.98213
 20
1515.729262
 30
0.0
 40
1.000000000000104
100
AcDbArc
 50
297.0
 51
61.064639
  0
LINE
  5
22F
102
{ACAD_REACTORS
330
59B
102
}
330
1F
100
AcDbEntity
  8
LC-008-100-D01-0
 62
     7
370
    50
100
AcDbLine
 10
1808.436121
 20
1514.838256
 30
0.0
 11
1805.628674
 21
1513.40779
 31
0.0
  0
ARC
  5
230
102
{ACAD_REACTORS
330
59B
102
}
330
1F
100
AcDbEntity
  8
LC-008-100-D01-0
 62
     7
370
    50
100
AcDbCircle
 10
1833.539442
 20
1504.563072
 30
0.0
 40
2.000000000000455
100
AcDbArc
 50
0.0
 51
60.0
  0
LINE
  5
231
102
{ACAD_REACTORS
330
59B
102
}
330
1F
100
AcDbEntity
  8
LC-008-100-D01-0
 62
     7
370
    50
100
AcDbLine
 10
1829.039442
 20
1509.47055
 30
0.0
 11
1834.539442
 21
1506.295123
 31
0.0
  0
LINE
  5
232
102
{ACAD_REACTORS
330
59B
102
}
330
1F
100
AcDbEntity
  8
LC-002-002-----0
 62
     7
370
    50
100
AcDbLine
 10
1829.039442
 20
1499.822662
 30
0.0
 11
1825.539442
 21
1499.822662
 31
0.0
  0
LINE
  5
233
102
{ACAD_REACTORS
330
59B
102
}
330
1F
100
AcDbEntity
  8
LC-002-002-----0
 62
     7
370
    50
100
AcDbLine
 10
1829.039442
 20
1482.822662
 30
0.0
 11
1829.039442
 21
1499.822662
 31
0.0
  0
LINE
  5
234
102
{ACAD_REACTORS
330
59B
102
}
330
1F
100
AcDbEntity
  8
LC-002-002-----0
 62
     7
370
    50
100
AcDbLine
 10
1617.539442
 20
1777.656331
 30
0.0
 11
1626.151795
 21
1777.656331
 31
0.0
  0
LINE
  5
235
102
{ACAD_REACTORS
330
59B
102
}
330
1F
100
AcDbEntity
  8
LC-002-002-----0
 62
     7
370
    50
100
AcDbLine
 10
1617.539442
 20
1687.656331
 30
0.0
 11
1626.151795
 21
1687.656331
 31
0.0
  0
LINE
  5
236
102
{ACAD_REACTORS
330
59B
102
}
330
1F
100
AcDbEntity
  8
LC-002-002-----0
 62
     7
370
    50
100
AcDbLine
 10
1617.539442
 20
1793.121677
 30
0.0
 11
1617.539442
 21
1777.656331
 31
0.0
  0
LINE
  5
237
102
{ACAD_REACTORS
330
59B
102
}
330
1F
100
AcDbEntity
  8
LC-002-002-----0
 62
     7
370
    50
100
AcDbLine
 10
1617.539442
 20
1672.190985
 30
0.0
 11
1617.539442
 21
1687.656331
 31
0.0
  0
LINE
  5
238
102
{ACAD_REACTORS
330
59B
102
}
330
1F
100
AcDbEntity
  8
LC-005-006-MLN-0
 62
     7
370
    25
100
AcDbLine
 10
1633.539442
 20
1732.656331
 30
0.0
 11
1614.539442
 21
1732.656331
 31
0.0
  0
DIMENSION
  5
239
102
{ACAD_REACTORS
330
59B
102
}
330
1F
100
AcDbEntity
  8
LC-007-003-----0
 62
     7
370
    25
100
AcDbDimension
  2
*D7
 10
1950.0
 20
1522.387584
 30
0.0
 11
1920.0
 21
1741.385412
 31
0.0
 70
   160
 71
     5
 42
420.537495
 53
90.0
  3
LC-DIM-L-0025-00-02
100
AcDbAlignedDimension
 13
1821.166613
 23
1942.925079
 33
0.0
 14
1821.166613
 24
1522.387584
 34
0.0
 50
90.0
100
AcDbRotatedDimension
  0
LINE
  5
246
102
{ACAD_REACTORS
330
59B
102
}
330
1F
100
AcDbEntity
  8
LC-008-100-D01-0
 62
     7
370
    50
100
AcDbLine
 10
1826.539442
 20
1516.420452
 30
0.0
 11
1826.539442
 21
1513.800676
 31
0.0
  0
LINE
  5
247
102
{ACAD_REACTORS
330
59B
102
}
330
1F
100
AcDbEntity
  8
LC-008-100-D01-0
 62
     7
370
    50
100
AcDbLine
 10
1835.539442
 20
1504.563072
 30
0.0
 11
1835.539442
 21
1485.142217
 31
0.0
  0
ARC
  5
248
102
{ACAD_REACTORS
330
59B
102
}
330
1F
100
AcDbEntity
  8
LC-008-100-D01-0
 62
     7
370
    50
100
AcDbCircle
 10
1629.598952
 20
1791.827869
 30
0.0
 40
1.000000000000067
100
AcDbArc
 50
275.0
 51
355.999998
  0
ARC
  5
249
102
{ACAD_REACTORS
330
59B
102
}
330
1F
100
AcDbEntity
  8
LC-008-100-D01-0
 62
     7
370
    50
100
AcDbCircle
 10
1629.598952
 20
1673.484794
 30
0.0
 40
0.999999999999971
100
AcDbArc
 50
4.000002
 51
85.0
  0
ARC
  5
24A
102
{ACAD_REACTORS
330
59B
102
}
330
1F
100
AcDbEntity
  8
LC-008-100-D01-0
 62
     7
370
    50
100
AcDbCircle
 10
1823.539442
 20
1501.223326
 30
0.0
 40
2.0
100
AcDbArc
 50
0.0
 51
53.130102
  0
LINE
  5
24B
102
{ACAD_REACTORS
330
59B
102
}
330
1F
100
AcDbEntity
  8
LC-002-002-----0
 62
     7
370
    50
100
AcDbLine
 10
1835.539442
 20
1960.749591
 30
0.0
 11
1835.539442
 21
1504.563072
 31
0.0
  0
LINE
  5
24C
102
{ACAD_REACTORS
330
59B
102
}
330
1F
100
AcDbEntity
  8
LC-002-002-----0
 62
     7
370
    50
100
AcDbLine
 10
1617.539442
 20
1777.656331
 30
0.0
 11
1617.539442
 21
1687.656331
 31
0.0
  0
LINE
  5
24D
102
{ACAD_REACTORS
330
59B
102
}
330
1F
100
AcDbEntity
  8
LC-002-002-----0
 62
     7
370
    50
100
AcDbLine
 10
1626.151795
 20
1777.656331
 30
0.0
 11
1626.151795
 21
1687.656331
 31
0.0
  0
LINE
  5
24E
102
{ACAD_REACTORS
330
59B
102
}
330
1F
100
AcDbEntity
  8
LC-002-002-----0
 62
     7
370
    25
100
AcDbLine
 10
1630.536938
 20
1790.906112
 30
0.0
 11
1630.536938
 21
1732.656331
 31
0.0
  0
LINE
  5
24F
102
{ACAD_REACTORS
330
59B
102
}
330
1F
100
AcDbEntity
  8
LC-002-002-----0
 62
     7
370
    25
100
AcDbLine
 10
1630.536938
 20
1674.40655
 30
0.0
 11
1630.536938
 21
1732.656331
 31
0.0
  0
DIMENSION
  5
250
102
{ACAD_REACTORS
330
599
102
}
330
1F
100
AcDbEntity
  8
LC-007-003-----0
 62
     7
370
    25
100
AcDbDimension
  2
*D8
 10
1350.0
 20
1482.49
 30
0.0
 11
1320.0
 21
1731.51
 31
0.0
 70
   160
 71
     5
 42
500.0
 53
90.0
  3
LC-DIM-L-0025-02-02
100
AcDbAlignedDimension
 13
1251.677343
 23
1982.49
 33
0.0
 14
1251.677343
 24
1482.49
 34
0.0
 50
90.0
100
AcDbRotatedDimension
  0
LINE
  5
25D
330
1F
100
AcDbEntity
  8
LC-002-002-----0
 62
     7
370
    50
100
AcDbLine
 10
488.022369
 20
1060.882484
 30
0.0
 11
488.022369
 21
830.882484
 31
0.0
  0
LINE
  5
25E
330
1F
100
AcDbEntity
  8
LC-002-002-----0
 62
     7
370
    50
100
AcDbLine
 10
493.022369
 20
825.882484
 30
0.0
 11
903.022369
 21
825.882484
 31
0.0
  0
LINE
  5
25F
330
1F
100
AcDbEntity
  8
LC-002-002-----0
 62
     7
370
    50
100
AcDbLine
 10
908.022369
 20
830.882484
 30
0.0
 11
908.022369
 21
1060.882484
 31
0.0
  0
LINE
  5
260
330
1F
100
AcDbEntity
  8
LC-002-002-----0
 62
     7
370
    50
100
AcDbLine
 10
903.022369
 20
1065.882484
 30
0.0
 11
493.022369
 21
1065.882484
 31
0.0
  0
ARC
  5
261
330
1F
100
AcDbEntity
  8
LC-004-002-RND-0
 62
     7
370
    50
100
AcDbCircle
 10
493.022369
 20
1060.882484
 30
0.0
 40
5.0
100
AcDbArc
 50
90.0
 51
180.0
  0
ARC
  5
262
330
1F
100
AcDbEntity
  8
LC-004-002-RND-0
 62
     7
370
    50
100
AcDbCircle
 10
493.022369
 20
830.882484
 30
0.0
 40
5.0
100
AcDbArc
 50
180.0
 51
270.0
  0
ARC
  5
263
330
1F
100
AcDbEntity
  8
LC-004-002-RND-0
 62
     7
370
    50
100
AcDbCircle
 10
903.022369
 20
830.882484
 30
0.0
 40
5.0
100
AcDbArc
 50
270.0
 51
0.0
  0
ARC
  5
264
330
1F
100
AcDbEntity
  8
LC-004-002-RND-0
 62
     7
370
    50
100
AcDbCircle
 10
903.022369
 20
1060.882484
 30
0.0
 40
5.0
100
AcDbArc
 50
0.0
 51
90.0
  0
DIMENSION
  5
265
330
1F
100
AcDbEntity
  8
LC-007-003-----0
 62
     7
370
    25
100
AcDbDimension
  2
*D9
 10
992.195009
 20
825.882484
 30
0.0
 11
962.195009
 21
936.375985
 31
0.0
 70
   160
 71
     5
 42
480.0
 53
90.0
  3
LC-DIM-L-0025-02-02
100
AcDbAlignedDimension
 13
903.022369
 23
1065.882484
 33
0.0
 14
903.022369
 24
825.882484
 34
0.0
 50
90.0
100
AcDbRotatedDimension
1001
ACAD
1000
DSTYLE
1002
{
1070
   144
1040
2.0
1002
}
  0
DIMENSION
  5
273
330
1F
100
AcDbEntity
  8
LC-007-003-----0
 62
     7
370
    25
100
AcDbDimension
  2
*D10
 10
493.022369
 20
830.882484
 30
0.0
 11
554.305118
 21
859.557845
 31
0.0
 70
   164
 71
     5
 42
10.0
  3
LC-DIM-M-0025-02-02
100
AcDbRadialDimension
 15
497.088597
 25
833.792086
 35
0.0
 40
1.0
1001
ACAD
1000
DSTYLE
1002
{
1070
   144
1040
2.0
1002
}
  0
TEXT
  5
27E
330
1F
100
AcDbEntity
  8
LC-011-004-----0
 62
     7
370
    35
100
AcDbText
 10
459.875409
 20
1142.14756
 30
0.0
 40
35.0
  1
Ausschnitt übergreifend 1:20
 41
0.8
  7
LCTX0-400-0-0pDIN-Schrift
100
AcDbText
  0
LINE
  5
27F
102
{ACAD_REACTORS
330
598
102
}
330
1F
100
AcDbEntity
  8
LC-005-006-MLN-0
 62
     7
370
    25
100
AcDbLine
 10
704.677343
 20
2478.5
 30
0.0
 11
704.677343
 21
2459.5
 31
0.0
  0
LINE
  5
280
102
{ACAD_REACTORS
330
596
102
}
330
1F
100
AcDbEntity
  8
LC-002-002-----0
 62
     7
370
    50
100
AcDbLine
 10
406.712306
 20
2673.0
 30
0.0
 11
406.712306
 21
2634.0
 31
0.0
  0
LINE
  5
281
102
{ACAD_REACTORS
330
596
102
}
330
1F
100
AcDbEntity
  8
LC-002-002-----0
 62
     7
370
    50
100
AcDbLine
 10
406.712306
 20
2634.0
 30
0.0
 11
346.417997
 21
2634.0
 31
0.0
  0
LINE
  5
282
102
{ACAD_REACTORS
330
596
102
}
330
1F
100
AcDbEntity
  8
LC-002-002-----0
 62
     7
370
    50
100
AcDbLine
 10
406.712306
 20
2673.0
 30
0.0
 11
350.957146
 21
2673.0
 31
0.0
  0
LINE
  5
283
102
{ACAD_REACTORS
330
596
102
}
330
1F
100
AcDbEntity
  8
LC-002-002-----0
 62
     7
370
    25
100
AcDbLine
 10
346.417997
 20
2634.0
 30
0.0
 11
343.624675
 21
2653.315888
 31
0.0
  0
LINE
  5
284
102
{ACAD_REACTORS
330
596
102
}
330
1F
100
AcDbEntity
  8
LC-002-002-----0
 62
     7
370
    25
100
AcDbLine
 10
343.624675
 20
2653.315888
 30
0.0
 11
350.957146
 21
2673.0
 31
0.0
  0
LINE
  5
285
102
{ACAD_REACTORS
330
596
102
}
330
1F
100
AcDbEntity
  8
LC-002-002-----0
 62
     7
370
    50
100
AcDbLine
 10
395.565152
 20
2634.0
 30
0.0
 11
376.565152
 21
2634.0
 31
0.0
  0
LINE
  5
286
330
1F
100
AcDbEntity
  8
LC-002-002-----0
  6
DASHDOT
 62
     7
370
    25
100
AcDbLine
 10
482.522369
 20
808.929212
 30
0.0
 11
482.522369
 21
1089.400799
 31
0.0
  0
LINE
  5
287
330
1F
100
AcDbEntity
  8
LC-002-002-----0
  6
DASHDOT
 62
     7
370
    25
100
AcDbLine
 10
473.022369
 20
808.929212
 30
0.0
 11
473.022369
 21
1088.728205
 31
0.0
  0
DIMENSION
  5
288
330
1F
100
AcDbEntity
  8
LC-007-003-----0
 62
     7
370
    25
100
AcDbDimension
  2
*D11
 10
908.022369
 20
749.641552
 30
0.0
 11
692.700267
 21
779.641552
 31
0.0
 70
   160
 71
     5
 42
840.0
  3
LC-DIM-L-0025-02-02
100
AcDbAlignedDimension
 13
488.022369
 23
830.882484
 33
0.0
 14
908.022369
 24
830.882484
 34
0.0
100
AcDbRotatedDimension
1001
ACAD
1000
DSTYLE
1002
{
1070
   144
1040
2.0
1002
}
  0
LINE
  5
295
102
{ACAD_REACTORS
330
5A4
102
}
330
1F
100
AcDbEntity
  8
LC-002-002-----0
 62
     7
370
    25
100
AcDbLine
 10
776.427343
 20
2440.25
 30
0.0
 11
764.67733
 21
2440.25
 31
0.0
  0
LINE
  5
296
102
{ACAD_REACTORS
330
5A0
102
}
330
1F
100
AcDbEntity
  8
LC-002-002-----0
 62
     7
370
    25
100
AcDbLine
 10
829.179556
 20
2643.512719
 30
0.0
 11
832.785867
 21
2604.637867
 31
0.0
  0
LINE
  5
297
102
{ACAD_REACTORS
330
5A1
102
}
330
1F
100
AcDbEntity
  8
LC-002-002-----0
 62
     7
370
    25
100
AcDbLine
 10
831.279145
 20
2563.237285
 30
0.0
 11
830.921946
 21
2571.318895
 31
0.0
  0
LINE
  5
298
102
{ACAD_REACTORS
330
5A1
102
}
330
1F
100
AcDbEntity
  8
LC-002-002-----0
 62
     7
370
    25
100
AcDbLine
 10
829.330357
 20
2544.695814
 30
0.0
 11
831.279145
 21
2563.237285
 31
0.0
  0
LINE
  5
299
102
{ACAD_REACTORS
330
5A1
102
}
330
1F
100
AcDbEntity
  8
LC-002-002-----0
 62
     7
370
    25
100
AcDbLine
 10
834.015912
 20
2600.756017
 30
0.0
 11
830.921946
 21
2571.318895
 31
0.0
  0
LINE
  5
29A
102
{ACAD_REACTORS
330
5A0
102
}
330
1F
100
AcDbEntity
  8
LC-002-002-----0
 62
     7
370
    25
100
AcDbLine
 10
832.784072
 20
2604.342675
 30
0.0
 11
832.466565
 21
2601.321797
 31
0.0
  0
LINE
  5
29B
102
{ACAD_REACTORS
330
5A0
102
}
330
1F
100
AcDbEntity
  8
LC-002-002-----0
 62
     7
370
    25
100
AcDbLine
 10
817.010315
 20
2612.117149
 30
0.0
 11
820.701723
 21
2647.238548
 31
0.0
  0
LINE
  5
29C
102
{ACAD_REACTORS
330
5A0
102
}
330
1F
100
AcDbEntity
  8
LC-002-002-----0
 62
     7
370
    25
100
AcDbLine
 10
814.565171
 20
2603.203309
 30
0.0
 11
815.290162
 21
2610.101141
 31
0.0
  0
LINE
  5
29D
102
{ACAD_REACTORS
330
5A1
102
}
330
1F
100
AcDbEntity
  8
LC-002-002-----0
 62
     7
370
    25
100
AcDbLine
 10
809.00186
 20
2565.578722
 30
0.0
 11
809.838088
 21
2573.534898
 31
0.0
  0
LINE
  5
29E
102
{ACAD_REACTORS
330
5A1
102
}
330
1F
100
AcDbEntity
  8
LC-002-002-----0
 62
     7
370
    25
100
AcDbLine
 10
807.053067
 20
2547.037251
 30
0.0
 11
809.001854
 21
2565.578723
 31
0.0
  0
LINE
  5
29F
102
{ACAD_REACTORS
330
5A1
102
}
330
1F
100
AcDbEntity
  8
LC-002-002-----0
 62
     7
370
    25
100
AcDbLine
 10
809.838082
 20
2573.534898
 30
0.0
 11
812.932077
 21
2602.9723
 31
0.0
  0
LINE
  5
2A0
102
{ACAD_REACTORS
330
5A0
102
}
330
1F
100
AcDbEntity
  8
LC-002-002-----0
 62
     7
370
    25
100
AcDbLine
 10
812.306593
 20
2610.414697
 30
0.0
 11
816.330939
 21
2648.70379
 31
0.0
  0
LINE
  5
2A1
102
{ACAD_REACTORS
330
5A1
102
}
330
1F
100
AcDbEntity
  8
LC-002-002-----0
 62
     7
370
    25
100
AcDbLine
 10
813.471291
 20
2603.318281
 30
0.0
 11
833.560461
 21
2601.206824
 31
0.0
  0
LINE
  5
2A2
102
{ACAD_REACTORS
330
5A0
102
}
330
1F
100
AcDbEntity
  8
LC-002-002-----0
 62
     7
370
    25
100
AcDbLine
 10
812.306593
 20
2610.414697
 30
0.0
 11
815.290159
 21
2610.101112
 31
0.0
  0
LINE
  5
2A3
102
{ACAD_REACTORS
330
5A0
102
}
330
1F
100
AcDbEntity
  8
LC-002-002-----0
 62
     7
370
    25
100
AcDbLine
 10
812.38499
 20
2611.160589
 30
0.0
 11
810.395946
 21
2611.369646
 31
0.0
  0
LINE
  5
2A4
102
{ACAD_REACTORS
330
5A0
102
}
330
1F
100
AcDbEntity
  8
LC-002-002-----0
 62
     7
370
    25
100
AcDbLine
 10
821.513356
 20
2645.393949
 30
0.0
 11
827.978212
 21
2644.714465
 31
0.0
  0
LINE
  5
2A5
102
{ACAD_REACTORS
330
5A0
102
}
330
1F
100
AcDbEntity
  8
LC-002-002-----0
 62
     7
370
    25
100
AcDbLine
 10
816.252543
 20
2647.957899
 30
0.0
 11
814.263499
 21
2648.166956
 31
0.0
  0
LINE
  5
2A6
102
{ACAD_REACTORS
330
5A0
102
}
330
1F
100
AcDbEntity
  8
LC-002-002-----0
 62
     7
370
    25
100
AcDbLine
 10
816.330939
 20
2648.70379
 30
0.0
 11
819.811766
 21
2648.337941
 31
0.0
  0
ARC
  5
2A7
102
{ACAD_REACTORS
330
5A0
102
}
330
1F
100
AcDbEntity
  8
LC-002-002-----0
 62
     7
370
    25
100
AcDbCircle
 10
819.707237
 20
2647.343419
 30
0.0
 40
1.0000000000002
100
AcDbArc
 50
354.0
 51
84.0
  0
ARC
  5
2A8
102
{ACAD_REACTORS
330
5A0
102
}
330
1F
100
AcDbEntity
  8
LC-002-002-----0
 62
     7
370
    25
100
AcDbCircle
 10
821.617885
 20
2646.38847
 30
0.0
 40
0.9999999999999177
100
AcDbArc
 50
174.012737
 51
264.0
  0
INSERT
  5
2C0
102
{ACAD_REACTORS
330
5A0
102
}
330
1F
100
AcDbEntity
  8
LC-002-002-----0
 62
     7
370
    25
100
AcDbBlockReference
  2
POLY1
 10
0.0
 20
0.0
 30
0.0
  0
INSERT
  5
2CA
102
{ACAD_REACTORS
330
5A0
102
}
330
1F
100
AcDbEntity
  8
LC-002-002-----0
 62
     7
370
    25
100
AcDbBlockReference
  2
POLY2
 10
0.0
 20
0.0
 30
0.0
  0
INSERT
  5
2DC
102
{ACAD_REACTORS
330
5A0
102
}
330
1F
100
AcDbEntity
  8
LC-002-002-----0
 62
     7
370
    25
100
AcDbBlockReference
  2
POLY3
 10
0.0
 20
0.0
 30
0.0
  0
LINE
  5
2DD
102
{ACAD_REACTORS
330
5A1
102
}
330
1F
100
AcDbEntity
  8
LC-002-002-----0
 62
     7
370
    25
100
AcDbLine
 10
812.932077
 20
2602.9723
 30
0.0
 11
813.075542
 21
2603.184251
 31
0.0
  0
LINE
  5
2DE
102
{ACAD_REACTORS
330
5A1
102
}
330
1F
100
AcDbEntity
  8
LC-002-002-----0
 62
     7
370
    25
100
AcDbLine
 10
813.075542
 20
2603.184251
 30
0.0
 11
813.26126
 21
2603.295442
 31
0.0
  0
LINE
  5
2DF
102
{ACAD_REACTORS
330
5A1
102
}
330
1F
100
AcDbEntity
  8
LC-002-002-----0
 62
     7
370
    25
100
AcDbLine
 10
813.26126
 20
2603.295442
 30
0.0
 11
813.471291
 21
2603.318281
 31
0.0
  0
LINE
  5
2E0
102
{ACAD_REACTORS
330
5A1
102
}
330
1F
100
AcDbEntity
  8
LC-002-002-----0
 62
     7
370
    25
100
AcDbLine
 10
833.560461
 20
2601.206824
 30
0.0
 11
833.761374
 21
2601.140687
 31
0.0
  0
LINE
  5
2E1
102
{ACAD_REACTORS
330
5A1
102
}
330
1F
100
AcDbEntity
  8
LC-002-002-----0
 62
     7
370
    25
100
AcDbLine
 10
833.761374
 20
2601.140687
 30
0.0
 11
833.919944
 21
2600.99308
 31
0.0
  0
LINE
  5
2E2
102
{ACAD_REACTORS
330
5A1
102
}
330
1F
100
AcDbEntity
  8
LC-002-002-----0
 62
     7
370
    25
100
AcDbLine
 10
833.919944
 20
2600.99308
 30
0.0
 11
834.015912
 21
2600.756017
 31
0.0
  0
LINE
  5
2E3
102
{ACAD_REACTORS
330
5A0
102
}
330
1F
100
AcDbEntity
  8
LC-002-002-----0
 62
     7
370
    25
100
AcDbLine
 10
828.009301
 20
2644.703044
 30
0.0
 11
828.009301
 21
2644.703044
 31
0.0
  0
LINE
  5
2E4
102
{ACAD_REACTORS
330
5A0
102
}
330
1F
100
AcDbEntity
  8
LC-002-002-----0
 62
     7
370
    25
100
AcDbLine
 10
827.978212
 20
2644.714465
 30
0.0
 11
828.41235
 21
2644.554978
 31
0.0
  0
LINE
  5
2E5
102
{ACAD_REACTORS
330
5A0
102
}
330
1F
100
AcDbEntity
  8
LC-002-002-----0
 62
     7
370
    25
100
AcDbLine
 10
828.41235
 20
2644.554978
 30
0.0
 11
828.41235
 21
2644.554978
 31
0.0
  0
LINE
  5
2E6
102
{ACAD_REACTORS
330
5A0
102
}
330
1F
100
AcDbEntity
  8
LC-002-002-----0
 62
     7
370
    25
100
AcDbLine
 10
828.41235
 20
2644.554978
 30
0.0
 11
828.757183
 21
2644.298525
 31
0.0
  0
LINE
  5
2E7
102
{ACAD_REACTORS
330
5A0
102
}
330
1F
100
AcDbEntity
  8
LC-002-002-----0
 62
     7
370
    25
100
AcDbLine
 10
828.757183
 20
2644.298525
 30
0.0
 11
828.757183
 21
2644.298525
 31
0.0
  0
LINE
  5
2E8
102
{ACAD_REACTORS
330
5A0
102
}
330
1F
100
AcDbEntity
  8
LC-002-002-----0
 62
     7
370
    25
100
AcDbLine
 10
828.757183
 20
2644.298525
 30
0.0
 11
829.015226
 21
2643.954614
 31
0.0
  0
LINE
  5
2E9
102
{ACAD_REACTORS
330
5A0
102
}
330
1F
100
AcDbEntity
  8
LC-002-002-----0
 62
     7
370
    25
100
AcDbLine
 10
829.015226
 20
2643.954614
 30
0.0
 11
829.015226
 21
2643.954614
 31
0.0
  0
LINE
  5
2EA
102
{ACAD_REACTORS
330
5A0
102
}
330
1F
100
AcDbEntity
  8
LC-002-002-----0
 62
     7
370
    25
100
AcDbLine
 10
829.015226
 20
2643.954614
 30
0.0
 11
829.179556
 21
2643.512719
 31
0.0
  0
LINE
  5
2EB
102
{ACAD_REACTORS
330
597
102
}
330
1F
100
AcDbEntity
  8
LC-002-002-----0
 62
     7
370
    25
100
AcDbLine
 10
754.581064
 20
2366.106631
 30
0.0
 11
728.881064
 21
2366.106631
 31
0.0
  0
LINE
  5
2EC
102
{ACAD_REACTORS
330
597
102
}
330
1F
100
AcDbEntity
  8
LC-002-002-----0
 62
     7
370
    25
100
AcDbLine
 10
726.481064
 20
2368.506631
 30
0.0
 11
724.464693
 21
2368.506631
 31
0.0
  0
LINE
  5
2ED
102
{ACAD_REACTORS
330
597
102
}
330
1F
100
AcDbEntity
  8
LC-002-002-----0
 62
     7
370
    25
100
AcDbLine
 10
754.581064
 20
2409.688912
 30
0.0
 11
733.012517
 21
2409.688912
 31
0.0
  0
LINE
  5
2EE
102
{ACAD_REACTORS
330
597
102
}
330
1F
100
AcDbEntity
  8
LC-002-002-----0
 62
     7
370
    25
100
AcDbLine
 10
728.881064
 20
2374.416843
 30
0.0
 11
728.881064
 21
2366.106631
 31
0.0
  0
LINE
  5
2EF
102
{ACAD_REACTORS
330
597
102
}
330
1F
100
AcDbEntity
  8
LC-002-002-----0
 62
     7
370
    25
100
AcDbLine
 10
728.880954
 20
2366.106741
 30
0.0
 11
726.481018
 21
2368.506677
 31
0.0
  0
INSERT
  5
2FA
102
{ACAD_REACTORS
330
5A4
102
}
330
1F
100
AcDbEntity
  8
LC-012-100-D00-0
 62
     6
370
    25
100
AcDbBlockReference
  2
POLY4
 10
0.0
 20
0.0
 30
0.0
  0
LINE
  5
2FB
102
{ACAD_REACTORS
330
5A4
102
}
330
1F
100
AcDbEntity
  8
LC-002-002-----0
 62
     7
370
    25
100
AcDbLine
 10
680.797549
 20
2349.668318
 30
0.0
 11
682.277751
 21
2350.438862
 31
0.0
  0
LINE
  5
2FC
102
{ACAD_REACTORS
330
5A4
102
}
330
1F
100
AcDbEntity
  8
LC-002-002-----0
 62
     7
370
    25
100
AcDbLine
 10
680.797436
 20
2351.209138
 30
0.0
 11
682.277856
 21
2351.979796
 31
0.0
  0
LINE
  5
2FD
102
{ACAD_REACTORS
330
5A4
102
}
330
1F
100
AcDbEntity
  8
LC-002-002-----0
 62
     7
370
    25
100
AcDbLine
 10
680.797549
 20
2352.750075
 30
0.0
 11
682.277536
 21
2353.520507
 31
0.0
  0
LINE
  5
2FE
102
{ACAD_REACTORS
330
5A4
102
}
330
1F
100
AcDbEntity
  8
LC-002-002-----0
 62
     7
370
    25
100
AcDbLine
 10
680.797549
 20
2354.290953
 30
0.0
 11
682.277536
 21
2355.061386
 31
0.0
  0
LINE
  5
2FF
102
{ACAD_REACTORS
330
5A4
102
}
330
1F
100
AcDbEntity
  8
LC-002-002-----0
 62
     7
370
    25
100
AcDbLine
 10
680.797549
 20
2355.831832
 30
0.0
 11
682.277536
 21
2356.602264
 31
0.0
  0
LINE
  5
300
102
{ACAD_REACTORS
330
5A4
102
}
330
1F
100
AcDbEntity
  8
LC-002-002-----0
 62
     7
370
    25
100
AcDbLine
 10
680.797549
 20
2357.37271
 30
0.0
 11
682.277536
 21
2358.143143
 31
0.0
  0
LINE
  5
301
102
{ACAD_REACTORS
330
5A4
102
}
330
1F
100
AcDbEntity
  8
LC-002-002-----0
 62
     7
370
    25
100
AcDbLine
 10
680.797549
 20
2358.913589
 30
0.0
 11
682.277536
 21
2359.684021
 31
0.0
  0
LINE
  5
302
102
{ACAD_REACTORS
330
5A4
102
}
330
1F
100
AcDbEntity
  8
LC-002-002-----0
 62
     7
370
    25
100
AcDbLine
 10
681.563619
 20
2361.684047
 30
0.0
 11
684.677367
 21
2364.797796
 31
0.0
  0
LINE
  5
303
102
{ACAD_REACTORS
330
5A4
102
}
330
1F
100
AcDbEntity
  8
LC-002-002-----0
 62
     7
370
    25
100
AcDbLine
 10
682.277343
 20
2347.897772
 30
0.0
 11
727.077343
 21
2347.897772
 31
0.0
  0
LINE
  5
304
102
{ACAD_REACTORS
330
5A4
102
}
330
1F
100
AcDbEntity
  8
LC-002-002-----0
 62
     7
370
    25
100
AcDbLine
 10
724.677343
 20
2364.797772
 30
0.0
 11
724.677343
 21
2368.506631
 31
0.0
  0
LINE
  5
305
102
{ACAD_REACTORS
330
5A4
102
}
330
1F
100
AcDbEntity
  8
LC-002-002-----0
 62
     7
370
    25
100
AcDbLine
 10
681.563619
 20
2361.684047
 30
0.0
 11
695.710948
 21
2361.684047
 31
0.0
  0
LINE
  5
306
102
{ACAD_REACTORS
330
5A4
102
}
330
1F
100
AcDbEntity
  8
LC-002-002-----0
 62
     7
370
    25
100
AcDbLine
 10
684.677343
 20
2364.797772
 30
0.0
 11
684.677343
 21
2368.726033
 31
0.0
  0
LINE
  5
307
102
{ACAD_REACTORS
330
5A4
102
}
330
1F
100
AcDbEntity
  8
LC-002-002-----0
 62
     7
370
    25
100
AcDbLine
 10
682.277343
 20
2347.897772
 30
0.0
 11
682.277343
 21
2348.897772
 31
0.0
  0
LINE
  5
308
102
{ACAD_REACTORS
330
5A4
102
}
330
1F
100
AcDbEntity
  8
LC-002-002-----0
 62
     7
370
    25
100
AcDbLine
 10
682.277343
 20
2359.683921
 30
0.0
 11
682.277343
 21
2361.683921
 31
0.0
  0
LINE
  5
309
102
{ACAD_REACTORS
330
5A4
102
}
330
1F
100
AcDbEntity
  8
LC-002-002-----0
 62
     7
370
    25
100
AcDbLine
 10
727.791067
 20
2361.684047
 30
0.0
 11
724.677318
 21
2364.797796
 31
0.0
  0
LINE
  5
30A
102
{ACAD_REACTORS
330
5A4
102
}
330
1F
100
AcDbEntity
  8
LC-002-002-----0
 62
     7
370
    25
100
AcDbLine
 10
682.277431
 20
2358.142997
 30
0.0
 11
680.797436
 21
2358.913433
 31
0.0
  0
LINE
  5
30B
102
{ACAD_REACTORS
330
5A4
102
}
330
1F
100
AcDbEntity
  8
LC-002-002-----0
 62
     7
370
    25
100
AcDbLine
 10
682.277431
 20
2356.602118
 30
0.0
 11
680.797436
 21
2357.372554
 31
0.0
  0
LINE
  5
30C
102
{ACAD_REACTORS
330
5A4
102
}
330
1F
100
AcDbEntity
  8
LC-002-002-----0
 62
     7
370
    25
100
AcDbLine
 10
682.277431
 20
2355.06124
 30
0.0
 11
680.797436
 21
2355.831676
 31
0.0
  0
LINE
  5
30D
102
{ACAD_REACTORS
330
5A4
102
}
330
1F
100
AcDbEntity
  8
LC-002-002-----0
 62
     7
370
    25
100
AcDbLine
 10
682.277431
 20
2353.520361
 30
0.0
 11
680.797436
 21
2354.290797
 31
0.0
  0
LINE
  5
30E
102
{ACAD_REACTORS
330
5A4
102
}
330
1F
100
AcDbEntity
  8
LC-002-002-----0
 62
     7
370
    25
100
AcDbLine
 10
682.277751
 20
2351.979316
 30
0.0
 11
680.797436
 21
2352.749919
 31
0.0
  0
LINE
  5
30F
102
{ACAD_REACTORS
330
5A4
102
}
330
1F
100
AcDbEntity
  8
LC-002-002-----0
 62
     7
370
    25
100
AcDbLine
 10
682.277856
 20
2350.438383
 30
0.0
 11
680.797549
 21
2351.208982
 31
0.0
  0
LINE
  5
310
102
{ACAD_REACTORS
330
5A4
102
}
330
1F
100
AcDbEntity
  8
LC-002-002-----0
 62
     7
370
    25
100
AcDbLine
 10
682.277751
 20
2348.897559
 30
0.0
 11
680.797436
 21
2349.668162
 31
0.0
  0
LINE
  5
311
102
{ACAD_REACTORS
330
5A4
102
}
330
1F
100
AcDbEntity
  8
LC-002-002-----0
 62
     7
370
    25
100
AcDbLine
 10
728.557137
 20
2349.668318
 30
0.0
 11
727.076935
 21
2350.438862
 31
0.0
  0
LINE
  5
312
102
{ACAD_REACTORS
330
5A4
102
}
330
1F
100
AcDbEntity
  8
LC-002-002-----0
 62
     7
370
    25
100
AcDbLine
 10
728.557249
 20
2351.209138
 30
0.0
 11
727.07683
 21
2351.979796
 31
0.0
  0
LINE
  5
313
102
{ACAD_REACTORS
330
5A4
102
}
330
1F
100
AcDbEntity
  8
LC-002-002-----0
 62
     7
370
    25
100
AcDbLine
 10
728.557137
 20
2352.750075
 30
0.0
 11
727.07715
 21
2353.520507
 31
0.0
  0
LINE
  5
314
102
{ACAD_REACTORS
330
5A4
102
}
330
1F
100
AcDbEntity
  8
LC-002-002-----0
 62
     7
370
    25
100
AcDbLine
 10
728.557137
 20
2354.290953
 30
0.0
 11
727.07715
 21
2355.061386
 31
0.0
  0
LINE
  5
315
102
{ACAD_REACTORS
330
5A4
102
}
330
1F
100
AcDbEntity
  8
LC-002-002-----0
 62
     7
370
    25
100
AcDbLine
 10
728.557137
 20
2355.831832
 30
0.0
 11
727.07715
 21
2356.602264
 31
0.0
  0
LINE
  5
316
102
{ACAD_REACTORS
330
5A4
102
}
330
1F
100
AcDbEntity
  8
LC-002-002-----0
 62
     7
370
    25
100
AcDbLine
 10
728.557137
 20
2357.37271
 30
0.0
 11
727.07715
 21
2358.143143
 31
0.0
  0
LINE
  5
317
102
{ACAD_REACTORS
330
5A4
102
}
330
1F
100
AcDbEntity
  8
LC-002-002-----0
 62
     7
370
    25
100
AcDbLine
 10
728.557137
 20
2358.913589
 30
0.0
 11
727.07715
 21
2359.684021
 31
0.0
  0
LINE
  5
318
102
{ACAD_REACTORS
330
5A4
102
}
330
1F
100
AcDbEntity
  8
LC-002-002-----0
 62
     7
370
    25
100
AcDbLine
 10
727.077343
 20
2347.897772
 30
0.0
 11
727.077343
 21
2348.897772
 31
0.0
  0
LINE
  5
319
102
{ACAD_REACTORS
330
5A4
102
}
330
1F
100
AcDbEntity
  8
LC-002-002-----0
 62
     7
370
    25
100
AcDbLine
 10
727.077343
 20
2359.683921
 30
0.0
 11
727.077343
 21
2361.683921
 31
0.0
  0
LINE
  5
31A
102
{ACAD_REACTORS
330
5A4
102
}
330
1F
100
AcDbEntity
  8
LC-002-002-----0
 62
     7
370
    25
100
AcDbLine
 10
727.077255
 20
2358.142997
 30
0.0
 11
728.557249
 21
2358.913433
 31
0.0
  0
LINE
  5
31B
102
{ACAD_REACTORS
330
5A4
102
}
330
1F
100
AcDbEntity
  8
LC-002-002-----0
 62
     7
370
    25
100
AcDbLine
 10
727.077255
 20
2356.602118
 30
0.0
 11
728.557249
 21
2357.372554
 31
0.0
  0
LINE
  5
31C
102
{ACAD_REACTORS
330
5A4
102
}
330
1F
100
AcDbEntity
  8
LC-002-002-----0
 62
     7
370
    25
100
AcDbLine
 10
727.077255
 20
2355.06124
 30
0.0
 11
728.557249
 21
2355.831676
 31
0.0
  0
LINE
  5
31D
102
{ACAD_REACTORS
330
5A4
102
}
330
1F
100
AcDbEntity
  8
LC-002-002-----0
 62
     7
370
    25
100
AcDbLine
 10
727.077255
 20
2353.520361
 30
0.0
 11
728.557249
 21
2354.290797
 31
0.0
  0
LINE
  5
31E
102
{ACAD_REACTORS
330
5A4
102
}
330
1F
100
AcDbEntity
  8
LC-002-002-----0
 62
     7
370
    25
100
AcDbLine
 10
727.076935
 20
2351.979316
 30
0.0
 11
728.557249
 21
2352.749919
 31
0.0
  0
LINE
  5
31F
102
{ACAD_REACTORS
330
5A4
102
}
330
1F
100
AcDbEntity
  8
LC-002-002-----0
 62
     7
370
    25
100
AcDbLine
 10
727.07683
 20
2350.438383
 30
0.0
 11
728.557137
 21
2351.208982
 31
0.0
  0
LINE
  5
320
102
{ACAD_REACTORS
330
5A4
102
}
330
1F
100
AcDbEntity
  8
LC-002-002-----0
 62
     7
370
    25
100
AcDbLine
 10
727.076935
 20
2348.897559
 30
0.0
 11
728.557249
 21
2349.668162
 31
0.0
  0
LINE
  5
321
102
{ACAD_REACTORS
330
597
102
}
330
1F
100
AcDbEntity
  8
LC-002-002-----0
 62
     7
370
    25
100
AcDbLine
 10
757.081064
 20
2360.192978
 30
0.0
 11
754.581064
 21
2360.192978
 31
0.0
  0
LINE
  5
322
102
{ACAD_REACTORS
330
597
102
}
330
1F
100
AcDbEntity
  8
LC-002-002-----0
 62
     7
370
    25
100
AcDbLine
 10
758.081064
 20
2360.942978
 30
0.0
 11
757.831064
 21
2360.942978
 31
0.0
  0
LINE
  5
323
102
{ACAD_REACTORS
330
597
102
}
330
1F
100
AcDbEntity
  8
LC-002-002-----0
 62
     7
370
    25
100
AcDbLine
 10
758.081064
 20
2362.097772
 30
0.0
 11
771.581064
 21
2362.097772
 31
0.0
  0
LINE
  5
324
102
{ACAD_REACTORS
330
597
102
}
330
1F
100
AcDbEntity
  8
LC-002-002-----0
 62
     7
370
    25
100
AcDbLine
 10
758.081064
 20
2413.697772
 30
0.0
 11
771.581064
 21
2413.697772
 31
0.0
  0
LINE
  5
325
102
{ACAD_REACTORS
330
597
102
}
330
1F
100
AcDbEntity
  8
LC-002-002-----0
 62
     7
370
    25
100
AcDbLine
 10
758.081064
 20
2414.852565
 30
0.0
 11
757.831064
 21
2414.852565
 31
0.0
  0
LINE
  5
326
102
{ACAD_REACTORS
330
597
102
}
330
1F
100
AcDbEntity
  8
LC-002-002-----0
 62
     7
370
    25
100
AcDbLine
 10
757.081064
 20
2415.602565
 30
0.0
 11
754.581064
 21
2415.602565
 31
0.0
  0
LINE
  5
327
102
{ACAD_REACTORS
330
597
102
}
330
1F
100
AcDbEntity
  8
LC-002-002-----0
 62
     7
370
    25
100
AcDbLine
 10
757.831065
 20
2360.942979
 30
0.0
 11
757.081065
 21
2360.192979
 31
0.0
  0
LINE
  5
328
102
{ACAD_REACTORS
330
597
102
}
330
1F
100
AcDbEntity
  8
LC-002-002-----0
 62
     7
370
    25
100
AcDbLine
 10
773.581064
 20
2411.697772
 30
0.0
 11
773.581064
 21
2364.097772
 31
0.0
  0
LINE
  5
329
102
{ACAD_REACTORS
330
597
102
}
330
1F
100
AcDbEntity
  8
LC-002-002-----0
 62
     7
370
    25
100
AcDbLine
 10
758.081064
 20
2414.852547
 30
0.0
 11
758.081064
 21
2413.697772
 31
0.0
  0
LINE
  5
32A
102
{ACAD_REACTORS
330
597
102
}
330
1F
100
AcDbEntity
  8
LC-002-002-----0
 62
     7
370
    25
100
AcDbLine
 10
754.581064
 20
2415.602565
 30
0.0
 11
754.581064
 21
2360.192978
 31
0.0
  0
LINE
  5
32B
102
{ACAD_REACTORS
330
597
102
}
330
1F
100
AcDbEntity
  8
LC-002-002-----0
 62
     7
370
    25
100
AcDbLine
 10
757.831065
 20
2414.852564
 30
0.0
 11
757.081065
 21
2415.602564
 31
0.0
  0
ARC
  5
32C
102
{ACAD_REACTORS
330
597
102
}
330
1F
100
AcDbEntity
  8
LC-002-002-----0
 62
     7
370
    25
100
AcDbCircle
 10
771.581064
 20
2411.697772
 30
0.0
 40
2.0
100
AcDbArc
 50
0.0
 51
90.0
  0
ARC
  5
32D
102
{ACAD_REACTORS
330
597
102
}
330
1F
100
AcDbEntity
  8
LC-002-002-----0
 62
     7
370
    25
100
AcDbCircle
 10
771.581064
 20
2364.097772
 30
0.0
 40
2.0
100
AcDbArc
 50
270.0
 51
0.0
  0
LINE
  5
32E
102
{ACAD_REACTORS
330
5A4
102
}
330
1F
100
AcDbEntity
  8
LC-002-002-----0
 62
     7
370
    25
100
AcDbLine
 10
713.643737
 20
2361.684047
 30
0.0
 11
727.791067
 21
2361.684047
 31
0.0
  0
INSERT
  5
33E
102
{ACAD_REACTORS
330
597
102
}
330
1F
100
AcDbEntity
  8
LC-002-002-----0
 62
     7
370
    25
100
AcDbBlockReference
  2
POLY5
 10
0.0
 20
0.0
 30
0.0
  0
LINE
  5
33F
102
{ACAD_REACTORS
330
597
102
}
330
1F
100
AcDbEntity
  8
LC-002-002-----0
 62
     7
370
    25
100
AcDbLine
 10
758.081064
 20
2387.896319
 30
0.0
 11
771.581064
 21
2387.896319
 31
0.0
  0
ARC
  5
340
102
{ACAD_REACTORS
330
5A4
102
}
330
1F
100
AcDbEntity
  8
LC-002-002-----0
 62
     7
370
    25
100
AcDbCircle
 10
704.677343
 20
2387.897772
 30
0.0
 40
22.0
100
AcDbArc
 50
180.0
 51
0.0
  0
LINE
  5
341
102
{ACAD_REACTORS
330
5A4
102
}
330
1F
100
AcDbEntity
  8
LC-002-002-----0
 62
     7
370
    25
100
AcDbLine
 10
726.677343
 20
2387.897772
 30
0.0
 11
726.677343
 21
2401.588956
 31
0.0
  0
LINE
  5
342
102
{ACAD_REACTORS
330
5A4
102
}
330
1F
100
AcDbEntity
  8
LC-002-002-----0
 62
     7
370
    25
100
AcDbLine
 10
682.677343
 20
2387.897772
 30
0.0
 11
682.677343
 21
2401.588956
 31
0.0
  0
LINE
  5
343
102
{ACAD_REACTORS
330
5A4
102
}
330
1F
100
AcDbEntity
  8
LC-002-002-----0
 62
     7
370
    25
100
AcDbLine
 10
667.177343
 20
2419.857319
 30
0.0
 11
669.179205
 21
2419.857319
 31
0.0
  0
LINE
  5
344
102
{ACAD_REACTORS
330
5A4
102
}
330
1F
100
AcDbEntity
  8
LC-002-002-----0
 62
     7
370
    25
100
AcDbLine
 10
669.179205
 20
2419.154074
 30
0.0
 11
669.179205
 21
2419.857319
 31
0.0
  0
LINE
  5
345
102
{ACAD_REACTORS
330
5A4
102
}
330
1F
100
AcDbEntity
  8
LC-002-002-----0
 62
     7
370
    25
100
AcDbLine
 10
667.177343
 20
2422.357319
 30
0.0
 11
667.177343
 21
2419.857319
 31
0.0
  0
LINE
  5
346
102
{ACAD_REACTORS
330
5A4
102
}
330
1F
100
AcDbEntity
  8
LC-002-002-----0
 62
     7
370
    25
100
AcDbLine
 10
676.388404
 20
2409.398938
 30
0.0
 11
675.909958
 21
2412.017802
 31
0.0
  0
ARC
  5
347
102
{ACAD_REACTORS
330
5A4
102
}
330
1F
100
AcDbEntity
  8
LC-002-002-----0
 62
     7
370
    25
100
AcDbCircle
 10
682.782568
 20
2410.567129
 30
0.0
 40
6.500000000000002
100
AcDbArc
 50
190.354177
 51
250.92296
  0
ARC
  5
348
102
{ACAD_REACTORS
330
5A4
102
}
330
1F
100
AcDbEntity
  8
LC-002-002-----0
 62
     7
370
    25
100
AcDbCircle
 10
679.677343
 20
2401.588956
 30
0.0
 40
3.000000000000341
100
AcDbArc
 50
0.0
 51
70.944552
  0
ARC
  5
349
102
{ACAD_REACTORS
330
5A4
102
}
330
1F
100
AcDbEntity
  8
LC-002-002-----0
 62
     7
370
    25
100
AcDbCircle
 10
671.179205
 20
2419.154074
 30
0.0
 40
1.999999999999773
100
AcDbArc
 50
180.0
 51
205.847369
  0
ARC
  5
34A
102
{ACAD_REACTORS
330
5A4
102
}
330
1F
100
AcDbEntity
  8
LC-002-002-----0
 62
     7
370
    25
100
AcDbCircle
 10
674.779139
 20
2420.897772
 30
0.0
 40
6.000000000000001
100
AcDbArc
 50
205.844972
 51
253.716483
  0
ARC
  5
34B
102
{ACAD_REACTORS
330
5A4
102
}
330
1F
100
AcDbEntity
  8
LC-002-002-----0
 62
     7
370
    25
100
AcDbCircle
 10
671.97508
 20
2411.298956
 30
0.0
 40
4.000000000000244
100
AcDbArc
 50
10.352952
 51
73.718249
  0
LINE
  5
34C
102
{ACAD_REACTORS
330
5A4
102
}
330
1F
100
AcDbEntity
  8
LC-002-002-----0
 62
     7
370
    25
100
AcDbLine
 10
740.17548
 20
2419.154074
 30
0.0
 11
740.17548
 21
2419.857319
 31
0.0
  0
LINE
  5
34D
102
{ACAD_REACTORS
330
5A4
102
}
330
1F
100
AcDbEntity
  8
LC-002-002-----0
 62
     7
370
    25
100
AcDbLine
 10
742.177343
 20
2422.357319
 30
0.0
 11
742.177343
 21
2419.857319
 31
0.0
  0
LINE
  5
34E
102
{ACAD_REACTORS
330
5A4
102
}
330
1F
100
AcDbEntity
  8
LC-002-002-----0
 62
     7
370
    25
100
AcDbLine
 10
732.966282
 20
2409.398938
 30
0.0
 11
733.444728
 21
2412.017802
 31
0.0
  0
ARC
  5
34F
102
{ACAD_REACTORS
330
5A4
102
}
330
1F
100
AcDbEntity
  8
LC-002-002-----0
 62
     7
370
    25
100
AcDbCircle
 10
726.572118
 20
2410.567129
 30
0.0
 40
6.499999999999931
100
AcDbArc
 50
289.07704
 51
349.645823
  0
ARC
  5
350
102
{ACAD_REACTORS
330
5A4
102
}
330
1F
100
AcDbEntity
  8
LC-002-002-----0
 62
     7
370
    25
100
AcDbCircle
 10
729.677343
 20
2401.588956
 30
0.0
 40
2.999999995699702
100
AcDbArc
 50
109.055448
 51
180.0
  0
ARC
  5
351
102
{ACAD_REACTORS
330
5A4
102
}
330
1F
100
AcDbEntity
  8
LC-002-002-----0
 62
     7
370
    25
100
AcDbCircle
 10
738.17548
 20
2419.154074
 30
0.0
 40
1.999999999999772
100
AcDbArc
 50
334.152631
 51
0.0
  0
ARC
  5
352
102
{ACAD_REACTORS
330
5A4
102
}
330
1F
100
AcDbEntity
  8
LC-002-002-----0
 62
     7
370
    25
100
AcDbCircle
 10
734.575547
 20
2420.897772
 30
0.0
 40
5.999999999999909
100
AcDbArc
 50
286.283517
 51
334.155028
  0
ARC
  5
353
102
{ACAD_REACTORS
330
5A4
102
}
330
1F
100
AcDbEntity
  8
LC-002-002-----0
 62
     7
370
    25
100
AcDbCircle
 10
737.379606
 20
2411.298956
 30
0.0
 40
3.999999999999869
100
AcDbArc
 50
106.281751
 51
169.647048
  0
ARC
  5
354
102
{ACAD_REACTORS
330
5A4
102
}
330
1F
100
AcDbEntity
  8
LC-002-002-----0
 62
     7
370
    25
100
AcDbCircle
 10
704.677343
 20
2387.897772
 30
0.0
 40
27.7047932413002
100
AcDbArc
 50
145.394244
 51
34.605756
  0
LINE
  5
355
102
{ACAD_REACTORS
330
5A4
102
}
330
1F
100
AcDbEntity
  8
LC-002-002-----0
 62
     7
370
    25
100
AcDbLine
 10
759.677343
 20
2462.5
 30
0.0
 11
649.677343
 21
2462.5
 31
0.0
  0
LINE
  5
356
102
{ACAD_REACTORS
330
5A4
102
}
330
1F
100
AcDbEntity
  8
LC-002-002-----0
 62
     7
370
    25
100
AcDbLine
 10
649.677343
 20
2458.5
 30
0.0
 11
649.677343
 21
2462.5
 31
0.0
  0
LINE
  5
357
102
{ACAD_REACTORS
330
5A4
102
}
330
1F
100
AcDbEntity
  8
LC-002-002-----0
 62
     7
370
    25
100
AcDbLine
 10
665.172379
 20
2422.357319
 30
0.0
 11
667.177343
 21
2422.357319
 31
0.0
  0
LINE
  5
358
102
{ACAD_REACTORS
330
5A4
102
}
330
1F
100
AcDbEntity
  8
LC-002-002-----0
 62
     7
370
    25
100
AcDbLine
 10
759.677343
 20
2455.35
 30
0.0
 11
759.677343
 21
2458.5
 31
0.0
  0
LINE
  5
359
102
{ACAD_REACTORS
330
5A4
102
}
330
1F
100
AcDbEntity
  8
LC-002-002-----0
 62
     7
370
    25
100
AcDbLine
 10
661.927953
 20
2426.687093
 30
0.0
 11
660.177978
 21
2427.697442
 31
0.0
  0
LINE
  5
35A
102
{ACAD_REACTORS
330
5A4
102
}
330
1F
100
AcDbEntity
  8
LC-002-002-----0
 62
     7
370
    25
100
AcDbLine
 10
657.177343
 20
2432.893961
 30
0.0
 11
657.177343
 21
2448.357319
 31
0.0
  0
LINE
  5
35B
102
{ACAD_REACTORS
330
5A4
102
}
330
1F
100
AcDbEntity
  8
LC-002-002-----0
 62
     7
370
    25
100
AcDbLine
 10
649.677343
 20
2458.039777
 30
0.0
 11
649.677343
 21
2458.5
 31
0.0
  0
ARC
  5
35C
102
{ACAD_REACTORS
330
5A4
102
}
330
1F
100
AcDbEntity
  8
LC-002-002-----0
 62
     7
370
    25
100
AcDbCircle
 10
653.177343
 20
2448.357319
 30
0.0
 40
3.999999999999773
100
AcDbArc
 50
0.0
 51
75.507853
  0
ARC
  5
35D
102
{ACAD_REACTORS
330
5A4
102
}
330
1F
100
AcDbEntity
  8
LC-002-002-----0
 62
     7
370
    25
100
AcDbCircle
 10
655.677343
 20
2458.039777
 30
0.0
 40
5.999999999999659
100
AcDbArc
 50
180.0
 51
255.530548
  0
ARC
  5
35E
102
{ACAD_REACTORS
330
5A4
102
}
330
1F
100
AcDbEntity
  8
LC-002-002-----0
 62
     7
370
    25
100
AcDbCircle
 10
663.177343
 20
2432.893961
 30
0.0
 40
6.0
100
AcDbArc
 50
180.0
 51
240.011524
  0
ARC
  5
35F
102
{ACAD_REACTORS
330
5A4
102
}
330
1F
100
AcDbEntity
  8
LC-002-002-----0
 62
     7
370
    25
100
AcDbCircle
 10
659.427343
 20
2422.357319
 30
0.0
 40
4.999999999999856
100
AcDbArc
 50
7.927775
 51
59.983847
  0
ARC
  5
360
102
{ACAD_REACTORS
330
5A4
102
}
330
1F
100
AcDbEntity
  8
LC-002-002-----0
 62
     7
370
    25
100
AcDbCircle
 10
749.927343
 20
2422.357319
 30
0.0
 40
4.99999999999988
100
AcDbArc
 50
146.045368
 51
172.072225
  0
ARC
  5
361
102
{ACAD_REACTORS
330
5A4
102
}
330
1F
100
AcDbEntity
  8
LC-002-002-----0
 62
     7
370
    25
100
AcDbCircle
 10
665.171905
 20
2423.157319
 30
0.0
 40
0.7999999999997687
100
AcDbArc
 50
187.937394
 51
270.0
  0
ARC
  5
362
102
{ACAD_REACTORS
330
5A4
102
}
330
1F
100
AcDbEntity
  8
LC-002-002-----0
 62
     7
370
    25
100
AcDbCircle
 10
744.18278
 20
2423.157319
 30
0.0
 40
0.7999999999997272
100
AcDbArc
 50
270.0
 51
352.062606
  0
INSERT
  5
36C
102
{ACAD_REACTORS
330
5A4
102
}
330
1F
100
AcDbEntity
  8
LC-002-002-----0
 62
     7
370
    25
100
AcDbBlockReference
  2
POLY6
 10
0.0
 20
0.0
 30
0.0
  0
INSERT
  5
376
102
{ACAD_REACTORS
330
5A4
102
}
330
1F
100
AcDbEntity
  8
LC-002-002-----0
 62
     7
370
    25
100
AcDbBlockReference
  2
POLY7
 10
0.0
 20
0.0
 30
0.0
  0
INSERT
  5
384
102
{ACAD_REACTORS
330
5A4
102
}
330
1F
100
AcDbEntity
  8
LC-002-002-----0
 62
     7
370
    25
100
AcDbBlockReference
  2
POLY8
 10
0.0
 20
0.0
 30
0.0
  0
INSERT
  5
392
102
{ACAD_REACTORS
330
5A4
102
}
330
1F
100
AcDbEntity
  8
LC-002-002-----0
 62
     7
370
    25
100
AcDbBlockReference
  2
POLY9
 10
0.0
 20
0.0
 30
0.0
  0
INSERT
  5
3A2
102
{ACAD_REACTORS
330
5A4
102
}
330
1F
100
AcDbEntity
  8
LC-002-002-----0
 62
     7
370
    25
100
AcDbBlockReference
  2
POLY10
 10
0.0
 20
0.0
 30
0.0
  0
INSERT
  5
3B0
102
{ACAD_REACTORS
330
5A4
102
}
330
1F
100
AcDbEntity
  8
LC-002-002-----0
 62
     7
370
    25
100
AcDbBlockReference
  2
POLY11
 10
0.0
 20
0.0
 30
0.0
  0
LINE
  5
3B1
102
{ACAD_REACTORS
330
5A4
102
}
330
1F
100
AcDbEntity
  8
LC-002-002-----0
 62
     7
370
    25
100
AcDbLine
 10
749.712955
 20
2448.357319
 30
0.0
 11
749.712955
 21
2440.25
 31
0.0
  0
LINE
  5
3B2
102
{ACAD_REACTORS
330
5A4
102
}
330
1F
100
AcDbEntity
  8
LC-002-002-----0
 62
     7
370
    25
100
AcDbLine
 10
759.677343
 20
2458.5
 30
0.0
 11
759.677343
 21
2462.5
 31
0.0
  0
LINE
  5
3B3
102
{ACAD_REACTORS
330
5A4
102
}
330
1F
100
AcDbEntity
  8
LC-002-002-----0
 62
     7
370
    25
100
AcDbLine
 10
761.927343
 20
2420.25
 30
0.0
 11
763.927343
 21
2420.25
 31
0.0
  0
LINE
  5
3B4
102
{ACAD_REACTORS
330
5A4
102
}
330
1F
100
AcDbEntity
  8
LC-002-002-----0
 62
     7
370
    25
100
AcDbLine
 10
764.677344
 20
2422.292762
 30
0.0
 11
776.416577
 21
2422.292762
 31
0.0
  0
LINE
  5
3B5
102
{ACAD_REACTORS
330
5A4
102
}
330
1F
100
AcDbEntity
  8
LC-002-002-----0
 62
     7
370
    25
100
AcDbLine
 10
764.677344
 20
2458.207238
 30
0.0
 11
776.416577
 21
2458.207238
 31
0.0
  0
LINE
  5
3B6
102
{ACAD_REACTORS
330
5A4
102
}
330
1F
100
AcDbEntity
  8
LC-002-002-----0
 62
     7
370
    25
100
AcDbLine
 10
761.927343
 20
2460.25
 30
0.0
 11
763.927343
 21
2460.25
 31
0.0
  0
LINE
  5
3B7
102
{ACAD_REACTORS
330
5A4
102
}
330
1F
100
AcDbEntity
  8
LC-002-002-----0
 62
     7
370
    25
100
AcDbLine
 10
763.92744
 20
2420.250097
 30
0.0
 11
764.67733
 21
2420.999987
 31
0.0
  0
LINE
  5
3B8
102
{ACAD_REACTORS
330
5A4
102
}
330
1F
100
AcDbEntity
  8
LC-002-002-----0
 62
     7
370
    25
100
AcDbLine
 10
776.427343
 20
2422.50019
 30
0.0
 11
776.427343
 21
2457.99981
 31
0.0
  0
LINE
  5
3B9
102
{ACAD_REACTORS
330
5A4
102
}
330
1F
100
AcDbEntity
  8
LC-002-002-----0
 62
     7
370
    25
100
AcDbLine
 10
764.67733
 20
2420.999987
 30
0.0
 11
764.67733
 21
2422.292762
 31
0.0
  0
LINE
  5
3BA
102
{ACAD_REACTORS
330
5A4
102
}
330
1F
100
AcDbEntity
  8
LC-002-002-----0
 62
     7
370
    25
100
AcDbLine
 10
764.67734
 20
2458.207238
 30
0.0
 11
764.67733
 21
2459.500013
 31
0.0
  0
LINE
  5
3BB
102
{ACAD_REACTORS
330
5A4
102
}
330
1F
100
AcDbEntity
  8
LC-002-002-----0
 62
     7
370
    25
100
AcDbLine
 10
761.927343
 20
2420.25
 30
0.0
 11
761.927343
 21
2460.25
 31
0.0
  0
LINE
  5
3BC
102
{ACAD_REACTORS
330
5A4
102
}
330
1F
100
AcDbEntity
  8
LC-002-002-----0
 62
     7
370
    25
100
AcDbLine
 10
763.92744
 20
2460.249903
 30
0.0
 11
764.67733
 21
2459.500013
 31
0.0
  0
ARC
  5
3BD
102
{ACAD_REACTORS
330
5A4
102
}
330
1F
100
AcDbEntity
  8
LC-002-002-----0
 62
     7
370
    25
100
AcDbCircle
 10
774.427343
 20
2458.0
 30
0.0
 40
2.0
100
AcDbArc
 50
0.0
 51
5.94761
  0
ARC
  5
3BE
102
{ACAD_REACTORS
330
5A4
102
}
330
1F
100
AcDbEntity
  8
LC-002-002-----0
 62
     7
370
    25
100
AcDbCircle
 10
774.427343
 20
2422.5
 30
0.0
 40
1.999999999999995
100
AcDbArc
 50
354.05239
 51
0.0
  0
LINE
  5
3BF
102
{ACAD_REACTORS
330
5A4
102
}
330
1F
100
AcDbEntity
  8
LC-002-002-----0
 62
     7
370
    25
100
AcDbLine
 10
761.927343
 20
2455.35
 30
0.0
 11
759.677343
 21
2455.35
 31
0.0
  0
LINE
  5
3C0
102
{ACAD_REACTORS
330
5A4
102
}
330
1F
100
AcDbEntity
  8
LC-002-002-----0
 62
     7
370
    25
100
AcDbLine
 10
761.927343
 20
2425.15
 30
0.0
 11
745.779942
 21
2425.15
 31
0.0
  0
LINE
  5
3C1
102
{ACAD_REACTORS
330
597
102
}
330
1F
100
AcDbEntity
  8
LC-002-002-----0
 62
     7
370
    25
100
AcDbLine
 10
929.505604
 20
2367.897772
 30
0.0
 11
773.581064
 21
2367.897772
 31
0.0
  0
LINE
  5
3C2
102
{ACAD_REACTORS
330
597
102
}
330
1F
100
AcDbEntity
  8
LC-002-002-----0
 62
     7
370
    25
100
AcDbLine
 10
920.855972
 20
2407.897772
 30
0.0
 11
773.581064
 21
2407.897772
 31
0.0
  0
LINE
  5
3C3
102
{ACAD_REACTORS
330
5A3
102
}
330
1F
100
AcDbEntity
  8
LC-002-002-----0
 62
     7
370
    25
100
AcDbLine
 10
824.072173
 20
2460.222441
 30
0.0
 11
823.374719
 21
2440.24999
 31
0.0
  0
LINE
  5
3C4
102
{ACAD_REACTORS
330
5A3
102
}
330
1F
100
AcDbEntity
  8
LC-002-002-----0
 62
     7
370
    25
100
AcDbLine
 10
830.87472
 20
2475.25
 30
0.0
 11
830.87472
 21
2481.25
 31
0.0
  0
LINE
  5
3C5
102
{ACAD_REACTORS
330
5A2
102
}
330
1F
100
AcDbEntity
  8
LC-002-002-----0
 62
     7
370
    25
100
AcDbLine
 10
830.570972
 20
2544.062666
 30
0.0
 11
824.628435
 21
2487.523212
 31
0.0
  0
LINE
  5
3C6
102
{ACAD_REACTORS
330
5A2
102
}
330
1F
100
AcDbEntity
  8
LC-002-002-----0
 62
     7
370
    25
100
AcDbLine
 10
805.707924
 20
2546.675878
 30
0.0
 11
799.765388
 21
2490.136423
 31
0.0
  0
LINE
  5
3C7
102
{ACAD_REACTORS
330
5A3
102
}
330
1F
100
AcDbEntity
  8
LC-002-002-----0
 62
     7
370
    25
100
AcDbLine
 10
790.87472
 20
2475.25
 30
0.0
 11
790.87472
 21
2475.917467
 31
0.0
  0
LINE
  5
3C8
102
{ACAD_REACTORS
330
5A3
102
}
330
1F
100
AcDbEntity
  8
LC-002-002-----0
 62
     7
370
    25
100
AcDbLine
 10
797.677267
 20
2460.222441
 30
0.0
 11
797.939977
 21
2452.699396
 31
0.0
  0
LINE
  5
3C9
102
{ACAD_REACTORS
330
5A3
102
}
330
1F
100
AcDbEntity
  8
LC-002-002-----0
 62
     7
370
    25
100
AcDbLine
 10
776.427343
 20
2427.75
 30
0.0
 11
810.875188
 21
2427.75
 31
0.0
  0
LINE
  5
3CA
102
{ACAD_REACTORS
330
5A3
102
}
330
1F
100
AcDbEntity
  8
LC-002-002-----0
 62
     7
370
    25
100
AcDbLine
 10
776.427343
 20
2452.75
 30
0.0
 11
797.93821
 21
2452.75
 31
0.0
  0
LINE
  5
3CB
102
{ACAD_REACTORS
330
5A3
102
}
330
1F
100
AcDbEntity
  8
LC-002-002-----0
 62
     7
370
    25
100
AcDbLine
 10
830.87472
 20
2481.25
 30
0.0
 11
794.782895
 21
2481.25
 31
0.0
  0
LINE
  5
3CC
102
{ACAD_REACTORS
330
5A2
102
}
330
1F
100
AcDbEntity
  8
LC-002-002-----0
 62
     7
370
    25
100
AcDbLine
 10
799.765388
 20
2490.136423
 30
0.0
 11
824.628435
 21
2487.523212
 31
0.0
  0
LINE
  5
3CD
102
{ACAD_REACTORS
330
5A2
102
}
330
1F
100
AcDbEntity
  8
LC-002-002-----0
 62
     7
370
    25
100
AcDbLine
 10
806.257449
 20
2547.120874
 30
0.0
 11
830.125975
 21
2544.612191
 31
0.0
  0
ARC
  5
3CE
102
{ACAD_REACTORS
330
5A3
102
}
330
1F
100
AcDbEntity
  8
LC-002-002-----0
 62
     7
370
    25
100
AcDbCircle
 10
810.87472
 20
2475.25
 30
0.0
 40
20.0
100
AcDbArc
 50
180.0
 51
228.709574
  0
ARC
  5
3CF
102
{ACAD_REACTORS
330
5A3
102
}
330
1F
100
AcDbEntity
  8
LC-002-002-----0
 62
     7
370
    25
100
AcDbCircle
 10
810.87472
 20
2475.25
 30
0.0
 40
19.99999999999982
100
AcDbArc
 50
311.290562
 51
0.0
  0
ARC
  5
3D0
102
{ACAD_REACTORS
330
5A3
102
}
330
1F
100
AcDbEntity
  8
LC-002-002-----0
 62
     7
370
    25
100
AcDbCircle
 10
810.874738
 20
2440.250019
 30
0.0
 40
12.49998146379994
100
AcDbArc
 50
270.0
 51
359.999915
  0
ARC
  5
3D1
102
{ACAD_REACTORS
330
5A2
102
}
330
1F
100
AcDbEntity
  8
LC-002-002-----0
 62
     7
370
    25
100
AcDbCircle
 10
806.205185
 20
2546.623613
 30
0.0
 40
0.4999999999999214
100
AcDbArc
 50
84.0
 51
174.0
  0
ARC
  5
3D2
102
{ACAD_REACTORS
330
5A2
102
}
330
1F
100
AcDbEntity
  8
LC-002-002-----0
 62
     7
370
    25
100
AcDbCircle
 10
830.073711
 20
2544.11493
 30
0.0
 40
0.4999999999999214
100
AcDbArc
 50
354.0
 51
84.0
  0
ARC
  5
3D3
102
{ACAD_REACTORS
330
5A2
102
}
330
1F
100
AcDbEntity
  8
LC-002-002-----0
 62
     7
370
    25
100
AcDbCircle
 10
798.770866
 20
2490.240952
 30
0.0
 40
1.00000000000018
100
AcDbArc
 50
310.862322
 51
354.0
  0
ARC
  5
3D4
102
{ACAD_REACTORS
330
5A2
102
}
330
1F
100
AcDbEntity
  8
LC-002-002-----0
 62
     7
370
    25
100
AcDbCircle
 10
825.622957
 20
2487.418683
 30
0.0
 40
0.9999999999999738
100
AcDbArc
 50
174.0
 51
217.137678
  0
ARC
  5
3D5
102
{ACAD_REACTORS
330
5A2
102
}
330
1F
100
AcDbEntity
  8
LC-002-002-----0
 62
     7
370
    25
100
AcDbCircle
 10
810.87472
 20
2476.25
 30
0.0
 40
17.5000000000001
100
AcDbArc
 50
16.601549
 51
37.14165
  0
ARC
  5
3D6
102
{ACAD_REACTORS
330
5A2
102
}
330
1F
100
AcDbEntity
  8
LC-002-002-----0
 62
     7
370
    25
100
AcDbCircle
 10
810.87472
 20
2476.25
 30
0.0
 40
17.49999999998647
100
AcDbArc
 50
130.858194
 51
142.208144
  0
INSERT
  5
400
102
{ACAD_REACTORS
330
5A3
102
}
330
1F
100
AcDbEntity
  8
LC-002-002-----0
 62
     7
370
    25
100
AcDbBlockReference
  2
POLY12
 10
0.0
 20
0.0
 30
0.0
  0
ARC
  5
401
102
{ACAD_REACTORS
330
59A
102
}
330
1F
100
AcDbEntity
  8
LC-002-002-----0
 62
     7
370
    25
100
AcDbCircle
 10
948.677343
 20
2387.897772
 30
0.0
 40
22.0
100
AcDbArc
 50
180.0
 51
0.0
  0
LINE
  5
402
102
{ACAD_REACTORS
330
59A
102
}
330
1F
100
AcDbEntity
  8
LC-002-002-----0
 62
     7
370
    25
100
AcDbLine
 10
970.677343
 20
2387.897772
 30
0.0
 11
970.677343
 21
2401.588956
 31
0.0
  0
LINE
  5
403
102
{ACAD_REACTORS
330
59A
102
}
330
1F
100
AcDbEntity
  8
LC-002-002-----0
 62
     7
370
    25
100
AcDbLine
 10
926.677343
 20
2387.897772
 30
0.0
 11
926.677343
 21
2401.588956
 31
0.0
  0
LINE
  5
404
102
{ACAD_REACTORS
330
59A
102
}
330
1F
100
AcDbEntity
  8
LC-002-002-----0
 62
     7
370
    25
100
AcDbLine
 10
1003.677343
 20
2462.5
 30
0.0
 11
893.677343
 21
2462.5
 31
0.0
  0
LINE
  5
405
102
{ACAD_REACTORS
330
59A
102
}
330
1F
100
AcDbEntity
  8
LC-002-002-----0
 62
     7
370
    25
100
AcDbLine
 10
893.677343
 20
2458.5
 30
0.0
 11
893.677343
 21
2462.5
 31
0.0
  0
LINE
  5
406
102
{ACAD_REACTORS
330
59A
102
}
330
1F
100
AcDbEntity
  8
LC-002-002-----0
 62
     7
370
    25
100
AcDbLine
 10
911.177343
 20
2419.857319
 30
0.0
 11
913.179205
 21
2419.857319
 31
0.0
  0
LINE
  5
407
102
{ACAD_REACTORS
330
59A
102
}
330
1F
100
AcDbEntity
  8
LC-002-002-----0
 62
     7
370
    25
100
AcDbLine
 10
909.172379
 20
2422.357319
 30
0.0
 11
911.177343
 21
2422.357319
 31
0.0
  0
LINE
  5
408
102
{ACAD_REACTORS
330
59A
102
}
330
1F
100
AcDbEntity
  8
LC-002-002-----0
 62
     7
370
    25
100
AcDbLine
 10
905.927953
 20
2426.687093
 30
0.0
 11
904.177978
 21
2427.697442
 31
0.0
  0
LINE
  5
409
102
{ACAD_REACTORS
330
59A
102
}
330
1F
100
AcDbEntity
  8
LC-002-002-----0
 62
     7
370
    25
100
AcDbLine
 10
913.179205
 20
2419.154074
 30
0.0
 11
913.179205
 21
2419.857319
 31
0.0
  0
LINE
  5
40A
102
{ACAD_REACTORS
330
59A
102
}
330
1F
100
AcDbEntity
  8
LC-002-002-----0
 62
     7
370
    25
100
AcDbLine
 10
911.177343
 20
2422.357319
 30
0.0
 11
911.177343
 21
2419.857319
 31
0.0
  0
LINE
  5
40B
102
{ACAD_REACTORS
330
59A
102
}
330
1F
100
AcDbEntity
  8
LC-002-002-----0
 62
     7
370
    25
100
AcDbLine
 10
901.177343
 20
2432.893961
 30
0.0
 11
901.177343
 21
2448.357319
 31
0.0
  0
LINE
  5
40C
102
{ACAD_REACTORS
330
59A
102
}
330
1F
100
AcDbEntity
  8
LC-002-002-----0
 62
     7
370
    25
100
AcDbLine
 10
920.388404
 20
2409.398938
 30
0.0
 11
919.909958
 21
2412.017802
 31
0.0
  0
LINE
  5
40D
102
{ACAD_REACTORS
330
59A
102
}
330
1F
100
AcDbEntity
  8
LC-002-002-----0
 62
     7
370
    25
100
AcDbLine
 10
893.677343
 20
2458.039777
 30
0.0
 11
893.677343
 21
2458.5
 31
0.0
  0
ARC
  5
40E
102
{ACAD_REACTORS
330
59A
102
}
330
1F
100
AcDbEntity
  8
LC-002-002-----0
 62
     7
370
    25
100
AcDbCircle
 10
897.177343
 20
2448.357319
 30
0.0
 40
3.999999999999318
100
AcDbArc
 50
0.0
 51
75.507853
  0
ARC
  5
40F
102
{ACAD_REACTORS
330
59A
102
}
330
1F
100
AcDbEntity
  8
LC-002-002-----0
 62
     7
370
    25
100
AcDbCircle
 10
899.677343
 20
2458.039777
 30
0.0
 40
6.000000000000114
100
AcDbArc
 50
180.0
 51
255.530548
  0
ARC
  5
410
102
{ACAD_REACTORS
330
59A
102
}
330
1F
100
AcDbEntity
  8
LC-002-002-----0
 62
     7
370
    25
100
AcDbCircle
 10
907.177343
 20
2432.893961
 30
0.0
 40
6.0
100
AcDbArc
 50
180.0
 51
240.011524
  0
ARC
  5
411
102
{ACAD_REACTORS
330
59A
102
}
330
1F
100
AcDbEntity
  8
LC-002-002-----0
 62
     7
370
    25
100
AcDbCircle
 10
903.427343
 20
2422.357319
 30
0.0
 40
5.000000000000194
100
AcDbArc
 50
7.927775
 51
59.983847
  0
ARC
  5
412
102
{ACAD_REACTORS
330
59A
102
}
330
1F
100
AcDbEntity
  8
LC-002-002-----0
 62
     7
370
    25
100
AcDbCircle
 10
909.171905
 20
2423.157319
 30
0.0
 40
0.7999999999997687
100
AcDbArc
 50
187.937394
 51
270.0
  0
ARC
  5
413
102
{ACAD_REACTORS
330
59A
102
}
330
1F
100
AcDbEntity
  8
LC-002-002-----0
 62
     7
370
    25
100
AcDbCircle
 10
926.782568
 20
2410.567129
 30
0.0
 40
6.500000000000084
100
AcDbArc
 50
190.354177
 51
250.92296
  0
ARC
  5
414
102
{ACAD_REACTORS
330
59A
102
}
330
1F
100
AcDbEntity
  8
LC-002-002-----0
 62
     7
370
    25
100
AcDbCircle
 10
923.677343
 20
2401.588956
 30
0.0
 40
3.000000000000341
100
AcDbArc
 50
0.0
 51
70.944552
  0
ARC
  5
415
102
{ACAD_REACTORS
330
59A
102
}
330
1F
100
AcDbEntity
  8
LC-002-002-----0
 62
     7
370
    25
100
AcDbCircle
 10
915.179205
 20
2419.154074
 30
0.0
 40
1.999999999999773
100
AcDbArc
 50
180.0
 51
205.847369
  0
ARC
  5
416
102
{ACAD_REACTORS
330
59A
102
}
330
1F
100
AcDbEntity
  8
LC-002-002-----0
 62
     7
370
    25
100
AcDbCircle
 10
918.779139
 20
2420.897772
 30
0.0
 40
5.999999999999899
100
AcDbArc
 50
205.844972
 51
253.716483
  0
ARC
  5
417
102
{ACAD_REACTORS
330
59A
102
}
330
1F
100
AcDbEntity
  8
LC-002-002-----0
 62
     7
370
    25
100
AcDbCircle
 10
915.97508
 20
2411.298956
 30
0.0
 40
4.000000000000214
100
AcDbArc
 50
10.352952
 51
73.718249
  0
LINE
  5
418
102
{ACAD_REACTORS
330
59A
102
}
330
1F
100
AcDbEntity
  8
LC-002-002-----0
 62
     7
370
    25
100
AcDbLine
 10
1003.677343
 20
2458.5
 30
0.0
 11
1003.677343
 21
2462.5
 31
0.0
  0
LINE
  5
419
102
{ACAD_REACTORS
330
59A
102
}
330
1F
100
AcDbEntity
  8
LC-002-002-----0
 62
     7
370
    25
100
AcDbLine
 10
991.426733
 20
2426.687093
 30
0.0
 11
993.176708
 21
2427.697442
 31
0.0
  0
LINE
  5
41A
102
{ACAD_REACTORS
330
59A
102
}
330
1F
100
AcDbEntity
  8
LC-002-002-----0
 62
     7
370
    25
100
AcDbLine
 10
984.17548
 20
2419.154074
 30
0.0
 11
984.17548
 21
2419.857319
 31
0.0
  0
LINE
  5
41B
102
{ACAD_REACTORS
330
59A
102
}
330
1F
100
AcDbEntity
  8
LC-002-002-----0
 62
     7
370
    25
100
AcDbLine
 10
986.177343
 20
2422.357319
 30
0.0
 11
986.177343
 21
2419.857319
 31
0.0
  0
LINE
  5
41C
102
{ACAD_REACTORS
330
59A
102
}
330
1F
100
AcDbEntity
  8
LC-002-002-----0
 62
     7
370
    25
100
AcDbLine
 10
996.177343
 20
2432.893961
 30
0.0
 11
996.177343
 21
2448.357319
 31
0.0
  0
LINE
  5
41D
102
{ACAD_REACTORS
330
59A
102
}
330
1F
100
AcDbEntity
  8
LC-002-002-----0
 62
     7
370
    25
100
AcDbLine
 10
976.966282
 20
2409.398938
 30
0.0
 11
977.444728
 21
2412.017802
 31
0.0
  0
LINE
  5
41E
102
{ACAD_REACTORS
330
59A
102
}
330
1F
100
AcDbEntity
  8
LC-002-002-----0
 62
     7
370
    25
100
AcDbLine
 10
1003.677343
 20
2458.039777
 30
0.0
 11
1003.677343
 21
2458.5
 31
0.0
  0
ARC
  5
41F
102
{ACAD_REACTORS
330
59A
102
}
330
1F
100
AcDbEntity
  8
LC-002-002-----0
 62
     7
370
    25
100
AcDbCircle
 10
1000.177343
 20
2448.357319
 30
0.0
 40
4.000000000000366
100
AcDbArc
 50
104.492147
 51
180.0
  0
ARC
  5
420
102
{ACAD_REACTORS
330
59A
102
}
330
1F
100
AcDbEntity
  8
LC-002-002-----0
 62
     7
370
    25
100
AcDbCircle
 10
997.677343
 20
2458.039777
 30
0.0
 40
6.000000000000126
100
AcDbArc
 50
284.469452
 51
0.0
  0
ARC
  5
421
102
{ACAD_REACTORS
330
59A
102
}
330
1F
100
AcDbEntity
  8
LC-002-002-----0
 62
     7
370
    25
100
AcDbCircle
 10
990.177343
 20
2432.893961
 30
0.0
 40
5.999999999999977
100
AcDbArc
 50
299.988476
 51
0.0
  0
ARC
  5
422
102
{ACAD_REACTORS
330
59A
102
}
330
1F
100
AcDbEntity
  8
LC-002-002-----0
 62
     7
370
    25
100
AcDbCircle
 10
993.927343
 20
2422.357319
 30
0.0
 40
5.000000000000471
100
AcDbArc
 50
120.016153
 51
172.072225
  0
ARC
  5
423
102
{ACAD_REACTORS
330
59A
102
}
330
1F
100
AcDbEntity
  8
LC-002-002-----0
 62
     7
370
    25
100
AcDbCircle
 10
988.18278
 20
2423.157319
 30
0.0
 40
0.8000000000001819
100
AcDbArc
 50
270.0
 51
352.062606
  0
ARC
  5
424
102
{ACAD_REACTORS
330
59A
102
}
330
1F
100
AcDbEntity
  8
LC-002-002-----0
 62
     7
370
    25
100
AcDbCircle
 10
970.572118
 20
2410.567129
 30
0.0
 40
6.500000000000005
100
AcDbArc
 50
289.07704
 51
349.645823
  0
ARC
  5
425
102
{ACAD_REACTORS
330
59A
102
}
330
1F
100
AcDbEntity
  8
LC-002-002-----0
 62
     7
370
    25
100
AcDbCircle
 10
973.677343
 20
2401.588956
 30
0.0
 40
2.999999995699702
100
AcDbArc
 50
109.055448
 51
180.0
  0
ARC
  5
426
102
{ACAD_REACTORS
330
59A
102
}
330
1F
100
AcDbEntity
  8
LC-002-002-----0
 62
     7
370
    25
100
AcDbCircle
 10
982.17548
 20
2419.154074
 30
0.0
 40
1.999999999999766
100
AcDbArc
 50
334.152631
 51
0.0
  0
ARC
  5
427
102
{ACAD_REACTORS
330
59A
102
}
330
1F
100
AcDbEntity
  8
LC-002-002-----0
 62
     7
370
    25
100
AcDbCircle
 10
978.575547
 20
2420.897772
 30
0.0
 40
5.999999999999909
100
AcDbArc
 50
286.283517
 51
334.155028
  0
ARC
  5
428
102
{ACAD_REACTORS
330
59A
102
}
330
1F
100
AcDbEntity
  8
LC-002-002-----0
 62
     7
370
    25
100
AcDbCircle
 10
981.379606
 20
2411.298956
 30
0.0
 40
4.000000000000402
100
AcDbArc
 50
106.281751
 51
169.647048
  0
ARC
  5
429
102
{ACAD_REACTORS
330
59A
102
}
330
1F
100
AcDbEntity
  8
LC-002-002-----0
 62
     7
370
    25
100
AcDbCircle
 10
948.677343
 20
2387.897772
 30
0.0
 40
27.70479324130037
100
AcDbArc
 50
145.394244
 51
34.605756
  0
LINE
  5
42A
102
{ACAD_REACTORS
330
5A4
102
}
330
1F
100
AcDbEntity
  8
LC-002-002-----0
 62
     7
370
    25
100
AcDbLine
 10
742.177343
 20
2422.357319
 30
0.0
 11
744.182306
 21
2422.357319
 31
0.0
  0
LINE
  5
42B
102
{ACAD_REACTORS
330
5A4
102
}
330
1F
100
AcDbEntity
  8
LC-002-002-----0
 62
     7
370
    25
100
AcDbLine
 10
740.17548
 20
2419.857319
 30
0.0
 11
742.177343
 21
2419.857319
 31
0.0
  0
LINE
  5
42C
102
{ACAD_REACTORS
330
59A
102
}
330
1F
100
AcDbEntity
  8
LC-002-002-----0
 62
     7
370
    25
100
AcDbLine
 10
986.177343
 20
2422.357319
 30
0.0
 11
988.18278
 21
2422.357319
 31
0.0
  0
LINE
  5
42D
102
{ACAD_REACTORS
330
59A
102
}
330
1F
100
AcDbEntity
  8
LC-002-002-----0
 62
     7
370
    25
100
AcDbLine
 10
984.17548
 20
2419.857319
 30
0.0
 11
986.177343
 21
2419.857319
 31
0.0
  0
LINE
  5
42E
102
{ACAD_REACTORS
330
597
102
}
330
1F
100
AcDbEntity
  8
LC-002-002-----0
 62
     7
370
    25
100
AcDbLine
 10
758.081064
 20
2362.097772
 30
0.0
 11
758.081064
 21
2360.942996
 31
0.0
  0
ARC
  5
42F
102
{ACAD_REACTORS
330
59D
102
}
330
1F
100
AcDbEntity
  8
LC-004-002-RND-0
 62
     7
370
    25
100
AcDbCircle
 10
1753.383129
 20
1745.45633
 30
0.0
 40
0.5
100
AcDbArc
 50
0.0
 51
90.0
  0
ARC
  5
430
102
{ACAD_REACTORS
330
59D
102
}
330
1F
100
AcDbEntity
  8
LC-004-002-RND-0
 62
     7
370
    25
100
AcDbCircle
 10
1753.383129
 20
1719.85633
 30
0.0
 40
0.5
100
AcDbArc
 50
270.0
 51
0.0
  0
LINE
  5
431
102
{ACAD_REACTORS
330
59D
102
}
330
1F
100
AcDbEntity
  8
LC-002-002-----0
 62
     7
370
    25
100
AcDbLine
 10
1723.883129
 20
1745.95633
 30
0.0
 11
1753.383129
 21
1745.95633
 31
0.0
  0
LINE
  5
432
102
{ACAD_REACTORS
330
59C
102
}
330
1F
100
AcDbEntity
  8
LC-002-002-----0
 62
     7
370
    25
100
AcDbLine
 10
1753.883129
 20
1744.356331
 30
0.0
 11
1774.863826
 21
1744.356331
 31
0.0
  0
LINE
  5
433
102
{ACAD_REACTORS
330
59D
102
}
330
1F
100
AcDbEntity
  8
LC-002-002-----0
 62
     7
370
    25
100
AcDbLine
 10
1701.289442
 20
1743.85633
 30
0.0
 11
1715.883129
 21
1743.85633
 31
0.0
  0
LINE
  5
434
102
{ACAD_REACTORS
330
59D
102
}
330
1F
100
AcDbEntity
  8
LC-002-002-----0
 62
     7
370
    25
100
AcDbLine
 10
1715.883125
 20
1721.45633
 30
0.0
 11
1723.883129
 21
1719.35633
 31
0.0
  0
LINE
  5
435
102
{ACAD_REACTORS
330
59C
102
}
330
1F
100
AcDbEntity
  8
LC-002-002-----0
 62
     7
370
    25
100
AcDbLine
 10
1774.863826
 20
1720.956331
 30
0.0
 11
1753.883129
 21
1720.956331
 31
0.0
  0
LINE
  5
436
102
{ACAD_REACTORS
330
59D
102
}
330
1F
100
AcDbEntity
  8
LC-002-002-----0
 62
     7
370
    25
100
AcDbLine
 10
1701.289442
 20
1721.45633
 30
0.0
 11
1715.883129
 21
1721.45633
 31
0.0
  0
LINE
  5
437
102
{ACAD_REACTORS
330
59D
102
}
330
1F
100
AcDbEntity
  8
LC-002-002-----0
 62
     7
370
    25
100
AcDbLine
 10
1723.883129
 20
1745.95633
 30
0.0
 11
1715.883129
 21
1743.85633
 31
0.0
  0
LINE
  5
438
102
{ACAD_REACTORS
330
59D
102
}
330
1F
100
AcDbEntity
  8
LC-002-002-----0
 62
     7
370
    25
100
AcDbLine
 10
1753.383129
 20
1719.35633
 30
0.0
 11
1723.883129
 21
1719.35633
 31
0.0
  0
LINE
  5
439
102
{ACAD_REACTORS
330
59D
102
}
330
1F
100
AcDbEntity
  8
LC-002-002-----0
 62
     7
370
    25
100
AcDbLine
 10
1753.883129
 20
1719.85633
 30
0.0
 11
1753.883129
 21
1745.45633
 31
0.0
  0
ARC
  5
43A
102
{ACAD_REACTORS
330
59C
102
}
330
1F
100
AcDbEntity
  8
LC-002-002-----0
 62
     7
370
    25
100
AcDbCircle
 10
1786.539442
 20
1732.656331
 30
0.0
 40
19.25000000000013
100
AcDbArc
 50
217.430036
 51
142.569964
  0
ARC
  5
43B
102
{ACAD_REACTORS
330
59C
102
}
330
1F
100
AcDbEntity
  8
LC-002-002-----0
 62
     7
370
    25
100
AcDbCircle
 10
1786.539442
 20
1732.656331
 30
0.0
 40
16.50000000000001
100
AcDbArc
 50
217.041927
 51
142.96134
  0
LINE
  5
43C
102
{ACAD_REACTORS
330
59C
102
}
330
1F
100
AcDbEntity
  8
LC-002-002-----0
 62
     7
370
    25
100
AcDbLine
 10
1773.278303
 20
1722.748689
 30
0.0
 11
1773.278303
 21
1722.748689
 31
0.0
  0
LINE
  5
43D
102
{ACAD_REACTORS
330
59C
102
}
330
1F
100
AcDbEntity
  8
LC-002-002-----0
 62
     7
370
    25
100
AcDbLine
 10
1773.369226
 20
1722.716743
 30
0.0
 11
1770.552553
 21
1723.706392
 31
0.0
  0
LINE
  5
43E
102
{ACAD_REACTORS
330
59C
102
}
330
1F
100
AcDbEntity
  8
LC-002-002-----0
 62
     7
370
    25
100
AcDbLine
 10
1770.552553
 20
1723.706392
 30
0.0
 11
1770.552553
 21
1723.706392
 31
0.0
  0
LINE
  5
43F
102
{ACAD_REACTORS
330
59C
102
}
330
1F
100
AcDbEntity
  8
LC-002-002-----0
 62
     7
370
    25
100
AcDbLine
 10
1770.552553
 20
1723.706392
 30
0.0
 11
1768.64596
 21
1724.642959
 31
0.0
  0
LINE
  5
440
102
{ACAD_REACTORS
330
59C
102
}
330
1F
100
AcDbEntity
  8
LC-002-002-----0
 62
     7
370
    25
100
AcDbLine
 10
1768.64596
 20
1724.642959
 30
0.0
 11
1768.64596
 21
1724.642959
 31
0.0
  0
LINE
  5
441
102
{ACAD_REACTORS
330
59C
102
}
330
1F
100
AcDbEntity
  8
LC-002-002-----0
 62
     7
370
    25
100
AcDbLine
 10
1768.64596
 20
1724.642959
 30
0.0
 11
1767.589498
 21
1725.306762
 31
0.0
  0
LINE
  5
442
102
{ACAD_REACTORS
330
59C
102
}
330
1F
100
AcDbEntity
  8
LC-002-002-----0
 62
     7
370
    25
100
AcDbLine
 10
1767.589498
 20
1725.306762
 30
0.0
 11
1767.589498
 21
1725.306762
 31
0.0
  0
LINE
  5
443
102
{ACAD_REACTORS
330
59C
102
}
330
1F
100
AcDbEntity
  8
LC-002-002-----0
 62
     7
370
    25
100
AcDbLine
 10
1767.589498
 20
1725.306762
 30
0.0
 11
1766.590749
 21
1726.076782
 31
0.0
  0
LINE
  5
444
102
{ACAD_REACTORS
330
59C
102
}
330
1F
100
AcDbEntity
  8
LC-002-002-----0
 62
     7
370
    25
100
AcDbLine
 10
1766.590749
 20
1726.076782
 30
0.0
 11
1766.590749
 21
1726.076782
 31
0.0
  0
LINE
  5
445
102
{ACAD_REACTORS
330
59C
102
}
330
1F
100
AcDbEntity
  8
LC-002-002-----0
 62
     7
370
    25
100
AcDbLine
 10
1766.590749
 20
1726.076782
 30
0.0
 11
1765.455514
 21
1727.210647
 31
0.0
  0
LINE
  5
446
102
{ACAD_REACTORS
330
59C
102
}
330
1F
100
AcDbEntity
  8
LC-002-002-----0
 62
     7
370
    25
100
AcDbLine
 10
1765.455514
 20
1727.210647
 30
0.0
 11
1765.455514
 21
1727.210647
 31
0.0
  0
LINE
  5
447
102
{ACAD_REACTORS
330
59C
102
}
330
1F
100
AcDbEntity
  8
LC-002-002-----0
 62
     7
370
    25
100
AcDbLine
 10
1765.455514
 20
1727.210647
 30
0.0
 11
1764.875835
 21
1727.96406
 31
0.0
  0
LINE
  5
448
102
{ACAD_REACTORS
330
59C
102
}
330
1F
100
AcDbEntity
  8
LC-002-002-----0
 62
     7
370
    25
100
AcDbLine
 10
1764.875835
 20
1727.96406
 30
0.0
 11
1764.875835
 21
1727.96406
 31
0.0
  0
LINE
  5
449
102
{ACAD_REACTORS
330
59C
102
}
330
1F
100
AcDbEntity
  8
LC-002-002-----0
 62
     7
370
    25
100
AcDbLine
 10
1764.875835
 20
1727.96406
 30
0.0
 11
1764.369994
 21
1728.791559
 31
0.0
  0
LINE
  5
44A
102
{ACAD_REACTORS
330
59C
102
}
330
1F
100
AcDbEntity
  8
LC-002-002-----0
 62
     7
370
    25
100
AcDbLine
 10
1764.369994
 20
1728.791559
 30
0.0
 11
1764.369994
 21
1728.791559
 31
0.0
  0
LINE
  5
44B
102
{ACAD_REACTORS
330
59C
102
}
330
1F
100
AcDbEntity
  8
LC-002-002-----0
 62
     7
370
    25
100
AcDbLine
 10
1764.369994
 20
1728.791559
 30
0.0
 11
1763.626961
 21
1730.717574
 31
0.0
  0
LINE
  5
44C
102
{ACAD_REACTORS
330
59C
102
}
330
1F
100
AcDbEntity
  8
LC-002-002-----0
 62
     7
370
    25
100
AcDbLine
 10
1763.626961
 20
1730.717574
 30
0.0
 11
1763.626961
 21
1730.717574
 31
0.0
  0
LINE
  5
44D
102
{ACAD_REACTORS
330
59C
102
}
330
1F
100
AcDbEntity
  8
LC-002-002-----0
 62
     7
370
    25
100
AcDbLine
 10
1763.626961
 20
1730.717574
 30
0.0
 11
1763.450492
 21
1731.679869
 31
0.0
  0
LINE
  5
44E
102
{ACAD_REACTORS
330
59C
102
}
330
1F
100
AcDbEntity
  8
LC-002-002-----0
 62
     7
370
    25
100
AcDbLine
 10
1763.450492
 20
1731.679869
 30
0.0
 11
1763.450492
 21
1731.679869
 31
0.0
  0
LINE
  5
44F
102
{ACAD_REACTORS
330
59C
102
}
330
1F
100
AcDbEntity
  8
LC-002-002-----0
 62
     7
370
    25
100
AcDbLine
 10
1763.450492
 20
1731.679869
 30
0.0
 11
1763.391046
 21
1732.661755
 31
0.0
  0
LINE
  5
450
102
{ACAD_REACTORS
330
59C
102
}
330
1F
100
AcDbEntity
  8
LC-002-002-----0
 62
     7
370
    25
100
AcDbLine
 10
1763.391046
 20
1732.661755
 30
0.0
 11
1763.391046
 21
1732.661755
 31
0.0
  0
LINE
  5
451
102
{ACAD_REACTORS
330
59C
102
}
330
1F
100
AcDbEntity
  8
LC-002-002-----0
 62
     7
370
    25
100
AcDbLine
 10
1763.391046
 20
1732.661755
 30
0.0
 11
1763.629289
 21
1734.604496
 31
0.0
  0
LINE
  5
452
102
{ACAD_REACTORS
330
59C
102
}
330
1F
100
AcDbEntity
  8
LC-002-002-----0
 62
     7
370
    25
100
AcDbLine
 10
1763.629289
 20
1734.604496
 30
0.0
 11
1763.629289
 21
1734.604496
 31
0.0
  0
LINE
  5
453
102
{ACAD_REACTORS
330
59C
102
}
330
1F
100
AcDbEntity
  8
LC-002-002-----0
 62
     7
370
    25
100
AcDbLine
 10
1763.629289
 20
1734.604496
 30
0.0
 11
1764.341387
 21
1736.467329
 31
0.0
  0
LINE
  5
454
102
{ACAD_REACTORS
330
59C
102
}
330
1F
100
AcDbEntity
  8
LC-002-002-----0
 62
     7
370
    25
100
AcDbLine
 10
1764.341387
 20
1736.467329
 30
0.0
 11
1764.341387
 21
1736.467329
 31
0.0
  0
LINE
  5
455
102
{ACAD_REACTORS
330
59C
102
}
330
1F
100
AcDbEntity
  8
LC-002-002-----0
 62
     7
370
    25
100
AcDbLine
 10
1764.341387
 20
1736.467329
 30
0.0
 11
1765.28978
 21
1737.902416
 31
0.0
  0
LINE
  5
456
102
{ACAD_REACTORS
330
59C
102
}
330
1F
100
AcDbEntity
  8
LC-002-002-----0
 62
     7
370
    25
100
AcDbLine
 10
1765.28978
 20
1737.902416
 30
0.0
 11
1765.28978
 21
1737.902416
 31
0.0
  0
LINE
  5
457
102
{ACAD_REACTORS
330
59C
102
}
330
1F
100
AcDbEntity
  8
LC-002-002-----0
 62
     7
370
    25
100
AcDbLine
 10
1765.28978
 20
1737.902416
 30
0.0
 11
1766.172256
 21
1738.857576
 31
0.0
  0
LINE
  5
458
102
{ACAD_REACTORS
330
59C
102
}
330
1F
100
AcDbEntity
  8
LC-002-002-----0
 62
     7
370
    25
100
AcDbLine
 10
1766.172256
 20
1738.857576
 30
0.0
 11
1766.172256
 21
1738.857576
 31
0.0
  0
LINE
  5
459
102
{ACAD_REACTORS
330
59C
102
}
330
1F
100
AcDbEntity
  8
LC-002-002-----0
 62
     7
370
    25
100
AcDbLine
 10
1766.172256
 20
1738.857576
 30
0.0
 11
1767.141232
 21
1739.680247
 31
0.0
  0
LINE
  5
45A
102
{ACAD_REACTORS
330
59C
102
}
330
1F
100
AcDbEntity
  8
LC-002-002-----0
 62
     7
370
    25
100
AcDbLine
 10
1767.141232
 20
1739.680247
 30
0.0
 11
1767.141232
 21
1739.680247
 31
0.0
  0
LINE
  5
45B
102
{ACAD_REACTORS
330
59C
102
}
330
1F
100
AcDbEntity
  8
LC-002-002-----0
 62
     7
370
    25
100
AcDbLine
 10
1767.141232
 20
1739.680247
 30
0.0
 11
1768.490695
 21
1740.579836
 31
0.0
  0
LINE
  5
45C
102
{ACAD_REACTORS
330
59C
102
}
330
1F
100
AcDbEntity
  8
LC-002-002-----0
 62
     7
370
    25
100
AcDbLine
 10
1768.490695
 20
1740.579836
 30
0.0
 11
1768.490695
 21
1740.579836
 31
0.0
  0
LINE
  5
45D
102
{ACAD_REACTORS
330
59C
102
}
330
1F
100
AcDbEntity
  8
LC-002-002-----0
 62
     7
370
    25
100
AcDbLine
 10
1768.490695
 20
1740.579836
 30
0.0
 11
1769.623199
 21
1741.185236
 31
0.0
  0
LINE
  5
45E
102
{ACAD_REACTORS
330
59C
102
}
330
1F
100
AcDbEntity
  8
LC-002-002-----0
 62
     7
370
    25
100
AcDbLine
 10
1769.623199
 20
1741.185236
 30
0.0
 11
1769.623199
 21
1741.185236
 31
0.0
  0
LINE
  5
45F
102
{ACAD_REACTORS
330
59C
102
}
330
1F
100
AcDbEntity
  8
LC-002-002-----0
 62
     7
370
    25
100
AcDbLine
 10
1769.623199
 20
1741.185236
 30
0.0
 11
1770.789509
 21
1741.70473
 31
0.0
  0
LINE
  5
460
102
{ACAD_REACTORS
330
59C
102
}
330
1F
100
AcDbEntity
  8
LC-002-002-----0
 62
     7
370
    25
100
AcDbLine
 10
1770.789509
 20
1741.70473
 30
0.0
 11
1770.789509
 21
1741.70473
 31
0.0
  0
LINE
  5
461
102
{ACAD_REACTORS
330
59C
102
}
330
1F
100
AcDbEntity
  8
LC-002-002-----0
 62
     7
370
    25
100
AcDbLine
 10
1770.789509
 20
1741.70473
 30
0.0
 11
1773.368659
 21
1742.595168
 31
0.0
  0
LINE
  5
462
102
{ACAD_REACTORS
330
594
102
}
330
1F
100
AcDbEntity
  8
LC-002-002-----0
 62
     7
370
    25
100
AcDbLine
 10
1504.70776
 20
1978.68175
 30
0.0
 11
1505.478304
 21
1980.161953
 31
0.0
  0
LINE
  5
463
102
{ACAD_REACTORS
330
594
102
}
330
1F
100
AcDbEntity
  8
LC-002-002-----0
 62
     7
370
    25
100
AcDbLine
 10
1506.24858
 20
1978.681638
 30
0.0
 11
1507.019237
 21
1980.162058
 31
0.0
  0
LINE
  5
464
102
{ACAD_REACTORS
330
594
102
}
330
1F
100
AcDbEntity
  8
LC-002-002-----0
 62
     7
370
    25
100
AcDbLine
 10
1507.789517
 20
1978.68175
 30
0.0
 11
1508.559949
 21
1980.161738
 31
0.0
  0
LINE
  5
465
102
{ACAD_REACTORS
330
594
102
}
330
1F
100
AcDbEntity
  8
LC-002-002-----0
 62
     7
370
    25
100
AcDbLine
 10
1509.330395
 20
1978.68175
 30
0.0
 11
1510.100828
 21
1980.161738
 31
0.0
  0
LINE
  5
466
102
{ACAD_REACTORS
330
594
102
}
330
1F
100
AcDbEntity
  8
LC-002-002-----0
 62
     7
370
    25
100
AcDbLine
 10
1510.871274
 20
1978.68175
 30
0.0
 11
1511.641706
 21
1980.161738
 31
0.0
  0
LINE
  5
467
102
{ACAD_REACTORS
330
594
102
}
330
1F
100
AcDbEntity
  8
LC-002-002-----0
 62
     7
370
    25
100
AcDbLine
 10
1512.412152
 20
1978.68175
 30
0.0
 11
1513.182585
 21
1980.161738
 31
0.0
  0
LINE
  5
468
102
{ACAD_REACTORS
330
594
102
}
330
1F
100
AcDbEntity
  8
LC-002-002-----0
 62
     7
370
    25
100
AcDbLine
 10
1513.95303
 20
1978.68175
 30
0.0
 11
1514.723463
 21
1980.161738
 31
0.0
  0
LINE
  5
469
102
{ACAD_REACTORS
330
594
102
}
330
1F
100
AcDbEntity
  8
LC-002-002-----0
 62
     7
370
    25
100
AcDbLine
 10
1516.723489
 20
1979.44782
 30
0.0
 11
1519.837238
 21
1982.561569
 31
0.0
  0
LINE
  5
46A
102
{ACAD_REACTORS
330
594
102
}
330
1F
100
AcDbEntity
  8
LC-002-002-----0
 62
     7
370
    25
100
AcDbLine
 10
1502.937213
 20
1980.161545
 30
0.0
 11
1502.937213
 21
2024.961545
 31
0.0
  0
LINE
  5
46B
102
{ACAD_REACTORS
330
594
102
}
330
1F
100
AcDbEntity
  8
LC-002-002-----0
 62
     7
370
    25
100
AcDbLine
 10
1520.937334
 20
1974.656452
 30
0.0
 11
1522.937238
 21
1976.656356
 31
0.0
  0
LINE
  5
46C
102
{ACAD_REACTORS
330
594
102
}
330
1F
100
AcDbEntity
  8
LC-002-002-----0
 62
     7
370
    25
100
AcDbLine
 10
1519.837213
 20
2022.561545
 30
0.0
 11
1522.937213
 21
2022.561545
 31
0.0
  0
LINE
  5
46D
102
{ACAD_REACTORS
330
594
102
}
330
1F
100
AcDbEntity
  8
LC-002-002-----0
 62
     7
370
    25
100
AcDbLine
 10
1515.23242
 20
1950.156331
 30
0.0
 11
1515.23242
 21
1952.656331
 31
0.0
  0
LINE
  5
46E
102
{ACAD_REACTORS
330
594
102
}
330
1F
100
AcDbEntity
  8
LC-002-002-----0
 62
     7
370
    25
100
AcDbLine
 10
1515.98242
 20
1949.156331
 30
0.0
 11
1515.98242
 21
1949.406331
 31
0.0
  0
LINE
  5
46F
102
{ACAD_REACTORS
330
594
102
}
330
1F
100
AcDbEntity
  8
LC-002-002-----0
 62
     7
370
    25
100
AcDbLine
 10
1516.723489
 20
1979.44782
 30
0.0
 11
1516.723489
 21
2025.675269
 31
0.0
  0
LINE
  5
470
102
{ACAD_REACTORS
330
594
102
}
330
1F
100
AcDbEntity
  8
LC-002-002-----0
 62
     7
370
    25
100
AcDbLine
 10
1517.137213
 20
1949.156331
 30
0.0
 11
1517.137213
 21
1935.656331
 31
0.0
  0
LINE
  5
471
102
{ACAD_REACTORS
330
594
102
}
330
1F
100
AcDbEntity
  8
LC-002-002-----0
 62
     7
370
    25
100
AcDbLine
 10
1520.537213
 20
1954.656331
 30
0.0
 11
1520.537213
 21
1954.44248
 31
0.0
  0
LINE
  5
472
102
{ACAD_REACTORS
330
594
102
}
330
1F
100
AcDbEntity
  8
LC-002-002-----0
 62
     7
370
    25
100
AcDbLine
 10
1520.937213
 20
1954.656331
 30
0.0
 11
1520.937213
 21
1974.656331
 31
0.0
  0
LINE
  5
473
102
{ACAD_REACTORS
330
594
102
}
330
1F
100
AcDbEntity
  8
LC-002-002-----0
 62
     7
370
    25
100
AcDbLine
 10
1522.937213
 20
1876.82807
 30
0.0
 11
1522.937213
 21
1933.656331
 31
0.0
  0
LINE
  5
474
102
{ACAD_REACTORS
330
594
102
}
330
1F
100
AcDbEntity
  8
LC-002-002-----0
 62
     7
370
    25
100
AcDbLine
 10
1522.937213
 20
1982.056929
 30
0.0
 11
1522.937213
 21
1976.656331
 31
0.0
  0
LINE
  5
475
102
{ACAD_REACTORS
330
594
102
}
330
1F
100
AcDbEntity
  8
LC-002-002-----0
 62
     7
370
    25
100
AcDbLine
 10
1520.537301
 20
1954.442526
 30
0.0
 11
1519.057419
 21
1953.672148
 31
0.0
  0
LINE
  5
476
102
{ACAD_REACTORS
330
594
102
}
330
1F
100
AcDbEntity
  8
LC-002-002-----0
 62
     7
370
    25
100
AcDbLine
 10
1520.537301
 20
1952.901648
 30
0.0
 11
1520.066052
 21
1952.656331
 31
0.0
  0
LINE
  5
477
102
{ACAD_REACTORS
330
594
102
}
330
1F
100
AcDbEntity
  8
LC-002-002-----0
 62
     7
370
    25
100
AcDbLine
 10
1562.937213
 20
1876.82807
 30
0.0
 11
1562.937213
 21
1933.656331
 31
0.0
  0
LINE
  5
478
102
{ACAD_REACTORS
330
594
102
}
330
1F
100
AcDbEntity
  8
LC-002-002-----0
 62
     7
370
    25
100
AcDbLine
 10
1562.937213
 20
1982.561545
 30
0.0
 11
1562.937213
 21
1976.656331
 31
0.0
  0
LINE
  5
479
102
{ACAD_REACTORS
330
594
102
}
330
1F
100
AcDbEntity
  8
LC-002-002-----0
 62
     7
370
    25
100
AcDbLine
 10
1564.937213
 20
1954.656331
 30
0.0
 11
1564.937213
 21
1974.656331
 31
0.0
  0
LINE
  5
47A
102
{ACAD_REACTORS
330
594
102
}
330
1F
100
AcDbEntity
  8
LC-002-002-----0
 62
     7
370
    25
100
AcDbLine
 10
1565.337213
 20
1954.656331
 30
0.0
 11
1565.337213
 21
1954.44248
 31
0.0
  0
LINE
  5
47B
102
{ACAD_REACTORS
330
594
102
}
330
1F
100
AcDbEntity
  8
LC-002-002-----0
 62
     7
370
    25
100
AcDbLine
 10
1569.892005
 20
1949.40633
 30
0.0
 11
1570.642005
 21
1950.15633
 31
0.0
  0
LINE
  5
47C
102
{ACAD_REACTORS
330
594
102
}
330
1F
100
AcDbEntity
  8
LC-002-002-----0
 62
     7
370
    25
100
AcDbLine
 10
1566.81712
 20
1953.671993
 30
0.0
 11
1565.33702
 21
1952.901502
 31
0.0
  0
LINE
  5
47D
102
{ACAD_REACTORS
330
594
102
}
330
1F
100
AcDbEntity
  8
LC-002-002-----0
 62
     7
370
    25
100
AcDbLine
 10
1519.837213
 20
1982.561545
 30
0.0
 11
1522.432598
 21
1982.561545
 31
0.0
  0
LINE
  5
47E
102
{ACAD_REACTORS
330
594
102
}
330
1F
100
AcDbEntity
  8
LC-002-002-----0
 62
     7
370
    25
100
AcDbLine
 10
1502.937213
 20
1980.161545
 30
0.0
 11
1503.937213
 21
1980.161545
 31
0.0
  0
LINE
  5
47F
102
{ACAD_REACTORS
330
594
102
}
330
1F
100
AcDbEntity
  8
LC-002-002-----0
 62
     7
370
    25
100
AcDbLine
 10
1514.723363
 20
1980.161545
 30
0.0
 11
1516.723363
 21
1980.161545
 31
0.0
  0
LINE
  5
480
102
{ACAD_REACTORS
330
594
102
}
330
1F
100
AcDbEntity
  8
LC-002-002-----0
 62
     7
370
    25
100
AcDbLine
 10
1568.737213
 20
1949.156331
 30
0.0
 11
1568.737213
 21
1935.656331
 31
0.0
  0
LINE
  5
481
102
{ACAD_REACTORS
330
594
102
}
330
1F
100
AcDbEntity
  8
LC-002-002-----0
 62
     7
370
    25
100
AcDbLine
 10
1569.892007
 20
1949.156331
 30
0.0
 11
1569.892007
 21
1949.406331
 31
0.0
  0
LINE
  5
482
102
{ACAD_REACTORS
330
594
102
}
330
1F
100
AcDbEntity
  8
LC-002-002-----0
 62
     7
370
    25
100
AcDbLine
 10
1570.642007
 20
1950.156331
 30
0.0
 11
1570.642007
 21
1952.656331
 31
0.0
  0
LINE
  5
483
102
{ACAD_REACTORS
330
594
102
}
330
1F
100
AcDbEntity
  8
LC-002-002-----0
 62
     7
370
    25
100
AcDbLine
 10
1520.537213
 20
1954.656331
 30
0.0
 11
1520.937213
 21
1954.656331
 31
0.0
  0
LINE
  5
484
102
{ACAD_REACTORS
330
594
102
}
330
1F
100
AcDbEntity
  8
LC-002-002-----0
 62
     7
370
    25
100
AcDbLine
 10
1515.23242
 20
1952.656331
 30
0.0
 11
1570.642007
 21
1952.656331
 31
0.0
  0
LINE
  5
485
102
{ACAD_REACTORS
330
594
102
}
330
1F
100
AcDbEntity
  8
LC-002-002-----0
 62
     7
370
    25
100
AcDbLine
 10
1569.892007
 20
1949.156331
 30
0.0
 11
1568.737213
 21
1949.156331
 31
0.0
  0
LINE
  5
486
102
{ACAD_REACTORS
330
594
102
}
330
1F
100
AcDbEntity
  8
LC-002-002-----0
 62
     7
370
    25
100
AcDbLine
 10
1566.737333
 20
1933.656331
 30
0.0
 11
1519.137213
 21
1933.656331
 31
0.0
  0
LINE
  5
487
102
{ACAD_REACTORS
330
594
102
}
330
1F
100
AcDbEntity
  8
LC-002-002-----0
 62
     7
370
    25
100
AcDbLine
 10
1565.337126
 20
1954.442526
 30
0.0
 11
1566.817008
 21
1953.672148
 31
0.0
  0
LINE
  5
488
102
{ACAD_REACTORS
330
594
102
}
330
1F
100
AcDbEntity
  8
LC-002-002-----0
 62
     7
370
    25
100
AcDbLine
 10
1565.337126
 20
1952.901648
 30
0.0
 11
1565.808374
 21
1952.656331
 31
0.0
  0
LINE
  5
489
102
{ACAD_REACTORS
330
594
102
}
330
1F
100
AcDbEntity
  8
LC-002-002-----0
 62
     7
370
    25
100
AcDbLine
 10
1519.057307
 20
1953.671993
 30
0.0
 11
1520.537406
 21
1952.901502
 31
0.0
  0
LINE
  5
48A
102
{ACAD_REACTORS
330
594
102
}
330
1F
100
AcDbEntity
  8
LC-002-002-----0
 62
     7
370
    25
100
AcDbLine
 10
1516.723489
 20
2025.675269
 30
0.0
 11
1519.837238
 21
2022.56152
 31
0.0
  0
LINE
  5
48B
102
{ACAD_REACTORS
330
594
102
}
330
1F
100
AcDbEntity
  8
LC-002-002-----0
 62
     7
370
    25
100
AcDbLine
 10
1564.937093
 20
1974.656452
 30
0.0
 11
1562.937156
 21
1976.656389
 31
0.0
  0
LINE
  5
48C
102
{ACAD_REACTORS
330
594
102
}
330
1F
100
AcDbEntity
  8
LC-002-002-----0
 62
     7
370
    25
100
AcDbLine
 10
1515.982421
 20
1949.40633
 30
0.0
 11
1515.232421
 21
1950.15633
 31
0.0
  0
LINE
  5
48D
102
{ACAD_REACTORS
330
594
102
}
330
1F
100
AcDbEntity
  8
LC-002-002-----0
 62
     7
370
    25
100
AcDbLine
 10
1513.182438
 20
1980.161632
 30
0.0
 11
1513.952875
 21
1978.681638
 31
0.0
  0
LINE
  5
48E
102
{ACAD_REACTORS
330
594
102
}
330
1F
100
AcDbEntity
  8
LC-002-002-----0
 62
     7
370
    25
100
AcDbLine
 10
1511.64156
 20
1980.161632
 30
0.0
 11
1512.411996
 21
1978.681638
 31
0.0
  0
LINE
  5
48F
102
{ACAD_REACTORS
330
594
102
}
330
1F
100
AcDbEntity
  8
LC-002-002-----0
 62
     7
370
    25
100
AcDbLine
 10
1510.100681
 20
1980.161632
 30
0.0
 11
1510.871118
 21
1978.681638
 31
0.0
  0
LINE
  5
490
102
{ACAD_REACTORS
330
594
102
}
330
1F
100
AcDbEntity
  8
LC-002-002-----0
 62
     7
370
    25
100
AcDbLine
 10
1508.559803
 20
1980.161632
 30
0.0
 11
1509.330239
 21
1978.681638
 31
0.0
  0
LINE
  5
491
102
{ACAD_REACTORS
330
594
102
}
330
1F
100
AcDbEntity
  8
LC-002-002-----0
 62
     7
370
    25
100
AcDbLine
 10
1507.018758
 20
1980.161953
 30
0.0
 11
1507.789361
 21
1978.681638
 31
0.0
  0
LINE
  5
492
102
{ACAD_REACTORS
330
594
102
}
330
1F
100
AcDbEntity
  8
LC-002-002-----0
 62
     7
370
    25
100
AcDbLine
 10
1505.477825
 20
1980.162058
 30
0.0
 11
1506.248424
 21
1978.68175
 31
0.0
  0
LINE
  5
493
102
{ACAD_REACTORS
330
594
102
}
330
1F
100
AcDbEntity
  8
LC-002-002-----0
 62
     7
370
    25
100
AcDbLine
 10
1503.937001
 20
1980.161953
 30
0.0
 11
1504.707604
 21
1978.681638
 31
0.0
  0
ARC
  5
494
102
{ACAD_REACTORS
330
594
102
}
330
1F
100
AcDbEntity
  8
LC-002-002-----0
 62
     7
370
    25
100
AcDbCircle
 10
1522.937213
 20
1982.561545
 30
0.0
 40
39.99972357249999
100
AcDbArc
 50
0.0
 51
90.0
  0
ARC
  5
495
102
{ACAD_REACTORS
330
594
102
}
330
1F
100
AcDbEntity
  8
LC-002-002-----0
 62
     7
370
    25
100
AcDbCircle
 10
1519.137213
 20
1935.656331
 30
0.0
 40
2.0
100
AcDbArc
 50
180.0
 51
270.0
  0
ARC
  5
496
102
{ACAD_REACTORS
330
594
102
}
330
1F
100
AcDbEntity
  8
LC-002-002-----0
 62
     7
370
    25
100
AcDbCircle
 10
1566.737213
 20
1935.656331
 30
0.0
 40
2.0
100
AcDbArc
 50
270.0
 51
360.0
  0
LINE
  5
497
102
{ACAD_REACTORS
330
594
102
}
330
1F
100
AcDbEntity
  8
LC-002-002-----0
 62
     7
370
    25
100
AcDbLine
 10
1522.432598
 20
1982.561545
 30
0.0
 11
1522.790767
 21
1982.415098
 31
0.0
  0
LINE
  5
498
102
{ACAD_REACTORS
330
594
102
}
330
1F
100
AcDbEntity
  8
LC-002-002-----0
 62
     7
370
    25
100
AcDbLine
 10
1522.790767
 20
1982.415098
 30
0.0
 11
1522.937213
 21
1982.056929
 31
0.0
  0
LINE
  5
499
102
{ACAD_REACTORS
330
594
102
}
330
1F
100
AcDbEntity
  8
LC-002-002-----0
 62
     7
370
    25
100
AcDbLine
 10
1504.70776
 20
2026.441339
 30
0.0
 11
1505.478304
 21
2024.961137
 31
0.0
  0
LINE
  5
49A
102
{ACAD_REACTORS
330
594
102
}
330
1F
100
AcDbEntity
  8
LC-002-002-----0
 62
     7
370
    25
100
AcDbLine
 10
1506.24858
 20
2026.441451
 30
0.0
 11
1507.019237
 21
2024.961031
 31
0.0
  0
LINE
  5
49B
102
{ACAD_REACTORS
330
594
102
}
330
1F
100
AcDbEntity
  8
LC-002-002-----0
 62
     7
370
    25
100
AcDbLine
 10
1507.789517
 20
2026.441339
 30
0.0
 11
1508.559949
 21
2024.961352
 31
0.0
  0
LINE
  5
49C
102
{ACAD_REACTORS
330
594
102
}
330
1F
100
AcDbEntity
  8
LC-002-002-----0
 62
     7
370
    25
100
AcDbLine
 10
1509.330395
 20
2026.441339
 30
0.0
 11
1510.100828
 21
2024.961352
 31
0.0
  0
LINE
  5
49D
102
{ACAD_REACTORS
330
594
102
}
330
1F
100
AcDbEntity
  8
LC-002-002-----0
 62
     7
370
    25
100
AcDbLine
 10
1510.871274
 20
2026.441339
 30
0.0
 11
1511.641706
 21
2024.961352
 31
0.0
  0
LINE
  5
49E
102
{ACAD_REACTORS
330
594
102
}
330
1F
100
AcDbEntity
  8
LC-002-002-----0
 62
     7
370
    25
100
AcDbLine
 10
1512.412152
 20
2026.441339
 30
0.0
 11
1513.182585
 21
2024.961352
 31
0.0
  0
LINE
  5
49F
102
{ACAD_REACTORS
330
594
102
}
330
1F
100
AcDbEntity
  8
LC-002-002-----0
 62
     7
370
    25
100
AcDbLine
 10
1513.95303
 20
2026.441339
 30
0.0
 11
1514.723463
 21
2024.961352
 31
0.0
  0
LINE
  5
4A0
102
{ACAD_REACTORS
330
594
102
}
330
1F
100
AcDbEntity
  8
LC-002-002-----0
 62
     7
370
    25
100
AcDbLine
 10
1502.937213
 20
2024.961545
 30
0.0
 11
1503.937213
 21
2024.961545
 31
0.0
  0
LINE
  5
4A1
102
{ACAD_REACTORS
330
594
102
}
330
1F
100
AcDbEntity
  8
LC-002-002-----0
 62
     7
370
    25
100
AcDbLine
 10
1514.723363
 20
2024.961545
 30
0.0
 11
1516.723363
 21
2024.961545
 31
0.0
  0
LINE
  5
4A2
102
{ACAD_REACTORS
330
594
102
}
330
1F
100
AcDbEntity
  8
LC-002-002-----0
 62
     7
370
    25
100
AcDbLine
 10
1513.182438
 20
2024.961457
 30
0.0
 11
1513.952875
 21
2026.441451
 31
0.0
  0
LINE
  5
4A3
102
{ACAD_REACTORS
330
594
102
}
330
1F
100
AcDbEntity
  8
LC-002-002-----0
 62
     7
370
    25
100
AcDbLine
 10
1511.64156
 20
2024.961457
 30
0.0
 11
1512.411996
 21
2026.441451
 31
0.0
  0
LINE
  5
4A4
102
{ACAD_REACTORS
330
594
102
}
330
1F
100
AcDbEntity
  8
LC-002-002-----0
 62
     7
370
    25
100
AcDbLine
 10
1510.100681
 20
2024.961457
 30
0.0
 11
1510.871118
 21
2026.441451
 31
0.0
  0
LINE
  5
4A5
102
{ACAD_REACTORS
330
594
102
}
330
1F
100
AcDbEntity
  8
LC-002-002-----0
 62
     7
370
    25
100
AcDbLine
 10
1508.559803
 20
2024.961457
 30
0.0
 11
1509.330239
 21
2026.441451
 31
0.0
  0
LINE
  5
4A6
102
{ACAD_REACTORS
330
594
102
}
330
1F
100
AcDbEntity
  8
LC-002-002-----0
 62
     7
370
    25
100
AcDbLine
 10
1507.018758
 20
2024.961137
 30
0.0
 11
1507.789361
 21
2026.441451
 31
0.0
  0
LINE
  5
4A7
102
{ACAD_REACTORS
330
594
102
}
330
1F
100
AcDbEntity
  8
LC-002-002-----0
 62
     7
370
    25
100
AcDbLine
 10
1505.477825
 20
2024.961031
 30
0.0
 11
1506.248424
 21
2026.441339
 31
0.0
  0
LINE
  5
4A8
102
{ACAD_REACTORS
330
594
102
}
330
1F
100
AcDbEntity
  8
LC-002-002-----0
 62
     7
370
    25
100
AcDbLine
 10
1503.937001
 20
2024.961137
 30
0.0
 11
1504.707604
 21
2026.441451
 31
0.0
  0
LINE
  5
4A9
102
{ACAD_REACTORS
330
594
102
}
330
1F
100
AcDbEntity
  8
LC-002-002-----0
 62
     7
370
    25
100
AcDbLine
 10
1542.935761
 20
1949.156331
 30
0.0
 11
1542.935761
 21
1935.656331
 31
0.0
  0
INSERT
  5
4B9
102
{ACAD_REACTORS
330
594
102
}
330
1F
100
AcDbEntity
  8
LC-002-002-----0
 62
     7
370
    25
100
AcDbBlockReference
  2
POLY13
 10
0.0
 20
0.0
 30
0.0
  0
LINE
  5
4BA
102
{ACAD_REACTORS
330
59F
102
}
330
1F
100
AcDbEntity
  8
LC-002-002-----0
 62
     7
370
    25
100
AcDbLine
 10
1520.537213
 20
1759.156331
 30
0.0
 11
1520.537213
 21
1782.656331
 31
0.0
  0
LINE
  5
4BB
102
{ACAD_REACTORS
330
595
102
}
330
1F
100
AcDbEntity
  8
LC-002-002-----0
 62
     7
370
    25
100
AcDbLine
 10
1522.937213
 20
1801.656331
 30
0.0
 11
1522.937213
 21
1857.656331
 31
0.0
  0
LINE
  5
4BC
102
{ACAD_REACTORS
330
595
102
}
330
1F
100
AcDbEntity
  8
LC-002-002-----0
 62
     7
370
    25
100
AcDbLine
 10
1562.937213
 20
1801.656331
 30
0.0
 11
1562.937213
 21
1857.656331
 31
0.0
  0
LINE
  5
4BD
102
{ACAD_REACTORS
330
59F
102
}
330
1F
100
AcDbEntity
  8
LC-002-002-----0
 62
     7
370
    25
100
AcDbLine
 10
1565.337213
 20
1761.10948
 30
0.0
 11
1565.337213
 21
1782.656331
 31
0.0
  0
ARC
  5
4BE
102
{ACAD_REACTORS
330
595
102
}
330
1F
100
AcDbEntity
  8
LC-002-002-----0
 62
     7
370
    25
100
AcDbCircle
 10
1542.937213
 20
1857.656331
 30
0.0
 40
20.0
100
AcDbArc
 50
0.0
 51
180.0
  0
LINE
  5
4BF
102
{ACAD_REACTORS
330
59F
102
}
330
1F
100
AcDbEntity
  8
LC-002-002-----0
 62
     7
370
    25
100
AcDbLine
 10
1630.289442
 20
1752.656331
 30
0.0
 11
1636.289442
 21
1752.656331
 31
0.0
  0
LINE
  5
4C0
102
{ACAD_REACTORS
330
59E
102
}
330
1F
100
AcDbEntity
  8
LC-002-002-----0
 62
     7
370
    25
100
AcDbLine
 10
1700.789442
 20
1745.156331
 30
0.0
 11
1643.938552
 21
1745.156331
 31
0.0
  0
LINE
  5
4C1
102
{ACAD_REACTORS
330
59E
102
}
330
1F
100
AcDbEntity
  8
LC-002-002-----0
 62
     7
370
    25
100
AcDbLine
 10
1700.789442
 20
1720.156331
 30
0.0
 11
1643.938552
 21
1720.156331
 31
0.0
  0
LINE
  5
4C2
102
{ACAD_REACTORS
330
59F
102
}
330
1F
100
AcDbEntity
  8
LC-002-002-----0
 62
     7
370
    25
100
AcDbLine
 10
1630.289442
 20
1712.656331
 30
0.0
 11
1636.289442
 21
1712.656331
 31
0.0
  0
LINE
  5
4C3
102
{ACAD_REACTORS
330
59F
102
}
330
1F
100
AcDbEntity
  8
LC-002-002-----0
 62
     7
370
    25
100
AcDbLine
 10
1636.289442
 20
1752.656331
 30
0.0
 11
1636.289441
 21
1712.656331
 31
0.0
  0
LINE
  5
4C4
102
{ACAD_REACTORS
330
59E
102
}
330
1F
100
AcDbEntity
  8
LC-002-002-----0
 62
     7
370
    25
100
AcDbLine
 10
1643.938552
 20
1720.156331
 30
0.0
 11
1643.938552
 21
1745.156331
 31
0.0
  0
LINE
  5
4C5
102
{ACAD_REACTORS
330
59E
102
}
330
1F
100
AcDbEntity
  8
LC-002-002-----0
 62
     7
370
    25
100
AcDbLine
 10
1701.289442
 20
1720.656331
 30
0.0
 11
1701.289442
 21
1744.656331
 31
0.0
  0
ARC
  5
4C6
102
{ACAD_REACTORS
330
59F
102
}
330
1F
100
AcDbEntity
  8
LC-002-002-----0
 62
     7
370
    25
100
AcDbCircle
 10
1630.289442
 20
1732.656331
 30
0.0
 40
20.00000000000009
100
AcDbArc
 50
230.394348
 51
270.0
  0
ARC
  5
4C7
102
{ACAD_REACTORS
330
59F
102
}
330
1F
100
AcDbEntity
  8
LC-002-002-----0
 62
     7
370
    25
100
AcDbCircle
 10
1630.289442
 20
1732.656331
 30
0.0
 40
20.0
100
AcDbArc
 50
90.0
 51
129.605652
  0
ARC
  5
4C8
102
{ACAD_REACTORS
330
59E
102
}
330
1F
100
AcDbEntity
  8
LC-002-002-----0
 62
     7
370
    25
100
AcDbCircle
 10
1700.789442
 20
1720.656331
 30
0.0
 40
0.5
100
AcDbArc
 50
270.0
 51
0.0
  0
ARC
  5
4C9
102
{ACAD_REACTORS
330
59E
102
}
330
1F
100
AcDbEntity
  8
LC-002-002-----0
 62
     7
370
    25
100
AcDbCircle
 10
1700.789442
 20
1744.656331
 30
0.0
 40
0.5
100
AcDbArc
 50
0.0
 51
90.0
  0
ARC
  5
4CA
102
{ACAD_REACTORS
330
59E
102
}
330
1F
100
AcDbEntity
  8
LC-002-002-----0
 62
     7
370
    25
100
AcDbCircle
 10
1643.938552
 20
1719.156331
 30
0.0
 40
1.0
100
AcDbArc
 50
90.0
 51
133.137678
  0
ARC
  5
4CB
102
{ACAD_REACTORS
330
59E
102
}
330
1F
100
AcDbEntity
  8
LC-002-002-----0
 62
     7
370
    25
100
AcDbCircle
 10
1643.938552
 20
1746.156331
 30
0.0
 40
1.000000000000066
100
AcDbArc
 50
226.862322
 51
270.0
  0
ARC
  5
4CC
102
{ACAD_REACTORS
330
59E
102
}
330
1F
100
AcDbEntity
  8
LC-002-002-----0
 62
     7
370
    25
100
AcDbCircle
 10
1631.289442
 20
1732.656331
 30
0.0
 40
17.50000000000009
100
AcDbArc
 50
46.85835
 51
73.398451
  0
ARC
  5
4CD
102
{ACAD_REACTORS
330
59E
102
}
330
1F
100
AcDbEntity
  8
LC-002-002-----0
 62
     7
370
    25
100
AcDbCircle
 10
1631.289442
 20
1732.656331
 30
0.0
 40
17.50000000000008
100
AcDbArc
 50
286.601548
 51
313.141806
  0
LINE
  5
4CE
102
{ACAD_REACTORS
330
59F
102
}
330
1F
100
AcDbEntity
  8
LC-002-002-----0
 62
     7
370
    25
100
AcDbLine
 10
1515.23242
 20
1785.156331
 30
0.0
 11
1515.23242
 21
1782.656331
 31
0.0
  0
LINE
  5
4CF
102
{ACAD_REACTORS
330
59F
102
}
330
1F
100
AcDbEntity
  8
LC-002-002-----0
 62
     7
370
    25
100
AcDbLine
 10
1515.98242
 20
1786.156331
 30
0.0
 11
1515.98242
 21
1785.906331
 31
0.0
  0
LINE
  5
4D0
102
{ACAD_REACTORS
330
59F
102
}
330
1F
100
AcDbEntity
  8
LC-002-002-----0
 62
     7
370
    25
100
AcDbLine
 10
1517.137213
 20
1786.156331
 30
0.0
 11
1517.137213
 21
1799.656331
 31
0.0
  0
LINE
  5
4D1
102
{ACAD_REACTORS
330
59F
102
}
330
1F
100
AcDbEntity
  8
LC-002-002-----0
 62
     7
370
    25
100
AcDbLine
 10
1568.737213
 20
1786.156331
 30
0.0
 11
1568.737213
 21
1799.656331
 31
0.0
  0
LINE
  5
4D2
102
{ACAD_REACTORS
330
59F
102
}
330
1F
100
AcDbEntity
  8
LC-002-002-----0
 62
     7
370
    25
100
AcDbLine
 10
1569.892007
 20
1786.156331
 30
0.0
 11
1569.892007
 21
1785.906331
 31
0.0
  0
LINE
  5
4D3
102
{ACAD_REACTORS
330
59F
102
}
330
1F
100
AcDbEntity
  8
LC-002-002-----0
 62
     7
370
    25
100
AcDbLine
 10
1570.642007
 20
1785.156331
 30
0.0
 11
1570.642007
 21
1782.656331
 31
0.0
  0
LINE
  5
4D4
102
{ACAD_REACTORS
330
59F
102
}
330
1F
100
AcDbEntity
  8
LC-002-002-----0
 62
     7
370
    25
100
AcDbLine
 10
1515.982421
 20
1785.906332
 30
0.0
 11
1515.232421
 21
1785.156332
 31
0.0
  0
LINE
  5
4D5
102
{ACAD_REACTORS
330
59F
102
}
330
1F
100
AcDbEntity
  8
LC-002-002-----0
 62
     7
370
    25
100
AcDbLine
 10
1566.737213
 20
1801.656331
 30
0.0
 11
1519.137213
 21
1801.656331
 31
0.0
  0
LINE
  5
4D6
102
{ACAD_REACTORS
330
59F
102
}
330
1F
100
AcDbEntity
  8
LC-002-002-----0
 62
     7
370
    25
100
AcDbLine
 10
1569.891989
 20
1786.156331
 30
0.0
 11
1568.737213
 21
1786.156331
 31
0.0
  0
LINE
  5
4D7
102
{ACAD_REACTORS
330
59F
102
}
330
1F
100
AcDbEntity
  8
LC-002-002-----0
 62
     7
370
    25
100
AcDbLine
 10
1570.642007
 20
1782.656331
 30
0.0
 11
1515.23242
 21
1782.656331
 31
0.0
  0
LINE
  5
4D8
102
{ACAD_REACTORS
330
59F
102
}
330
1F
100
AcDbEntity
  8
LC-002-002-----0
 62
     7
370
    25
100
AcDbLine
 10
1569.892005
 20
1785.906332
 30
0.0
 11
1570.642005
 21
1785.156332
 31
0.0
  0
ARC
  5
4D9
102
{ACAD_REACTORS
330
59F
102
}
330
1F
100
AcDbEntity
  8
LC-002-002-----0
 62
     7
370
    25
100
AcDbCircle
 10
1566.737213
 20
1799.656331
 30
0.0
 40
2.0
100
AcDbArc
 50
0.0
 51
90.0
  0
ARC
  5
4DA
102
{ACAD_REACTORS
330
59F
102
}
330
1F
100
AcDbEntity
  8
LC-002-002-----0
 62
     7
370
    25
100
AcDbCircle
 10
1519.137213
 20
1799.656331
 30
0.0
 40
2.0
100
AcDbArc
 50
90.0
 51
180.0
  0
LINE
  5
4DB
102
{ACAD_REACTORS
330
59F
102
}
330
1F
100
AcDbEntity
  8
LC-002-002-----0
 62
     7
370
    25
100
AcDbLine
 10
1542.935761
 20
1786.156331
 30
0.0
 11
1542.935761
 21
1799.656331
 31
0.0
  0
INSERT
  5
4EB
102
{ACAD_REACTORS
330
59F
102
}
330
1F
100
AcDbEntity
  8
LC-002-002-----0
 62
     7
370
    25
100
AcDbBlockReference
  2
POLY14
 10
0.0
 20
0.0
 30
0.0
  0
ARC
  5
4EC
102
{ACAD_REACTORS
330
595
102
}
330
1F
100
AcDbEntity
  8
LC-002-002-----0
 62
     7
370
    25
100
AcDbCircle
 10
1542.937213
 20
1857.656331
 30
0.0
 40
27.70479324130114
100
AcDbArc
 50
316.211302
 51
223.788698
  0
LINE
  5
4ED
102
{ACAD_REACTORS
330
59F
102
}
330
1F
100
AcDbEntity
  8
LC-002-002-----0
 62
     7
370
    25
100
AcDbLine
 10
1520.937213
 20
1732.656331
 30
0.0
 11
1520.937213
 21
1758.756331
 31
0.0
  0
ARC
  5
4EE
102
{ACAD_REACTORS
330
59F
102
}
330
1F
100
AcDbEntity
  8
LC-004-002-RND-0
 62
     7
370
    25
100
AcDbCircle
 10
1542.937213
 20
1732.656331
 30
0.0
 40
22.0
100
AcDbArc
 50
180.0
 51
270.0
  0
LINE
  5
4EF
102
{ACAD_REACTORS
330
59F
102
}
330
1F
100
AcDbEntity
  8
LC-002-002-----0
 62
     7
370
    25
100
AcDbLine
 10
1574.89676
 20
1695.156331
 30
0.0
 11
1574.89676
 21
1697.158194
 31
0.0
  0
LINE
  5
4F0
102
{ACAD_REACTORS
330
59F
102
}
330
1F
100
AcDbEntity
  8
LC-002-002-----0
 62
     7
370
    25
100
AcDbLine
 10
1565.337213
 20
1761.10948
 30
0.0
 11
1567.057244
 21
1761.423716
 31
0.0
  0
LINE
  5
4F1
102
{ACAD_REACTORS
330
59F
102
}
330
1F
100
AcDbEntity
  8
LC-002-002-----0
 62
     7
370
    25
100
AcDbLine
 10
1577.396761
 20
1770.156331
 30
0.0
 11
1574.89676
 21
1770.156331
 31
0.0
  0
LINE
  5
4F2
102
{ACAD_REACTORS
330
59F
102
}
330
1F
100
AcDbEntity
  8
LC-002-002-----0
 62
     7
370
    25
100
AcDbLine
 10
1574.193516
 20
1768.154469
 30
0.0
 11
1574.89676
 21
1768.154469
 31
0.0
  0
LINE
  5
4F3
102
{ACAD_REACTORS
330
59F
102
}
330
1F
100
AcDbEntity
  8
LC-002-002-----0
 62
     7
370
    25
100
AcDbLine
 10
1542.937213
 20
1710.656331
 30
0.0
 11
1556.628398
 21
1710.656331
 31
0.0
  0
LINE
  5
4F4
102
{ACAD_REACTORS
330
59F
102
}
330
1F
100
AcDbEntity
  8
LC-002-002-----0
 62
     7
370
    25
100
AcDbLine
 10
1574.193516
 20
1697.158194
 30
0.0
 11
1574.89676
 21
1697.158194
 31
0.0
  0
LINE
  5
4F5
102
{ACAD_REACTORS
330
59F
102
}
330
1F
100
AcDbEntity
  8
LC-002-002-----0
 62
     7
370
    25
100
AcDbLine
 10
1577.396761
 20
1695.156331
 30
0.0
 11
1574.89676
 21
1695.156331
 31
0.0
  0
LINE
  5
4F6
102
{ACAD_REACTORS
330
59F
102
}
330
1F
100
AcDbEntity
  8
LC-002-002-----0
 62
     7
370
    25
100
AcDbLine
 10
1564.43838
 20
1704.367392
 30
0.0
 11
1567.057244
 21
1703.888946
 31
0.0
  0
LINE
  5
4F7
102
{ACAD_REACTORS
330
59F
102
}
330
1F
100
AcDbEntity
  8
LC-002-002-----0
 62
     7
370
    25
100
AcDbLine
 10
1520.537241
 20
1759.156304
 30
0.0
 11
1520.937321
 21
1758.756223
 31
0.0
  0
ARC
  5
4F8
102
{ACAD_REACTORS
330
59F
102
}
330
1F
100
AcDbEntity
  8
LC-002-002-----0
 62
     7
370
    25
100
AcDbCircle
 10
1565.60657
 20
1710.761556
 30
0.0
 40
6.500000000000005
100
AcDbArc
 50
199.07704
 51
259.645823
  0
ARC
  5
4F9
102
{ACAD_REACTORS
330
59F
102
}
330
1F
100
AcDbEntity
  8
LC-002-002-----0
 62
     7
370
    25
100
AcDbCircle
 10
1556.628398
 20
1707.656331
 30
0.0
 40
3.000000000000295
100
AcDbArc
 50
19.055448
 51
90.0
  0
ARC
  5
4FA
102
{ACAD_REACTORS
330
59F
102
}
330
1F
100
AcDbEntity
  8
LC-002-002-----0
 62
     7
370
    25
100
AcDbCircle
 10
1574.193516
 20
1699.158194
 30
0.0
 40
2.000000000000076
100
AcDbArc
 50
244.152631
 51
270.0
  0
ARC
  5
4FB
102
{ACAD_REACTORS
330
59F
102
}
330
1F
100
AcDbEntity
  8
LC-002-002-----0
 62
     7
370
    25
100
AcDbCircle
 10
1574.193516
 20
1766.154469
 30
0.0
 40
2.0
100
AcDbArc
 50
90.0
 51
115.847369
  0
ARC
  5
4FC
102
{ACAD_REACTORS
330
59F
102
}
330
1F
100
AcDbEntity
  8
LC-002-002-----0
 62
     7
370
    25
100
AcDbCircle
 10
1575.937213
 20
1702.758127
 30
0.0
 40
5.999999999999973
100
AcDbArc
 50
196.283517
 51
244.155028
  0
ARC
  5
4FD
102
{ACAD_REACTORS
330
59F
102
}
330
1F
100
AcDbEntity
  8
LC-002-002-----0
 62
     7
370
    25
100
AcDbCircle
 10
1575.937213
 20
1762.554535
 30
0.0
 40
6.000000000000001
100
AcDbArc
 50
115.844972
 51
163.716483
  0
ARC
  5
4FE
102
{ACAD_REACTORS
330
59F
102
}
330
1F
100
AcDbEntity
  8
LC-002-002-----0
 62
     7
370
    25
100
AcDbCircle
 10
1566.338398
 20
1699.954068
 30
0.0
 40
4.000000000000152
100
AcDbArc
 50
16.281751
 51
79.647048
  0
ARC
  5
4FF
102
{ACAD_REACTORS
330
59F
102
}
330
1F
100
AcDbEntity
  8
LC-002-002-----0
 62
     7
370
    25
100
AcDbCircle
 10
1566.338398
 20
1765.358594
 30
0.0
 40
4.00000000000002
100
AcDbArc
 50
280.352952
 51
343.718249
  0
LINE
  5
500
102
{ACAD_REACTORS
330
59F
102
}
330
1F
100
AcDbEntity
  8
LC-002-002-----0
 62
     7
370
    25
100
AcDbLine
 10
1617.539442
 20
1787.656331
 30
0.0
 11
1617.539442
 21
1677.656331
 31
0.0
  0
LINE
  5
501
102
{ACAD_REACTORS
330
59F
102
}
330
1F
100
AcDbEntity
  8
LC-002-002-----0
 62
     7
370
    25
100
AcDbLine
 10
1613.539442
 20
1677.656331
 30
0.0
 11
1617.539442
 21
1677.656331
 31
0.0
  0
LINE
  5
502
102
{ACAD_REACTORS
330
59F
102
}
330
1F
100
AcDbEntity
  8
LC-002-002-----0
 62
     7
370
    25
100
AcDbLine
 10
1577.396761
 20
1693.151368
 30
0.0
 11
1577.396761
 21
1695.156331
 31
0.0
  0
LINE
  5
503
102
{ACAD_REACTORS
330
59F
102
}
330
1F
100
AcDbEntity
  8
LC-002-002-----0
 62
     7
370
    25
100
AcDbLine
 10
1581.726535
 20
1689.906941
 30
0.0
 11
1582.736884
 21
1688.156966
 31
0.0
  0
LINE
  5
504
102
{ACAD_REACTORS
330
59F
102
}
330
1F
100
AcDbEntity
  8
LC-002-002-----0
 62
     7
370
    25
100
AcDbLine
 10
1587.933403
 20
1685.156331
 30
0.0
 11
1603.39676
 21
1685.156331
 31
0.0
  0
LINE
  5
505
102
{ACAD_REACTORS
330
59F
102
}
330
1F
100
AcDbEntity
  8
LC-002-002-----0
 62
     7
370
    25
100
AcDbLine
 10
1613.079219
 20
1677.656331
 30
0.0
 11
1613.539442
 21
1677.656331
 31
0.0
  0
ARC
  5
506
102
{ACAD_REACTORS
330
59F
102
}
330
1F
100
AcDbEntity
  8
LC-002-002-----0
 62
     7
370
    25
100
AcDbCircle
 10
1603.39676
 20
1681.156331
 30
0.0
 40
3.999999999999755
100
AcDbArc
 50
14.492147
 51
90.0
  0
ARC
  5
507
102
{ACAD_REACTORS
330
59F
102
}
330
1F
100
AcDbEntity
  8
LC-002-002-----0
 62
     7
370
    25
100
AcDbCircle
 10
1613.079219
 20
1683.656331
 30
0.0
 40
5.999999999999878
100
AcDbArc
 50
194.469452
 51
270.0
  0
ARC
  5
508
102
{ACAD_REACTORS
330
59F
102
}
330
1F
100
AcDbEntity
  8
LC-002-002-----0
 62
     7
370
    25
100
AcDbCircle
 10
1587.933403
 20
1691.156331
 30
0.0
 40
6.000000000000091
100
AcDbArc
 50
209.988476
 51
270.0
  0
ARC
  5
509
102
{ACAD_REACTORS
330
59F
102
}
330
1F
100
AcDbEntity
  8
LC-002-002-----0
 62
     7
370
    25
100
AcDbCircle
 10
1577.39676
 20
1687.406331
 30
0.0
 40
4.999999999999792
100
AcDbArc
 50
30.016153
 51
82.072225
  0
ARC
  5
50A
102
{ACAD_REACTORS
330
59F
102
}
330
1F
100
AcDbEntity
  8
LC-002-002-----0
 62
     7
370
    25
100
AcDbCircle
 10
1578.19676
 20
1693.150894
 30
0.0
 40
0.7999999999997272
100
AcDbArc
 50
180.0
 51
262.062606
  0
LINE
  5
50B
102
{ACAD_REACTORS
330
59F
102
}
330
1F
100
AcDbEntity
  8
LC-002-002-----0
 62
     7
370
    25
100
AcDbLine
 10
1613.539442
 20
1787.656331
 30
0.0
 11
1617.539442
 21
1787.656331
 31
0.0
  0
LINE
  5
50C
102
{ACAD_REACTORS
330
59F
102
}
330
1F
100
AcDbEntity
  8
LC-002-002-----0
 62
     7
370
    25
100
AcDbLine
 10
1581.726535
 20
1775.405721
 30
0.0
 11
1582.736884
 21
1777.155696
 31
0.0
  0
LINE
  5
50D
102
{ACAD_REACTORS
330
59F
102
}
330
1F
100
AcDbEntity
  8
LC-002-002-----0
 62
     7
370
    25
100
AcDbLine
 10
1587.933403
 20
1780.156331
 30
0.0
 11
1603.39676
 21
1780.156331
 31
0.0
  0
LINE
  5
50E
102
{ACAD_REACTORS
330
59F
102
}
330
1F
100
AcDbEntity
  8
LC-002-002-----0
 62
     7
370
    25
100
AcDbLine
 10
1613.079219
 20
1787.656331
 30
0.0
 11
1613.539442
 21
1787.656331
 31
0.0
  0
ARC
  5
50F
102
{ACAD_REACTORS
330
59F
102
}
330
1F
100
AcDbEntity
  8
LC-002-002-----0
 62
     7
370
    25
100
AcDbCircle
 10
1603.39676
 20
1784.156331
 30
0.0
 40
4.0
100
AcDbArc
 50
270.0
 51
345.507853
  0
ARC
  5
510
102
{ACAD_REACTORS
330
59F
102
}
330
1F
100
AcDbEntity
  8
LC-002-002-----0
 62
     7
370
    25
100
AcDbCircle
 10
1613.079219
 20
1781.656331
 30
0.0
 40
6.0
100
AcDbArc
 50
90.0
 51
165.530548
  0
ARC
  5
511
102
{ACAD_REACTORS
330
59F
102
}
330
1F
100
AcDbEntity
  8
LC-002-002-----0
 62
     7
370
    25
100
AcDbCircle
 10
1587.933403
 20
1774.156331
 30
0.0
 40
6.0
100
AcDbArc
 50
90.0
 51
150.011524
  0
ARC
  5
512
102
{ACAD_REACTORS
330
59F
102
}
330
1F
100
AcDbEntity
  8
LC-002-002-----0
 62
     7
370
    25
100
AcDbCircle
 10
1577.39676
 20
1777.906331
 30
0.0
 40
5.000000000000194
100
AcDbArc
 50
277.927775
 51
329.983847
  0
ARC
  5
513
102
{ACAD_REACTORS
330
59F
102
}
330
1F
100
AcDbEntity
  8
LC-002-002-----0
 62
     7
370
    25
100
AcDbCircle
 10
1578.19676
 20
1772.161769
 30
0.0
 40
0.7999999999999126
100
AcDbArc
 50
97.937394
 51
180.0
  0
LINE
  5
514
102
{ACAD_REACTORS
330
59F
102
}
330
1F
100
AcDbEntity
  8
LC-002-002-----0
 62
     7
370
    25
100
AcDbLine
 10
1577.396761
 20
1770.156331
 30
0.0
 11
1577.396761
 21
1772.161769
 31
0.0
  0
LINE
  5
515
102
{ACAD_REACTORS
330
59F
102
}
330
1F
100
AcDbEntity
  8
LC-002-002-----0
 62
     7
370
    25
100
AcDbLine
 10
1574.89676
 20
1768.154469
 30
0.0
 11
1574.89676
 21
1770.156331
 31
0.0
  0
LINE
  5
516
102
{ACAD_REACTORS
330
59F
102
}
330
1F
100
AcDbEntity
  8
LC-002-002-----0
 62
     7
370
    25
100
AcDbLine
 10
1517.137213
 20
1786.156331
 30
0.0
 11
1515.982438
 21
1786.156331
 31
0.0
  0
LINE
  5
517
102
{ACAD_REACTORS
330
594
102
}
330
1F
100
AcDbEntity
  8
LC-002-002-----0
 62
     7
370
    25
100
AcDbLine
 10
1564.937213
 20
1954.656331
 30
0.0
 11
1565.337213
 21
1954.656331
 31
0.0
  0
LINE
  5
518
102
{ACAD_REACTORS
330
594
102
}
330
1F
100
AcDbEntity
  8
LC-002-002-----0
 62
     7
370
    25
100
AcDbLine
 10
1517.137213
 20
1949.156331
 30
0.0
 11
1515.98242
 21
1949.156331
 31
0.0
  0
INSERT
  5
525
102
{ACAD_REACTORS
330
596
102
}
330
1F
100
AcDbEntity
  8
LC-013-005-----0
 62
     7
370
    25
100
AcDbBlockReference
  2
*X126
 10
0.0
 20
0.0
 30
0.0
  0
INSERT
  5
531
102
{ACAD_REACTORS
330
596
102
}
330
1F
100
AcDbEntity
  8
LC-013-005-----0
 62
     7
370
    25
100
AcDbBlockReference
  2
*X227
 10
0.0
 20
0.0
 30
0.0
  0
DIMENSION
  5
532
102
{ACAD_REACTORS
330
599
102
}
330
1F
100
AcDbEntity
  8
LC-007-003-----0
 62
     7
370
    25
100
AcDbDimension
  2
*D28
 10
826.677343
 20
2050.0
 30
0.0
 11
1018.522929
 21
2080.0
 31
0.0
 70
   160
 71
     5
 42
430.0
  3
LC-DIM-L-0025-02-02
100
AcDbAlignedDimension
 13
1256.677343
 23
1977.49
 33
0.0
 14
826.677343
 24
1932.99
 34
0.0
100
AcDbRotatedDimension
  0
DIMENSION
  5
53F
102
{ACAD_REACTORS
330
599
102
}
330
1F
100
AcDbEntity
  8
LC-007-003-----0
 62
     7
370
    25
100
AcDbDimension
  2
*D29
 10
396.677343
 20
1400.0
 30
0.0
 11
835.993477
 21
1430.0
 31
0.0
 70
   160
 71
     5
 42
860.0
  3
LC-DIM-L-0025-02-02
100
AcDbAlignedDimension
 13
1256.677343
 23
1487.49
 33
0.0
 14
396.677343
 24
1487.49
 34
0.0
100
AcDbRotatedDimension
  0
DIMENSION
  5
54C
102
{ACAD_REACTORS
330
599
102
}
330
1F
100
AcDbEntity
  8
LC-007-003-----0
 62
     7
370
    25
100
AcDbDimension
  2
*D30
 10
750.0
 20
1982.49
 30
0.0
 11
720.0
 21
2049.890175
 31
0.0
 70
   160
 71
     5
 42
67.0
 53
90.0
  3
LC-DIM-L-0025-02-02
100
AcDbAlignedDimension
 13
809.177343
 23
1915.49
 33
0.0
 14
826.677343
 24
1982.49
 34
0.0
 50
90.0
100
AcDbRotatedDimension
  0
DIMENSION
  5
55B
102
{ACAD_REACTORS
330
59B
102
}
330
1F
100
AcDbEntity
  8
LC-007-003-----0
 62
     7
370
    25
100
AcDbDimension
  2
*D31
 10
1515.23242
 20
1450.0
 30
0.0
 11
1665.028586
 21
1480.0
 31
0.0
 70
   160
 71
     5
 42
313.807022
  3
LC-DIM-L-0025-00-02
100
AcDbAlignedDimension
 13
1829.039442
 23
1482.822662
 33
0.0
 14
1515.23242
 24
1782.656331
 34
0.0
100
AcDbRotatedDimension
  0
TEXT
  5
568
330
1F
100
AcDbEntity
  8
LC-011-004-----0
 62
     7
370
    25
100
AcDbText
 10
1246.007397
 20
474.9784
 30
0.0
 40
25.0
  1
Art. Nr. 941
 41
0.8
  7
LCTX0-400-0-0pDIN-Schrift
100
AcDbText
  0
LINE
  5
569
330
1F
100
AcDbEntity
  8
LC-002-002-----0
 62
     7
370
    50
100
AcDbLine
 10
1270.452381
 20
839.482444
 30
0.0
 11
1270.452381
 21
1041.982444
 31
0.0
  0
LINE
  5
56A
330
1F
100
AcDbEntity
  8
LC-002-002-----0
 62
     7
370
    50
100
AcDbLine
 10
1290.452381
 20
819.482444
 30
0.0
 11
1672.952381
 21
819.482444
 31
0.0
  0
DIMENSION
  5
56B
330
1F
100
AcDbEntity
  8
LC-007-003-----0
 62
     7
370
    25
100
AcDbDimension
  2
*D32
 10
1768.380768
 20
819.482444
 30
0.0
 11
1738.380768
 21
943.571366
 31
0.0
 70
   160
 71
     5
 42
485.0
 53
90.0
  3
LC-DIM-L-0025-02-02
100
AcDbAlignedDimension
 13
1672.952381
 23
1061.982444
 33
0.0
 14
1672.952381
 24
819.482444
 34
0.0
 50
90.0
100
AcDbRotatedDimension
1001
ACAD
1000
DSTYLE
1002
{
1070
   144
1040
2.0
1002
}
  0
DIMENSION
  5
578
330
1F
100
AcDbEntity
  8
LC-007-003-----0
 62
     7
370
    25
100
AcDbDimension
  2
*D33
 10
1692.952381
 20
756.202471
 30
0.0
 11
1484.598123
 21
786.202471
 31
0.0
 70
   160
 71
     5
 42
845.0
  3
LC-DIM-L-0025-02-02
100
AcDbAlignedDimension
 13
1270.452381
 23
839.482444
 33
0.0
 14
1692.952381
 24
839.482444
 34
0.0
100
AcDbRotatedDimension
1001
ACAD
1000
DSTYLE
1002
{
1070
   144
1040
2.0
1002
}
  0
DIMENSION
  5
586
330
1F
100
AcDbEntity
  8
LC-007-003-----0
 62
     7
370
    25
100
AcDbDimension
  2
*D34
 10
1290.452381
 20
1041.982444
 30
0.0
 11
1276.754627
 21
1025.900123
 31
0.0
 70
   164
 71
     5
 42
40.0
  3
LC-DIM-R-0025-02-02
100
AcDbRadialDimension
 15
1301.56588
 25
1025.354451
 35
0.0
 40
1.0
1001
ACAD
1000
DSTYLE
1002
{
1070
   144
1040
2.0
1002
}
  0
TEXT
  5
58F
330
1F
100
AcDbEntity
  8
LC-011-004-----0
 62
     7
370
    35
100
AcDbText
 10
1273.62371
 20
1119.292652
 30
0.0
 40
35.0
  1
Ausschnitt Unterbau  1:20
 41
0.8
  7
LCTX0-400-0-0pDIN-Schrift
100
AcDbText
  0
TEXT
  5
590
330
1F
100
AcDbEntity
  8
LC-011-004-----0
 62
     7
370
    25
100
AcDbText
 10
194.153846
 20
395.0
 30
0.0
 40
25.0
  1
a
 41
0.8
  7
LCTX0-400-0-0pDIN-Schrift
100
AcDbText
  0
TEXT
  5
591
330
1F
100
AcDbEntity
  8
LC-011-004-----0
 62
     7
370
    25
100
AcDbText
 10
272.153846
 20
395.0
 30
0.0
 40
25.0
  1
Ausschn. Unterbau
 41
0.7
  7
LCTX0-400-0-0pDIN-Schrift
100
AcDbText
  0
TEXT
  5
592
330
1F
100
AcDbEntity
  8
LC-011-004-----0
 62
     7
370
    25
100
AcDbText
 10
532.153846
 20
395.0
 30
0.0
 40
25.0
  1
05.02.09
 41
0.7
  7
LCTX0-400-0-0pDIN-Schrift
100
AcDbText
  0
TEXT
  5
593
330
1F
100
AcDbEntity
  8
LC-011-004-----0
 62
     7
370
    25
100
AcDbText
 10
662.153846
 20
395.0
 30
0.0
 40
25.0
  1
HÄ
 41
0.8
  7
LCTX0-400-0-0pDIN-Schrift
100
AcDbText
  0
ENDSEC
  0
SECTION
  2
OBJECTS
  0
DICTIONARY
  5
C
330
0
100
AcDbDictionary
281
     1
  3
ACAD_GROUP
350
D
  3
ACAD_LAYOUT
350
1A
  3
ACAD_MLINESTYLE
350
17
  3
ACAD_PLOTSETTINGS
350
19
  3
ACAD_PLOTSTYLENAME
350
E
  0
DICTIONARY
  5
D
102
{ACAD_REACTORS
330
C
102
}
330
C
100
AcDbDictionary
281
     1
  3
LCGROUP1043
350
59E
  3
LCGROUP1044
350
59D
  3
LCGROUP1047
350
59F
  3
LCGROUP1048
350
59C
  3
LCGROUP1098
350
595
  3
LCGROUP1099
350
594
  3
LCGROUP22
350
596
  3
LCGROUP679
350
599
  3
LCGROUP680
350
598
  3
LCGROUP760
350
59B
  3
LCGROUP809
350
5A4
  3
LCGROUP811
350
5A3
  3
LCGROUP812
350
5A2
  3
LCGROUP813
350
5A1
  3
LCGROUP814
350
5A0
  3
LCGROUP854
350
597
  3
LCGROUP996
350
59A
  0
DICTIONARY
  5
1A
102
{ACAD_REACTORS
330
C
102
}
330
C
100
AcDbDictionary
281
     1
  3
Layout1
350
1E
  3
Layout2
350
26
  3
Model
350
22
  0
DICTIONARY
  5
17
102
{ACAD_REACTORS
330
C
102
}
330
C
100
AcDbDictionary
281
     1
  3
Standard
350
18
  0
DICTIONARY
  5
19
102
{ACAD_REACTORS
330
C
102
}
330
C
100
AcDbDictionary
281
     1
  0
ACDBDICTIONARYWDFLT
  5
E
102
{ACAD_REACTORS
330
C
102
}
330
C
100
AcDbDictionary
281
     1
  3
Normal
350
F
100
AcDbDictionaryWithDefault
340
F
  0
GROUP
  5
59E
102
{ACAD_REACTORS
330
D
102
}
330
D
100
AcDbGroup
300
GRP1043-LCMaster-LCGROUP1047
 70
     1
 71
     1
340
4C0
340
4C1
340
4C4
340
4C5
340
4C8
340
4C9
340
4CA
340
4CB
340
4CC
340
4CD
  0
GROUP
  5
59D
102
{ACAD_REACTORS
330
D
102
}
330
D
100
AcDbGroup
300
GRP1044-LCMaster-LCGROUP1043
 70
     1
 71
     1
340
42F
340
430
340
431
340
433
340
434
340
436
340
437
340
438
340
439
  0
GROUP
  5
59F
102
{ACAD_REACTORS
330
D
102
}
330
D
100
AcDbGroup
300
GRP1047-LCMaster-LCGROUP760
 70
     1
 71
     1
340
4BA
340
4BD
340
4BF
340
4C2
340
4C3
340
4C6
340
4C7
340
4CE
340
4CF
340
4D0
340
4D1
340
4D2
340
4D3
340
4D4
340
4D5
340
4D6
340
4D7
340
4D8
340
4D9
340
4DA
340
4DB
340
4EB
340
4ED
340
4EE
340
4EF
340
4F0
340
4F1
340
4F2
340
4F3
340
4F4
340
4F5
340
4F6
340
4F7
340
4F8
340
4F9
340
4FA
340
4FB
340
4FC
340
4FD
340
4FE
340
4FF
340
500
340
501
340
502
340
503
340
504
340
505
340
506
340
507
340
508
340
509
340
50A
340
50B
340
50C
340
50D
340
50E
340
50F
340
510
340
511
340
512
340
513
340
514
340
515
340
516
  0
GROUP
  5
59C
102
{ACAD_REACTORS
330
D
102
}
330
D
100
AcDbGroup
300
GRP1048-LCMaster-LCGROUP1044
 70
     1
 71
     1
340
432
340
435
340
43A
340
43B
340
43C
340
43D
340
43E
340
43F
340
440
340
441
340
442
340
443
340
444
340
445
340
446
340
447
340
448
340
449
340
44A
340
44B
340
44C
340
44D
340
44E
340
44F
340
450
340
451
340
452
340
453
340
454
340
455
340
456
340
457
340
458
340
459
340
45A
340
45B
340
45C
340
45D
340
45E
340
45F
340
460
340
461
  0
GROUP
  5
595
102
{ACAD_REACTORS
330
D
102
}
330
D
100
AcDbGroup
300
GRP1098-LCMaster-LCGROUP1047
 70
     1
 71
     1
340
4BB
340
4BC
340
4BE
340
4EC
  0
GROUP
  5
594
102
{ACAD_REACTORS
330
D
102
}
330
D
100
AcDbGroup
300
GRP2961-LCMaster-LCGROUP1098
 70
     1
 71
     1
340
462
340
463
340
464
340
465
340
466
340
467
340
468
340
469
340
46A
340
46B
340
46C
340
46D
340
46E
340
46F
340
470
340
471
340
472
340
473
340
474
340
475
340
476
340
477
340
478
340
479
340
47A
340
47B
340
47C
340
47D
340
47E
340
47F
340
480
340
481
340
482
340
483
340
484
340
485
340
486
340
487
340
488
340
489
340
48A
340
48B
340
48C
340
48D
340
48E
340
48F
340
490
340
491
340
492
340
493
340
494
340
495
340
496
340
497
340
498
340
499
340
49A
340
49B
340
49C
340
49D
340
49E
340
49F
340
4A0
340
4A1
340
4A2
340
4A3
340
4A4
340
4A5
340
4A6
340
4A7
340
4A8
340
4A9
340
4B9
340
517
340
518
  0
GROUP
  5
596
102
{ACAD_REACTORS
330
D
102
}
330
D
100
AcDbGroup
300
GRP22-LCMaster-LCGROUP680
 70
     1
 71
     1
340
10D
340
10E
340
10F
340
110
340
196
340
197
340
198
340
199
340
19A
340
19B
340
19C
340
19D
340
1A3
340
1A4
340
1A5
340
1A8
340
280
340
281
340
282
340
283
340
284
340
285
340
525
340
531
  0
GROUP
  5
599
102
{ACAD_REACTORS
330
D
102
}
330
D
100
AcDbGroup
300
GRP679
 70
     1
 71
     1
340
104
340
105
340
106
340
107
340
10B
340
115
340
11C
340
11D
340
11E
340
11F
340
120
340
121
340
122
340
123
340
124
340
125
340
126
340
127
340
128
340
129
340
144
340
145
340
146
340
14F
340
150
340
151
340
152
340
154
340
155
340
158
340
17C
340
17D
340
17E
340
17F
340
180
340
188
340
189
340
18A
340
193
340
250
340
532
340
53F
340
54C
  0
GROUP
  5
598
102
{ACAD_REACTORS
330
D
102
}
330
D
100
AcDbGroup
300
GRP680
 70
     1
 71
     1
340
12A
340
12B
340
12C
340
12D
340
12E
340
12F
340
130
340
131
340
132
340
133
340
134
340
135
340
136
340
137
340
138
340
139
340
13A
340
13B
340
13C
340
13D
340
13E
340
13F
340
140
340
141
340
142
340
143
340
147
340
148
340
149
340
14A
340
14B
340
14C
340
14D
340
14E
340
153
340
156
340
157
340
159
340
15A
340
15B
340
15C
340
15D
340
15E
340
15F
340
160
340
161
340
162
340
163
340
164
340
165
340
166
340
167
340
168
340
169
340
16A
340
16B
340
16C
340
16D
340
16E
340
16F
340
170
340
171
340
172
340
173
340
174
340
175
340
176
340
177
340
178
340
179
340
17A
340
17B
340
181
340
182
340
183
340
184
340
185
340
186
340
187
340
18B
340
18C
340
18D
340
18E
340
18F
340
190
340
191
340
192
340
194
340
195
340
19E
340
19F
340
1A0
340
1B7
340
1C4
340
1D1
340
1DE
340
1EB
340
1EC
340
1ED
340
1EE
340
1EF
340
1F0
340
1F1
340
1F2
340
27F
  0
GROUP
  5
59B
102
{ACAD_REACTORS
330
D
102
}
330
D
100
AcDbGroup
300
GRP760
 70
     1
 71
     1
340
1F4
340
1F5
340
1F6
340
1F8
340
1F9
340
1FA
340
1FB
340
1FC
340
1FD
340
1FE
340
1FF
340
200
340
201
340
202
340
203
340
204
340
205
340
206
340
207
340
208
340
209
340
20B
340
20C
340
20D
340
20E
340
20F
340
210
340
211
340
212
340
213
340
214
340
215
340
216
340
217
340
218
340
219
340
21A
340
21B
340
21C
340
21D
340
21E
340
21F
340
220
340
221
340
222
340
223
340
224
340
225
340
226
340
227
340
228
340
229
340
22A
340
22B
340
22C
340
22D
340
22E
340
22F
340
230
340
231
340
232
340
233
340
234
340
235
340
236
340
237
340
238
340
239
340
246
340
247
340
248
340
249
340
24A
340
24B
340
24C
340
24D
340
24E
340
24F
340
55B
  0
GROUP
  5
5A4
102
{ACAD_REACTORS
330
D
102
}
330
D
100
AcDbGroup
300
GRP809-LCMaster-LCGROUP680
 70
     1
 71
     1
340
295
340
2FA
340
2FB
340
2FC
340
2FD
340
2FE
340
2FF
340
300
340
301
340
302
340
303
340
304
340
305
340
306
340
307
340
308
340
309
340
30A
340
30B
340
30C
340
30D
340
30E
340
30F
340
310
340
311
340
312
340
313
340
314
340
315
340
316
340
317
340
318
340
319
340
31A
340
31B
340
31C
340
31D
340
31E
340
31F
340
320
340
32E
340
340
340
341
340
342
340
343
340
344
340
345
340
346
340
347
340
348
340
349
340
34A
340
34B
340
34C
340
34D
340
34E
340
34F
340
350
340
351
340
352
340
353
340
354
340
355
340
356
340
357
340
358
340
359
340
35A
340
35B
340
35C
340
35D
340
35E
340
35F
340
360
340
361
340
362
340
36C
340
376
340
384
340
392
340
3A2
340
3B0
340
3B1
340
3B2
340
3B3
340
3B4
340
3B5
340
3B6
340
3B7
340
3B8
340
3B9
340
3BA
340
3BB
340
3BC
340
3BD
340
3BE
340
3BF
340
3C0
340
42A
340
42B
  0
GROUP
  5
5A3
102
{ACAD_REACTORS
330
D
102
}
330
D
100
AcDbGroup
300
GRP2319-LCMaster-LCGROUP855
 70
     1
 71
     1
340
3C3
340
3C4
340
3C7
340
3C8
340
3C9
340
3CA
340
3CB
340
3CE
340
3CF
340
3D0
340
400
  0
GROUP
  5
5A2
102
{ACAD_REACTORS
330
D
102
}
330
D
100
AcDbGroup
300
GRP812-LCMaster-LCGROUP811
 70
     1
 71
     1
340
3C5
340
3C6
340
3CC
340
3CD
340
3D1
340
3D2
340
3D3
340
3D4
340
3D5
340
3D6
  0
GROUP
  5
5A1
102
{ACAD_REACTORS
330
D
102
}
330
D
100
AcDbGroup
300
GRP813-LCMaster-LCGROUP812
 70
     1
 71
     1
340
297
340
298
340
299
340
29D
340
29E
340
29F
340
2A1
340
2DD
340
2DE
340
2DF
340
2E0
340
2E1
340
2E2
  0
GROUP
  5
5A0
102
{ACAD_REACTORS
330
D
102
}
330
D
100
AcDbGroup
300
GRP814-LCMaster-LCGROUP813
 70
     1
 71
     1
340
296
340
29A
340
29B
340
29C
340
2A0
340
2A2
340
2A3
340
2A4
340
2A5
340
2A6
340
2A7
340
2A8
340
2C0
340
2CA
340
2DC
340
2E3
340
2E4
340
2E5
340
2E6
340
2E7
340
2E8
340
2E9
340
2EA
  0
GROUP
  5
597
102
{ACAD_REACTORS
330
D
102
}
330
D
100
AcDbGroup
300
GRP854-LCMaster-LCGROUP809
 70
     1
 71
     1
340
2EB
340
2EC
340
2ED
340
2EE
340
2EF
340
321
340
322
340
323
340
324
340
325
340
326
340
327
340
328
340
329
340
32A
340
32B
340
32C
340
32D
340
33E
340
33F
340
3C1
340
3C2
340
42E
  0
GROUP
  5
59A
102
{ACAD_REACTORS
330
D
102
}
330
D
100
AcDbGroup
300
GRP996-LCMaster-LCGROUP854
 70
     1
 71
     1
340
401
340
402
340
403
340
404
340
405
340
406
340
407
340
408
340
409
340
40A
340
40B
340
40C
340
40D
340
40E
340
40F
340
410
340
411
340
412
340
413
340
414
340
415
340
416
340
417
340
418
340
419
340
41A
340
41B
340
41C
340
41D
340
41E
340
41F
340
420
340
421
340
422
340
423
340
424
340
425
340
426
340
427
340
428
340
429
340
42C
340
42D
  0
LAYOUT
  5
1E
102
{ACAD_REACTORS
330
1A
102
}
330
1A
100
AcDbPlotSettings
  1

  2

  4

  6

 40
0.0
 41
0.0
 42
0.0
 43
0.0
 44
0.0
 45
0.0
 46
0.0
 47
0.0
 48
0.0
 49
0.0
140
0.0
141
0.0
142
1.0
143
1.0
 70
   688
 72
     0
 73
     0
 74
     5
  7

 75
    16
 76
     0
 77
     2
 78
   300
147
1.0
148
0.0
149
0.0
100
AcDbLayout
  1
Layout1
 70
     1
 71
     1
 10
0.0
 20
0.0
 11
2100.0
 21
2970.0
 12
0.0
 22
0.0
 32
0.0
 14
0.0
 24
0.0
 34
0.0
 15
2100.0
 25
2970.0
 35
0.0
146
0.0
 13
0.0
 23
0.0
 33
0.0
 16
1.0
 26
0.0
 36
0.0
 17
0.0
 27
1.0
 37
0.0
 76
     0
330
1B
  0
LAYOUT
  5
26
102
{ACAD_REACTORS
330
1A
102
}
330
1A
100
AcDbPlotSettings
  1

  2

  4

  6

 40
0.0
 41
0.0
 42
0.0
 43
0.0
 44
0.0
 45
0.0
 46
0.0
 47
0.0
 48
0.0
 49
0.0
140
0.0
141
0.0
142
1.0
143
1.0
 70
   688
 72
     0
 73
     0
 74
     5
  7

 75
    16
 76
     0
 77
     2
 78
   300
147
1.0
148
0.0
149
0.0
100
AcDbLayout
  1
Layout2
 70
     1
 71
     2
 10
0.0
 20
0.0
 11
0.0
 21
0.0
 12
0.0
 22
0.0
 32
0.0
 14
0.0
 24
0.0
 34
0.0
 15
0.0
 25
0.0
 35
0.0
146
0.0
 13
0.0
 23
0.0
 33
0.0
 16
1.0
 26
0.0
 36
0.0
 17
0.0
 27
1.0
 37
0.0
 76
     0
330
23
  0
LAYOUT
  5
22
102
{ACAD_REACTORS
330
1A
102
}
330
1A
100
AcDbPlotSettings
  1

  2

  4

  6

 40
0.0
 41
0.0
 42
0.0
 43
0.0
 44
0.0
 45
0.0
 46
0.0
 47
0.0
 48
0.0
 49
0.0
140
0.0
141
0.0
142
1.0
143
1.0
 70
  1776
 72
     0
 73
     0
 74
     0
  7

 75
     0
 76
     0
 77
     2
 78
   300
147
1.0
148
0.0
149
0.0
100
AcDbLayout
  1
Model
 70
     1
 71
     0
 10
0.0
 20
0.0
 11
2100.0
 21
2970.0
 12
1682.0
 22
1188.0
 32
0.0
 14
0.0
 24
0.0
 34
0.0
 15
2100.0
 25
2970.0
 35
0.0
146
0.0
 13
0.0
 23
0.0
 33
0.0
 16
1.0
 26
0.0
 36
0.0
 17
0.0
 27
1.0
 37
0.0
 76
     0
330
1F
  0
MLINESTYLE
  5
18
102
{ACAD_REACTORS
330
17
102
}
330
17
100
AcDbMlineStyle
  2
Standard
 70
     0
  3

 62
   256
 51
90.0
 52
90.0
 71
     2
 49
0.5
 62
   256
  6
BYLAYER
 49
-0.5
 62
   256
  6
BYLAYER
  0
ACDBPLACEHOLDER
  5
F
102
{ACAD_REACTORS
330
E
102
}
330
E
  0
ENDSEC
  0
EOF
