  0
SECTION
  2
HEADER
  9
$ACADVER
  1
AC1018
  9
$ACADMAINTVER
 70
     0
  9
$DWGCODEPAGE
  3
ANSI_1252
  9
$INSBASE
 10
0.0
 20
0.0
 30
0.0
  9
$EXTMIN
 10
0.0
 20
0.0
 30
0.0
  9
$EXTMAX
 10
2100.0
 20
2970.0
 30
0.0
  9
$LIMMIN
 10
0.0
 20
0.0
  9
$LIMMAX
 10
2100.0
 20
2970.0
  9
$ORTHOMODE
 70
     0
  9
$REGENMODE
 70
     1
  9
$FILLMODE
 70
     1
  9
$QTEXTMODE
 70
     0
  9
$MIRRTEXT
 70
     1
  9
$LTSCALE
 40
10.0
  9
$ATTMODE
 70
     1
  9
$TEXTSIZE
 40
2.5
  9
$TRACEWID
 40
1.0
  9
$TEXTSTYLE
  7
Standard
  9
$CLAYER
  8
0
  9
$CELTYPE
  6
ByLayer
  9
$CECOLOR
 62
     7
  9
$CELTSCALE
 40
1.0
  9
$DISPSILH
 70
     0
  9
$DIMSCALE
 40
10.0
  9
$DIMASZ
 40
3.5
  9
$DIMEXO
 40
0.625
  9
$DIMDLI
 40
3.75
  9
$DIMRND
 40
0.0
  9
$DIMDLE
 40
0.0
  9
$DIMEXE
 40
1.25
  9
$DIMTP
 40
0.0
  9
$DIMTM
 40
0.0
  9
$DIMTXT
 40
3.5
  9
$DIMCEN
 40
2.5
  9
$DIMTSZ
 40
0.0
  9
$DIMTOL
 70
     0
  9
$DIMLIM
 70
     0
  9
$DIMTIH
 70
     0
  9
$DIMTOH
 70
     0
  9
$DIMSE1
 70
     0
  9
$DIMSE2
 70
     0
  9
$DIMTAD
 70
     1
  9
$DIMZIN
 70
     8
  9
$DIMBLK
  1

  9
$DIMASO
 70
     1
  9
$DIMSHO
 70
     1
  9
$DIMPOST
  1

  9
$DIMAPOST
  1

  9
$DIMALT
 70
     0
  9
$DIMALTD
 70
     3
  9
$DIMALTF
 40
0.03937
  9
$DIMLFAC
 40
1.0
  9
$DIMTOFL
 70
     1
  9
$DIMTVP
 40
0.0
  9
$DIMTIX
 70
     0
  9
$DIMSOXD
 70
     0
  9
$DIMSAH
 70
     0
  9
$DIMBLK1
  1

  9
$DIMBLK2
  1

  9
$DIMSTYLE
  2
ISO-25
  9
$DIMCLRD
 70
     0
  9
$DIMCLRE
 70
     0
  9
$DIMCLRT
 70
     0
  9
$DIMTFAC
 40
1.0
  9
$DIMGAP
 40
0.625
  9
$DIMJUST
 70
     0
  9
$DIMSD1
 70
     0
  9
$DIMSD2
 70
     0
  9
$DIMTOLJ
 70
     0
  9
$DIMTZIN
 70
     8
  9
$DIMALTZ
 70
     0
  9
$DIMALTTZ
 70
     0
  9
$DIMUPT
 70
     0
  9
$DIMDEC
 70
     2
  9
$DIMTDEC
 70
     2
  9
$DIMALTU
 70
     2
  9
$DIMALTTD
 70
     3
  9
$DIMTXSTY
  7
Standard
  9
$DIMAUNIT
 70
     0
  9
$DIMADEC
 70
     0
  9
$DIMALTRND
 40
0.0
  9
$DIMAZIN
 70
     0
  9
$DIMDSEP
 70
    44
  9
$DIMATFIT
 70
     3
  9
$DIMFRAC
 70
     0
  9
$DIMLDRBLK
  1

  9
$DIMLUNIT
 70
     2
  9
$DIMLWD
 70
    -2
  9
$DIMLWE
 70
    -2
  9
$DIMTMOVE
 70
     0
  9
$LUNITS
 70
     2
  9
$LUPREC
 70
     4
  9
$SKETCHINC
 40
1.0
  9
$FILLETRAD
 40
10.0
  9
$AUNITS
 70
     0
  9
$AUPREC
 70
     0
  9
$MENU
  1
.
  9
$ELEVATION
 40
0.0
  9
$PELEVATION
 40
0.0
  9
$THICKNESS
 40
0.0
  9
$LIMCHECK
 70
     0
  9
$CHAMFERA
 40
10.0
  9
$CHAMFERB
 40
10.0
  9
$CHAMFERC
 40
20.0
  9
$CHAMFERD
 40
0.0
  9
$SKPOLY
 70
     0
  9
$TDCREATE
 40
2456637.523831123
  9
$TDUCREATE
 40
2456637.482164456
  9
$TDUPDATE
 40
2456637.523831134
  9
$TDUUPDATE
 40
2456637.482164468
  9
$TDINDWG
 40
0.0000000116
  9
$TDUSRTIMER
 40
0.0000000116
  9
$USRTIMER
 70
     1
  9
$ANGBASE
 50
0.0
  9
$ANGDIR
 70
     0
  9
$PDMODE
 70
     0
  9
$PDSIZE
 40
0.0
  9
$PLINEWID
 40
0.0
  9
$SPLFRAME
 70
     0
  9
$SPLINETYPE
 70
     6
  9
$SPLINESEGS
 70
     8
  9
$HANDSEED
  5
39B
  9
$SURFTAB1
 70
     6
  9
$SURFTAB2
 70
     6
  9
$SURFTYPE
 70
     6
  9
$SURFU
 70
     6
  9
$SURFV
 70
     6
  9
$UCSBASE
  2

  9
$UCSNAME
  2

  9
$UCSORG
 10
0.0
 20
0.0
 30
0.0
  9
$UCSXDIR
 10
1.0
 20
0.0
 30
0.0
  9
$UCSYDIR
 10
0.0
 20
1.0
 30
0.0
  9
$UCSORTHOREF
  2

  9
$UCSORTHOVIEW
 70
     0
  9
$UCSORGTOP
 10
0.0
 20
0.0
 30
0.0
  9
$UCSORGBOTTOM
 10
0.0
 20
0.0
 30
0.0
  9
$UCSORGLEFT
 10
0.0
 20
0.0
 30
0.0
  9
$UCSORGRIGHT
 10
0.0
 20
0.0
 30
0.0
  9
$UCSORGFRONT
 10
0.0
 20
0.0
 30
0.0
  9
$UCSORGBACK
 10
0.0
 20
0.0
 30
0.0
  9
$PUCSBASE
  2

  9
$PUCSNAME
  2

  9
$PUCSORG
 10
0.0
 20
0.0
 30
0.0
  9
$PUCSXDIR
 10
1.0
 20
0.0
 30
0.0
  9
$PUCSYDIR
 10
0.0
 20
1.0
 30
0.0
  9
$PUCSORTHOREF
  2

  9
$PUCSORTHOVIEW
 70
     0
  9
$PUCSORGTOP
 10
0.0
 20
0.0
 30
0.0
  9
$PUCSORGBOTTOM
 10
0.0
 20
0.0
 30
0.0
  9
$PUCSORGLEFT
 10
0.0
 20
0.0
 30
0.0
  9
$PUCSORGRIGHT
 10
0.0
 20
0.0
 30
0.0
  9
$PUCSORGFRONT
 10
0.0
 20
0.0
 30
0.0
  9
$PUCSORGBACK
 10
0.0
 20
0.0
 30
0.0
  9
$USERI1
 70
     0
  9
$USERI2
 70
     0
  9
$USERI3
 70
     0
  9
$USERI4
 70
     0
  9
$USERI5
 70
     0
  9
$USERR1
 40
0.0
  9
$USERR2
 40
0.0
  9
$USERR3
 40
0.0
  9
$USERR4
 40
0.0
  9
$USERR5
 40
0.0
  9
$WORLDVIEW
 70
     1
  9
$SHADEDGE
 70
     3
  9
$SHADEDIF
 70
    70
  9
$TILEMODE
 70
     1
  9
$MAXACTVP
 70
    64
  9
$PINSBASE
 10
0.0
 20
0.0
 30
0.0
  9
$PLIMCHECK
 70
     0
  9
$PEXTMIN
 10
0.0
 20
0.0
 30
0.0
  9
$PEXTMAX
 10
2100.0
 20
2970.0
 30
0.0
  9
$PLIMMIN
 10
0.0
 20
0.0
  9
$PLIMMAX
 10
2100.0
 20
2970.0
  9
$UNITMODE
 70
     0
  9
$VISRETAIN
 70
     1
  9
$PLINEGEN
 70
     0
  9
$PSLTSCALE
 70
     1
  9
$TREEDEPTH
 70
  3020
  9
$CMLSTYLE
  2
Standard
  9
$CMLJUST
 70
     0
  9
$CMLSCALE
 40
20.0
  9
$PROXYGRAPHICS
 70
     1
  9
$MEASUREMENT
 70
     1
  9
$CELWEIGHT
370
    -1
  9
$ENDCAPS
280
     0
  9
$JOINSTYLE
280
     0
  9
$LWDISPLAY
290
     0
  9
$INSUNITS
 70
     4
  9
$HYPERLINKBASE
  1

  9
$STYLESHEET
  1

  9
$XEDIT
290
     1
  9
$CEPSNTYPE
380
     0
  9
$PSTYLEMODE
290
     1
  9
$FINGERPRINTGUID
  2
{FAEB1C30-E019-11D5-929B-00C0DF256EC4}
  9
$VERSIONGUID
  2
{FAEB1C32-E019-11D5-929B-00C0DF256EC4}
  9
$EXTNAMES
290
     1
  9
$PSVPSCALE
 40
0.0
  9
$OLESTARTUP
290
     0
  9
$SORTENTS
280
   127
  9
$INDEXCTL
280
     0
  9
$HIDETEXT
280
     1
  9
$XCLIPFRAME
290
     0
  9
$HALOGAP
280
     0
  9
$OBSCOLOR
 70
   257
  9
$OBSLTYPE
280
     0
  9
$INTERSECTIONDISPLAY
280
     0
  9
$INTERSECTIONCOLOR
 70
   257
  9
$DIMASSOC
280
     2
  9
$PROJECTNAME
  1

  0
ENDSEC
  0
SECTION
  2
CLASSES
  0
CLASS
  1
ACDBDICTIONARYWDFLT
  2
AcDbDictionaryWithDefault
  3
ObjectDBX Classes
 90
        0
 91
        1
280
     0
281
     0
  0
ENDSEC
  0
SECTION
  2
TABLES
  0
TABLE
  2
VPORT
  5
8
330
0
100
AcDbSymbolTable
 70
     2
  0
VPORT
  5
29
330
8
100
AcDbSymbolTableRecord
100
AcDbViewportTableRecord
  2
*ACTIVE
 70
     0
 10
0.0
 20
0.0
 11
1.0
 21
1.0
 12
1050.0
 22
1485.0
 13
0.0
 23
0.0
 14
1.0
 24
1.0
 15
0.0
 25
0.0
 16
0.0
 26
0.0
 36
1.0
 17
0.0
 27
0.0
 37
0.0
 40
2970.0
 41
0.707071
 42
50.0
 43
0.0
 44
0.0
 50
0.0
 51
0.0
 71
    16
 72
   100
 73
     1
 74
     0
 75
     0
 76
     0
 77
     0
 78
     0
281
     0
 65
     0
110
0.0
120
0.0
130
0.0
111
1.0
121
0.0
131
0.0
112
0.0
122
1.0
132
0.0
 79
     0
146
0.0
  0
ENDTAB
  0
TABLE
  2
LTYPE
  5
5
330
0
100
AcDbSymbolTable
 70
     3
  0
LTYPE
  5
14
330
5
100
AcDbSymbolTableRecord
100
AcDbLinetypeTableRecord
  2
ByBlock
 70
     0
  3

 72
    65
 73
     0
 40
0.0
  0
LTYPE
  5
15
330
5
100
AcDbSymbolTableRecord
100
AcDbLinetypeTableRecord
  2
ByLayer
 70
     0
  3

 72
    65
 73
     0
 40
0.0
  0
LTYPE
  5
16
330
5
100
AcDbSymbolTableRecord
100
AcDbLinetypeTableRecord
  2
Continuous
 70
     0
  3
Solid line
 72
    65
 73
     0
 40
0.0
  0
LTYPE
  5
2A
330
5
100
AcDbSymbolTableRecord
100
AcDbLinetypeTableRecord
  2
DASHED
 70
     0
  3
__ __ __ __ __
 72
    65
 73
     2
 40
6.25
 49
5.0
 74
     4
 75
     0
340
0
 46
1.0
 50
0.0
 44
0.0
 45
0.0
 49
-1.25
 74
     4
 75
     0
340
0
 46
1.0
 50
0.0
 44
0.0
 45
0.0
  0
LTYPE
  5
30D
330
5
100
AcDbSymbolTableRecord
100
AcDbLinetypeTableRecord
  2
DASHDOT
 70
     0
  3
__ . __ . __ . __ . __
 72
    65
 73
     4
 40
7.5
 49
5.0
 74
     4
 75
     0
340
0
 46
1.0
 50
0.0
 44
0.0
 45
0.0
 49
-1.25
 74
     4
 75
     0
340
0
 46
1.0
 50
0.0
 44
0.0
 45
0.0
 49
0.0
 74
     4
 75
     0
340
0
 46
1.0
 50
0.0
 44
0.0
 45
0.0
 49
-1.25
 74
     4
 75
     0
340
0
 46
1.0
 50
0.0
 44
0.0
 45
0.0
  0
ENDTAB
  0
TABLE
  2
LAYER
  5
2
330
0
100
AcDbSymbolTable
 70
    14
  0
LAYER
  5
10
330
2
100
AcDbSymbolTableRecord
100
AcDbLayerTableRecord
  2
0
 70
     0
 62
     7
  6
Continuous
370
    -3
390
F
  0
LAYER
  5
2B
330
2
100
AcDbSymbolTableRecord
100
AcDbLayerTableRecord
  2
LC-INFO-1-10-mm-A4H-0
 70
     1
 62
     7
  6
ByBlock
370
    -3
390
F
  0
LAYER
  5
2C
330
2
100
AcDbSymbolTableRecord
100
AcDbLayerTableRecord
  2
LC-CUT-HIDDEN
 70
     0
 62
     7
  6
DASHED
370
    -3
390
F
  0
LAYER
  5
2D
330
2
100
AcDbSymbolTableRecord
100
AcDbLayerTableRecord
  2
LC-VIEWPORT
 70
     0
 62
     7
  6
ByBlock
370
    -3
390
F
  0
LAYER
  5
2E
330
2
100
AcDbSymbolTableRecord
100
AcDbLayerTableRecord
  2
LC-3D-HIDDEN
 70
     0
 62
     9
  6
DASHED
370
    -3
390
F
  0
LAYER
  5
33
330
2
100
AcDbSymbolTableRecord
100
AcDbLayerTableRecord
  2
LC-001-111-----0
 70
     0
 62
   253
  6
ByBlock
370
    -3
390
F
  0
LAYER
  5
A2
330
2
100
AcDbSymbolTableRecord
100
AcDbLayerTableRecord
  2
LC-002-002-----0
 70
     0
 62
     1
  6
ByBlock
370
    -3
390
F
  0
LAYER
  5
104
330
2
100
AcDbSymbolTableRecord
100
AcDbLayerTableRecord
  2
LC-003-230-ZVN-0
 70
     0
 62
     1
  6
ByBlock
370
    -3
390
F
  0
LAYER
  5
10F
330
2
100
AcDbSymbolTableRecord
100
AcDbLayerTableRecord
  2
LC-004-002-RND-0
 70
     0
 62
     1
  6
ByBlock
370
    -3
390
F
  0
LAYER
  5
1AE
330
2
100
AcDbSymbolTableRecord
100
AcDbLayerTableRecord
  2
LC-005-003-----0
 70
     0
 62
     2
  6
ByBlock
370
    -3
390
F
  0
LAYER
  5
1B0
330
2
100
AcDbSymbolTableRecord
100
AcDbLayerTableRecord
  2
Defpoints
 70
     0
 62
     7
  6
Continuous
290
     0
370
    -3
390
F
  0
LAYER
  5
27F
330
2
100
AcDbSymbolTableRecord
100
AcDbLayerTableRecord
  2
LC-006-005-----0
 70
     0
 62
     2
  6
ByBlock
370
    -3
390
F
  0
LAYER
  5
2B3
330
2
100
AcDbSymbolTableRecord
100
AcDbLayerTableRecord
  2
LC-007-004-----0
 70
     0
 62
     7
  6
ByBlock
370
    -3
390
F
  0
LAYER
  5
346
330
2
100
AcDbSymbolTableRecord
100
AcDbLayerTableRecord
  2
LC-008-003-MTG-0
 70
     0
 62
     2
  6
ByBlock
370
    -3
390
F
  0
ENDTAB
  0
TABLE
  2
STYLE
  5
3
330
0
100
AcDbSymbolTable
 70
     2
  0
STYLE
  5
11
330
3
100
AcDbSymbolTableRecord
100
AcDbTextStyleTableRecord
  2
Standard
 70
     0
 40
0.0
 41
1.0
 50
0.0
 71
     0
 42
2.5
  3
txt
  4

  0
STYLE
  5
2F
330
3
100
AcDbSymbolTableRecord
100
AcDbTextStyleTableRecord
  2
LCTX0-400-0-0pDIN-Schrift
 70
     0
 40
0.0
 41
0.7
 50
0.0
 71
     0
 42
3.5
  3
TXT
  4

  0
ENDTAB
  0
TABLE
  2
VIEW
  5
6
330
0
100
AcDbSymbolTable
 70
     0
  0
ENDTAB
  0
TABLE
  2
UCS
  5
7
330
0
100
AcDbSymbolTable
 70
     0
  0
ENDTAB
  0
TABLE
  2
APPID
  5
9
330
0
100
AcDbSymbolTable
 70
     1
  0
APPID
  5
12
330
9
100
AcDbSymbolTableRecord
100
AcDbRegAppTableRecord
  2
ACAD
 70
     0
  0
ENDTAB
  0
TABLE
  2
DIMSTYLE
  5
A
330
0
100
AcDbSymbolTable
 70
     5
100
AcDbDimStyleTable
  0
DIMSTYLE
105
27
330
A
100
AcDbSymbolTableRecord
100
AcDbDimStyleTableRecord
  2
ISO-25
 70
     0
 41
2.5
 42
0.625
 43
3.75
 44
1.25
 73
     0
 74
     0
 77
     1
 78
     8
140
2.5
141
2.5
143
0.03937
147
0.625
171
     3
172
     1
271
     2
272
     2
274
     3
278
    44
283
     0
284
     8
340
11
  0
DIMSTYLE
105
1AD
102
{ACAD_REACTORS
330
1AF
330
1BD
330
1CB
330
1D8
330
1FC
330
209
330
217
330
224
330
233
330
241
330
24F
330
25E
330
26D
330
2C4
330
2DC
330
2EA
330
382
102
}
330
A
100
AcDbSymbolTableRecord
100
AcDbDimStyleTableRecord
  2
LC-DIM-L-0025-02-02
 70
     0
 40
10.0
 41
2.5
 42
0.0
 43
7.5
 44
1.8
 73
     0
 74
     0
 77
     1
 78
     8
 79
     2
140
2.5
141
0.0
146
0.71
147
1.5
172
     1
176
     2
177
     2
178
     2
179
     2
271
     2
278
    44
289
     1
340
2F
  0
DIMSTYLE
105
1E5
102
{ACAD_REACTORS
330
1E6
330
1F1
102
}
330
A
100
AcDbSymbolTableRecord
100
AcDbDimStyleTableRecord
  2
LC-DIM-L-0025-02-32
 70
     0
 40
10.0
 41
2.5
 42
0.0
 43
7.5
 44
1.8
 73
     0
 74
     0
 75
     1
 76
     1
 77
     1
 78
     8
 79
     2
140
2.5
141
0.0
146
0.71
147
1.5
172
     1
176
     2
177
     2
178
     2
179
     2
271
     2
278
    44
289
     1
340
2F
  0
DIMSTYLE
105
2B7
102
{ACAD_REACTORS
330
2B8
102
}
330
A
100
AcDbSymbolTableRecord
100
AcDbDimStyleTableRecord
  2
LC-DIM-L-0025-02-22
 70
     0
 40
10.0
 41
2.5
 42
0.0
 43
7.5
 44
1.8
 73
     0
 74
     0
 75
     1
 77
     1
 78
     8
 79
     2
140
2.5
141
0.0
146
0.71
147
1.5
172
     1
176
     2
177
     2
178
     2
179
     2
271
     2
278
    44
289
     1
340
2F
  0
DIMSTYLE
105
2F8
102
{ACAD_REACTORS
330
2F9
330
303
330
321
102
}
330
A
100
AcDbSymbolTableRecord
100
AcDbDimStyleTableRecord
  2
LC-DIM-R-0025-02-02
 70
     0
 40
10.0
 41
2.5
 42
0.0
 43
7.5
 44
1.8
 73
     0
 77
     1
 78
     8
 79
     2
140
2.5
141
0.0
146
0.71
147
1.5
176
     2
177
     2
178
     2
179
     2
271
     2
278
    44
289
     1
340
2F
  0
ENDTAB
  0
TABLE
  2
BLOCK_RECORD
  5
1
330
0
100
AcDbSymbolTable
 70
    28
  0
BLOCK_RECORD
  5
1F
330
1
100
AcDbSymbolTableRecord
100
AcDbBlockTableRecord
  2
*Model_Space
340
22
  0
BLOCK_RECORD
  5
1B
330
1
100
AcDbSymbolTableRecord
100
AcDbBlockTableRecord
  2
*Paper_Space
340
1E
  0
BLOCK_RECORD
  5
23
330
1
100
AcDbSymbolTableRecord
100
AcDbBlockTableRecord
  2
*Paper_Space0
340
26
  0
BLOCK_RECORD
  5
30
330
1
100
AcDbSymbolTableRecord
100
AcDbBlockTableRecord
  2
SYM1
340
0
102
{BLKREFS
331
105
102
}
  0
BLOCK_RECORD
  5
1B1
330
1
100
AcDbSymbolTableRecord
100
AcDbBlockTableRecord
  2
*D2
340
0
  0
BLOCK_RECORD
  5
1BE
330
1
100
AcDbSymbolTableRecord
100
AcDbBlockTableRecord
  2
*D3
340
0
  0
BLOCK_RECORD
  5
1CC
330
1
100
AcDbSymbolTableRecord
100
AcDbBlockTableRecord
  2
*D4
340
0
  0
BLOCK_RECORD
  5
1D9
330
1
100
AcDbSymbolTableRecord
100
AcDbBlockTableRecord
  2
*D5
340
0
  0
BLOCK_RECORD
  5
1E7
330
1
100
AcDbSymbolTableRecord
100
AcDbBlockTableRecord
  2
*D6
340
0
  0
BLOCK_RECORD
  5
1F2
330
1
100
AcDbSymbolTableRecord
100
AcDbBlockTableRecord
  2
*D7
340
0
  0
BLOCK_RECORD
  5
1FD
330
1
100
AcDbSymbolTableRecord
100
AcDbBlockTableRecord
  2
*D8
340
0
  0
BLOCK_RECORD
  5
20A
330
1
100
AcDbSymbolTableRecord
100
AcDbBlockTableRecord
  2
*D9
340
0
  0
BLOCK_RECORD
  5
218
330
1
100
AcDbSymbolTableRecord
100
AcDbBlockTableRecord
  2
*D10
340
0
  0
BLOCK_RECORD
  5
225
330
1
100
AcDbSymbolTableRecord
100
AcDbBlockTableRecord
  2
*D11
340
0
  0
BLOCK_RECORD
  5
234
330
1
100
AcDbSymbolTableRecord
100
AcDbBlockTableRecord
  2
*D12
340
0
  0
BLOCK_RECORD
  5
242
330
1
100
AcDbSymbolTableRecord
100
AcDbBlockTableRecord
  2
*D13
340
0
  0
BLOCK_RECORD
  5
250
330
1
100
AcDbSymbolTableRecord
100
AcDbBlockTableRecord
  2
*D14
340
0
  0
BLOCK_RECORD
  5
25F
330
1
100
AcDbSymbolTableRecord
100
AcDbBlockTableRecord
  2
*D15
340
0
  0
BLOCK_RECORD
  5
26E
330
1
100
AcDbSymbolTableRecord
100
AcDbBlockTableRecord
  2
*D16
340
0
  0
BLOCK_RECORD
  5
27C
330
1
100
AcDbSymbolTableRecord
100
AcDbBlockTableRecord
  2
*X117
340
0
102
{BLKREFS
331
2B2
102
}
  0
BLOCK_RECORD
  5
2B9
330
1
100
AcDbSymbolTableRecord
100
AcDbBlockTableRecord
  2
*D18
340
0
  0
BLOCK_RECORD
  5
2C5
330
1
100
AcDbSymbolTableRecord
100
AcDbBlockTableRecord
  2
*D19
340
0
  0
BLOCK_RECORD
  5
2DD
330
1
100
AcDbSymbolTableRecord
100
AcDbBlockTableRecord
  2
*D20
340
0
  0
BLOCK_RECORD
  5
2EB
330
1
100
AcDbSymbolTableRecord
100
AcDbBlockTableRecord
  2
*D21
340
0
  0
BLOCK_RECORD
  5
2FA
330
1
100
AcDbSymbolTableRecord
100
AcDbBlockTableRecord
  2
*D22
340
0
  0
BLOCK_RECORD
  5
304
330
1
100
AcDbSymbolTableRecord
100
AcDbBlockTableRecord
  2
*D23
340
0
  0
BLOCK_RECORD
  5
315
330
1
100
AcDbSymbolTableRecord
100
AcDbBlockTableRecord
  2
*X224
340
0
102
{BLKREFS
331
31F
102
}
  0
BLOCK_RECORD
  5
322
330
1
100
AcDbSymbolTableRecord
100
AcDbBlockTableRecord
  2
*D25
340
0
  0
BLOCK_RECORD
  5
335
330
1
100
AcDbSymbolTableRecord
100
AcDbBlockTableRecord
  2
*X326
340
0
102
{BLKREFS
331
345
102
}
  0
BLOCK_RECORD
  5
383
330
1
100
AcDbSymbolTableRecord
100
AcDbBlockTableRecord
  2
*D27
340
0
  0
ENDTAB
  0
ENDSEC
  0
SECTION
  2
BLOCKS
  0
BLOCK
  5
20
330
1F
100
AcDbEntity
  8
0
100
AcDbBlockBegin
  2
*Model_Space
 70
     0
 71
     0
 10
0.0
 20
0.0
 30
0.0
  3
*Model_Space
  1

  0
ENDBLK
  5
21
330
1F
100
AcDbEntity
  8
0
100
AcDbBlockEnd
  0
BLOCK
  5
1C
330
1B
100
AcDbEntity
 67
     1
  8
0
100
AcDbBlockBegin
  2
*Paper_Space
 70
     0
 71
     0
 10
0.0
 20
0.0
 30
0.0
  3
*Paper_Space
  1

  0
ENDBLK
  5
1D
330
1B
100
AcDbEntity
 67
     1
  8
0
100
AcDbBlockEnd
  0
BLOCK
  5
24
330
23
100
AcDbEntity
  8
0
100
AcDbBlockBegin
  2
*Paper_Space0
 70
     0
 71
     0
 10
0.0
 20
0.0
 30
0.0
  3
*Paper_Space0
  1

  0
ENDBLK
  5
25
330
23
100
AcDbEntity
  8
0
100
AcDbBlockEnd
  0
BLOCK
  5
31
330
30
100
AcDbEntity
  8
0
100
AcDbBlockBegin
  2
SYM1
 70
     0
 71
     0
 10
0.0
 20
0.0
 30
0.0
  3
SYM1
  1

  4
SYM1
  0
LINE
  5
34
330
30
100
AcDbEntity
  8
LC-001-111-----0
 62
   253
370
    50
100
AcDbLine
 10
2050.0
 20
50.0
 30
0.0
 11
2050.0
 21
2920.0
 31
0.0
  0
LINE
  5
35
330
30
100
AcDbEntity
  8
LC-001-111-----0
 62
   253
370
    25
100
AcDbLine
 10
178.0
 20
220.0
 30
0.0
 11
724.0
 21
220.0
 31
0.0
  0
LINE
  5
36
330
30
100
AcDbEntity
  8
LC-001-111-----0
 62
   253
370
    35
100
AcDbLine
 10
724.0
 20
220.0
 30
0.0
 11
2050.0
 21
220.0
 31
0.0
  0
LINE
  5
37
330
30
100
AcDbEntity
  8
LC-001-111-----0
 62
   253
370
    50
100
AcDbLine
 10
178.0
 20
602.5
 30
0.0
 11
2050.0
 21
602.5
 31
0.0
  0
LINE
  5
38
330
30
100
AcDbEntity
  8
LC-001-111-----0
 62
   253
370
    25
100
AcDbLine
 10
178.0
 20
92.5
 30
0.0
 11
2050.0
 21
92.5
 31
0.0
  0
LINE
  5
39
330
30
100
AcDbEntity
  8
LC-001-111-----0
 62
   253
370
    25
100
AcDbLine
 10
178.0
 20
135.0
 30
0.0
 11
724.0
 21
135.0
 31
0.0
  0
LINE
  5
3A
330
30
100
AcDbEntity
  8
LC-001-111-----0
 62
   253
370
    25
100
AcDbLine
 10
178.0
 20
177.5
 30
0.0
 11
724.0
 21
177.5
 31
0.0
  0
LINE
  5
3B
330
30
100
AcDbEntity
  8
LC-001-111-----0
 62
   253
370
    25
100
AcDbLine
 10
178.0
 20
262.5
 30
0.0
 11
1166.0
 21
262.5
 31
0.0
  0
LINE
  5
3C
330
30
100
AcDbEntity
  8
LC-001-111-----0
 62
   253
370
    25
100
AcDbLine
 10
178.0
 20
305.0
 30
0.0
 11
1166.0
 21
305.0
 31
0.0
  0
LINE
  5
3D
330
30
100
AcDbEntity
  8
LC-001-111-----0
 62
   253
370
    25
100
AcDbLine
 10
178.0
 20
347.5
 30
0.0
 11
1166.0
 21
347.5
 31
0.0
  0
LINE
  5
3E
330
30
100
AcDbEntity
  8
LC-001-111-----0
 62
   253
370
    25
100
AcDbLine
 10
178.0
 20
390.0
 30
0.0
 11
1166.0
 21
390.0
 31
0.0
  0
LINE
  5
3F
330
30
100
AcDbEntity
  8
LC-001-111-----0
 62
   253
370
    35
100
AcDbLine
 10
178.0
 20
432.5
 30
0.0
 11
2050.0
 21
432.5
 31
0.0
  0
LINE
  5
40
330
30
100
AcDbEntity
  8
LC-001-111-----0
 62
   253
370
    25
100
AcDbLine
 10
828.0
 20
262.5
 30
0.0
 11
828.0
 21
432.5
 31
0.0
  0
LINE
  5
41
330
30
100
AcDbEntity
  8
LC-001-111-----0
 62
   253
370
    35
100
AcDbLine
 10
1920.0
 20
92.5
 30
0.0
 11
1920.0
 21
220.0
 31
0.0
  0
LINE
  5
42
330
30
100
AcDbEntity
  8
LC-001-111-----0
 62
   253
370
    25
100
AcDbLine
 10
1166.0
 20
538.75
 30
0.0
 11
2050.0
 21
538.75
 31
0.0
  0
LINE
  5
43
330
30
100
AcDbEntity
  8
LC-001-111-----0
 62
   253
370
    25
100
AcDbLine
 10
256.0
 20
50.0
 30
0.0
 11
256.0
 21
432.5
 31
0.0
  0
LINE
  5
44
330
30
100
AcDbEntity
  8
LC-001-111-----0
 62
   253
370
    25
100
AcDbLine
 10
516.0
 20
50.0
 30
0.0
 11
516.0
 21
432.5
 31
0.0
  0
LINE
  5
45
330
30
100
AcDbEntity
  8
LC-001-111-----0
 62
   253
370
    25
100
AcDbLine
 10
646.0
 20
50.0
 30
0.0
 11
646.0
 21
432.5
 31
0.0
  0
LINE
  5
46
330
30
100
AcDbEntity
  8
LC-001-111-----0
 62
   253
370
    35
100
AcDbLine
 10
724.0
 20
50.0
 30
0.0
 11
724.0
 21
602.5
 31
0.0
  0
LINE
  5
47
330
30
100
AcDbEntity
  8
LC-001-111-----0
 62
   253
370
    35
100
AcDbLine
 10
1166.0
 20
50.0
 30
0.0
 11
1166.0
 21
602.5
 31
0.0
  0
LINE
  5
48
330
30
100
AcDbEntity
  8
LC-001-111-----0
 62
   253
370
    25
100
AcDbLine
 10
1920.0
 20
135.0
 30
0.0
 11
2050.0
 21
135.0
 31
0.0
  0
LINE
  5
49
330
30
100
AcDbEntity
  8
LC-001-111-----0
 62
   253
370
    25
100
AcDbLine
 10
984.0
 20
220.0
 30
0.0
 11
984.0
 21
602.5
 31
0.0
  0
LINE
  5
4A
330
30
100
AcDbEntity
  8
LC-001-111-----0
 62
   253
370
    25
100
AcDbLine
 10
1686.0
 20
538.75
 30
0.0
 11
1686.0
 21
602.5
 31
0.0
  0
LINE
  5
4B
330
30
100
AcDbEntity
  8
LC-001-111-----0
 62
   253
370
    25
100
AcDbLine
 10
1608.0
 20
50.0
 30
0.0
 11
1608.0
 21
92.5
 31
0.0
  0
LINE
  5
4C
330
30
100
AcDbEntity
  8
LC-001-111-----0
 62
   253
370
    50
100
AcDbLine
 10
178.0
 20
50.0
 30
0.0
 11
178.0
 21
2920.0
 31
0.0
  0
LINE
  5
4D
330
30
100
AcDbEntity
  8
LC-001-111-----0
 62
   253
370
    50
100
AcDbLine
 10
178.0
 20
2920.0
 30
0.0
 11
2050.0
 21
2920.0
 31
0.0
  0
TEXT
  5
4E
330
30
100
AcDbEntity
  8
LC-001-111-----0
 62
     7
370
    25
100
AcDbText
 10
1414.9
 20
558.125
 30
0.0
 40
25.0
  1
1:10  -  mm
 41
0.75
  7
LCTX0-400-0-0pDIN-Schrift
 72
     1
 11
1504.0
 21
558.125
 31
0.0
100
AcDbText
  0
TEXT
  5
4F
330
30
100
AcDbEntity
  8
LC-001-111-----0
 62
     7
370
    25
100
AcDbText
 10
1948.821875
 20
101.25
 30
0.0
 40
25.0
  1
1
 41
0.75
  7
LCTX0-400-0-0pDIN-Schrift
 72
     1
 11
1955.0
 21
101.25
 31
0.0
100
AcDbText
  0
TEXT
  5
50
330
30
100
AcDbEntity
  8
LC-001-111-----0
 62
     7
370
    25
100
AcDbText
 10
743.178125
 20
398.75
 30
0.0
 40
25.0
  1
2013
 41
0.75
  7
LCTX0-400-0-0pDIN-Schrift
 72
     1
 11
776.0
 21
398.75
 31
0.0
100
AcDbText
  0
TEXT
  5
51
330
30
100
AcDbEntity
  8
LC-001-111-----0
 62
     7
370
    25
100
AcDbText
 10
870.01875
 20
356.25
 30
0.0
 40
25.0
  1
10.12.
 41
0.75
  7
LCTX0-400-0-0pDIN-Schrift
 72
     1
 11
906.0
 21
356.25
 31
0.0
100
AcDbText
  0
TEXT
  5
52
330
30
100
AcDbEntity
  8
LC-001-111-----0
 62
     7
370
    25
100
AcDbText
 10
1056.25
 20
356.25
 30
0.0
 40
25.0
  1
KM
 41
0.75
  7
LCTX0-400-0-0pDIN-Schrift
 72
     1
 11
1075.0
 21
356.25
 31
0.0
100
AcDbText
  0
TEXT
  5
53
330
30
100
AcDbEntity
  8
LC-001-111-----0
 62
   253
370
    20
100
AcDbText
 10
1183.923077
 20
560.625
 30
0.0
 40
20.0
  1
Maßstab
 41
0.75
  7
LCTX0-400-0-0pDIN-Schrift
100
AcDbText
  0
TEXT
  5
54
330
30
100
AcDbEntity
  8
LC-001-111-----0
 62
   253
370
    20
100
AcDbText
 10
868.4175
 20
401.25
 30
0.0
 40
20.0
  1
Datum
 41
0.75
  7
LCTX0-400-0-0pDIN-Schrift
 72
     1
 11
906.0
 21
401.25
 31
0.0
100
AcDbText
  0
TEXT
  5
55
330
30
100
AcDbEntity
  8
LC-001-111-----0
 62
   253
370
    20
100
AcDbText
 10
1044.9625
 20
401.25
 30
0.0
 40
20.0
  1
Name
 41
0.75
  7
LCTX0-400-0-0pDIN-Schrift
 72
     1
 11
1075.0
 21
401.25
 31
0.0
100
AcDbText
  0
TEXT
  5
56
330
30
100
AcDbEntity
  8
LC-001-111-----0
 62
   253
370
    20
100
AcDbText
 10
741.923077
 20
358.75
 30
0.0
 40
20.0
  1
Bearb.
 41
0.75
  7
LCTX0-400-0-0pDIN-Schrift
100
AcDbText
  0
TEXT
  5
57
330
30
100
AcDbEntity
  8
LC-001-111-----0
 62
   253
370
    20
100
AcDbText
 10
741.923077
 20
316.25
 30
0.0
 40
20.0
  1
Gepr.
 41
0.75
  7
LCTX0-400-0-0pDIN-Schrift
100
AcDbText
  0
TEXT
  5
58
330
30
100
AcDbEntity
  8
LC-001-111-----0
 62
   253
370
    20
100
AcDbText
 10
741.923077
 20
273.75
 30
0.0
 40
20.0
  1
Norm
 41
0.75
  7
LCTX0-400-0-0pDIN-Schrift
100
AcDbText
  0
TEXT
  5
59
330
30
100
AcDbEntity
  8
LC-001-111-----0
 62
   253
370
    20
100
AcDbText
 10
1937.923077
 20
188.75
 30
0.0
 40
20.0
  1
Blatt
 41
0.75
  7
LCTX0-400-0-0pDIN-Schrift
100
AcDbText
  0
TEXT
  5
5A
330
30
100
AcDbEntity
  8
LC-001-111-----0
 62
   253
370
    20
100
AcDbText
 10
2011.906923
 20
103.75
 30
0.0
 40
20.0
  1
Bl.
 41
0.75
  7
LCTX0-400-0-0pDIN-Schrift
 72
     2
 11
2037.076923
 21
103.75
 31
0.0
100
AcDbText
  0
TEXT
  5
5B
330
30
100
AcDbEntity
  8
LC-001-111-----0
 62
   253
370
    20
100
AcDbText
 10
196.056
 20
61.25
 30
0.0
 40
20.0
  1
Zust.
 41
0.6
  7
LCTX0-400-0-0pDIN-Schrift
 72
     1
 11
222.0
 21
61.25
 31
0.0
100
AcDbText
  0
TEXT
  5
5C
330
30
100
AcDbEntity
  8
LC-001-111-----0
 62
   253
370
    20
100
AcDbText
 10
326.0
 20
61.25
 30
0.0
 40
20.0
  1
Änderung
 41
0.75
  7
LCTX0-400-0-0pDIN-Schrift
 72
     1
 11
386.0
 21
61.25
 31
0.0
100
AcDbText
  0
TEXT
  5
5D
330
30
100
AcDbEntity
  8
LC-001-111-----0
 62
   253
370
    20
100
AcDbText
 10
543.4175
 20
61.25
 30
0.0
 40
20.0
  1
Datum
 41
0.75
  7
LCTX0-400-0-0pDIN-Schrift
 72
     1
 11
581.0
 21
61.25
 31
0.0
100
AcDbText
  0
TEXT
  5
5E
330
30
100
AcDbEntity
  8
LC-001-111-----0
 62
   253
370
    20
100
AcDbText
 10
654.9625
 20
61.25
 30
0.0
 40
20.0
  1
Name
 41
0.75
  7
LCTX0-400-0-0pDIN-Schrift
 72
     1
 11
685.0
 21
61.25
 31
0.0
100
AcDbText
  0
TEXT
  5
5F
330
30
100
AcDbEntity
  8
LC-001-111-----0
 62
     7
370
    50
100
AcDbText
 10
1464.24375
 20
343.75
 30
0.0
 40
50.0
  1
Edo-N175
 41
0.75
  7
LCTX0-400-0-0pDIN-Schrift
 72
     1
 11
1608.0
 21
343.75
 31
0.0
100
AcDbText
  0
TEXT
  5
60
330
30
100
AcDbEntity
  8
LC-001-111-----0
 62
     7
370
    35
100
AcDbText
 10
1485.731148
 20
266.25
 30
0.0
 40
35.0
  1
- Unterbau -
 41
0.75
  7
LCTX0-400-0-0pDIN-Schrift
100
AcDbText
  0
TEXT
  5
61
330
30
100
AcDbEntity
  8
LC-001-111-----0
 62
     7
370
    50
100
AcDbText
 10
1349.66875
 20
131.25
 30
0.0
 40
50.0
  1
4.13.825.04.01
 41
0.75
  7
LCTX0-400-0-0pDIN-Schrift
 72
     1
 11
1543.0
 21
131.25
 31
0.0
100
AcDbText
  0
ARC
  5
62
330
30
100
AcDbEntity
  8
LC-001-111-----0
 62
   253
370
    25
100
AcDbCircle
 10
758.903191
 20
174.567744
 30
0.0
 40
20.81533311668208
100
AcDbArc
 50
62.408264
 51
94.48185
  0
LINE
  5
63
330
30
100
AcDbEntity
  8
LC-001-111-----0
 62
   253
370
    50
100
AcDbLine
 10
178.0
 20
50.0
 30
0.0
 11
2050.0
 21
50.0
 31
0.0
  0
LINE
  5
64
330
30
100
AcDbEntity
  8
LC-001-111-----0
 62
   253
370
    25
100
AcDbLine
 10
50.0
 20
1485.0
 30
0.0
 11
0.0
 21
1485.0
 31
0.0
  0
LINE
  5
65
330
30
100
AcDbEntity
  8
LC-001-111-----0
 62
   253
370
    25
100
AcDbLine
 10
1063.835603
 20
195.169147
 30
0.0
 11
1063.835603
 21
157.149147
 31
0.0
  0
LINE
  5
66
330
30
100
AcDbEntity
  8
LC-001-111-----0
 62
   253
370
    25
100
AcDbLine
 10
2100.0
 20
2970.0
 30
0.0
 11
2100.0
 21
0.0
 31
0.0
  0
LINE
  5
67
330
30
100
AcDbEntity
  8
LC-001-111-----0
 62
   253
370
    25
100
AcDbLine
 10
2100.0
 20
0.0
 30
0.0
 11
0.0
 21
0.0
 31
0.0
  0
LINE
  5
68
330
30
100
AcDbEntity
  8
LC-001-111-----0
 62
   253
370
    25
100
AcDbLine
 10
0.0
 20
0.0
 30
0.0
 11
0.0
 21
2970.0
 31
0.0
  0
LINE
  5
69
330
30
100
AcDbEntity
  8
LC-001-111-----0
 62
   253
370
    25
100
AcDbLine
 10
2100.0
 20
2970.0
 30
0.0
 11
0.0
 21
2970.0
 31
0.0
  0
TEXT
  5
6A
330
30
100
AcDbEntity
  8
LC-001-111-----0
 62
   253
370
    20
100
AcDbText
 10
729.2325
 20
111.159147
 30
0.0
 40
20.0
  1
Hofbauerstraße 1  ·  D-94209 REGEN
 41
0.65
  7
LCTX0-400-0-0pDIN-Schrift
 72
     1
 11
945.0
 21
111.159147
 31
0.0
100
AcDbText
  0
ARC
  5
6B
330
30
100
AcDbEntity
  8
LC-001-111-----0
 62
   253
370
    25
100
AcDbCircle
 10
758.032826
 20
185.671748
 30
0.0
 40
9.677270814709853
100
AcDbArc
 50
94.48185
 51
252.731329
  0
ARC
  5
6C
330
30
100
AcDbEntity
  8
LC-001-111-----0
 62
   253
370
    25
100
AcDbCircle
 10
823.845603
 20
176.159147
 30
0.0
 40
19.01000000000008
100
AcDbArc
 50
74.719456
 51
285.280544
  0
LINE
  5
6D
330
30
100
AcDbEntity
  8
LC-001-111-----0
 62
   253
370
    25
100
AcDbLine
 10
828.855603
 20
157.821208
 30
0.0
 11
828.855603
 21
163.204148
 31
0.0
  0
ARC
  5
6E
330
30
100
AcDbEntity
  8
LC-001-111-----0
 62
   253
370
    25
100
AcDbCircle
 10
823.845603
 20
176.159147
 30
0.0
 40
13.88999999999995
100
AcDbArc
 50
68.857352
 51
291.142648
  0
ARC
  5
6F
330
30
100
AcDbEntity
  8
LC-001-111-----0
 62
   253
370
    25
100
AcDbCircle
 10
823.845603
 20
176.159147
 30
0.0
 40
12.39000000000002
100
AcDbArc
 50
58.303227
 51
301.696773
  0
ARC
  5
70
330
30
100
AcDbEntity
  8
LC-001-111-----0
 62
   253
370
    25
100
AcDbCircle
 10
1019.845603
 20
176.159147
 30
0.0
 40
19.01000000000008
100
AcDbArc
 50
74.719456
 51
285.280544
  0
LINE
  5
71
330
30
100
AcDbEntity
  8
LC-001-111-----0
 62
   253
370
    25
100
AcDbLine
 10
830.355603
 20
165.617231
 30
0.0
 11
830.355603
 21
156.709726
 31
0.0
  0
LINE
  5
72
330
30
100
AcDbEntity
  8
LC-001-111-----0
 62
   253
370
    25
100
AcDbLine
 10
755.160101
 20
176.430697
 30
0.0
 11
762.683613
 21
174.091896
 31
0.0
  0
ARC
  5
73
330
30
100
AcDbEntity
  8
LC-001-111-----0
 62
   253
370
    25
100
AcDbCircle
 10
823.845603
 20
176.159147
 30
0.0
 40
20.51000000000012
100
AcDbArc
 50
71.493868
 51
288.506132
  0
LINE
  5
74
330
30
100
AcDbEntity
  8
LC-001-111-----0
 62
   253
370
    25
100
AcDbLine
 10
1024.855603
 20
157.821208
 30
0.0
 11
1024.855603
 21
163.204148
 31
0.0
  0
LINE
  5
75
330
30
100
AcDbEntity
  8
LC-001-111-----0
 62
   253
370
    25
100
AcDbLine
 10
830.355603
 20
195.608569
 30
0.0
 11
830.355603
 21
186.701063
 31
0.0
  0
ARC
  5
76
330
30
100
AcDbEntity
  8
LC-001-111-----0
 62
   253
370
    25
100
AcDbCircle
 10
1019.845603
 20
176.159147
 30
0.0
 40
13.88999999999995
100
AcDbArc
 50
68.857352
 51
291.142648
  0
LINE
  5
77
330
30
100
AcDbEntity
  8
LC-001-111-----0
 62
   253
370
    25
100
AcDbLine
 10
862.835603
 20
155.649147
 30
0.0
 11
862.835603
 21
196.669147
 31
0.0
  0
LINE
  5
78
330
30
100
AcDbEntity
  8
LC-001-111-----0
 62
   253
370
    25
100
AcDbLine
 10
862.835603
 20
196.669147
 30
0.0
 11
872.355603
 21
196.669147
 31
0.0
  0
LINE
  5
79
330
30
100
AcDbEntity
  8
LC-001-111-----0
 62
   253
370
    25
100
AcDbLine
 10
872.355603
 20
196.669147
 30
0.0
 11
872.355603
 21
179.519147
 31
0.0
  0
LINE
  5
7A
330
30
100
AcDbEntity
  8
LC-001-111-----0
 62
   253
370
    25
100
AcDbLine
 10
872.355603
 20
179.519147
 30
0.0
 11
887.335603
 21
179.519147
 31
0.0
  0
LINE
  5
7B
330
30
100
AcDbEntity
  8
LC-001-111-----0
 62
   253
370
    25
100
AcDbLine
 10
887.335603
 20
179.519147
 30
0.0
 11
887.335603
 21
196.669147
 31
0.0
  0
LINE
  5
7C
330
30
100
AcDbEntity
  8
LC-001-111-----0
 62
   253
370
    25
100
AcDbLine
 10
887.335603
 20
196.669147
 30
0.0
 11
896.855603
 21
196.669147
 31
0.0
  0
LINE
  5
7D
330
30
100
AcDbEntity
  8
LC-001-111-----0
 62
   253
370
    25
100
AcDbLine
 10
896.855603
 20
196.669147
 30
0.0
 11
896.855603
 21
155.649147
 31
0.0
  0
LINE
  5
7E
330
30
100
AcDbEntity
  8
LC-001-111-----0
 62
   253
370
    25
100
AcDbLine
 10
896.855603
 20
155.649147
 30
0.0
 11
887.335603
 21
155.649147
 31
0.0
  0
LINE
  5
7F
330
30
100
AcDbEntity
  8
LC-001-111-----0
 62
   253
370
    25
100
AcDbLine
 10
887.335603
 20
155.649147
 30
0.0
 11
887.335603
 21
172.799147
 31
0.0
  0
LINE
  5
80
330
30
100
AcDbEntity
  8
LC-001-111-----0
 62
   253
370
    25
100
AcDbLine
 10
887.335603
 20
172.799147
 30
0.0
 11
872.355603
 21
172.799147
 31
0.0
  0
LINE
  5
81
330
30
100
AcDbEntity
  8
LC-001-111-----0
 62
   253
370
    25
100
AcDbLine
 10
872.355603
 20
172.799147
 30
0.0
 11
872.355603
 21
155.649147
 31
0.0
  0
LINE
  5
82
330
30
100
AcDbEntity
  8
LC-001-111-----0
 62
   253
370
    25
100
AcDbLine
 10
872.355603
 20
155.649147
 30
0.0
 11
862.835603
 21
155.649147
 31
0.0
  0
CIRCLE
  5
83
330
30
100
AcDbEntity
  8
LC-001-111-----0
 62
   253
370
    25
100
AcDbCircle
 10
946.345603
 20
176.159147
 30
0.0
 40
12.39000000000044
  0
CIRCLE
  5
84
330
30
100
AcDbEntity
  8
LC-001-111-----0
 62
   253
370
    25
100
AcDbCircle
 10
946.345603
 20
176.159147
 30
0.0
 40
20.51000000000049
  0
ARC
  5
85
330
30
100
AcDbEntity
  8
LC-001-111-----0
 62
   253
370
    25
100
AcDbCircle
 10
1019.845603
 20
176.159147
 30
0.0
 40
12.39000000000002
100
AcDbArc
 50
58.303227
 51
301.696773
  0
LINE
  5
86
330
30
100
AcDbEntity
  8
LC-001-111-----0
 62
   253
370
    25
100
AcDbLine
 10
864.335603
 20
195.169147
 30
0.0
 11
864.335603
 21
157.149147
 31
0.0
  0
LINE
  5
87
330
30
100
AcDbEntity
  8
LC-001-111-----0
 62
   253
370
    25
100
AcDbLine
 10
1026.355603
 20
165.617231
 30
0.0
 11
1026.355603
 21
156.709726
 31
0.0
  0
LINE
  5
88
330
30
100
AcDbEntity
  8
LC-001-111-----0
 62
   253
370
    25
100
AcDbLine
 10
864.335603
 20
157.149147
 30
0.0
 11
870.855603
 21
157.149147
 31
0.0
  0
LINE
  5
89
330
30
100
AcDbEntity
  8
LC-001-111-----0
 62
   253
370
    25
100
AcDbLine
 10
870.855603
 20
157.149147
 30
0.0
 11
870.855603
 21
174.299147
 31
0.0
  0
LINE
  5
8A
330
30
100
AcDbEntity
  8
LC-001-111-----0
 62
   253
370
    25
100
AcDbLine
 10
870.855603
 20
174.299147
 30
0.0
 11
888.835603
 21
174.299147
 31
0.0
  0
LINE
  5
8B
330
30
100
AcDbEntity
  8
LC-001-111-----0
 62
   253
370
    25
100
AcDbLine
 10
888.835603
 20
174.299147
 30
0.0
 11
888.835603
 21
157.149147
 31
0.0
  0
LINE
  5
8C
330
30
100
AcDbEntity
  8
LC-001-111-----0
 62
   253
370
    25
100
AcDbLine
 10
888.835603
 20
157.149147
 30
0.0
 11
895.355603
 21
157.149147
 31
0.0
  0
LINE
  5
8D
330
30
100
AcDbEntity
  8
LC-001-111-----0
 62
   253
370
    25
100
AcDbLine
 10
895.355603
 20
157.149147
 30
0.0
 11
895.355603
 21
195.169147
 31
0.0
  0
LINE
  5
8E
330
30
100
AcDbEntity
  8
LC-001-111-----0
 62
   253
370
    25
100
AcDbLine
 10
895.355603
 20
195.169147
 30
0.0
 11
888.835603
 21
195.169147
 31
0.0
  0
LINE
  5
8F
330
30
100
AcDbEntity
  8
LC-001-111-----0
 62
   253
370
    25
100
AcDbLine
 10
888.835603
 20
195.169147
 30
0.0
 11
888.835603
 21
178.019147
 31
0.0
  0
LINE
  5
90
330
30
100
AcDbEntity
  8
LC-001-111-----0
 62
   253
370
    25
100
AcDbLine
 10
888.835603
 20
178.019147
 30
0.0
 11
870.855603
 21
178.019147
 31
0.0
  0
LINE
  5
91
330
30
100
AcDbEntity
  8
LC-001-111-----0
 62
   253
370
    25
100
AcDbLine
 10
870.855603
 20
178.019147
 30
0.0
 11
870.855603
 21
195.169147
 31
0.0
  0
CIRCLE
  5
92
330
30
100
AcDbEntity
  8
LC-001-111-----0
 62
   253
370
    25
100
AcDbCircle
 10
946.345603
 20
176.159147
 30
0.0
 40
19.01000000000055
  0
ARC
  5
93
330
30
100
AcDbEntity
  8
LC-001-111-----0
 62
   253
370
    25
100
AcDbCircle
 10
760.836588
 20
168.15034
 30
0.0
 40
6.222024781007809
100
AcDbArc
 50
268.246912
 51
72.731329
  0
ARC
  5
94
330
30
100
AcDbEntity
  8
LC-001-111-----0
 62
   253
370
    25
100
AcDbCircle
 10
761.412387
 20
186.963179
 30
0.0
 40
25.04367341134793
100
AcDbArc
 50
239.19233
 51
268.246912
  0
LINE
  5
95
330
30
100
AcDbEntity
  8
LC-001-111-----0
 62
   253
370
    25
100
AcDbLine
 10
748.586073
 20
165.453385
 30
0.0
 11
748.586073
 21
160.350534
 31
0.0
  0
ARC
  5
96
330
30
100
AcDbEntity
  8
LC-001-111-----0
 62
   253
370
    25
100
AcDbCircle
 10
760.81067
 20
180.45076
 30
0.0
 40
23.52572762426598
100
AcDbArc
 50
238.692783
 51
274.343327
  0
ARC
  5
97
330
30
100
AcDbEntity
  8
LC-001-111-----0
 62
   253
370
    25
100
AcDbCircle
 10
1019.845603
 20
176.159147
 30
0.0
 40
20.51000000000012
100
AcDbArc
 50
71.493868
 51
288.506132
  0
ARC
  5
98
330
30
100
AcDbEntity
  8
LC-001-111-----0
 62
   253
370
    25
100
AcDbCircle
 10
761.779647
 20
167.692822
 30
0.0
 40
10.73104525444839
100
AcDbArc
 50
274.343327
 51
74.255463
  0
LINE
  5
99
330
30
100
AcDbEntity
  8
LC-001-111-----0
 62
   253
370
    25
100
AcDbLine
 10
1026.355603
 20
195.608569
 30
0.0
 11
1026.355603
 21
186.701063
 31
0.0
  0
LINE
  5
9A
330
30
100
AcDbEntity
  8
LC-001-111-----0
 62
   253
370
    25
100
AcDbLine
 10
764.691502
 20
178.02125
 30
0.0
 11
757.135251
 21
180.151556
 31
0.0
  0
LINE
  5
9B
330
30
100
AcDbEntity
  8
LC-001-111-----0
 62
   253
370
    25
100
AcDbLine
 10
1024.855603
 20
189.114146
 30
0.0
 11
1024.855603
 21
194.497086
 31
0.0
  0
ARC
  5
9C
330
30
100
AcDbEntity
  8
LC-001-111-----0
 62
   253
370
    25
100
AcDbCircle
 10
758.632108
 20
185.460948
 30
0.0
 40
5.51636013010035
100
AcDbArc
 50
90.951212
 51
254.255463
  0
ARC
  5
9D
330
30
100
AcDbEntity
  8
LC-001-111-----0
 62
   253
370
    25
100
AcDbCircle
 10
758.906662
 20
168.924866
 30
0.0
 40
22.05472179307849
100
AcDbArc
 50
64.088485
 51
90.951212
  0
LINE
  5
9E
330
30
100
AcDbEntity
  8
LC-001-111-----0
 62
   253
370
    25
100
AcDbLine
 10
768.544191
 20
188.762426
 30
0.0
 11
768.544191
 21
193.015758
 31
0.0
  0
LINE
  5
9F
330
30
100
AcDbEntity
  8
LC-001-111-----0
 62
   253
370
    25
100
AcDbLine
 10
1071.855603
 20
177.513832
 30
0.0
 11
1087.818366
 21
196.669147
 31
0.0
  0
LINE
  5
A0
330
30
100
AcDbEntity
  8
LC-001-111-----0
 62
   253
370
    25
100
AcDbLine
 10
1087.818366
 20
196.669147
 30
0.0
 11
1099.299433
 21
196.669147
 31
0.0
  0
LINE
  5
A1
330
30
100
AcDbEntity
  8
LC-001-111-----0
 62
   253
370
    25
100
AcDbLine
 10
1099.299433
 20
196.669147
 30
0.0
 11
1082.207766
 21
176.159147
 31
0.0
  0
LINE
  5
A3
330
30
100
AcDbEntity
  8
LC-002-002-----0
 62
     1
370
    25
100
AcDbLine
 10
1143.855603
 20
159.963432
 30
0.0
 11
1143.855603
 21
192.354862
 31
0.0
  0
LINE
  5
A4
330
30
100
AcDbEntity
  8
LC-002-002-----0
 62
     1
370
    25
100
AcDbLine
 10
1143.855603
 20
192.354862
 30
0.0
 11
1127.659888
 21
176.159147
 31
0.0
  0
LINE
  5
A5
330
30
100
AcDbEntity
  8
LC-002-002-----0
 62
     1
370
    25
100
AcDbLine
 10
1127.659888
 20
176.159147
 30
0.0
 11
1143.855603
 21
159.963432
 31
0.0
  0
LINE
  5
A6
330
30
100
AcDbEntity
  8
LC-002-002-----0
 62
     1
370
    25
100
AcDbLine
 10
1142.355603
 20
163.584752
 30
0.0
 11
1142.355603
 21
188.733542
 31
0.0
  0
LINE
  5
A7
330
30
100
AcDbEntity
  8
LC-001-111-----0
 62
   253
370
    25
100
AcDbLine
 10
1082.207766
 20
176.159147
 30
0.0
 11
1099.299433
 21
155.649147
 31
0.0
  0
LINE
  5
A8
330
30
100
AcDbEntity
  8
LC-001-111-----0
 62
   253
370
    25
100
AcDbLine
 10
1099.299433
 20
155.649147
 30
0.0
 11
1087.818366
 21
155.649147
 31
0.0
  0
LINE
  5
A9
330
30
100
AcDbEntity
  8
LC-001-111-----0
 62
   253
370
    25
100
AcDbLine
 10
1087.818366
 20
155.649147
 30
0.0
 11
1071.855603
 21
174.804462
 31
0.0
  0
LINE
  5
AA
330
30
100
AcDbEntity
  8
LC-001-111-----0
 62
   253
370
    25
100
AcDbLine
 10
1062.335603
 20
155.649147
 30
0.0
 11
1062.335603
 21
196.669147
 31
0.0
  0
LINE
  5
AB
330
30
100
AcDbEntity
  8
LC-001-111-----0
 62
   253
370
    25
100
AcDbLine
 10
828.855603
 20
189.114146
 30
0.0
 11
828.855603
 21
194.497086
 31
0.0
  0
ARC
  5
AC
330
30
100
AcDbEntity
  8
LC-001-111-----0
 62
   253
370
    25
100
AcDbCircle
 10
758.903191
 20
174.567744
 30
0.0
 40
19.31533311668209
100
AcDbArc
 50
65.072024
 51
94.48185
  0
LINE
  5
AD
330
30
100
AcDbEntity
  8
LC-001-111-----0
 62
   253
370
    25
100
AcDbLine
 10
1063.835603
 20
157.149147
 30
0.0
 11
1070.355603
 21
157.149147
 31
0.0
  0
LINE
  5
AE
330
30
100
AcDbEntity
  8
LC-001-111-----0
 62
   253
370
    25
100
AcDbLine
 10
1070.355603
 20
157.149147
 30
0.0
 11
1070.355603
 21
195.169147
 31
0.0
  0
LINE
  5
AF
330
30
100
AcDbEntity
  8
LC-001-111-----0
 62
   253
370
    25
100
AcDbLine
 10
1070.355603
 20
195.169147
 30
0.0
 11
1063.835603
 21
195.169147
 31
0.0
  0
LINE
  5
B0
330
30
100
AcDbEntity
  8
LC-001-111-----0
 62
   253
370
    25
100
AcDbLine
 10
1065.335603
 20
193.669147
 30
0.0
 11
1065.335603
 21
158.649147
 31
0.0
  0
LINE
  5
B1
330
30
100
AcDbEntity
  8
LC-002-002-----0
 62
     1
370
    25
100
AcDbLine
 10
1142.355603
 20
188.733542
 30
0.0
 11
1129.781208
 21
176.159147
 31
0.0
  0
LINE
  5
B2
330
30
100
AcDbEntity
  8
LC-002-002-----0
 62
     1
370
    25
100
AcDbLine
 10
1129.781208
 20
176.159147
 30
0.0
 11
1142.355603
 21
163.584752
 31
0.0
  0
LINE
  5
B3
330
30
100
AcDbEntity
  8
LC-001-111-----0
 62
   253
370
    25
100
AcDbLine
 10
1062.335603
 20
196.669147
 30
0.0
 11
1071.855603
 21
196.669147
 31
0.0
  0
LINE
  5
B4
330
30
100
AcDbEntity
  8
LC-001-111-----0
 62
   253
370
    25
100
AcDbLine
 10
1071.855603
 20
196.669147
 30
0.0
 11
1071.855603
 21
155.649147
 31
0.0
  0
LINE
  5
B5
330
30
100
AcDbEntity
  8
LC-001-111-----0
 62
   253
370
    25
100
AcDbLine
 10
1071.855603
 20
155.649147
 30
0.0
 11
1062.335603
 21
155.649147
 31
0.0
  0
ARC
  5
B6
330
30
100
AcDbEntity
  8
LC-001-111-----0
 62
   253
370
    25
100
AcDbCircle
 10
758.032826
 20
185.671748
 30
0.0
 40
8.177270814709827
100
AcDbArc
 50
94.48185
 51
252.731329
  0
LINE
  5
B7
330
30
100
AcDbEntity
  8
LC-001-111-----0
 62
   253
370
    25
100
AcDbLine
 10
755.60538
 20
177.863082
 30
0.0
 11
763.128892
 21
175.524281
 31
0.0
  0
ARC
  5
B8
330
30
100
AcDbEntity
  8
LC-001-111-----0
 62
   253
370
    25
100
AcDbCircle
 10
760.836588
 20
168.15034
 30
0.0
 40
7.72202478100773
100
AcDbArc
 50
268.246912
 51
72.731329
  0
LINE
  5
B9
330
30
100
AcDbEntity
  8
LC-001-111-----0
 62
   253
370
    25
100
AcDbLine
 10
827.355603
 20
191.143539
 30
0.0
 11
827.355603
 21
193.313738
 31
0.0
  0
ARC
  5
BA
330
30
100
AcDbEntity
  8
LC-001-111-----0
 62
   253
370
    25
100
AcDbCircle
 10
823.845603
 20
176.159147
 30
0.0
 40
17.50999999999996
100
AcDbArc
 50
78.436322
 51
281.563678
  0
LINE
  5
BB
330
30
100
AcDbEntity
  8
LC-001-111-----0
 62
   253
370
    25
100
AcDbLine
 10
827.355603
 20
159.004556
 30
0.0
 11
827.355603
 21
161.174755
 31
0.0
  0
LINE
  5
BC
330
30
100
AcDbEntity
  8
LC-002-002-----0
 62
     1
370
    25
100
AcDbLine
 10
1145.355603
 20
195.976182
 30
0.0
 11
1145.355603
 21
156.342112
 31
0.0
  0
LINE
  5
BD
330
30
100
AcDbEntity
  8
LC-002-002-----0
 62
     1
370
    25
100
AcDbLine
 10
1145.355603
 20
156.342112
 30
0.0
 11
1125.538568
 21
176.159147
 31
0.0
  0
LINE
  5
BE
330
30
100
AcDbEntity
  8
LC-002-002-----0
 62
     1
370
    25
100
AcDbLine
 10
1125.538568
 20
176.159147
 30
0.0
 11
1145.355603
 21
195.976182
 31
0.0
  0
LINE
  5
BF
330
30
100
AcDbEntity
  8
LC-001-111-----0
 62
   253
370
    25
100
AcDbLine
 10
1065.335603
 20
158.649147
 30
0.0
 11
1068.855603
 21
158.649147
 31
0.0
  0
LINE
  5
C0
330
30
100
AcDbEntity
  8
LC-001-111-----0
 62
   253
370
    25
100
AcDbLine
 10
1068.855603
 20
158.649147
 30
0.0
 11
1068.855603
 21
193.669147
 31
0.0
  0
LINE
  5
C1
330
30
100
AcDbEntity
  8
LC-001-111-----0
 62
   253
370
    25
100
AcDbLine
 10
1068.855603
 20
193.669147
 30
0.0
 11
1065.335603
 21
193.669147
 31
0.0
  0
LINE
  5
C2
330
30
100
AcDbEntity
  8
LC-001-111-----0
 62
   253
370
    25
100
AcDbLine
 10
1067.095603
 20
192.169147
 30
0.0
 11
1067.095603
 21
160.149147
 31
0.0
  0
ARC
  5
C3
330
30
100
AcDbEntity
  8
LC-001-111-----0
 62
   253
370
    25
100
AcDbCircle
 10
823.845603
 20
176.159147
 30
0.0
 40
15.38999999999992
100
AcDbArc
 50
76.816519
 51
283.183481
  0
LINE
  5
C4
330
30
100
AcDbEntity
  8
LC-001-111-----0
 62
   253
370
    25
100
AcDbLine
 10
870.855603
 20
195.169147
 30
0.0
 11
864.335603
 21
195.169147
 31
0.0
  0
LINE
  5
C5
330
30
100
AcDbEntity
  8
LC-001-111-----0
 62
   253
370
    25
100
AcDbLine
 10
1096.09687
 20
195.169147
 30
0.0
 11
1088.520928
 21
195.169147
 31
0.0
  0
LINE
  5
C6
330
30
100
AcDbEntity
  8
LC-001-111-----0
 62
   253
370
    25
100
AcDbLine
 10
865.835603
 20
158.649147
 30
0.0
 11
869.355603
 21
158.649147
 31
0.0
  0
LINE
  5
C7
330
30
100
AcDbEntity
  8
LC-001-111-----0
 62
   253
370
    25
100
AcDbLine
 10
1023.355603
 20
191.143539
 30
0.0
 11
1023.355603
 21
193.313738
 31
0.0
  0
LINE
  5
C8
330
30
100
AcDbEntity
  8
LC-001-111-----0
 62
   253
370
    25
100
AcDbLine
 10
892.095603
 20
192.169147
 30
0.0
 11
892.095603
 21
160.149147
 31
0.0
  0
TEXT
  5
C9
330
30
100
AcDbEntity
  8
LC-001-111-----0
 62
     1
370
    15
100
AcDbText
 10
1094.748125
 20
21.25
 30
0.0
 40
15.0
  1
Edo-N175UM_mm
 41
0.75
  7
LCTX0-400-0-0pDIN-Schrift
 72
     1
 11
1166.0
 21
21.25
 31
0.0
100
AcDbText
  0
CIRCLE
  5
CA
330
30
100
AcDbEntity
  8
LC-001-111-----0
 62
   253
370
    25
100
AcDbCircle
 10
946.345603
 20
176.159147
 30
0.0
 40
17.51000000000047
  0
LINE
  5
CB
330
30
100
AcDbEntity
  8
LC-001-111-----0
 62
   253
370
    25
100
AcDbLine
 10
1088.520928
 20
195.169147
 30
0.0
 11
1072.679261
 21
176.159147
 31
0.0
  0
ARC
  5
CC
330
30
100
AcDbEntity
  8
LC-001-111-----0
 62
   253
370
    25
100
AcDbCircle
 10
1019.845603
 20
176.159147
 30
0.0
 40
17.50999999999996
100
AcDbArc
 50
78.436322
 51
281.563678
  0
ARC
  5
CD
330
30
100
AcDbEntity
  8
LC-001-111-----0
 62
   253
370
    25
100
AcDbCircle
 10
761.412387
 20
186.963179
 30
0.0
 40
26.54367341134783
100
AcDbArc
 50
244.741378
 51
268.246912
  0
LINE
  5
CE
330
30
100
AcDbEntity
  8
LC-001-111-----0
 62
   253
370
    25
100
AcDbLine
 10
1023.355603
 20
159.004556
 30
0.0
 11
1023.355603
 21
161.174755
 31
0.0
  0
LINE
  5
CF
330
30
100
AcDbEntity
  8
LC-002-002-----0
 62
     1
370
    25
100
AcDbLine
 10
1140.855603
 20
167.206073
 30
0.0
 11
1140.855603
 21
185.112221
 31
0.0
  0
LINE
  5
D0
330
30
100
AcDbEntity
  8
LC-002-002-----0
 62
     1
370
    25
100
AcDbLine
 10
1140.855603
 20
185.112221
 30
0.0
 11
1131.902529
 21
176.159147
 31
0.0
  0
LINE
  5
D1
330
30
100
AcDbEntity
  8
LC-002-002-----0
 62
     1
370
    25
100
AcDbLine
 10
1131.902529
 20
176.159147
 30
0.0
 11
1140.855603
 21
167.206073
 31
0.0
  0
CIRCLE
  5
D2
330
30
100
AcDbEntity
  8
LC-001-111-----0
 62
   253
370
    25
100
AcDbCircle
 10
946.345603
 20
176.159147
 30
0.0
 40
13.89000000000002
  0
LINE
  5
D3
330
30
100
AcDbEntity
  8
LC-001-111-----0
 62
   253
370
    25
100
AcDbLine
 10
890.335603
 20
158.649147
 30
0.0
 11
893.855603
 21
158.649147
 31
0.0
  0
LINE
  5
D4
330
30
100
AcDbEntity
  8
LC-001-111-----0
 62
   253
370
    25
100
AcDbLine
 10
893.855603
 20
158.649147
 30
0.0
 11
893.855603
 21
193.669147
 31
0.0
  0
ARC
  5
D5
330
30
100
AcDbEntity
  8
LC-001-111-----0
 62
   253
370
    25
100
AcDbCircle
 10
758.906662
 20
168.924866
 30
0.0
 40
20.55472179307891
100
AcDbArc
 50
57.190491
 51
90.951212
  0
ARC
  5
D6
330
30
100
AcDbEntity
  8
LC-001-111-----0
 62
   253
370
    25
100
AcDbCircle
 10
761.779647
 20
167.692822
 30
0.0
 40
12.23104525444841
100
AcDbArc
 50
274.343327
 51
74.255463
  0
LINE
  5
D7
330
30
100
AcDbEntity
  8
LC-001-111-----0
 62
   253
370
    25
100
AcDbLine
 10
893.855603
 20
193.669147
 30
0.0
 11
890.335603
 21
193.669147
 31
0.0
  0
LINE
  5
D8
330
30
100
AcDbEntity
  8
LC-001-111-----0
 62
   253
370
    25
100
AcDbLine
 10
890.335603
 20
193.669147
 30
0.0
 11
890.335603
 21
158.649147
 31
0.0
  0
LINE
  5
D9
330
30
100
AcDbEntity
  8
LC-001-111-----0
 62
   253
370
    25
100
AcDbLine
 10
890.335603
 20
176.159147
 30
0.0
 11
869.355603
 21
176.159147
 31
0.0
  0
TEXT
  5
DA
330
30
100
AcDbEntity
  8
LC-001-111-----0
 62
     7
370
    25
100
AcDbText
 10
1978.821875
 20
143.75
 30
0.0
 40
25.0
  1
1
 41
0.75
  7
LCTX0-400-0-0pDIN-Schrift
 72
     1
 11
1985.0
 21
143.75
 31
0.0
100
AcDbText
  0
LINE
  5
DB
330
30
100
AcDbEntity
  8
LC-001-111-----0
 62
   253
370
    25
100
AcDbLine
 10
869.355603
 20
158.649147
 30
0.0
 11
869.355603
 21
193.669147
 31
0.0
  0
LINE
  5
DC
330
30
100
AcDbEntity
  8
LC-001-111-----0
 62
   253
370
    25
100
AcDbLine
 10
869.355603
 20
193.669147
 30
0.0
 11
865.835603
 21
193.669147
 31
0.0
  0
LINE
  5
DD
330
30
100
AcDbEntity
  8
LC-001-111-----0
 62
   253
370
    25
100
AcDbLine
 10
865.835603
 20
193.669147
 30
0.0
 11
865.835603
 21
158.649147
 31
0.0
  0
LINE
  5
DE
330
30
100
AcDbEntity
  8
LC-001-111-----0
 62
   253
370
    25
100
AcDbLine
 10
867.595603
 20
192.169147
 30
0.0
 11
867.595603
 21
160.149147
 31
0.0
  0
CIRCLE
  5
DF
330
30
100
AcDbEntity
  8
LC-001-111-----0
 62
   253
370
    25
100
AcDbCircle
 10
946.345603
 20
176.159147
 30
0.0
 40
15.38999999999984
  0
LINE
  5
E0
330
30
100
AcDbEntity
  8
LC-001-111-----0
 62
   253
370
    25
100
AcDbLine
 10
1072.679261
 20
176.159147
 30
0.0
 11
1088.520928
 21
157.149147
 31
0.0
  0
LINE
  5
E1
330
30
100
AcDbEntity
  8
LC-001-111-----0
 62
   253
370
    25
100
AcDbLine
 10
1088.520928
 20
157.149147
 30
0.0
 11
1096.09687
 21
157.149147
 31
0.0
  0
LINE
  5
E2
330
30
100
AcDbEntity
  8
LC-001-111-----0
 62
   253
370
    25
100
AcDbLine
 10
1096.09687
 20
157.149147
 30
0.0
 11
1080.255204
 21
176.159147
 31
0.0
  0
LINE
  5
E3
330
30
100
AcDbEntity
  8
LC-001-111-----0
 62
   253
370
    25
100
AcDbLine
 10
770.044191
 20
186.20063
 30
0.0
 11
770.044191
 21
193.903002
 31
0.0
  0
ARC
  5
E4
330
30
100
AcDbEntity
  8
LC-001-111-----0
 62
   253
370
    25
100
AcDbCircle
 10
761.412387
 20
186.963179
 30
0.0
 40
23.54367341134796
100
AcDbArc
 50
232.518913
 51
268.246912
  0
ARC
  5
E5
330
30
100
AcDbEntity
  8
LC-001-111-----0
 62
   253
370
    25
100
AcDbCircle
 10
760.836588
 20
168.15034
 30
0.0
 40
4.722024781007908
100
AcDbArc
 50
268.246912
 51
72.731329
  0
LINE
  5
E6
330
30
100
AcDbEntity
  8
LC-001-111-----0
 62
   253
370
    25
100
AcDbLine
 10
757.542274
 20
181.595277
 30
0.0
 11
765.098525
 21
179.464972
 31
0.0
  0
ARC
  5
E7
330
30
100
AcDbEntity
  8
LC-001-111-----0
 62
   253
370
    25
100
AcDbCircle
 10
758.632108
 20
185.460948
 30
0.0
 40
4.016360130100384
100
AcDbArc
 50
90.951212
 51
254.255463
  0
ARC
  5
E8
330
30
100
AcDbEntity
  8
LC-001-111-----0
 62
   253
370
    25
100
AcDbCircle
 10
758.032826
 20
185.671748
 30
0.0
 40
11.17727081470983
100
AcDbArc
 50
94.48185
 51
252.731329
  0
LINE
  5
E9
330
30
100
AcDbEntity
  8
LC-001-111-----0
 62
   253
370
    25
100
AcDbLine
 10
762.238334
 20
172.659511
 30
0.0
 11
754.714822
 21
174.998312
 31
0.0
  0
LINE
  5
EA
330
30
100
AcDbEntity
  8
LC-001-111-----0
 62
   253
370
    25
100
AcDbLine
 10
747.086073
 20
168.279997
 30
0.0
 11
747.086073
 21
159.524163
 31
0.0
  0
ARC
  5
EB
330
30
100
AcDbEntity
  8
LC-001-111-----0
 62
   253
370
    25
100
AcDbCircle
 10
758.903191
 20
174.567744
 30
0.0
 40
22.31533311668187
100
AcDbArc
 50
60.049399
 51
94.48185
  0
ARC
  5
EC
330
30
100
AcDbEntity
  8
LC-001-111-----0
 62
   253
370
    25
100
AcDbCircle
 10
760.81067
 20
180.45076
 30
0.0
 40
25.02572762426604
100
AcDbArc
 50
236.741348
 51
274.343327
  0
LINE
  5
ED
330
30
100
AcDbEntity
  8
LC-001-111-----0
 62
   253
370
    25
100
AcDbLine
 10
1080.255204
 20
176.159147
 30
0.0
 11
1096.09687
 21
195.169147
 31
0.0
  0
LINE
  5
EE
330
30
100
AcDbEntity
  8
LC-001-111-----0
 62
   253
370
    25
100
AcDbLine
 10
750.086073
 20
162.957321
 30
0.0
 11
750.086073
 21
161.212369
 31
0.0
  0
LINE
  5
EF
330
30
100
AcDbEntity
  8
LC-001-111-----0
 62
   253
370
    25
100
AcDbLine
 10
1078.302641
 20
176.159147
 30
0.0
 11
1092.894308
 21
193.669147
 31
0.0
  0
LINE
  5
F0
330
30
100
AcDbEntity
  8
LC-002-002-----0
 62
     1
370
    25
100
AcDbLine
 10
1139.355603
 20
170.827393
 30
0.0
 11
1139.355603
 21
181.490901
 31
0.0
  0
LINE
  5
F1
330
30
100
AcDbEntity
  8
LC-002-002-----0
 62
     1
370
    25
100
AcDbLine
 10
1139.355603
 20
181.490901
 30
0.0
 11
1134.023849
 21
176.159147
 31
0.0
  0
LINE
  5
F2
330
30
100
AcDbEntity
  8
LC-002-002-----0
 62
     1
370
    25
100
AcDbLine
 10
1134.023849
 20
176.159147
 30
0.0
 11
1139.355603
 21
170.827393
 31
0.0
  0
LINE
  5
F3
330
30
100
AcDbEntity
  8
LC-002-002-----0
 62
     1
370
    25
100
AcDbLine
 10
1137.855603
 20
174.448713
 30
0.0
 11
1137.855603
 21
177.869581
 31
0.0
  0
LINE
  5
F4
330
30
100
AcDbEntity
  8
LC-002-002-----0
 62
     1
370
    25
100
AcDbLine
 10
1137.855603
 20
177.869581
 30
0.0
 11
1136.145169
 21
176.159147
 31
0.0
  0
LINE
  5
F5
330
30
100
AcDbEntity
  8
LC-002-002-----0
 62
     1
370
    25
100
AcDbLine
 10
1136.145169
 20
176.159147
 30
0.0
 11
1137.855603
 21
174.448713
 31
0.0
  0
LINE
  5
F6
330
30
100
AcDbEntity
  8
LC-001-111-----0
 62
   253
370
    25
100
AcDbLine
 10
1092.894308
 20
193.669147
 30
0.0
 11
1089.22349
 21
193.669147
 31
0.0
  0
LINE
  5
F7
330
30
100
AcDbEntity
  8
LC-001-111-----0
 62
   253
370
    25
100
AcDbLine
 10
1089.22349
 20
193.669147
 30
0.0
 11
1074.631824
 21
176.159147
 31
0.0
  0
ARC
  5
F8
330
30
100
AcDbEntity
  8
LC-001-111-----0
 62
   253
370
    25
100
AcDbCircle
 10
1019.845603
 20
176.159147
 30
0.0
 40
15.38999999999992
100
AcDbArc
 50
76.816519
 51
283.183481
  0
LINE
  5
F9
330
30
100
AcDbEntity
  8
LC-001-111-----0
 62
   253
370
    25
100
AcDbLine
 10
1074.631824
 20
176.159147
 30
0.0
 11
1089.22349
 21
158.649147
 31
0.0
  0
LINE
  5
FA
330
30
100
AcDbEntity
  8
LC-001-111-----0
 62
   253
370
    25
100
AcDbLine
 10
1089.22349
 20
158.649147
 30
0.0
 11
1092.894308
 21
158.649147
 31
0.0
  0
LINE
  5
FB
330
30
100
AcDbEntity
  8
LC-001-111-----0
 62
   253
370
    25
100
AcDbLine
 10
1092.894308
 20
158.649147
 30
0.0
 11
1078.302641
 21
176.159147
 31
0.0
  0
LINE
  5
FC
330
30
100
AcDbEntity
  8
LC-001-111-----0
 62
   253
370
    25
100
AcDbLine
 10
1076.467232
 20
176.159147
 30
0.0
 11
1090.098623
 21
192.516815
 31
0.0
  0
LINE
  5
FD
330
30
100
AcDbEntity
  8
LC-001-111-----0
 62
   253
370
    25
100
AcDbLine
 10
1076.467232
 20
176.159147
 30
0.0
 11
1090.098623
 21
159.801479
 31
0.0
  0
ARC
  5
FE
330
30
100
AcDbEntity
  8
LC-001-111-----0
 62
   253
370
    25
100
AcDbCircle
 10
760.81067
 20
180.45076
 30
0.0
 40
22.02572762426587
100
AcDbArc
 50
240.862164
 51
274.343327
  0
ARC
  5
FF
330
30
100
AcDbEntity
  8
LC-001-111-----0
 62
   253
370
    25
100
AcDbCircle
 10
761.779647
 20
167.692822
 30
0.0
 40
9.231045254448425
100
AcDbArc
 50
274.343327
 51
74.255463
  0
LINE
  5
100
330
30
100
AcDbEntity
  8
LC-001-111-----0
 62
   253
370
    25
100
AcDbLine
 10
764.284479
 20
176.577529
 30
0.0
 11
756.728228
 21
178.707834
 31
0.0
  0
ARC
  5
101
330
30
100
AcDbEntity
  8
LC-001-111-----0
 62
   253
370
    25
100
AcDbCircle
 10
758.632108
 20
185.460948
 30
0.0
 40
7.016360130100396
100
AcDbArc
 50
90.951212
 51
254.255463
  0
ARC
  5
102
330
30
100
AcDbEntity
  8
LC-001-111-----0
 62
   253
370
    25
100
AcDbCircle
 10
758.906662
 20
168.924866
 30
0.0
 40
23.55472179307856
100
AcDbArc
 50
69.789306
 51
90.951212
  0
LINE
  5
103
330
30
100
AcDbEntity
  8
LC-001-111-----0
 62
   253
370
    25
100
AcDbLine
 10
767.044191
 20
191.029289
 30
0.0
 11
767.044191
 21
192.083629
 31
0.0
  0
ENDBLK
  5
32
330
30
100
AcDbEntity
  8
0
100
AcDbBlockEnd
  0
BLOCK
  5
1BB
330
1B1
100
AcDbEntity
  8
0
100
AcDbBlockBegin
  2
*D2
 70
     1
 71
     0
 10
0.0
 20
0.0
 30
0.0
  3
*D2
  1

  0
LINE
  5
1B2
330
1B1
100
AcDbEntity
  8
LC-005-003-----0
 62
     2
370
    -2
100
AcDbLine
 10
609.042808
 20
820.60935
 30
0.0
 11
609.042808
 21
732.0
 31
0.0
  0
LINE
  5
1B3
330
1B1
100
AcDbEntity
  8
LC-005-003-----0
 62
     2
370
    -2
100
AcDbLine
 10
994.342808
 20
820.60935
 30
0.0
 11
994.342808
 21
732.0
 31
0.0
  0
LINE
  5
1B4
330
1B1
100
AcDbEntity
  8
LC-005-003-----0
 62
     2
370
    -2
100
AcDbLine
 10
634.042808
 20
750.0
 30
0.0
 11
969.342808
 21
750.0
 31
0.0
  0
SOLID
  5
1B5
330
1B1
100
AcDbEntity
  8
LC-005-003-----0
 62
     2
100
AcDbTrace
 10
634.042808
 20
754.166667
 30
0.0
 11
634.042808
 21
745.833333
 31
0.0
 12
609.042808
 22
750.0
 32
0.0
 13
609.042808
 23
750.0
 33
0.0
  0
SOLID
  5
1B6
330
1B1
100
AcDbEntity
  8
LC-005-003-----0
 62
     2
100
AcDbTrace
 10
969.342808
 20
745.833333
 30
0.0
 11
969.342808
 21
754.166667
 31
0.0
 12
994.342808
 22
750.0
 32
0.0
 13
994.342808
 23
750.0
 33
0.0
  0
MTEXT
  5
1B7
330
1B1
100
AcDbEntity
  8
LC-005-003-----0
 62
     2
100
AcDbMText
 10
801.692808
 20
780.0
 30
0.0
 40
25.0
 41
0.0
 71
     5
 72
     1
  1
\A1;770,6
  7
LCTX0-400-0-0pDIN-Schrift
 73
     1
 44
1.0
  0
POINT
  5
1B8
330
1B1
100
AcDbEntity
  8
Defpoints
 62
     0
100
AcDbPoint
 10
609.042808
 20
820.60935
 30
0.0
  0
POINT
  5
1B9
330
1B1
100
AcDbEntity
  8
Defpoints
 62
     0
100
AcDbPoint
 10
994.342808
 20
820.60935
 30
0.0
  0
POINT
  5
1BA
330
1B1
100
AcDbEntity
  8
Defpoints
 62
     0
100
AcDbPoint
 10
994.342808
 20
750.0
 30
0.0
  0
ENDBLK
  5
1BC
330
1B1
100
AcDbEntity
  8
0
100
AcDbBlockEnd
  0
BLOCK
  5
1C9
330
1BE
100
AcDbEntity
  8
0
100
AcDbBlockBegin
  2
*D3
 70
     1
 71
     0
 10
0.0
 20
0.0
 30
0.0
  3
*D3
  1

  0
LINE
  5
1BF
330
1BE
100
AcDbEntity
  8
LC-005-003-----0
 62
     2
370
    -2
100
AcDbLine
 10
546.692808
 20
1113.40935
 30
0.0
 11
482.0
 21
1113.40935
 31
0.0
  0
LINE
  5
1C0
330
1BE
100
AcDbEntity
  8
LC-005-003-----0
 62
     2
370
    -2
100
AcDbLine
 10
546.692808
 20
867.80935
 30
0.0
 11
482.0
 21
867.80935
 31
0.0
  0
LINE
  5
1C1
330
1BE
100
AcDbEntity
  8
LC-005-003-----0
 62
     2
370
    -2
100
AcDbLine
 10
500.0
 20
1088.40935
 30
0.0
 11
500.0
 21
1039.445599
 31
0.0
  0
LINE
  5
1C2
330
1BE
100
AcDbEntity
  8
LC-005-003-----0
 62
     2
370
    -2
100
AcDbLine
 10
500.0
 20
892.80935
 30
0.0
 11
500.0
 21
941.7731
 31
0.0
  0
SOLID
  5
1C3
330
1BE
100
AcDbEntity
  8
LC-005-003-----0
 62
     2
100
AcDbTrace
 10
504.166667
 20
1088.40935
 30
0.0
 11
495.833333
 21
1088.40935
 31
0.0
 12
500.0
 22
1113.40935
 32
0.0
 13
500.0
 23
1113.40935
 33
0.0
  0
SOLID
  5
1C4
330
1BE
100
AcDbEntity
  8
LC-005-003-----0
 62
     2
100
AcDbTrace
 10
495.833333
 20
892.80935
 30
0.0
 11
504.166667
 21
892.80935
 31
0.0
 12
500.0
 22
867.80935
 32
0.0
 13
500.0
 23
867.80935
 33
0.0
  0
MTEXT
  5
1C5
330
1BE
100
AcDbEntity
  8
LC-005-003-----0
 62
     2
100
AcDbMText
 10
470.0
 20
990.60935
 30
0.0
 40
25.0
 41
0.0
 71
     5
 72
     1
  1
\A1;491,2
  7
LCTX0-400-0-0pDIN-Schrift
 11
6.123031769111886E-17
 21
1.0
 31
0.0
 73
     1
 44
1.0
  0
POINT
  5
1C6
330
1BE
100
AcDbEntity
  8
Defpoints
 62
     0
100
AcDbPoint
 10
546.692808
 20
1113.40935
 30
0.0
  0
POINT
  5
1C7
330
1BE
100
AcDbEntity
  8
Defpoints
 62
     0
100
AcDbPoint
 10
546.692808
 20
867.80935
 30
0.0
  0
POINT
  5
1C8
330
1BE
100
AcDbEntity
  8
Defpoints
 62
     0
100
AcDbPoint
 10
500.0
 20
867.80935
 30
0.0
  0
ENDBLK
  5
1CA
330
1BE
100
AcDbEntity
  8
0
100
AcDbBlockEnd
  0
BLOCK
  5
1D6
330
1CC
100
AcDbEntity
  8
0
100
AcDbBlockBegin
  2
*D4
 70
     1
 71
     0
 10
0.0
 20
0.0
 30
0.0
  3
*D4
  1

  0
LINE
  5
1CD
330
1CC
100
AcDbEntity
  8
LC-005-003-----0
 62
     2
370
    -2
100
AcDbLine
 10
463.759738
 20
1577.34
 30
0.0
 11
463.759738
 21
1432.0
 31
0.0
  0
LINE
  5
1CE
330
1CC
100
AcDbEntity
  8
LC-005-003-----0
 62
     2
370
    -2
100
AcDbLine
 10
1301.959738
 20
1577.34
 30
0.0
 11
1301.959738
 21
1432.0
 31
0.0
  0
LINE
  5
1CF
330
1CC
100
AcDbEntity
  8
LC-005-003-----0
 62
     2
370
    -2
100
AcDbLine
 10
488.759738
 20
1450.0
 30
0.0
 11
1276.959738
 21
1450.0
 31
0.0
  0
SOLID
  5
1D0
330
1CC
100
AcDbEntity
  8
LC-005-003-----0
 62
     2
100
AcDbTrace
 10
488.759738
 20
1454.166667
 30
0.0
 11
488.759738
 21
1445.833333
 31
0.0
 12
463.759738
 22
1450.0
 32
0.0
 13
463.759738
 23
1450.0
 33
0.0
  0
SOLID
  5
1D1
330
1CC
100
AcDbEntity
  8
LC-005-003-----0
 62
     2
100
AcDbTrace
 10
1276.959738
 20
1445.833333
 30
0.0
 11
1276.959738
 21
1454.166667
 31
0.0
 12
1301.959738
 22
1450.0
 32
0.0
 13
1301.959738
 23
1450.0
 33
0.0
  0
MTEXT
  5
1D2
330
1CC
100
AcDbEntity
  8
LC-005-003-----0
 62
     2
100
AcDbMText
 10
882.859738
 20
1480.0
 30
0.0
 40
25.0
 41
0.0
 71
     5
 72
     1
  1
\A1;838,2
  7
LCTX0-400-0-0pDIN-Schrift
 73
     1
 44
1.0
  0
POINT
  5
1D3
330
1CC
100
AcDbEntity
  8
Defpoints
 62
     0
100
AcDbPoint
 10
463.759738
 20
1577.34
 30
0.0
  0
POINT
  5
1D4
330
1CC
100
AcDbEntity
  8
Defpoints
 62
     0
100
AcDbPoint
 10
1301.959738
 20
1577.34
 30
0.0
  0
POINT
  5
1D5
330
1CC
100
AcDbEntity
  8
Defpoints
 62
     0
100
AcDbPoint
 10
1301.959738
 20
1450.0
 30
0.0
  0
ENDBLK
  5
1D7
330
1CC
100
AcDbEntity
  8
0
100
AcDbBlockEnd
  0
BLOCK
  5
1E3
330
1D9
100
AcDbEntity
  8
0
100
AcDbBlockBegin
  2
*D5
 70
     1
 71
     0
 10
0.0
 20
0.0
 30
0.0
  3
*D5
  1

  0
LINE
  5
1DA
330
1D9
100
AcDbEntity
  8
LC-005-003-----0
 62
     2
370
    -2
100
AcDbLine
 10
633.759738
 20
2146.14
 30
0.0
 11
332.0
 21
2146.14
 31
0.0
  0
LINE
  5
1DB
330
1D9
100
AcDbEntity
  8
LC-005-003-----0
 62
     2
370
    -2
100
AcDbLine
 10
453.759738
 20
1587.34
 30
0.0
 11
332.0
 21
1587.34
 31
0.0
  0
LINE
  5
1DC
330
1D9
100
AcDbEntity
  8
LC-005-003-----0
 62
     2
370
    -2
100
AcDbLine
 10
350.0
 20
2121.14
 30
0.0
 11
350.0
 21
1612.34
 31
0.0
  0
SOLID
  5
1DD
330
1D9
100
AcDbEntity
  8
LC-005-003-----0
 62
     2
100
AcDbTrace
 10
354.166667
 20
2121.14
 30
0.0
 11
345.833333
 21
2121.14
 31
0.0
 12
350.0
 22
2146.14
 32
0.0
 13
350.0
 23
2146.14
 33
0.0
  0
SOLID
  5
1DE
330
1D9
100
AcDbEntity
  8
LC-005-003-----0
 62
     2
100
AcDbTrace
 10
345.833333
 20
1612.34
 30
0.0
 11
354.166667
 21
1612.34
 31
0.0
 12
350.0
 22
1587.34
 32
0.0
 13
350.0
 23
1587.34
 33
0.0
  0
MTEXT
  5
1DF
330
1D9
100
AcDbEntity
  8
LC-005-003-----0
 62
     2
100
AcDbMText
 10
320.0
 20
1866.74
 30
0.0
 40
25.0
 41
0.0
 71
     5
 72
     1
  1
\A1;558,8
  7
LCTX0-400-0-0pDIN-Schrift
 11
6.123031769111886E-17
 21
1.0
 31
0.0
 73
     1
 44
1.0
  0
POINT
  5
1E0
330
1D9
100
AcDbEntity
  8
Defpoints
 62
     0
100
AcDbPoint
 10
633.759738
 20
2146.14
 30
0.0
  0
POINT
  5
1E1
330
1D9
100
AcDbEntity
  8
Defpoints
 62
     0
100
AcDbPoint
 10
453.759738
 20
1587.34
 30
0.0
  0
POINT
  5
1E2
330
1D9
100
AcDbEntity
  8
Defpoints
 62
     0
100
AcDbPoint
 10
350.0
 20
1587.34
 30
0.0
  0
ENDBLK
  5
1E4
330
1D9
100
AcDbEntity
  8
0
100
AcDbBlockEnd
  0
BLOCK
  5
1EF
330
1E7
100
AcDbEntity
  8
0
100
AcDbBlockBegin
  2
*D6
 70
     1
 71
     0
 10
0.0
 20
0.0
 30
0.0
  3
*D6
  1

  0
LINE
  5
1E8
330
1E7
100
AcDbEntity
  8
LC-005-003-----0
 62
     2
370
    -2
100
AcDbLine
 10
700.0
 20
2624.24
 30
0.0
 11
700.0
 21
2420.24
 31
0.0
  0
SOLID
  5
1E9
330
1E7
100
AcDbEntity
  8
LC-005-003-----0
 62
     2
100
AcDbTrace
 10
704.166667
 20
2624.24
 30
0.0
 11
695.833333
 21
2624.24
 31
0.0
 12
700.0
 22
2649.24
 32
0.0
 13
700.0
 23
2649.24
 33
0.0
  0
SOLID
  5
1EA
330
1E7
100
AcDbEntity
  8
LC-005-003-----0
 62
     2
100
AcDbTrace
 10
695.833333
 20
2420.24
 30
0.0
 11
704.166667
 21
2420.24
 31
0.0
 12
700.0
 22
2395.24
 32
0.0
 13
700.0
 23
2395.24
 33
0.0
  0
MTEXT
  5
1EB
330
1E7
100
AcDbEntity
  8
LC-005-003-----0
 62
     2
100
AcDbMText
 10
670.0
 20
2522.24
 30
0.0
 40
25.0
 41
0.0
 71
     5
 72
     1
  1
\A1;254
  7
LCTX0-400-0-0pDIN-Schrift
 11
6.123031769111886E-17
 21
1.0
 31
0.0
 73
     1
 44
1.0
  0
POINT
  5
1EC
330
1E7
100
AcDbEntity
  8
Defpoints
 62
     0
100
AcDbPoint
 10
882.859738
 20
2649.24
 30
0.0
  0
POINT
  5
1ED
330
1E7
100
AcDbEntity
  8
Defpoints
 62
     0
100
AcDbPoint
 10
715.999738
 20
2395.24
 30
0.0
  0
POINT
  5
1EE
330
1E7
100
AcDbEntity
  8
Defpoints
 62
     0
100
AcDbPoint
 10
700.0
 20
2395.24
 30
0.0
  0
ENDBLK
  5
1F0
330
1E7
100
AcDbEntity
  8
0
100
AcDbBlockEnd
  0
BLOCK
  5
1FA
330
1F2
100
AcDbEntity
  8
0
100
AcDbBlockBegin
  2
*D7
 70
     1
 71
     0
 10
0.0
 20
0.0
 30
0.0
  3
*D7
  1

  0
LINE
  5
1F3
330
1F2
100
AcDbEntity
  8
LC-005-003-----0
 62
     2
370
    -2
100
AcDbLine
 10
1100.0
 20
2624.24
 30
0.0
 11
1100.0
 21
2420.24
 31
0.0
  0
SOLID
  5
1F4
330
1F2
100
AcDbEntity
  8
LC-005-003-----0
 62
     2
100
AcDbTrace
 10
1104.166667
 20
2624.24
 30
0.0
 11
1095.833333
 21
2624.24
 31
0.0
 12
1100.0
 22
2649.24
 32
0.0
 13
1100.0
 23
2649.24
 33
0.0
  0
SOLID
  5
1F5
330
1F2
100
AcDbEntity
  8
LC-005-003-----0
 62
     2
100
AcDbTrace
 10
1095.833333
 20
2420.24
 30
0.0
 11
1104.166667
 21
2420.24
 31
0.0
 12
1100.0
 22
2395.24
 32
0.0
 13
1100.0
 23
2395.24
 33
0.0
  0
MTEXT
  5
1F6
330
1F2
100
AcDbEntity
  8
LC-005-003-----0
 62
     2
100
AcDbMText
 10
1070.0
 20
2522.24
 30
0.0
 40
25.0
 41
0.0
 71
     5
 72
     1
  1
\A1;254
  7
LCTX0-400-0-0pDIN-Schrift
 11
6.123031769111886E-17
 21
1.0
 31
0.0
 73
     1
 44
1.0
  0
POINT
  5
1F7
330
1F2
100
AcDbEntity
  8
Defpoints
 62
     0
100
AcDbPoint
 10
882.859738
 20
2649.24
 30
0.0
  0
POINT
  5
1F8
330
1F2
100
AcDbEntity
  8
Defpoints
 62
     0
100
AcDbPoint
 10
1101.659738
 20
2395.24
 30
0.0
  0
POINT
  5
1F9
330
1F2
100
AcDbEntity
  8
Defpoints
 62
     0
100
AcDbPoint
 10
1100.0
 20
2395.24
 30
0.0
  0
ENDBLK
  5
1FB
330
1F2
100
AcDbEntity
  8
0
100
AcDbBlockEnd
  0
BLOCK
  5
207
330
1FD
100
AcDbEntity
  8
0
100
AcDbBlockBegin
  2
*D8
 70
     1
 71
     0
 10
0.0
 20
0.0
 30
0.0
  3
*D8
  1

  0
LINE
  5
1FE
330
1FD
100
AcDbEntity
  8
LC-005-003-----0
 62
     2
370
    -2
100
AcDbLine
 10
497.559738
 20
2659.24
 30
0.0
 11
497.559738
 21
2818.0
 31
0.0
  0
LINE
  5
1FF
330
1FD
100
AcDbEntity
  8
LC-005-003-----0
 62
     2
370
    -2
100
AcDbLine
 10
1268.159738
 20
2659.24
 30
0.0
 11
1268.159738
 21
2818.0
 31
0.0
  0
LINE
  5
200
330
1FD
100
AcDbEntity
  8
LC-005-003-----0
 62
     2
370
    -2
100
AcDbLine
 10
522.559738
 20
2800.0
 30
0.0
 11
1243.159738
 21
2800.0
 31
0.0
  0
SOLID
  5
201
330
1FD
100
AcDbEntity
  8
LC-005-003-----0
 62
     2
100
AcDbTrace
 10
522.559738
 20
2804.166667
 30
0.0
 11
522.559738
 21
2795.833333
 31
0.0
 12
497.559738
 22
2800.0
 32
0.0
 13
497.559738
 23
2800.0
 33
0.0
  0
SOLID
  5
202
330
1FD
100
AcDbEntity
  8
LC-005-003-----0
 62
     2
100
AcDbTrace
 10
1243.159738
 20
2795.833333
 30
0.0
 11
1243.159738
 21
2804.166667
 31
0.0
 12
1268.159738
 22
2800.0
 32
0.0
 13
1268.159738
 23
2800.0
 33
0.0
  0
MTEXT
  5
203
330
1FD
100
AcDbEntity
  8
LC-005-003-----0
 62
     2
100
AcDbMText
 10
882.859738
 20
2830.0
 30
0.0
 40
25.0
 41
0.0
 71
     5
 72
     1
  1
\A1;770,6
  7
LCTX0-400-0-0pDIN-Schrift
 73
     1
 44
1.0
  0
POINT
  5
204
330
1FD
100
AcDbEntity
  8
Defpoints
 62
     0
100
AcDbPoint
 10
497.559738
 20
2659.24
 30
0.0
  0
POINT
  5
205
330
1FD
100
AcDbEntity
  8
Defpoints
 62
     0
100
AcDbPoint
 10
1268.159738
 20
2659.24
 30
0.0
  0
POINT
  5
206
330
1FD
100
AcDbEntity
  8
Defpoints
 62
     0
100
AcDbPoint
 10
1268.159738
 20
2800.0
 30
0.0
  0
ENDBLK
  5
208
330
1FD
100
AcDbEntity
  8
0
100
AcDbBlockEnd
  0
BLOCK
  5
215
330
20A
100
AcDbEntity
  8
0
100
AcDbBlockBegin
  2
*D9
 70
     1
 71
     0
 10
0.0
 20
0.0
 30
0.0
  3
*D9
  1

  0
LINE
  5
20B
330
20A
100
AcDbEntity
  8
LC-005-003-----0
 62
     2
370
    -2
100
AcDbLine
 10
919.859738
 20
2659.24
 30
0.0
 11
919.859738
 21
2768.0
 31
0.0
  0
LINE
  5
20C
330
20A
100
AcDbEntity
  8
LC-005-003-----0
 62
     2
370
    -2
100
AcDbLine
 10
497.559738
 20
2659.24
 30
0.0
 11
497.559738
 21
2768.0
 31
0.0
  0
LINE
  5
20D
330
20A
100
AcDbEntity
  8
LC-005-003-----0
 62
     2
370
    -2
100
AcDbLine
 10
894.859738
 20
2750.0
 30
0.0
 11
760.459737
 21
2750.0
 31
0.0
  0
LINE
  5
20E
330
20A
100
AcDbEntity
  8
LC-005-003-----0
 62
     2
370
    -2
100
AcDbLine
 10
522.559738
 20
2750.0
 30
0.0
 11
656.959738
 21
2750.0
 31
0.0
  0
SOLID
  5
20F
330
20A
100
AcDbEntity
  8
LC-005-003-----0
 62
     2
100
AcDbTrace
 10
894.859738
 20
2745.833333
 30
0.0
 11
894.859738
 21
2754.166667
 31
0.0
 12
919.859738
 22
2750.0
 32
0.0
 13
919.859738
 23
2750.0
 33
0.0
  0
SOLID
  5
210
330
20A
100
AcDbEntity
  8
LC-005-003-----0
 62
     2
100
AcDbTrace
 10
522.559738
 20
2754.166667
 30
0.0
 11
522.559738
 21
2745.833333
 31
0.0
 12
497.559738
 22
2750.0
 32
0.0
 13
497.559738
 23
2750.0
 33
0.0
  0
MTEXT
  5
211
330
20A
100
AcDbEntity
  8
LC-005-003-----0
 62
     2
100
AcDbMText
 10
708.709738
 20
2780.0
 30
0.0
 40
25.0
 41
0.0
 71
     5
 72
     1
  1
\A1;422,3
  7
LCTX0-400-0-0pDIN-Schrift
 73
     1
 44
1.0
  0
POINT
  5
212
330
20A
100
AcDbEntity
  8
Defpoints
 62
     0
100
AcDbPoint
 10
919.859738
 20
2659.24
 30
0.0
  0
POINT
  5
213
330
20A
100
AcDbEntity
  8
Defpoints
 62
     0
100
AcDbPoint
 10
497.559738
 20
2659.24
 30
0.0
  0
POINT
  5
214
330
20A
100
AcDbEntity
  8
Defpoints
 62
     0
100
AcDbPoint
 10
497.559738
 20
2750.0
 30
0.0
  0
ENDBLK
  5
216
330
20A
100
AcDbEntity
  8
0
100
AcDbBlockEnd
  0
BLOCK
  5
222
330
218
100
AcDbEntity
  8
0
100
AcDbBlockBegin
  2
*D10
 70
     1
 71
     0
 10
0.0
 20
0.0
 30
0.0
  3
*D10
  1

  0
LINE
  5
219
330
218
100
AcDbEntity
  8
LC-005-003-----0
 62
     2
370
    -2
100
AcDbLine
 10
949.859738
 20
2659.24
 30
0.0
 11
949.859738
 21
2768.0
 31
0.0
  0
LINE
  5
21A
330
218
100
AcDbEntity
  8
LC-005-003-----0
 62
     2
370
    -2
100
AcDbLine
 10
1268.159738
 20
2659.24
 30
0.0
 11
1268.159738
 21
2768.0
 31
0.0
  0
LINE
  5
21B
330
218
100
AcDbEntity
  8
LC-005-003-----0
 62
     2
370
    -2
100
AcDbLine
 10
974.859738
 20
2750.0
 30
0.0
 11
1243.159738
 21
2750.0
 31
0.0
  0
SOLID
  5
21C
330
218
100
AcDbEntity
  8
LC-005-003-----0
 62
     2
100
AcDbTrace
 10
974.859738
 20
2754.166667
 30
0.0
 11
974.859738
 21
2745.833333
 31
0.0
 12
949.859738
 22
2750.0
 32
0.0
 13
949.859738
 23
2750.0
 33
0.0
  0
SOLID
  5
21D
330
218
100
AcDbEntity
  8
LC-005-003-----0
 62
     2
100
AcDbTrace
 10
1243.159738
 20
2745.833333
 30
0.0
 11
1243.159738
 21
2754.166667
 31
0.0
 12
1268.159738
 22
2750.0
 32
0.0
 13
1268.159738
 23
2750.0
 33
0.0
  0
MTEXT
  5
21E
330
218
100
AcDbEntity
  8
LC-005-003-----0
 62
     2
100
AcDbMText
 10
1109.009738
 20
2780.0
 30
0.0
 40
25.0
 41
0.0
 71
     5
 72
     1
  1
\A1;318,3
  7
LCTX0-400-0-0pDIN-Schrift
 73
     1
 44
1.0
  0
POINT
  5
21F
330
218
100
AcDbEntity
  8
Defpoints
 62
     0
100
AcDbPoint
 10
949.859738
 20
2659.24
 30
0.0
  0
POINT
  5
220
330
218
100
AcDbEntity
  8
Defpoints
 62
     0
100
AcDbPoint
 10
1268.159738
 20
2659.24
 30
0.0
  0
POINT
  5
221
330
218
100
AcDbEntity
  8
Defpoints
 62
     0
100
AcDbPoint
 10
1268.159738
 20
2750.0
 30
0.0
  0
ENDBLK
  5
223
330
218
100
AcDbEntity
  8
0
100
AcDbBlockEnd
  0
BLOCK
  5
231
330
225
100
AcDbEntity
  8
0
100
AcDbBlockBegin
  2
*D11
 70
     1
 71
     0
 10
0.0
 20
0.0
 30
0.0
  3
*D11
  1

  0
LINE
  5
226
330
225
100
AcDbEntity
  8
LC-005-003-----0
 62
     2
370
    -2
100
AcDbLine
 10
919.859738
 20
2659.24
 30
0.0
 11
919.859738
 21
2718.0
 31
0.0
  0
LINE
  5
227
330
225
100
AcDbEntity
  8
LC-005-003-----0
 62
     2
370
    -2
100
AcDbLine
 10
949.859738
 20
2659.24
 30
0.0
 11
949.859738
 21
2718.0
 31
0.0
  0
LINE
  5
228
330
225
100
AcDbEntity
  8
LC-005-003-----0
 62
     2
370
    -2
100
AcDbLine
 10
974.859738
 20
2700.0
 30
0.0
 11
999.859738
 21
2700.0
 31
0.0
  0
LINE
  5
229
330
225
100
AcDbEntity
  8
LC-005-003-----0
 62
     2
370
    -2
100
AcDbLine
 10
894.859738
 20
2700.0
 30
0.0
 11
879.714284
 21
2700.0
 31
0.0
  0
LINE
  5
22A
330
225
100
AcDbEntity
  8
LC-005-003-----0
 62
     2
370
    -2
100
AcDbLine
 10
919.859738
 20
2700.0
 30
0.0
 11
949.859738
 21
2700.0
 31
0.0
  0
SOLID
  5
22B
330
225
100
AcDbEntity
  8
LC-005-003-----0
 62
     2
100
AcDbTrace
 10
894.859738
 20
2695.833333
 30
0.0
 11
894.859738
 21
2704.166667
 31
0.0
 12
919.859738
 22
2700.0
 32
0.0
 13
919.859738
 23
2700.0
 33
0.0
  0
SOLID
  5
22C
330
225
100
AcDbEntity
  8
LC-005-003-----0
 62
     2
100
AcDbTrace
 10
974.859738
 20
2704.166667
 30
0.0
 11
974.859738
 21
2695.833333
 31
0.0
 12
949.859738
 22
2700.0
 32
0.0
 13
949.859738
 23
2700.0
 33
0.0
  0
MTEXT
  5
22D
330
225
100
AcDbEntity
  8
LC-005-003-----0
 62
     2
100
AcDbMText
 10
908.005533
 20
2730.0
 30
0.0
 40
25.0
 41
0.0
 71
     5
 72
     1
  1
\A1;30
  7
LCTX0-400-0-0pDIN-Schrift
 73
     1
 44
1.0
  0
POINT
  5
22E
330
225
100
AcDbEntity
  8
Defpoints
 62
     0
100
AcDbPoint
 10
919.859738
 20
2659.24
 30
0.0
  0
POINT
  5
22F
330
225
100
AcDbEntity
  8
Defpoints
 62
     0
100
AcDbPoint
 10
949.859738
 20
2659.24
 30
0.0
  0
POINT
  5
230
330
225
100
AcDbEntity
  8
Defpoints
 62
     0
100
AcDbPoint
 10
949.859738
 20
2700.0
 30
0.0
  0
ENDBLK
  5
232
330
225
100
AcDbEntity
  8
0
100
AcDbBlockEnd
  0
BLOCK
  5
23F
330
234
100
AcDbEntity
  8
0
100
AcDbBlockBegin
  2
*D12
 70
     1
 71
     0
 10
0.0
 20
0.0
 30
0.0
  3
*D12
  1

  0
LINE
  5
235
330
234
100
AcDbEntity
  8
LC-005-003-----0
 62
     2
370
    -2
100
AcDbLine
 10
1814.007392
 20
2112.34
 30
0.0
 11
2018.0
 21
2112.34
 31
0.0
  0
LINE
  5
236
330
234
100
AcDbEntity
  8
LC-005-003-----0
 62
     2
370
    -2
100
AcDbLine
 10
1814.007392
 20
1621.14
 30
0.0
 11
2018.0
 21
1621.14
 31
0.0
  0
LINE
  5
237
330
234
100
AcDbEntity
  8
LC-005-003-----0
 62
     2
370
    -2
100
AcDbLine
 10
2000.0
 20
2087.34
 30
0.0
 11
2000.0
 21
1915.576249
 31
0.0
  0
LINE
  5
238
330
234
100
AcDbEntity
  8
LC-005-003-----0
 62
     2
370
    -2
100
AcDbLine
 10
2000.0
 20
1646.14
 30
0.0
 11
2000.0
 21
1817.903751
 31
0.0
  0
SOLID
  5
239
330
234
100
AcDbEntity
  8
LC-005-003-----0
 62
     2
100
AcDbTrace
 10
2004.166667
 20
2087.34
 30
0.0
 11
1995.833333
 21
2087.34
 31
0.0
 12
2000.0
 22
2112.34
 32
0.0
 13
2000.0
 23
2112.34
 33
0.0
  0
SOLID
  5
23A
330
234
100
AcDbEntity
  8
LC-005-003-----0
 62
     2
100
AcDbTrace
 10
1995.833333
 20
1646.14
 30
0.0
 11
2004.166667
 21
1646.14
 31
0.0
 12
2000.0
 22
1621.14
 32
0.0
 13
2000.0
 23
1621.14
 33
0.0
  0
MTEXT
  5
23B
330
234
100
AcDbEntity
  8
LC-005-003-----0
 62
     2
100
AcDbMText
 10
1970.0
 20
1866.74
 30
0.0
 40
25.0
 41
0.0
 71
     5
 72
     1
  1
\A1;491,2
  7
LCTX0-400-0-0pDIN-Schrift
 11
6.123031769111886E-17
 21
1.0
 31
0.0
 73
     1
 44
1.0
  0
POINT
  5
23C
330
234
100
AcDbEntity
  8
Defpoints
 62
     0
100
AcDbPoint
 10
1814.007392
 20
2112.34
 30
0.0
  0
POINT
  5
23D
330
234
100
AcDbEntity
  8
Defpoints
 62
     0
100
AcDbPoint
 10
1814.007392
 20
1621.14
 30
0.0
  0
POINT
  5
23E
330
234
100
AcDbEntity
  8
Defpoints
 62
     0
100
AcDbPoint
 10
2000.0
 20
1621.14
 30
0.0
  0
ENDBLK
  5
240
330
234
100
AcDbEntity
  8
0
100
AcDbBlockEnd
  0
BLOCK
  5
24D
330
242
100
AcDbEntity
  8
0
100
AcDbBlockBegin
  2
*D13
 70
     1
 71
     0
 10
0.0
 20
0.0
 30
0.0
  3
*D13
  1

  0
LINE
  5
243
330
242
100
AcDbEntity
  8
LC-005-003-----0
 62
     2
370
    -2
100
AcDbLine
 10
1814.007392
 20
2043.64
 30
0.0
 11
1918.0
 21
2043.64
 31
0.0
  0
LINE
  5
244
330
242
100
AcDbEntity
  8
LC-005-003-----0
 62
     2
370
    -2
100
AcDbLine
 10
1814.007392
 20
1621.14
 30
0.0
 11
1918.0
 21
1621.14
 31
0.0
  0
LINE
  5
245
330
242
100
AcDbEntity
  8
LC-005-003-----0
 62
     2
370
    -2
100
AcDbLine
 10
1900.0
 20
2018.64
 30
0.0
 11
1900.0
 21
1884.139999
 31
0.0
  0
LINE
  5
246
330
242
100
AcDbEntity
  8
LC-005-003-----0
 62
     2
370
    -2
100
AcDbLine
 10
1900.0
 20
1646.14
 30
0.0
 11
1900.0
 21
1780.640001
 31
0.0
  0
SOLID
  5
247
330
242
100
AcDbEntity
  8
LC-005-003-----0
 62
     2
100
AcDbTrace
 10
1904.166667
 20
2018.64
 30
0.0
 11
1895.833333
 21
2018.64
 31
0.0
 12
1900.0
 22
2043.64
 32
0.0
 13
1900.0
 23
2043.64
 33
0.0
  0
SOLID
  5
248
330
242
100
AcDbEntity
  8
LC-005-003-----0
 62
     2
100
AcDbTrace
 10
1895.833333
 20
1646.14
 30
0.0
 11
1904.166667
 21
1646.14
 31
0.0
 12
1900.0
 22
1621.14
 32
0.0
 13
1900.0
 23
1621.14
 33
0.0
  0
MTEXT
  5
249
330
242
100
AcDbEntity
  8
LC-005-003-----0
 62
     2
100
AcDbMText
 10
1870.0
 20
1832.39
 30
0.0
 40
25.0
 41
0.0
 71
     5
 72
     1
  1
\A1;422,5
  7
LCTX0-400-0-0pDIN-Schrift
 11
6.123031769111886E-17
 21
1.0
 31
0.0
 73
     1
 44
1.0
  0
POINT
  5
24A
330
242
100
AcDbEntity
  8
Defpoints
 62
     0
100
AcDbPoint
 10
1814.007392
 20
2043.64
 30
0.0
  0
POINT
  5
24B
330
242
100
AcDbEntity
  8
Defpoints
 62
     0
100
AcDbPoint
 10
1814.007392
 20
1621.14
 30
0.0
  0
POINT
  5
24C
330
242
100
AcDbEntity
  8
Defpoints
 62
     0
100
AcDbPoint
 10
1900.0
 20
1621.14
 30
0.0
  0
ENDBLK
  5
24E
330
242
100
AcDbEntity
  8
0
100
AcDbBlockEnd
  0
BLOCK
  5
25C
330
250
100
AcDbEntity
  8
0
100
AcDbBlockBegin
  2
*D14
 70
     1
 71
     0
 10
0.0
 20
0.0
 30
0.0
  3
*D14
  1

  0
LINE
  5
251
330
250
100
AcDbEntity
  8
LC-005-003-----0
 62
     2
370
    -2
100
AcDbLine
 10
463.759738
 20
1577.34
 30
0.0
 11
463.759738
 21
1482.0
 31
0.0
  0
LINE
  5
252
330
250
100
AcDbEntity
  8
LC-005-003-----0
 62
     2
370
    -2
100
AcDbLine
 10
497.559738
 20
1577.34
 30
0.0
 11
497.559738
 21
1482.0
 31
0.0
  0
LINE
  5
253
330
250
100
AcDbEntity
  8
LC-005-003-----0
 62
     2
370
    -2
100
AcDbLine
 10
438.759738
 20
1500.0
 30
0.0
 11
413.759738
 21
1500.0
 31
0.0
  0
LINE
  5
254
330
250
100
AcDbEntity
  8
LC-005-003-----0
 62
     2
370
    -2
100
AcDbLine
 10
522.559738
 20
1500.0
 30
0.0
 11
561.854234
 21
1500.0
 31
0.0
  0
LINE
  5
255
330
250
100
AcDbEntity
  8
LC-005-003-----0
 62
     2
370
    -2
100
AcDbLine
 10
463.759738
 20
1500.0
 30
0.0
 11
497.559738
 21
1500.0
 31
0.0
  0
SOLID
  5
256
330
250
100
AcDbEntity
  8
LC-005-003-----0
 62
     2
100
AcDbTrace
 10
438.759738
 20
1495.833333
 30
0.0
 11
438.759738
 21
1504.166667
 31
0.0
 12
463.759738
 22
1500.0
 32
0.0
 13
463.759738
 23
1500.0
 33
0.0
  0
SOLID
  5
257
330
250
100
AcDbEntity
  8
LC-005-003-----0
 62
     2
100
AcDbTrace
 10
522.559738
 20
1504.166667
 30
0.0
 11
522.559738
 21
1495.833333
 31
0.0
 12
497.559738
 22
1500.0
 32
0.0
 13
497.559738
 23
1500.0
 33
0.0
  0
MTEXT
  5
258
330
250
100
AcDbEntity
  8
LC-005-003-----0
 62
     2
100
AcDbMText
 10
518.985484
 20
1530.0
 30
0.0
 40
25.0
 41
0.0
 71
     5
 72
     1
  1
\A1;33,8
  7
LCTX0-400-0-0pDIN-Schrift
 73
     1
 44
1.0
  0
POINT
  5
259
330
250
100
AcDbEntity
  8
Defpoints
 62
     0
100
AcDbPoint
 10
463.759738
 20
1577.34
 30
0.0
  0
POINT
  5
25A
330
250
100
AcDbEntity
  8
Defpoints
 62
     0
100
AcDbPoint
 10
497.559738
 20
1577.34
 30
0.0
  0
POINT
  5
25B
330
250
100
AcDbEntity
  8
Defpoints
 62
     0
100
AcDbPoint
 10
497.559738
 20
1500.0
 30
0.0
  0
ENDBLK
  5
25D
330
250
100
AcDbEntity
  8
0
100
AcDbBlockEnd
  0
BLOCK
  5
26B
330
25F
100
AcDbEntity
  8
0
100
AcDbBlockBegin
  2
*D15
 70
     1
 71
     0
 10
0.0
 20
0.0
 30
0.0
  3
*D15
  1

  0
LINE
  5
260
330
25F
100
AcDbEntity
  8
LC-005-003-----0
 62
     2
370
    -2
100
AcDbLine
 10
1301.959738
 20
1577.34
 30
0.0
 11
1301.959738
 21
1482.0
 31
0.0
  0
LINE
  5
261
330
25F
100
AcDbEntity
  8
LC-005-003-----0
 62
     2
370
    -2
100
AcDbLine
 10
1268.159738
 20
1577.34
 30
0.0
 11
1268.159738
 21
1482.0
 31
0.0
  0
LINE
  5
262
330
25F
100
AcDbEntity
  8
LC-005-003-----0
 62
     2
370
    -2
100
AcDbLine
 10
1326.959738
 20
1500.0
 30
0.0
 11
1351.959738
 21
1500.0
 31
0.0
  0
LINE
  5
263
330
25F
100
AcDbEntity
  8
LC-005-003-----0
 62
     2
370
    -2
100
AcDbLine
 10
1243.159738
 20
1500.0
 30
0.0
 11
1213.35048
 21
1500.0
 31
0.0
  0
LINE
  5
264
330
25F
100
AcDbEntity
  8
LC-005-003-----0
 62
     2
370
    -2
100
AcDbLine
 10
1301.959738
 20
1500.0
 30
0.0
 11
1268.159738
 21
1500.0
 31
0.0
  0
SOLID
  5
265
330
25F
100
AcDbEntity
  8
LC-005-003-----0
 62
     2
100
AcDbTrace
 10
1326.959738
 20
1504.166667
 30
0.0
 11
1326.959738
 21
1495.833333
 31
0.0
 12
1301.959738
 22
1500.0
 32
0.0
 13
1301.959738
 23
1500.0
 33
0.0
  0
SOLID
  5
266
330
25F
100
AcDbEntity
  8
LC-005-003-----0
 62
     2
100
AcDbTrace
 10
1243.159738
 20
1495.833333
 30
0.0
 11
1243.159738
 21
1504.166667
 31
0.0
 12
1268.159738
 22
1500.0
 32
0.0
 13
1268.159738
 23
1500.0
 33
0.0
  0
MTEXT
  5
267
330
25F
100
AcDbEntity
  8
LC-005-003-----0
 62
     2
100
AcDbMText
 10
1256.219229
 20
1530.0
 30
0.0
 40
25.0
 41
0.0
 71
     5
 72
     1
  1
\A1;33,8
  7
LCTX0-400-0-0pDIN-Schrift
 73
     1
 44
1.0
  0
POINT
  5
268
330
25F
100
AcDbEntity
  8
Defpoints
 62
     0
100
AcDbPoint
 10
1301.959738
 20
1577.34
 30
0.0
  0
POINT
  5
269
330
25F
100
AcDbEntity
  8
Defpoints
 62
     0
100
AcDbPoint
 10
1268.159738
 20
1577.34
 30
0.0
  0
POINT
  5
26A
330
25F
100
AcDbEntity
  8
Defpoints
 62
     0
100
AcDbPoint
 10
1268.159738
 20
1500.0
 30
0.0
  0
ENDBLK
  5
26C
330
25F
100
AcDbEntity
  8
0
100
AcDbBlockEnd
  0
BLOCK
  5
27A
330
26E
100
AcDbEntity
  8
0
100
AcDbBlockBegin
  2
*D16
 70
     1
 71
     0
 10
0.0
 20
0.0
 30
0.0
  3
*D16
  1

  0
LINE
  5
26F
330
26E
100
AcDbEntity
  8
LC-005-003-----0
 62
     2
370
    -2
100
AcDbLine
 10
453.759738
 20
1587.34
 30
0.0
 11
382.0
 21
1587.34
 31
0.0
  0
LINE
  5
270
330
26E
100
AcDbEntity
  8
LC-005-003-----0
 62
     2
370
    -2
100
AcDbLine
 10
453.759738
 20
1621.14
 30
0.0
 11
382.0
 21
1621.14
 31
0.0
  0
LINE
  5
271
330
26E
100
AcDbEntity
  8
LC-005-003-----0
 62
     2
370
    -2
100
AcDbLine
 10
400.0
 20
1562.34
 30
0.0
 11
400.0
 21
1537.34
 31
0.0
  0
LINE
  5
272
330
26E
100
AcDbEntity
  8
LC-005-003-----0
 62
     2
370
    -2
100
AcDbLine
 10
400.0
 20
1646.14
 30
0.0
 11
400.0
 21
1671.14
 31
0.0
  0
LINE
  5
273
330
26E
100
AcDbEntity
  8
LC-005-003-----0
 62
     2
370
    -2
100
AcDbLine
 10
400.0
 20
1587.34
 30
0.0
 11
400.0
 21
1621.14
 31
0.0
  0
SOLID
  5
274
330
26E
100
AcDbEntity
  8
LC-005-003-----0
 62
     2
100
AcDbTrace
 10
404.166667
 20
1562.34
 30
0.0
 11
395.833333
 21
1562.34
 31
0.0
 12
400.0
 22
1587.34
 32
0.0
 13
400.0
 23
1587.34
 33
0.0
  0
SOLID
  5
275
330
26E
100
AcDbEntity
  8
LC-005-003-----0
 62
     2
100
AcDbTrace
 10
395.833333
 20
1646.14
 30
0.0
 11
404.166667
 21
1646.14
 31
0.0
 12
400.0
 22
1621.14
 32
0.0
 13
400.0
 23
1621.14
 33
0.0
  0
MTEXT
  5
276
330
26E
100
AcDbEntity
  8
LC-005-003-----0
 62
     2
100
AcDbMText
 10
370.0
 20
1604.24
 30
0.0
 40
25.0
 41
0.0
 71
     5
 72
     1
  1
\A1;33,8
  7
LCTX0-400-0-0pDIN-Schrift
 11
6.123031769111886E-17
 21
1.0
 31
0.0
 73
     1
 44
1.0
  0
POINT
  5
277
330
26E
100
AcDbEntity
  8
Defpoints
 62
     0
100
AcDbPoint
 10
453.759738
 20
1587.34
 30
0.0
  0
POINT
  5
278
330
26E
100
AcDbEntity
  8
Defpoints
 62
     0
100
AcDbPoint
 10
453.759738
 20
1621.14
 30
0.0
  0
POINT
  5
279
330
26E
100
AcDbEntity
  8
Defpoints
 62
     0
100
AcDbPoint
 10
400.0
 20
1621.14
 30
0.0
  0
ENDBLK
  5
27B
330
26E
100
AcDbEntity
  8
0
100
AcDbBlockEnd
  0
BLOCK
  5
27D
330
27C
100
AcDbEntity
  8
0
100
AcDbBlockBegin
  2
*X117
 70
     1
 71
     0
 10
0.0
 20
0.0
 30
0.0
  3
*X117
  1

  4
*X1
  0
LINE
  5
280
330
27C
100
AcDbEntity
  8
LC-006-005-----0
 62
     7
370
    25
100
AcDbLine
 10
1051.692808
 20
1154.48035
 30
0.0
 11
1050.563808
 21
1155.60935
 31
0.0
  0
LINE
  5
281
330
27C
100
AcDbEntity
  8
LC-006-005-----0
 62
     7
370
    25
100
AcDbLine
 10
1051.692808
 20
1126.196079
 30
0.0
 11
1022.279536
 21
1155.60935
 31
0.0
  0
LINE
  5
282
330
27C
100
AcDbEntity
  8
LC-006-005-----0
 62
     7
370
    25
100
AcDbLine
 10
1051.692808
 20
1097.911807
 30
0.0
 11
993.995265
 21
1155.60935
 31
0.0
  0
LINE
  5
283
330
27C
100
AcDbEntity
  8
LC-006-005-----0
 62
     7
370
    25
100
AcDbLine
 10
1051.692808
 20
1069.627536
 30
0.0
 11
965.710994
 21
1155.60935
 31
0.0
  0
LINE
  5
284
330
27C
100
AcDbEntity
  8
LC-006-005-----0
 62
     7
370
    25
100
AcDbLine
 10
1051.692808
 20
1041.343265
 30
0.0
 11
937.426723
 21
1155.60935
 31
0.0
  0
LINE
  5
285
330
27C
100
AcDbEntity
  8
LC-006-005-----0
 62
     7
370
    25
100
AcDbLine
 10
1051.692808
 20
1013.058994
 30
0.0
 11
909.142451
 21
1155.60935
 31
0.0
  0
LINE
  5
286
330
27C
100
AcDbEntity
  8
LC-006-005-----0
 62
     7
370
    25
100
AcDbLine
 10
1051.692808
 20
984.774722
 30
0.0
 11
994.342808
 21
1042.124722
 31
0.0
  0
LINE
  5
287
330
27C
100
AcDbEntity
  8
LC-006-005-----0
 62
     7
370
    25
100
AcDbLine
 10
959.352131
 20
1077.115399
 30
0.0
 11
880.85818
 21
1155.60935
 31
0.0
  0
LINE
  5
288
330
27C
100
AcDbEntity
  8
LC-006-005-----0
 62
     7
370
    25
100
AcDbLine
 10
1051.692808
 20
956.490451
 30
0.0
 11
994.342808
 21
1013.840451
 31
0.0
  0
LINE
  5
289
330
27C
100
AcDbEntity
  8
LC-006-005-----0
 62
     7
370
    25
100
AcDbLine
 10
929.403371
 20
1078.779887
 30
0.0
 11
852.573909
 21
1155.60935
 31
0.0
  0
LINE
  5
28A
330
27C
100
AcDbEntity
  8
LC-006-005-----0
 62
     7
370
    25
100
AcDbLine
 10
1051.692808
 20
928.20618
 30
0.0
 11
994.342808
 21
985.55618
 31
0.0
  0
LINE
  5
28B
330
27C
100
AcDbEntity
  8
LC-006-005-----0
 62
     7
370
    25
100
AcDbLine
 10
900.925784
 20
1078.973203
 30
0.0
 11
824.289638
 21
1155.60935
 31
0.0
  0
LINE
  5
28C
330
27C
100
AcDbEntity
  8
LC-006-005-----0
 62
     7
370
    25
100
AcDbLine
 10
1051.692808
 20
899.921909
 30
0.0
 11
994.342808
 21
957.271909
 31
0.0
  0
LINE
  5
28D
330
27C
100
AcDbEntity
  8
LC-006-005-----0
 62
     7
370
    25
100
AcDbLine
 10
873.720411
 20
1077.894305
 30
0.0
 11
796.005366
 21
1155.60935
 31
0.0
  0
LINE
  5
28E
330
27C
100
AcDbEntity
  8
LC-006-005-----0
 62
     7
370
    25
100
AcDbLine
 10
1051.692808
 20
871.637637
 30
0.0
 11
994.342808
 21
928.987637
 31
0.0
  0
LINE
  5
28F
330
27C
100
AcDbEntity
  8
LC-006-005-----0
 62
     7
370
    25
100
AcDbLine
 10
847.580452
 20
1075.749993
 30
0.0
 11
767.721095
 21
1155.60935
 31
0.0
  0
LINE
  5
290
330
27C
100
AcDbEntity
  8
LC-006-005-----0
 62
     7
370
    25
100
AcDbLine
 10
1051.692808
 20
843.353366
 30
0.0
 11
994.342808
 21
900.703366
 31
0.0
  0
LINE
  5
291
330
27C
100
AcDbEntity
  8
LC-006-005-----0
 62
     7
370
    25
100
AcDbLine
 10
801.961862
 20
1093.084312
 30
0.0
 11
739.436824
 21
1155.60935
 31
0.0
  0
LINE
  5
292
330
27C
100
AcDbEntity
  8
LC-006-005-----0
 62
     7
370
    25
100
AcDbLine
 10
1041.152553
 20
825.60935
 30
0.0
 11
993.813681
 21
872.948222
 31
0.0
  0
LINE
  5
293
330
27C
100
AcDbEntity
  8
LC-006-005-----0
 62
     7
370
    25
100
AcDbLine
 10
757.654505
 20
1109.107397
 30
0.0
 11
711.152553
 21
1155.60935
 31
0.0
  0
LINE
  5
294
330
27C
100
AcDbEntity
  8
LC-006-005-----0
 62
     7
370
    25
100
AcDbLine
 10
1012.868281
 20
825.60935
 30
0.0
 11
970.668281
 21
867.80935
 31
0.0
  0
LINE
  5
295
330
27C
100
AcDbEntity
  8
LC-006-005-----0
 62
     7
370
    25
100
AcDbLine
 10
725.200184
 20
1113.277447
 30
0.0
 11
682.868281
 21
1155.60935
 31
0.0
  0
LINE
  5
296
330
27C
100
AcDbEntity
  8
LC-006-005-----0
 62
     7
370
    25
100
AcDbLine
 10
984.58401
 20
825.60935
 30
0.0
 11
942.38401
 21
867.80935
 31
0.0
  0
LINE
  5
297
330
27C
100
AcDbEntity
  8
LC-006-005-----0
 62
     7
370
    25
100
AcDbLine
 10
697.9212
 20
1112.27216
 30
0.0
 11
654.58401
 21
1155.60935
 31
0.0
  0
LINE
  5
298
330
27C
100
AcDbEntity
  8
LC-006-005-----0
 62
     7
370
    25
100
AcDbLine
 10
956.299739
 20
825.60935
 30
0.0
 11
914.099739
 21
867.80935
 31
0.0
  0
LINE
  5
299
330
27C
100
AcDbEntity
  8
LC-006-005-----0
 62
     7
370
    25
100
AcDbLine
 10
673.959001
 20
1107.950087
 30
0.0
 11
626.299739
 21
1155.60935
 31
0.0
  0
LINE
  5
29A
330
27C
100
AcDbEntity
  8
LC-006-005-----0
 62
     7
370
    25
100
AcDbLine
 10
928.015468
 20
825.60935
 30
0.0
 11
885.815468
 21
867.80935
 31
0.0
  0
LINE
  5
29B
330
27C
100
AcDbEntity
  8
LC-006-005-----0
 62
     7
370
    25
100
AcDbLine
 10
652.482632
 20
1101.142186
 30
0.0
 11
598.015468
 21
1155.60935
 31
0.0
  0
LINE
  5
29C
330
27C
100
AcDbEntity
  8
LC-006-005-----0
 62
     7
370
    25
100
AcDbLine
 10
899.731196
 20
825.60935
 30
0.0
 11
857.531196
 21
867.80935
 31
0.0
  0
LINE
  5
29D
330
27C
100
AcDbEntity
  8
LC-006-005-----0
 62
     7
370
    25
100
AcDbLine
 10
633.047695
 20
1092.292851
 30
0.0
 11
569.731196
 21
1155.60935
 31
0.0
  0
LINE
  5
29E
330
27C
100
AcDbEntity
  8
LC-006-005-----0
 62
     7
370
    25
100
AcDbLine
 10
871.446925
 20
825.60935
 30
0.0
 11
829.246925
 21
867.80935
 31
0.0
  0
LINE
  5
29F
330
27C
100
AcDbEntity
  8
LC-006-005-----0
 62
     7
370
    25
100
AcDbLine
 10
615.39831
 20
1081.657965
 30
0.0
 11
551.692808
 21
1145.363467
 31
0.0
  0
LINE
  5
2A0
330
27C
100
AcDbEntity
  8
LC-006-005-----0
 62
     7
370
    25
100
AcDbLine
 10
843.162654
 20
825.60935
 30
0.0
 11
800.962654
 21
867.80935
 31
0.0
  0
LINE
  5
2A1
330
27C
100
AcDbEntity
  8
LC-006-005-----0
 62
     7
370
    25
100
AcDbLine
 10
609.042808
 20
1059.729196
 30
0.0
 11
551.692808
 21
1117.079196
 31
0.0
  0
LINE
  5
2A2
330
27C
100
AcDbEntity
  8
LC-006-005-----0
 62
     7
370
    25
100
AcDbLine
 10
814.878383
 20
825.60935
 30
0.0
 11
772.678383
 21
867.80935
 31
0.0
  0
LINE
  5
2A3
330
27C
100
AcDbEntity
  8
LC-006-005-----0
 62
     7
370
    25
100
AcDbLine
 10
609.042808
 20
1031.444925
 30
0.0
 11
551.692808
 21
1088.794925
 31
0.0
  0
LINE
  5
2A4
330
27C
100
AcDbEntity
  8
LC-006-005-----0
 62
     7
370
    25
100
AcDbLine
 10
786.594111
 20
825.60935
 30
0.0
 11
744.394111
 21
867.80935
 31
0.0
  0
LINE
  5
2A5
330
27C
100
AcDbEntity
  8
LC-006-005-----0
 62
     7
370
    25
100
AcDbLine
 10
609.042808
 20
1003.160654
 30
0.0
 11
551.692808
 21
1060.510654
 31
0.0
  0
LINE
  5
2A6
330
27C
100
AcDbEntity
  8
LC-006-005-----0
 62
     7
370
    25
100
AcDbLine
 10
758.30984
 20
825.60935
 30
0.0
 11
716.10984
 21
867.80935
 31
0.0
  0
LINE
  5
2A7
330
27C
100
AcDbEntity
  8
LC-006-005-----0
 62
     7
370
    25
100
AcDbLine
 10
609.042808
 20
974.876382
 30
0.0
 11
551.692808
 21
1032.226382
 31
0.0
  0
LINE
  5
2A8
330
27C
100
AcDbEntity
  8
LC-006-005-----0
 62
     7
370
    25
100
AcDbLine
 10
730.025569
 20
825.60935
 30
0.0
 11
687.825569
 21
867.80935
 31
0.0
  0
LINE
  5
2A9
330
27C
100
AcDbEntity
  8
LC-006-005-----0
 62
     7
370
    25
100
AcDbLine
 10
609.042808
 20
946.592111
 30
0.0
 11
551.692808
 21
1003.942111
 31
0.0
  0
LINE
  5
2AA
330
27C
100
AcDbEntity
  8
LC-006-005-----0
 62
     7
370
    25
100
AcDbLine
 10
701.741298
 20
825.60935
 30
0.0
 11
659.541298
 21
867.80935
 31
0.0
  0
LINE
  5
2AB
330
27C
100
AcDbEntity
  8
LC-006-005-----0
 62
     7
370
    25
100
AcDbLine
 10
609.042808
 20
918.30784
 30
0.0
 11
551.692808
 21
975.65784
 31
0.0
  0
LINE
  5
2AC
330
27C
100
AcDbEntity
  8
LC-006-005-----0
 62
     7
370
    25
100
AcDbLine
 10
673.457026
 20
825.60935
 30
0.0
 11
631.257026
 21
867.80935
 31
0.0
  0
LINE
  5
2AD
330
27C
100
AcDbEntity
  8
LC-006-005-----0
 62
     7
370
    25
100
AcDbLine
 10
609.042808
 20
890.023569
 30
0.0
 11
551.692808
 21
947.373569
 31
0.0
  0
LINE
  5
2AE
330
27C
100
AcDbEntity
  8
LC-006-005-----0
 62
     7
370
    25
100
AcDbLine
 10
645.172755
 20
825.60935
 30
0.0
 11
551.692808
 21
919.089297
 31
0.0
  0
LINE
  5
2AF
330
27C
100
AcDbEntity
  8
LC-006-005-----0
 62
     7
370
    25
100
AcDbLine
 10
616.888484
 20
825.60935
 30
0.0
 11
551.692808
 21
890.805026
 31
0.0
  0
LINE
  5
2B0
330
27C
100
AcDbEntity
  8
LC-006-005-----0
 62
     7
370
    25
100
AcDbLine
 10
588.604213
 20
825.60935
 30
0.0
 11
551.692808
 21
862.520755
 31
0.0
  0
LINE
  5
2B1
330
27C
100
AcDbEntity
  8
LC-006-005-----0
 62
     7
370
    25
100
AcDbLine
 10
560.319941
 20
825.60935
 30
0.0
 11
551.692808
 21
834.236484
 31
0.0
  0
ENDBLK
  5
27E
330
27C
100
AcDbEntity
  8
0
100
AcDbBlockEnd
  0
BLOCK
  5
2C2
330
2B9
100
AcDbEntity
  8
0
100
AcDbBlockBegin
  2
*D18
 70
     1
 71
     0
 10
0.0
 20
0.0
 30
0.0
  3
*D18
  1

  0
LINE
  5
2BA
330
2B9
100
AcDbEntity
  8
LC-005-003-----0
 62
     2
370
    -2
100
AcDbLine
 10
909.859738
 20
2522.24
 30
0.0
 11
832.0
 21
2522.24
 31
0.0
  0
LINE
  5
2BB
330
2B9
100
AcDbEntity
  8
LC-005-003-----0
 62
     2
370
    -2
100
AcDbLine
 10
850.0
 20
2624.24
 30
0.0
 11
850.0
 21
2547.24
 31
0.0
  0
SOLID
  5
2BC
330
2B9
100
AcDbEntity
  8
LC-005-003-----0
 62
     2
100
AcDbTrace
 10
854.166667
 20
2624.24
 30
0.0
 11
845.833333
 21
2624.24
 31
0.0
 12
850.0
 22
2649.24
 32
0.0
 13
850.0
 23
2649.24
 33
0.0
  0
SOLID
  5
2BD
330
2B9
100
AcDbEntity
  8
LC-005-003-----0
 62
     2
100
AcDbTrace
 10
845.833333
 20
2547.24
 30
0.0
 11
854.166667
 21
2547.24
 31
0.0
 12
850.0
 22
2522.24
 32
0.0
 13
850.0
 23
2522.24
 33
0.0
  0
MTEXT
  5
2BE
330
2B9
100
AcDbEntity
  8
LC-005-003-----0
 62
     2
100
AcDbMText
 10
820.0
 20
2585.74
 30
0.0
 40
25.0
 41
0.0
 71
     5
 72
     1
  1
\A1;127
  7
LCTX0-400-0-0pDIN-Schrift
 11
6.123031769111886E-17
 21
1.0
 31
0.0
 73
     1
 44
1.0
  0
POINT
  5
2BF
330
2B9
100
AcDbEntity
  8
Defpoints
 62
     0
100
AcDbPoint
 10
857.859738
 20
2649.24
 30
0.0
  0
POINT
  5
2C0
330
2B9
100
AcDbEntity
  8
Defpoints
 62
     0
100
AcDbPoint
 10
909.859738
 20
2522.24
 30
0.0
  0
POINT
  5
2C1
330
2B9
100
AcDbEntity
  8
Defpoints
 62
     0
100
AcDbPoint
 10
850.0
 20
2522.24
 30
0.0
  0
ENDBLK
  5
2C3
330
2B9
100
AcDbEntity
  8
0
100
AcDbBlockEnd
  0
BLOCK
  5
2D0
330
2C5
100
AcDbEntity
  8
0
100
AcDbBlockBegin
  2
*D19
 70
     1
 71
     0
 10
0.0
 20
0.0
 30
0.0
  3
*D19
  1

  0
LINE
  5
2C6
330
2C5
100
AcDbEntity
  8
LC-005-003-----0
 62
     2
370
    -2
100
AcDbLine
 10
1311.959738
 20
1587.34
 30
0.0
 11
1418.0
 21
1587.34
 31
0.0
  0
LINE
  5
2C7
330
2C5
100
AcDbEntity
  8
LC-005-003-----0
 62
     2
370
    -2
100
AcDbLine
 10
1224.359738
 20
2077.44
 30
0.0
 11
1418.0
 21
2077.44
 31
0.0
  0
LINE
  5
2C8
330
2C5
100
AcDbEntity
  8
LC-005-003-----0
 62
     2
370
    -2
100
AcDbLine
 10
1400.0
 20
1612.34
 30
0.0
 11
1400.0
 21
1785.102501
 31
0.0
  0
LINE
  5
2C9
330
2C5
100
AcDbEntity
  8
LC-005-003-----0
 62
     2
370
    -2
100
AcDbLine
 10
1400.0
 20
2052.44
 30
0.0
 11
1400.0
 21
1879.677499
 31
0.0
  0
SOLID
  5
2CA
330
2C5
100
AcDbEntity
  8
LC-005-003-----0
 62
     2
100
AcDbTrace
 10
1395.833333
 20
1612.34
 30
0.0
 11
1404.166667
 21
1612.34
 31
0.0
 12
1400.0
 22
1587.34
 32
0.0
 13
1400.0
 23
1587.34
 33
0.0
  0
SOLID
  5
2CB
330
2C5
100
AcDbEntity
  8
LC-005-003-----0
 62
     2
100
AcDbTrace
 10
1404.166667
 20
2052.44
 30
0.0
 11
1395.833333
 21
2052.44
 31
0.0
 12
1400.0
 22
2077.44
 32
0.0
 13
1400.0
 23
2077.44
 33
0.0
  0
MTEXT
  5
2CC
330
2C5
100
AcDbEntity
  8
LC-005-003-----0
 62
     2
100
AcDbMText
 10
1370.0
 20
1832.39
 30
0.0
 40
25.0
 41
0.0
 71
     5
 72
     1
  1
\A1;490,1
  7
LCTX0-400-0-0pDIN-Schrift
 11
6.123031769111886E-17
 21
1.0
 31
0.0
 73
     1
 44
1.0
  0
POINT
  5
2CD
330
2C5
100
AcDbEntity
  8
Defpoints
 62
     0
100
AcDbPoint
 10
1311.959738
 20
1587.34
 30
0.0
  0
POINT
  5
2CE
330
2C5
100
AcDbEntity
  8
Defpoints
 62
     0
100
AcDbPoint
 10
1224.359738
 20
2077.44
 30
0.0
  0
POINT
  5
2CF
330
2C5
100
AcDbEntity
  8
Defpoints
 62
     0
100
AcDbPoint
 10
1400.0
 20
2077.44
 30
0.0
  0
ENDBLK
  5
2D1
330
2C5
100
AcDbEntity
  8
0
100
AcDbBlockEnd
  0
BLOCK
  5
2E8
330
2DD
100
AcDbEntity
  8
0
100
AcDbBlockBegin
  2
*D20
 70
     1
 71
     0
 10
0.0
 20
0.0
 30
0.0
  3
*D20
  1

  0
LINE
  5
2DE
330
2DD
100
AcDbEntity
  8
LC-005-003-----0
 62
     2
370
    -2
100
AcDbLine
 10
1056.692808
 20
1079.05935
 30
0.0
 11
1118.0
 21
1079.05935
 31
0.0
  0
LINE
  5
2DF
330
2DD
100
AcDbEntity
  8
LC-005-003-----0
 62
     2
370
    -2
100
AcDbLine
 10
1056.692808
 20
867.80935
 30
0.0
 11
1118.0
 21
867.80935
 31
0.0
  0
LINE
  5
2E0
330
2DD
100
AcDbEntity
  8
LC-005-003-----0
 62
     2
370
    -2
100
AcDbLine
 10
1100.0
 20
1054.05935
 30
0.0
 11
1100.0
 21
1025.184349
 31
0.0
  0
LINE
  5
2E1
330
2DD
100
AcDbEntity
  8
LC-005-003-----0
 62
     2
370
    -2
100
AcDbLine
 10
1100.0
 20
892.80935
 30
0.0
 11
1100.0
 21
921.68435
 31
0.0
  0
SOLID
  5
2E2
330
2DD
100
AcDbEntity
  8
LC-005-003-----0
 62
     2
100
AcDbTrace
 10
1104.166667
 20
1054.05935
 30
0.0
 11
1095.833333
 21
1054.05935
 31
0.0
 12
1100.0
 22
1079.05935
 32
0.0
 13
1100.0
 23
1079.05935
 33
0.0
  0
SOLID
  5
2E3
330
2DD
100
AcDbEntity
  8
LC-005-003-----0
 62
     2
100
AcDbTrace
 10
1095.833333
 20
892.80935
 30
0.0
 11
1104.166667
 21
892.80935
 31
0.0
 12
1100.0
 22
867.80935
 32
0.0
 13
1100.0
 23
867.80935
 33
0.0
  0
MTEXT
  5
2E4
330
2DD
100
AcDbEntity
  8
LC-005-003-----0
 62
     2
100
AcDbMText
 10
1070.0
 20
973.43435
 30
0.0
 40
25.0
 41
0.0
 71
     5
 72
     1
  1
\A1;422,5
  7
LCTX0-400-0-0pDIN-Schrift
 11
6.123031769111886E-17
 21
1.0
 31
0.0
 73
     1
 44
1.0
  0
POINT
  5
2E5
330
2DD
100
AcDbEntity
  8
Defpoints
 62
     0
100
AcDbPoint
 10
1056.692808
 20
1079.05935
 30
0.0
  0
POINT
  5
2E6
330
2DD
100
AcDbEntity
  8
Defpoints
 62
     0
100
AcDbPoint
 10
1056.692808
 20
867.80935
 30
0.0
  0
POINT
  5
2E7
330
2DD
100
AcDbEntity
  8
Defpoints
 62
     0
100
AcDbPoint
 10
1100.0
 20
867.80935
 30
0.0
  0
ENDBLK
  5
2E9
330
2DD
100
AcDbEntity
  8
0
100
AcDbBlockEnd
  0
BLOCK
  5
2F6
330
2EB
100
AcDbEntity
  8
0
100
AcDbBlockBegin
  2
*D21
 70
     1
 71
     0
 10
0.0
 20
0.0
 30
0.0
  3
*D21
  1

  0
LINE
  5
2EC
330
2EB
100
AcDbEntity
  8
LC-005-003-----0
 62
     2
370
    -2
100
AcDbLine
 10
824.934675
 20
1075.678511
 30
0.0
 11
782.0
 21
1075.678511
 31
0.0
  0
LINE
  5
2ED
330
2EB
100
AcDbEntity
  8
LC-005-003-----0
 62
     2
370
    -2
100
AcDbLine
 10
781.692808
 20
867.80935
 30
0.0
 11
818.0
 21
867.80935
 31
0.0
  0
LINE
  5
2EE
330
2EB
100
AcDbEntity
  8
LC-005-003-----0
 62
     2
370
    -2
100
AcDbLine
 10
800.0
 20
1050.678511
 30
0.0
 11
800.0
 21
1029.233929
 31
0.0
  0
LINE
  5
2EF
330
2EB
100
AcDbEntity
  8
LC-005-003-----0
 62
     2
370
    -2
100
AcDbLine
 10
800.0
 20
892.80935
 30
0.0
 11
800.0
 21
914.253931
 31
0.0
  0
SOLID
  5
2F0
330
2EB
100
AcDbEntity
  8
LC-005-003-----0
 62
     2
100
AcDbTrace
 10
804.166667
 20
1050.678511
 30
0.0
 11
795.833333
 21
1050.678511
 31
0.0
 12
800.0
 22
1075.678511
 32
0.0
 13
800.0
 23
1075.678511
 33
0.0
  0
SOLID
  5
2F1
330
2EB
100
AcDbEntity
  8
LC-005-003-----0
 62
     2
100
AcDbTrace
 10
795.833333
 20
892.80935
 30
0.0
 11
804.166667
 21
892.80935
 31
0.0
 12
800.0
 22
867.80935
 32
0.0
 13
800.0
 23
867.80935
 33
0.0
  0
MTEXT
  5
2F2
330
2EB
100
AcDbEntity
  8
LC-005-003-----0
 62
     2
100
AcDbMText
 10
770.0
 20
971.74393
 30
0.0
 40
25.0
 41
0.0
 71
     5
 72
     1
  1
\A1;415,74
  7
LCTX0-400-0-0pDIN-Schrift
 11
6.123031769111886E-17
 21
1.0
 31
0.0
 73
     1
 44
1.0
  0
POINT
  5
2F3
330
2EB
100
AcDbEntity
  8
Defpoints
 62
     0
100
AcDbPoint
 10
824.934675
 20
1075.678511
 30
0.0
  0
POINT
  5
2F4
330
2EB
100
AcDbEntity
  8
Defpoints
 62
     0
100
AcDbPoint
 10
781.692808
 20
867.80935
 30
0.0
  0
POINT
  5
2F5
330
2EB
100
AcDbEntity
  8
Defpoints
 62
     0
100
AcDbPoint
 10
800.0
 20
867.80935
 30
0.0
  0
ENDBLK
  5
2F7
330
2EB
100
AcDbEntity
  8
0
100
AcDbBlockEnd
  0
BLOCK
  5
301
330
2FA
100
AcDbEntity
  8
0
100
AcDbBlockBegin
  2
*D22
 70
     1
 71
     0
 10
0.0
 20
0.0
 30
0.0
  3
*D22
  1

  0
LINE
  5
2FB
330
2FA
100
AcDbEntity
  8
LC-005-003-----0
 62
     2
370
    -2
100
AcDbLine
 10
641.38747
 20
1029.092368
 30
0.0
 11
692.888075
 21
1029.092368
 31
0.0
  0
LINE
  5
2FC
330
2FA
100
AcDbEntity
  8
LC-005-003-----0
 62
     2
370
    -2
100
AcDbLine
 10
692.888075
 20
1029.092368
 30
0.0
 11
678.852884
 21
1083.399047
 31
0.0
  0
MTEXT
  5
2FD
330
2FA
100
AcDbEntity
  8
LC-005-003-----0
 62
     2
100
AcDbMText
 10
724.637772
 20
1056.854868
 30
0.0
 40
25.0
 41
0.0
 71
     5
 72
     1
  1
\A1;R365
  7
LCTX0-400-0-0pDIN-Schrift
 73
     1
 44
1.0
  0
SOLID
  5
2FE
330
2FA
100
AcDbEntity
  8
LC-005-003-----0
 62
     2
100
AcDbTrace
 10
682.887003
 20
1084.441638
 30
0.0
 11
674.818765
 21
1082.356457
 31
0.0
 12
672.59734
 22
1107.603761
 32
0.0
 13
672.59734
 23
1107.603761
 33
0.0
  0
POINT
  5
2FF
330
2FA
100
AcDbEntity
  8
Defpoints
 62
     0
100
AcDbPoint
 10
672.59734
 20
1107.603761
 30
0.0
  0
POINT
  5
300
330
2FA
100
AcDbEntity
  8
Defpoints
 62
     0
100
AcDbPoint
 10
718.262808
 20
930.90935
 30
0.0
  0
ENDBLK
  5
302
330
2FA
100
AcDbEntity
  8
0
100
AcDbBlockEnd
  0
BLOCK
  5
30B
330
304
100
AcDbEntity
  8
0
100
AcDbBlockBegin
  2
*D23
 70
     1
 71
     0
 10
0.0
 20
0.0
 30
0.0
  3
*D23
  1

  0
LINE
  5
305
330
304
100
AcDbEntity
  8
LC-005-003-----0
 62
     2
370
    -2
100
AcDbLine
 10
963.273729
 20
966.772768
 30
0.0
 11
921.832179
 21
966.772768
 31
0.0
  0
LINE
  5
306
330
304
100
AcDbEntity
  8
LC-005-003-----0
 62
     2
370
    -2
100
AcDbLine
 10
921.832179
 20
966.772768
 30
0.0
 11
923.751147
 21
1053.919999
 31
0.0
  0
MTEXT
  5
307
330
304
100
AcDbEntity
  8
LC-005-003-----0
 62
     2
100
AcDbMText
 10
885.052954
 20
994.535268
 30
0.0
 40
25.0
 41
0.0
 71
     5
 72
     1
  1
\A1;R1200
  7
LCTX0-400-0-0pDIN-Schrift
 73
     1
 44
1.0
  0
SOLID
  5
308
330
304
100
AcDbEntity
  8
LC-005-003-----0
 62
     2
100
AcDbTrace
 10
927.916804
 20
1053.828272
 30
0.0
 11
919.58549
 21
1054.011726
 31
0.0
 12
924.301509
 22
1078.913941
 32
0.0
 13
924.301509
 23
1078.913941
 33
0.0
  0
POINT
  5
309
330
304
100
AcDbEntity
  8
Defpoints
 62
     0
100
AcDbPoint
 10
924.301509
 20
1078.913941
 30
0.0
  0
POINT
  5
30A
330
304
100
AcDbEntity
  8
Defpoints
 62
     0
100
AcDbPoint
 10
911.092808
 20
479.05935
 30
0.0
  0
ENDBLK
  5
30C
330
304
100
AcDbEntity
  8
0
100
AcDbBlockEnd
  0
BLOCK
  5
316
330
315
100
AcDbEntity
  8
0
100
AcDbBlockBegin
  2
*X224
 70
     1
 71
     0
 10
0.0
 20
0.0
 30
0.0
  3
*X224
  1

  4
*X2
  0
LINE
  5
318
330
315
100
AcDbEntity
  8
LC-006-005-----0
 62
     7
370
    25
100
AcDbLine
 10
1546.501557
 20
1112.21994
 30
0.0
 11
1499.803718
 21
1158.917779
 31
0.0
  0
LINE
  5
319
330
315
100
AcDbEntity
  8
LC-006-005-----0
 62
     7
370
    25
100
AcDbLine
 10
1546.501557
 20
1055.651398
 30
0.0
 11
1443.235176
 21
1158.917779
 31
0.0
  0
LINE
  5
31A
330
315
100
AcDbEntity
  8
LC-006-005-----0
 62
     7
370
    25
100
AcDbLine
 10
1526.666633
 20
1018.917779
 30
0.0
 11
1386.666633
 21
1158.917779
 31
0.0
  0
LINE
  5
31B
330
315
100
AcDbEntity
  8
LC-006-005-----0
 62
     7
370
    25
100
AcDbLine
 10
1470.098091
 20
1018.917779
 30
0.0
 11
1330.098091
 21
1158.917779
 31
0.0
  0
LINE
  5
31C
330
315
100
AcDbEntity
  8
LC-006-005-----0
 62
     7
370
    25
100
AcDbLine
 10
1413.529549
 20
1018.917779
 30
0.0
 11
1273.529549
 21
1158.917779
 31
0.0
  0
LINE
  5
31D
330
315
100
AcDbEntity
  8
LC-006-005-----0
 62
     7
370
    25
100
AcDbLine
 10
1356.961006
 20
1018.917779
 30
0.0
 11
1246.867058
 21
1129.011727
 31
0.0
  0
LINE
  5
31E
330
315
100
AcDbEntity
  8
LC-006-005-----0
 62
     7
370
    25
100
AcDbLine
 10
1300.392464
 20
1018.917779
 30
0.0
 11
1246.867058
 21
1072.443184
 31
0.0
  0
ENDBLK
  5
317
330
315
100
AcDbEntity
  8
0
100
AcDbBlockEnd
  0
BLOCK
  5
329
330
322
100
AcDbEntity
  8
0
100
AcDbBlockBegin
  2
*D25
 70
     1
 71
     0
 10
0.0
 20
0.0
 30
0.0
  3
*D25
  1

  0
LINE
  5
323
330
322
100
AcDbEntity
  8
LC-005-003-----0
 62
     2
370
    -2
100
AcDbLine
 10
1198.051794
 20
1026.131931
 30
0.0
 11
1216.374023
 21
1026.131931
 31
0.0
  0
LINE
  5
324
330
322
100
AcDbEntity
  8
LC-005-003-----0
 62
     2
370
    -2
100
AcDbLine
 10
1216.374023
 20
1026.131931
 30
0.0
 11
1225.630846
 21
1020.937894
 31
0.0
  0
MTEXT
  5
325
330
322
100
AcDbEntity
  8
LC-005-003-----0
 62
     2
100
AcDbMText
 10
1199.712909
 20
1054.131931
 30
0.0
 40
25.0
 41
0.0
 71
     5
 72
     1
  1
\A1;R4
  7
LCTX0-400-0-0pDIN-Schrift
 73
     1
 44
1.0
  0
SOLID
  5
326
330
322
100
AcDbEntity
  8
LC-005-003-----0
 62
     2
100
AcDbTrace
 10
1223.591946
 20
1017.304164
 30
0.0
 11
1227.669746
 21
1024.571625
 31
0.0
 12
1247.433231
 22
1008.704497
 32
0.0
 13
1247.433231
 23
1008.704497
 33
0.0
  0
POINT
  5
327
330
322
100
AcDbEntity
  8
Defpoints
 62
     0
100
AcDbPoint
 10
1247.433231
 20
1008.704497
 30
0.0
  0
POINT
  5
328
330
322
100
AcDbEntity
  8
Defpoints
 62
     0
100
AcDbPoint
 10
1264.875139
 20
998.917779
 30
0.0
  0
ENDBLK
  5
32A
330
322
100
AcDbEntity
  8
0
100
AcDbBlockEnd
  0
BLOCK
  5
336
330
335
100
AcDbEntity
  8
0
100
AcDbBlockBegin
  2
*X326
 70
     1
 71
     0
 10
0.0
 20
0.0
 30
0.0
  3
*X326
  1

  4
*X3
  0
LINE
  5
338
330
335
100
AcDbEntity
  8
LC-006-005-----0
 62
     7
370
    25
100
AcDbLine
 10
1415.537885
 20
988.625171
 30
0.0
 11
1385.245277
 21
1018.917779
 31
0.0
  0
LINE
  5
339
330
335
100
AcDbEntity
  8
LC-006-005-----0
 62
     7
370
    25
100
AcDbLine
 10
1391.961006
 20
983.917779
 30
0.0
 11
1356.961006
 21
1018.917779
 31
0.0
  0
LINE
  5
33A
330
335
100
AcDbEntity
  8
LC-006-005-----0
 62
     7
370
    25
100
AcDbLine
 10
1363.676735
 20
983.917779
 30
0.0
 11
1328.676735
 21
1018.917779
 31
0.0
  0
LINE
  5
33B
330
335
100
AcDbEntity
  8
LC-006-005-----0
 62
     7
370
    25
100
AcDbLine
 10
1345.392464
 20
973.917779
 30
0.0
 11
1300.392464
 21
1018.917779
 31
0.0
  0
LINE
  5
33C
330
335
100
AcDbEntity
  8
LC-006-005-----0
 62
     7
370
    25
100
AcDbLine
 10
1317.108192
 20
973.917779
 30
0.0
 11
1272.108192
 21
1018.917779
 31
0.0
  0
LINE
  5
33D
330
335
100
AcDbEntity
  8
LC-006-005-----0
 62
     7
370
    25
100
AcDbLine
 10
1292.244779
 20
970.496921
 30
0.0
 11
1250.217165
 21
1012.524535
 31
0.0
  0
LINE
  5
33E
330
335
100
AcDbEntity
  8
LC-006-005-----0
 62
     7
370
    25
100
AcDbLine
 10
1280.401507
 20
954.055922
 30
0.0
 11
1243.887571
 21
990.569857
 31
0.0
  0
LINE
  5
33F
330
335
100
AcDbEntity
  8
LC-006-005-----0
 62
     7
370
    25
100
AcDbLine
 10
1277.592568
 20
928.580589
 30
0.0
 11
1241.197511
 21
964.975646
 31
0.0
  0
LINE
  5
340
330
335
100
AcDbEntity
  8
LC-006-005-----0
 62
     7
370
    25
100
AcDbLine
 10
1274.902508
 20
902.986378
 30
0.0
 11
1238.507451
 21
939.381435
 31
0.0
  0
LINE
  5
341
330
335
100
AcDbEntity
  8
LC-006-005-----0
 62
     7
370
    25
100
AcDbLine
 10
1272.212448
 20
877.392167
 30
0.0
 11
1235.817391
 21
913.787224
 31
0.0
  0
LINE
  5
342
330
335
100
AcDbEntity
  8
LC-006-005-----0
 62
     7
370
    25
100
AcDbLine
 10
1269.522388
 20
851.797956
 30
0.0
 11
1233.127331
 21
888.193012
 31
0.0
  0
LINE
  5
343
330
335
100
AcDbEntity
  8
LC-006-005-----0
 62
     7
370
    25
100
AcDbLine
 10
1266.832328
 20
826.203744
 30
0.0
 11
1230.437271
 21
862.598801
 31
0.0
  0
LINE
  5
344
330
335
100
AcDbEntity
  8
LC-006-005-----0
 62
     7
370
    25
100
AcDbLine
 10
1239.146893
 20
825.604908
 30
0.0
 11
1227.747211
 21
837.00459
 31
0.0
  0
ENDBLK
  5
337
330
335
100
AcDbEntity
  8
0
100
AcDbBlockEnd
  0
BLOCK
  5
38F
330
383
100
AcDbEntity
  8
0
100
AcDbBlockBegin
  2
*D27
 70
     1
 71
     0
 10
0.0
 20
0.0
 30
0.0
  3
*D27
  1

  0
LINE
  5
384
330
383
100
AcDbEntity
  8
LC-005-003-----0
 62
     2
370
    -2
100
AcDbLine
 10
633.759738
 20
2146.14
 30
0.0
 11
382.0
 21
2146.14
 31
0.0
  0
LINE
  5
385
330
383
100
AcDbEntity
  8
LC-005-003-----0
 62
     2
370
    -2
100
AcDbLine
 10
503.759738
 20
2112.34
 30
0.0
 11
382.0
 21
2112.34
 31
0.0
  0
LINE
  5
386
330
383
100
AcDbEntity
  8
LC-005-003-----0
 62
     2
370
    -2
100
AcDbLine
 10
400.0
 20
2171.14
 30
0.0
 11
400.0
 21
2196.14
 31
0.0
  0
LINE
  5
387
330
383
100
AcDbEntity
  8
LC-005-003-----0
 62
     2
370
    -2
100
AcDbLine
 10
400.0
 20
2087.34
 30
0.0
 11
400.0
 21
2043.948332
 31
0.0
  0
LINE
  5
388
330
383
100
AcDbEntity
  8
LC-005-003-----0
 62
     2
370
    -2
100
AcDbLine
 10
400.0
 20
2146.14
 30
0.0
 11
400.0
 21
2112.34
 31
0.0
  0
SOLID
  5
389
330
383
100
AcDbEntity
  8
LC-005-003-----0
 62
     2
100
AcDbTrace
 10
395.833333
 20
2171.14
 30
0.0
 11
404.166667
 21
2171.14
 31
0.0
 12
400.0
 22
2146.14
 32
0.0
 13
400.0
 23
2146.14
 33
0.0
  0
SOLID
  5
38A
330
383
100
AcDbEntity
  8
LC-005-003-----0
 62
     2
100
AcDbTrace
 10
404.166667
 20
2087.34
 30
0.0
 11
395.833333
 21
2087.34
 31
0.0
 12
400.0
 22
2112.34
 32
0.0
 13
400.0
 23
2112.34
 33
0.0
  0
MTEXT
  5
38B
330
383
100
AcDbEntity
  8
LC-005-003-----0
 62
     2
100
AcDbMText
 10
370.0
 20
2086.817081
 30
0.0
 40
25.0
 41
0.0
 71
     5
 72
     1
  1
\A1;33,8
  7
LCTX0-400-0-0pDIN-Schrift
 11
6.123031769111886E-17
 21
1.0
 31
0.0
 73
     1
 44
1.0
  0
POINT
  5
38C
330
383
100
AcDbEntity
  8
Defpoints
 62
     0
100
AcDbPoint
 10
633.759738
 20
2146.14
 30
0.0
  0
POINT
  5
38D
330
383
100
AcDbEntity
  8
Defpoints
 62
     0
100
AcDbPoint
 10
503.759738
 20
2112.34
 30
0.0
  0
POINT
  5
38E
330
383
100
AcDbEntity
  8
Defpoints
 62
     0
100
AcDbPoint
 10
400.0
 20
2112.34
 30
0.0
  0
ENDBLK
  5
390
330
383
100
AcDbEntity
  8
0
100
AcDbBlockEnd
  0
ENDSEC
  0
SECTION
  2
ENTITIES
  0
INSERT
  5
105
330
1F
100
AcDbEntity
  8
LC-003-230-ZVN-0
 62
     7
370
    50
100
AcDbBlockReference
  2
SYM1
 10
0.0
 20
0.0
 30
0.0
  0
ARC
  5
106
102
{ACAD_REACTORS
330
393
102
}
330
1F
100
AcDbEntity
  8
LC-002-002-----0
 62
     7
370
    50
100
AcDbCircle
 10
715.999738
 20
1747.34
 30
0.0
 40
398.8000000000358
100
AcDbArc
 50
56.826326
 51
129.234624
  0
ARC
  5
107
102
{ACAD_REACTORS
330
393
102
}
330
1F
100
AcDbEntity
  8
LC-002-002-----0
 62
     7
370
    50
100
AcDbCircle
 10
1101.659738
 20
843.64
 30
0.0
 40
1233.800000000001
100
AcDbArc
 50
80.657025
 51
95.850813
  0
ARC
  5
108
102
{ACAD_REACTORS
330
393
102
}
330
1F
100
AcDbEntity
  8
LC-002-002-----0
 62
     7
370
    50
100
AcDbCircle
 10
969.343473
 20
2134.878323
 30
0.0
 40
64.19999999995379
100
AcDbArc
 50
236.826326
 51
275.850813
  0
ARC
  5
109
102
{ACAD_REACTORS
330
398
102
}
330
1F
100
AcDbEntity
  8
LC-002-002-----0
 62
     7
370
    50
100
AcDbCircle
 10
1541.302886
 20
1862.39703
 30
0.0
 40
5.000000000000077
100
AcDbArc
 50
4.0
 51
65.0
  0
LINE
  5
10A
102
{ACAD_REACTORS
330
39A
102
}
330
1F
100
AcDbEntity
  8
LC-002-002-----0
 62
     7
370
    50
100
AcDbLine
 10
514.009436
 20
2416.197399
 30
0.0
 11
490.932199
 21
2635.762642
 31
0.0
  0
LINE
  5
10B
102
{ACAD_REACTORS
330
39A
102
}
330
1F
100
AcDbEntity
  8
LC-002-002-----0
 62
     7
370
    50
100
AcDbLine
 10
761.999738
 20
2391.229872
 30
0.0
 11
761.999738
 21
2381.171911
 31
0.0
  0
LINE
  5
10C
102
{ACAD_REACTORS
330
39A
102
}
330
1F
100
AcDbEntity
  8
LC-002-002-----0
 62
     7
370
    50
100
AcDbLine
 10
669.999738
 20
2391.229872
 30
0.0
 11
761.999738
 21
2391.229872
 31
0.0
  0
LINE
  5
10D
102
{ACAD_REACTORS
330
39A
102
}
330
1F
100
AcDbEntity
  8
LC-002-002-----0
 62
     7
370
    50
100
AcDbLine
 10
669.999738
 20
2391.229872
 30
0.0
 11
669.999738
 21
2381.171911
 31
0.0
  0
LINE
  5
10E
102
{ACAD_REACTORS
330
39A
102
}
330
1F
100
AcDbEntity
  8
LC-002-002-----0
 62
     7
370
    50
100
AcDbLine
 10
647.446475
 20
2386.985699
 30
0.0
 11
536.203806
 21
2394.764545
 31
0.0
  0
ARC
  5
110
102
{ACAD_REACTORS
330
39A
102
}
330
1F
100
AcDbEntity
  8
LC-004-002-RND-0
 62
     7
370
    50
100
AcDbCircle
 10
537.877961
 20
2418.706082
 30
0.0
 40
24.00000000000006
100
AcDbArc
 50
186.0
 51
266.0
  0
ARC
  5
111
102
{ACAD_REACTORS
330
39A
102
}
330
1F
100
AcDbEntity
  8
LC-004-002-RND-0
 62
     7
370
    50
100
AcDbCircle
 10
894.310686
 20
2418.71931
 30
0.0
 40
24.00000000000029
100
AcDbArc
 50
274.0
 51
354.0
  0
ARC
  5
112
102
{ACAD_REACTORS
330
39A
102
}
330
1F
100
AcDbEntity
  8
LC-004-002-RND-0
 62
     7
370
    50
100
AcDbCircle
 10
975.794242
 20
2415.051967
 30
0.0
 40
23.99999999999998
100
AcDbArc
 50
186.0
 51
266.0
  0
ARC
  5
113
102
{ACAD_REACTORS
330
39A
102
}
330
1F
100
AcDbEntity
  8
LC-004-002-RND-0
 62
     7
370
    50
100
AcDbCircle
 10
647.097693
 20
2381.997879
 30
0.0
 40
5.000000000000181
100
AcDbArc
 50
25.0
 51
86.0
  0
ARC
  5
114
102
{ACAD_REACTORS
330
39A
102
}
330
1F
100
AcDbEntity
  8
LC-002-002-----0
 62
     7
370
    50
100
AcDbCircle
 10
890.789579
 20
2423.4853
 30
0.0
 40
20.00000000000024
100
AcDbArc
 50
274.0
 51
354.0
  0
LINE
  5
115
102
{ACAD_REACTORS
330
39A
102
}
330
1F
100
AcDbEntity
  8
LC-002-002-----0
 62
     7
370
    50
100
AcDbLine
 10
1274.787276
 20
2635.762642
 30
0.0
 11
1251.325475
 21
2412.538509
 31
0.0
  0
LINE
  5
116
102
{ACAD_REACTORS
330
39A
102
}
330
1F
100
AcDbEntity
  8
LC-002-002-----0
 62
     7
370
    50
100
AcDbLine
 10
927.815913
 20
2507.897712
 30
0.0
 11
918.179212
 21
2416.210627
 31
0.0
  0
LINE
  5
117
102
{ACAD_REACTORS
330
39A
102
}
330
1F
100
AcDbEntity
  8
LC-002-002-----0
 62
     7
370
    50
100
AcDbLine
 10
951.925717
 20
2412.543284
 30
0.0
 11
941.903562
 21
2507.897712
 31
0.0
  0
ARC
  5
118
102
{ACAD_REACTORS
330
39A
102
}
330
1F
100
AcDbEntity
  8
LC-004-002-RND-0
 62
     7
370
    50
100
AcDbCircle
 10
1227.456949
 20
2415.047192
 30
0.0
 40
23.99999999999938
100
AcDbArc
 50
274.0
 51
354.0
  0
ARC
  5
119
102
{ACAD_REACTORS
330
39A
102
}
330
1F
100
AcDbEntity
  8
LC-002-002-----0
 62
     7
370
    50
100
AcDbCircle
 10
934.859738
 20
2507.157376
 30
0.0
 40
7.082624193443924
100
AcDbArc
 50
6.0
 51
174.0
  0
LINE
  5
11A
102
{ACAD_REACTORS
330
39A
102
}
330
1F
100
AcDbEntity
  8
LC-002-002-----0
 62
     7
370
    25
100
AcDbLine
 10
658.42476
 20
2395.24
 30
0.0
 11
773.574715
 21
2395.24
 31
0.0
  0
LINE
  5
11B
102
{ACAD_REACTORS
330
39A
102
}
330
1F
100
AcDbEntity
  8
LC-002-002-----0
 62
     7
370
    50
100
AcDbLine
 10
1289.459738
 20
2640.24
 30
0.0
 11
1279.759886
 21
2640.24
 31
0.0
  0
LINE
  5
11C
102
{ACAD_REACTORS
330
39A
102
}
330
1F
100
AcDbEntity
  8
LC-002-002-----0
 62
     7
370
    50
100
AcDbLine
 10
1301.959738
 20
2642.24
 30
0.0
 11
1289.459738
 21
2642.24
 31
0.0
  0
LINE
  5
11D
102
{ACAD_REACTORS
330
39A
102
}
330
1F
100
AcDbEntity
  8
LC-002-002-----0
 62
     7
370
    50
100
AcDbLine
 10
1289.459738
 20
2642.24
 30
0.0
 11
1289.459738
 21
2640.24
 31
0.0
  0
ARC
  5
11E
102
{ACAD_REACTORS
330
39A
102
}
330
1F
100
AcDbEntity
  8
LC-004-002-RND-0
 62
     7
370
    50
100
AcDbCircle
 10
1279.759886
 20
2635.24
 30
0.0
 40
5.0
100
AcDbArc
 50
90.0
 51
174.0
  0
LINE
  5
11F
102
{ACAD_REACTORS
330
39A
102
}
330
1F
100
AcDbEntity
  8
LC-002-002-----0
 62
     7
370
    50
100
AcDbLine
 10
464.054078
 20
2646.449269
 30
0.0
 11
463.759738
 21
2642.24
 31
0.0
  0
LINE
  5
120
102
{ACAD_REACTORS
330
39A
102
}
330
1F
100
AcDbEntity
  8
LC-002-002-----0
 62
     7
370
    50
100
AcDbLine
 10
773.485389
 20
2394.219003
 30
0.0
 11
773.466615
 21
2394.004407
 31
0.0
  0
LINE
  5
121
102
{ACAD_REACTORS
330
39A
102
}
330
1F
100
AcDbEntity
  8
LC-002-002-----0
 62
     7
370
    50
100
AcDbLine
 10
521.508631
 20
2421.381502
 30
0.0
 11
497.936209
 21
2645.658114
 31
0.0
  0
LINE
  5
122
102
{ACAD_REACTORS
330
39A
102
}
330
1F
100
AcDbEntity
  8
LC-002-002-----0
 62
     7
370
    50
100
AcDbLine
 10
919.859738
 20
2508.733939
 30
0.0
 11
910.680017
 21
2421.39473
 31
0.0
  0
LINE
  5
123
102
{ACAD_REACTORS
330
39A
102
}
330
1F
100
AcDbEntity
  8
LC-002-002-----0
 62
     7
370
    50
100
AcDbLine
 10
658.532861
 20
2394.004407
 30
0.0
 11
658.514086
 21
2394.219003
 31
0.0
  0
LINE
  5
124
102
{ACAD_REACTORS
330
39A
102
}
330
1F
100
AcDbEntity
  8
LC-002-002-----0
 62
     7
370
    50
100
AcDbLine
 10
1158.970412
 20
2394.219003
 30
0.0
 11
1158.951637
 21
2394.004407
 31
0.0
  0
LINE
  5
125
102
{ACAD_REACTORS
330
39A
102
}
330
1F
100
AcDbEntity
  8
LC-002-002-----0
 62
     7
370
    50
100
AcDbLine
 10
1267.783266
 20
2645.658114
 30
0.0
 11
1243.827575
 21
2417.734938
 31
0.0
  0
LINE
  5
126
102
{ACAD_REACTORS
330
39A
102
}
330
1F
100
AcDbEntity
  8
LC-002-002-----0
 62
     7
370
    50
100
AcDbLine
 10
959.423616
 20
2417.739713
 30
0.0
 11
949.859738
 21
2508.733939
 31
0.0
  0
LINE
  5
127
102
{ACAD_REACTORS
330
39A
102
}
330
1F
100
AcDbEntity
  8
LC-002-002-----0
 62
     7
370
    50
100
AcDbLine
 10
1044.367838
 20
2394.004407
 30
0.0
 11
1044.349063
 21
2394.219003
 31
0.0
  0
LINE
  5
128
102
{ACAD_REACTORS
330
39A
102
}
330
1F
100
AcDbEntity
  8
LC-002-002-----0
 62
     7
370
    50
100
AcDbLine
 10
1301.959738
 20
2642.24
 30
0.0
 11
1301.665397
 21
2646.449269
 31
0.0
  0
LINE
  5
129
102
{ACAD_REACTORS
330
39A
102
}
330
1F
100
AcDbEntity
  8
LC-002-002-----0
 62
     7
370
    50
100
AcDbLine
 10
1158.129091
 20
2393.106755
 30
0.0
 11
1147.659738
 21
2391.260726
 31
0.0
  0
LINE
  5
12A
102
{ACAD_REACTORS
330
39A
102
}
330
1F
100
AcDbEntity
  8
LC-002-002-----0
 62
     7
370
    50
100
AcDbLine
 10
772.644068
 20
2393.106755
 30
0.0
 11
761.999738
 21
2391.229872
 31
0.0
  0
LINE
  5
12B
102
{ACAD_REACTORS
330
39A
102
}
330
1F
100
AcDbEntity
  8
LC-002-002-----0
 62
     7
370
    50
100
AcDbLine
 10
1225.332267
 20
2399.874227
 30
0.0
 11
1160.082138
 21
2395.311493
 31
0.0
  0
LINE
  5
12C
102
{ACAD_REACTORS
330
39A
102
}
330
1F
100
AcDbEntity
  8
LC-002-002-----0
 62
     7
370
    50
100
AcDbLine
 10
1298.672705
 20
2649.24
 30
0.0
 11
467.046771
 21
2649.24
 31
0.0
  0
LINE
  5
12D
102
{ACAD_REACTORS
330
39A
102
}
330
1F
100
AcDbEntity
  8
LC-002-002-----0
 62
     7
370
    50
100
AcDbLine
 10
657.40236
 20
2395.311493
 30
0.0
 11
540.003939
 21
2403.52079
 31
0.0
  0
LINE
  5
12E
102
{ACAD_REACTORS
330
39A
102
}
330
1F
100
AcDbEntity
  8
LC-002-002-----0
 62
     7
370
    50
100
AcDbLine
 10
1043.237337
 20
2395.311493
 30
0.0
 11
977.918925
 21
2399.879002
 31
0.0
  0
LINE
  5
12F
102
{ACAD_REACTORS
330
39A
102
}
330
1F
100
AcDbEntity
  8
LC-002-002-----0
 62
     7
370
    50
100
AcDbLine
 10
669.999738
 20
2391.229872
 30
0.0
 11
659.355407
 21
2393.106755
 31
0.0
  0
LINE
  5
130
102
{ACAD_REACTORS
330
39A
102
}
330
1F
100
AcDbEntity
  8
LC-002-002-----0
 62
     7
370
    50
100
AcDbLine
 10
1055.659738
 20
2391.260726
 30
0.0
 11
1045.190385
 21
2393.106755
 31
0.0
  0
ARC
  5
131
102
{ACAD_REACTORS
330
39A
102
}
330
1F
100
AcDbEntity
  8
LC-002-002-----0
 62
     7
370
    50
100
AcDbCircle
 10
541.399069
 20
2423.472071
 30
0.0
 40
19.99999999999969
100
AcDbArc
 50
186.0
 51
266.0
  0
ARC
  5
132
102
{ACAD_REACTORS
330
39A
102
}
330
1F
100
AcDbEntity
  8
LC-002-002-----0
 62
     7
370
    50
100
AcDbCircle
 10
493.958121
 20
2645.24
 30
0.0
 40
4.000000000000038
100
AcDbArc
 50
6.0
 51
90.0
  0
ARC
  5
133
102
{ACAD_REACTORS
330
39A
102
}
330
1F
100
AcDbEntity
  8
LC-002-002-----0
 62
     7
370
    50
100
AcDbCircle
 10
467.046771
 20
2646.24
 30
0.0
 40
3.0
100
AcDbArc
 50
90.0
 51
176.0
  0
ARC
  5
134
102
{ACAD_REACTORS
330
39A
102
}
330
1F
100
AcDbEntity
  8
LC-002-002-----0
 62
     7
370
    50
100
AcDbCircle
 10
774.680823
 20
2394.114416
 30
0.0
 40
1.200000000000096
100
AcDbArc
 50
94.0
 51
175.0
  0
ARC
  5
135
102
{ACAD_REACTORS
330
39A
102
}
330
1F
100
AcDbEntity
  8
LC-002-002-----0
 62
     7
370
    50
100
AcDbCircle
 10
657.318652
 20
2394.114416
 30
0.0
 40
1.200000000000195
100
AcDbArc
 50
5.0
 51
86.0
  0
ARC
  5
136
102
{ACAD_REACTORS
330
39A
102
}
330
1F
100
AcDbEntity
  8
LC-002-002-----0
 62
     7
370
    50
100
AcDbCircle
 10
772.47042
 20
2394.091563
 30
0.0
 40
1.000000000000085
100
AcDbArc
 50
280.0
 51
355.0
  0
ARC
  5
137
102
{ACAD_REACTORS
330
39A
102
}
330
1F
100
AcDbEntity
  8
LC-002-002-----0
 62
     7
370
    50
100
AcDbCircle
 10
659.529055
 20
2394.091563
 30
0.0
 40
0.9999999999998402
100
AcDbArc
 50
185.0
 51
260.0
  0
ARC
  5
138
102
{ACAD_REACTORS
330
39A
102
}
330
1F
100
AcDbEntity
  8
LC-002-002-----0
 62
     7
370
    50
100
AcDbCircle
 10
1223.937137
 20
2419.825508
 30
0.0
 40
20.00000000000012
100
AcDbArc
 50
274.0
 51
354.0
  0
ARC
  5
139
102
{ACAD_REACTORS
330
39A
102
}
330
1F
100
AcDbEntity
  8
LC-002-002-----0
 62
     7
370
    50
100
AcDbCircle
 10
979.314054
 20
2419.830283
 30
0.0
 40
19.99999999999992
100
AcDbArc
 50
186.0
 51
266.0
  0
ARC
  5
13A
102
{ACAD_REACTORS
330
39A
102
}
330
1F
100
AcDbEntity
  8
LC-002-002-----0
 62
     7
370
    50
100
AcDbCircle
 10
934.859738
 20
2507.157376
 30
0.0
 40
15.0826241935001
100
AcDbArc
 50
6.0
 51
174.0
  0
ARC
  5
13B
102
{ACAD_REACTORS
330
39A
102
}
330
1F
100
AcDbEntity
  8
LC-002-002-----0
 62
     7
370
    50
100
AcDbCircle
 10
1271.761354
 20
2645.24
 30
0.0
 40
4.0
100
AcDbArc
 50
90.0
 51
174.0
  0
ARC
  5
13C
102
{ACAD_REACTORS
330
39A
102
}
330
1F
100
AcDbEntity
  8
LC-002-002-----0
 62
     7
370
    50
100
AcDbCircle
 10
1298.672705
 20
2646.24
 30
0.0
 40
3.000000000000006
100
AcDbArc
 50
4.0
 51
90.0
  0
ARC
  5
13D
102
{ACAD_REACTORS
330
39A
102
}
330
1F
100
AcDbEntity
  8
LC-002-002-----0
 62
     7
370
    50
100
AcDbCircle
 10
1160.165846
 20
2394.114416
 30
0.0
 40
1.200000000000096
100
AcDbArc
 50
94.0
 51
175.0
  0
ARC
  5
13E
102
{ACAD_REACTORS
330
39A
102
}
330
1F
100
AcDbEntity
  8
LC-002-002-----0
 62
     7
370
    50
100
AcDbCircle
 10
1043.15363
 20
2394.114416
 30
0.0
 40
1.200000000000195
100
AcDbArc
 50
5.0
 51
86.0
  0
ARC
  5
13F
102
{ACAD_REACTORS
330
39A
102
}
330
1F
100
AcDbEntity
  8
LC-002-002-----0
 62
     7
370
    50
100
AcDbCircle
 10
1157.955443
 20
2394.091563
 30
0.0
 40
1.000000000000125
100
AcDbArc
 50
280.0
 51
355.0
  0
ARC
  5
140
102
{ACAD_REACTORS
330
39A
102
}
330
1F
100
AcDbEntity
  8
LC-002-002-----0
 62
     7
370
    50
100
AcDbCircle
 10
1045.364033
 20
2394.091563
 30
0.0
 40
0.9999999999998402
100
AcDbArc
 50
185.0
 51
260.0
  0
LINE
  5
141
102
{ACAD_REACTORS
330
39A
102
}
330
1F
100
AcDbEntity
  8
LC-002-002-----0
 62
     7
370
    50
100
AcDbLine
 10
654.910948
 20
2381.171911
 30
0.0
 11
777.088527
 21
2381.171911
 31
0.0
  0
ARC
  5
142
102
{ACAD_REACTORS
330
39A
102
}
330
1F
100
AcDbEntity
  8
LC-002-002-----0
 62
     7
370
    50
100
AcDbCircle
 10
654.910948
 20
2384.171911
 30
0.0
 40
3.000000000000054
100
AcDbArc
 50
205.0
 51
270.0
  0
LINE
  5
143
102
{ACAD_REACTORS
330
39A
102
}
330
1F
100
AcDbEntity
  8
LC-002-002-----0
 62
     7
370
    50
100
AcDbLine
 10
652.192025
 20
2382.904056
 30
0.0
 11
651.629231
 21
2384.11097
 31
0.0
  0
ARC
  5
144
102
{ACAD_REACTORS
330
39A
102
}
330
1F
100
AcDbEntity
  8
LC-004-002-RND-0
 62
     7
370
    50
100
AcDbCircle
 10
784.901783
 20
2381.997879
 30
0.0
 40
5.000000000000063
100
AcDbArc
 50
94.0
 51
155.0
  0
ARC
  5
145
102
{ACAD_REACTORS
330
39A
102
}
330
1F
100
AcDbEntity
  8
LC-002-002-----0
 62
     7
370
    50
100
AcDbCircle
 10
777.088527
 20
2384.171911
 30
0.0
 40
3.0
100
AcDbArc
 50
270.0
 51
335.0
  0
LINE
  5
146
102
{ACAD_REACTORS
330
39A
102
}
330
1F
100
AcDbEntity
  8
LC-002-002-----0
 62
     7
370
    50
100
AcDbLine
 10
779.80745
 20
2382.904056
 30
0.0
 11
780.370244
 21
2384.11097
 31
0.0
  0
LINE
  5
147
102
{ACAD_REACTORS
330
39A
102
}
330
1F
100
AcDbEntity
  8
LC-002-002-----0
 62
     7
370
    50
100
AcDbLine
 10
784.553
 20
2386.985699
 30
0.0
 11
895.984842
 21
2394.777773
 31
0.0
  0
LINE
  5
148
102
{ACAD_REACTORS
330
39A
102
}
330
1F
100
AcDbEntity
  8
LC-002-002-----0
 62
     7
370
    50
100
AcDbLine
 10
774.597115
 20
2395.311493
 30
0.0
 11
892.184708
 21
2403.534019
 31
0.0
  0
LINE
  5
149
102
{ACAD_REACTORS
330
39A
102
}
330
1F
100
AcDbEntity
  8
LC-002-002-----0
 62
     7
370
    25
100
AcDbLine
 10
1044.08476
 20
2395.24
 30
0.0
 11
1159.234715
 21
2395.24
 31
0.0
  0
LINE
  5
14A
102
{ACAD_REACTORS
330
39A
102
}
330
1F
100
AcDbEntity
  8
LC-002-002-----0
 62
     7
370
    50
100
AcDbLine
 10
1033.106475
 20
2386.985699
 30
0.0
 11
974.120087
 21
2391.110429
 31
0.0
  0
ARC
  5
14B
102
{ACAD_REACTORS
330
39A
102
}
330
1F
100
AcDbEntity
  8
LC-004-002-RND-0
 62
     7
370
    50
100
AcDbCircle
 10
1032.757693
 20
2381.997879
 30
0.0
 40
5.000000000000181
100
AcDbArc
 50
25.0
 51
86.0
  0
LINE
  5
14C
102
{ACAD_REACTORS
330
39A
102
}
330
1F
100
AcDbEntity
  8
LC-002-002-----0
 62
     7
370
    50
100
AcDbLine
 10
1040.570948
 20
2381.171911
 30
0.0
 11
1162.748527
 21
2381.171911
 31
0.0
  0
ARC
  5
14D
102
{ACAD_REACTORS
330
39A
102
}
330
1F
100
AcDbEntity
  8
LC-002-002-----0
 62
     7
370
    50
100
AcDbCircle
 10
1040.570948
 20
2384.171911
 30
0.0
 40
3.000000000000054
100
AcDbArc
 50
205.0
 51
270.0
  0
LINE
  5
14E
102
{ACAD_REACTORS
330
39A
102
}
330
1F
100
AcDbEntity
  8
LC-002-002-----0
 62
     7
370
    50
100
AcDbLine
 10
1037.852025
 20
2382.904056
 30
0.0
 11
1037.289231
 21
2384.11097
 31
0.0
  0
ARC
  5
14F
102
{ACAD_REACTORS
330
39A
102
}
330
1F
100
AcDbEntity
  8
LC-004-002-RND-0
 62
     7
370
    50
100
AcDbCircle
 10
1170.561783
 20
2381.997879
 30
0.0
 40
5.000000000000063
100
AcDbArc
 50
94.0
 51
155.0
  0
ARC
  5
150
102
{ACAD_REACTORS
330
39A
102
}
330
1F
100
AcDbEntity
  8
LC-002-002-----0
 62
     7
370
    50
100
AcDbCircle
 10
1162.748527
 20
2384.171911
 30
0.0
 40
3.0
100
AcDbArc
 50
270.0
 51
335.0
  0
LINE
  5
151
102
{ACAD_REACTORS
330
39A
102
}
330
1F
100
AcDbEntity
  8
LC-002-002-----0
 62
     7
370
    50
100
AcDbLine
 10
1165.46745
 20
2382.904056
 30
0.0
 11
1166.030244
 21
2384.11097
 31
0.0
  0
LINE
  5
152
102
{ACAD_REACTORS
330
39A
102
}
330
1F
100
AcDbEntity
  8
LC-002-002-----0
 62
     7
370
    50
100
AcDbLine
 10
1170.213
 20
2386.985699
 30
0.0
 11
1229.131104
 21
2391.105655
 31
0.0
  0
LINE
  5
153
102
{ACAD_REACTORS
330
39A
102
}
330
1F
100
AcDbEntity
  8
LC-002-002-----0
 62
     7
370
    50
100
AcDbLine
 10
476.259738
 20
2640.24
 30
0.0
 11
485.959589
 21
2640.24
 31
0.0
  0
LINE
  5
154
102
{ACAD_REACTORS
330
39A
102
}
330
1F
100
AcDbEntity
  8
LC-002-002-----0
 62
     7
370
    50
100
AcDbLine
 10
463.759738
 20
2642.24
 30
0.0
 11
476.259738
 21
2642.24
 31
0.0
  0
LINE
  5
155
102
{ACAD_REACTORS
330
39A
102
}
330
1F
100
AcDbEntity
  8
LC-002-002-----0
 62
     7
370
    50
100
AcDbLine
 10
476.259738
 20
2642.24
 30
0.0
 11
476.259738
 21
2640.24
 31
0.0
  0
ARC
  5
156
102
{ACAD_REACTORS
330
39A
102
}
330
1F
100
AcDbEntity
  8
LC-004-002-RND-0
 62
     7
370
    50
100
AcDbCircle
 10
485.959589
 20
2635.24
 30
0.0
 40
5.000000000000143
100
AcDbArc
 50
6.0
 51
90.0
  0
LINE
  5
157
102
{ACAD_REACTORS
330
39A
102
}
330
1F
100
AcDbEntity
  8
LC-002-002-----0
 62
     7
370
    50
100
AcDbLine
 10
1055.659738
 20
2391.229872
 30
0.0
 11
1147.659738
 21
2391.229872
 31
0.0
  0
LINE
  5
158
102
{ACAD_REACTORS
330
39A
102
}
330
1F
100
AcDbEntity
  8
LC-002-002-----0
 62
     7
370
    50
100
AcDbLine
 10
1055.659738
 20
2391.260726
 30
0.0
 11
1055.659738
 21
2381.171911
 31
0.0
  0
LINE
  5
159
102
{ACAD_REACTORS
330
39A
102
}
330
1F
100
AcDbEntity
  8
LC-002-002-----0
 62
     7
370
    50
100
AcDbLine
 10
1147.659738
 20
2391.260726
 30
0.0
 11
1147.659738
 21
2381.171911
 31
0.0
  0
ARC
  5
15A
102
{ACAD_REACTORS
330
393
102
}
330
1F
100
AcDbEntity
  8
LC-002-002-----0
 62
     7
370
    50
100
AcDbCircle
 10
513.559738
 20
1637.14
 30
0.0
 40
16.0
100
AcDbArc
 50
180.0
 51
270.0
  0
ARC
  5
15B
102
{ACAD_REACTORS
330
393
102
}
330
1F
100
AcDbEntity
  8
LC-002-002-----0
 62
     7
370
    50
100
AcDbCircle
 10
1252.159738
 20
1637.14
 30
0.0
 40
16.0
100
AcDbArc
 50
270.0
 51
0.0
  0
ARC
  5
15C
102
{ACAD_REACTORS
330
393
102
}
330
1F
100
AcDbEntity
  8
LC-002-002-----0
 62
     7
370
    50
100
AcDbCircle
 10
517.559738
 20
2029.557233
 30
0.0
 40
19.99999999999997
100
AcDbArc
 50
125.112827
 51
180.0
  0
ARC
  5
15D
102
{ACAD_REACTORS
330
393
102
}
330
1F
100
AcDbEntity
  8
LC-002-002-----0
 62
     7
370
    50
100
AcDbCircle
 10
1252.159738
 20
2018.035909
 30
0.0
 40
16.0
100
AcDbArc
 50
0.0
 51
82.697292
  0
CIRCLE
  5
15E
102
{ACAD_REACTORS
330
393
102
}
330
1F
100
AcDbEntity
  8
LC-002-002-----0
 62
     7
370
    50
100
AcDbCircle
 10
715.999738
 20
1996.19
 30
0.0
 40
57.40000000000032
  0
CIRCLE
  5
15F
102
{ACAD_REACTORS
330
393
102
}
330
1F
100
AcDbEntity
  8
LC-002-002-----0
 62
     7
370
    50
100
AcDbCircle
 10
715.999738
 20
1996.19
 30
0.0
 40
46.0
  0
CIRCLE
  5
160
102
{ACAD_REACTORS
330
393
102
}
330
1F
100
AcDbEntity
  8
LC-002-002-----0
 62
     7
370
    50
100
AcDbCircle
 10
1101.659738
 20
1933.415
 30
0.0
 40
57.40000000000009
  0
CIRCLE
  5
161
102
{ACAD_REACTORS
330
393
102
}
330
1F
100
AcDbEntity
  8
LC-002-002-----0
 62
     7
370
    50
100
AcDbCircle
 10
1101.659738
 20
1933.415
 30
0.0
 40
46.0
  0
CIRCLE
  5
162
102
{ACAD_REACTORS
330
393
102
}
330
1F
100
AcDbEntity
  8
LC-002-002-----0
 62
     7
370
    50
100
AcDbCircle
 10
949.871239
 20
2010.940865
 30
0.0
 40
0.0115008908499304
  0
ARC
  5
163
102
{ACAD_REACTORS
330
393
102
}
330
1F
100
AcDbEntity
  8
LC-002-002-----0
 62
     7
370
    50
100
AcDbCircle
 10
907.859738
 20
1647.907782
 30
0.0
 40
12.0
100
AcDbArc
 50
270.0
 51
360.0
  0
ARC
  5
164
102
{ACAD_REACTORS
330
393
102
}
330
1F
100
AcDbEntity
  8
LC-002-002-----0
 62
     7
370
    50
100
AcDbCircle
 10
961.859738
 20
1647.907782
 30
0.0
 40
12.0
100
AcDbArc
 50
180.0
 51
270.0
  0
ARC
  5
165
102
{ACAD_REACTORS
330
393
102
}
330
1F
100
AcDbEntity
  8
LC-002-002-----0
 62
     7
370
    50
100
AcDbCircle
 10
962.041324
 20
2010.137422
 30
0.0
 40
12.18158614269464
100
AcDbArc
 50
90.0
 51
180.0
  0
ARC
  5
166
102
{ACAD_REACTORS
330
393
102
}
330
1F
100
AcDbEntity
  8
LC-002-002-----0
 62
     7
370
    50
100
AcDbCircle
 10
908.54713
 20
2026.720411
 30
0.0
 40
11.31260805921465
100
AcDbArc
 50
0.0
 51
62.511609
  0
LINE
  5
167
102
{ACAD_REACTORS
330
393
102
}
330
1F
100
AcDbEntity
  8
LC-002-002-----0
 62
     7
370
    50
100
AcDbLine
 10
463.759738
 20
1600.04
 30
0.0
 11
463.759738
 21
2056.235488
 31
0.0
  0
LINE
  5
168
102
{ACAD_REACTORS
330
393
102
}
330
1F
100
AcDbEntity
  8
LC-002-002-----0
 62
     7
370
    50
100
AcDbLine
 10
497.559738
 20
1637.14
 30
0.0
 11
497.559738
 21
2029.557233
 31
0.0
  0
LINE
  5
169
102
{ACAD_REACTORS
330
393
102
}
330
1F
100
AcDbEntity
  8
LC-002-002-----0
 62
     7
370
    50
100
AcDbLine
 10
1289.259738
 20
1587.34
 30
0.0
 11
476.459738
 21
1587.34
 31
0.0
  0
LINE
  5
16A
102
{ACAD_REACTORS
330
393
102
}
330
1F
100
AcDbEntity
  8
LC-002-002-----0
 62
     7
370
    50
100
AcDbLine
 10
513.559738
 20
1621.14
 30
0.0
 11
1252.159738
 21
1621.14
 31
0.0
  0
LINE
  5
16B
102
{ACAD_REACTORS
330
393
102
}
330
1F
100
AcDbEntity
  8
LC-002-002-----0
 62
     7
370
    50
100
AcDbLine
 10
919.859738
 20
2026.720411
 30
0.0
 11
919.859738
 21
1647.907782
 31
0.0
  0
LINE
  5
16C
102
{ACAD_REACTORS
330
393
102
}
330
1F
100
AcDbEntity
  8
LC-002-002-----0
 62
     7
370
    50
100
AcDbLine
 10
949.859738
 20
2010.137422
 30
0.0
 11
949.859738
 21
1647.907782
 31
0.0
  0
LINE
  5
16D
102
{ACAD_REACTORS
330
393
102
}
330
1F
100
AcDbEntity
  8
LC-002-002-----0
 62
     7
370
    50
100
AcDbLine
 10
1268.159738
 20
1637.14
 30
0.0
 11
1268.159738
 21
2018.035909
 31
0.0
  0
LINE
  5
16E
102
{ACAD_REACTORS
330
393
102
}
330
1F
100
AcDbEntity
  8
LC-002-002-----0
 62
     7
370
    50
100
AcDbLine
 10
1301.959738
 20
2061.072688
 30
0.0
 11
1301.959738
 21
1600.04
 31
0.0
  0
ARC
  5
16F
102
{ACAD_REACTORS
330
393
102
}
330
1F
100
AcDbEntity
  8
LC-002-002-----0
 62
     7
370
    50
100
AcDbCircle
 10
476.459738
 20
1600.04
 30
0.0
 40
12.70000000000027
100
AcDbArc
 50
180.0
 51
270.0
  0
ARC
  5
170
102
{ACAD_REACTORS
330
393
102
}
330
1F
100
AcDbEntity
  8
LC-002-002-----0
 62
     7
370
    50
100
AcDbCircle
 10
715.999738
 20
1747.34
 30
0.0
 40
365.0000000000001
100
AcDbArc
 50
56.826326
 51
125.112827
  0
ARC
  5
171
102
{ACAD_REACTORS
330
393
102
}
330
1F
100
AcDbEntity
  8
LC-002-002-----0
 62
     7
370
    50
100
AcDbCircle
 10
969.343473
 20
2134.878323
 30
0.0
 40
98.00000000000007
100
AcDbArc
 50
236.826326
 51
275.850813
  0
ARC
  5
172
102
{ACAD_REACTORS
330
393
102
}
330
1F
100
AcDbEntity
  8
LC-002-002-----0
 62
     7
370
    50
100
AcDbCircle
 10
1101.659738
 20
843.64
 30
0.0
 40
1200.000000000001
100
AcDbArc
 50
82.697292
 51
95.850813
  0
ARC
  5
173
102
{ACAD_REACTORS
330
393
102
}
330
1F
100
AcDbEntity
  8
LC-002-002-----0
 62
     7
370
    50
100
AcDbCircle
 10
1289.259738
 20
1600.04
 30
0.0
 40
12.70000000000005
100
AcDbArc
 50
270.0
 51
0.0
  0
ARC
  5
174
102
{ACAD_REACTORS
330
398
102
}
330
1F
100
AcDbEntity
  8
LC-004-002-RND-0
 62
     7
370
    50
100
AcDbCircle
 10
1571.03369
 20
2067.743312
 30
0.0
 40
20.00000000000024
100
AcDbArc
 50
96.0
 51
176.0
  0
ARC
  5
175
102
{ACAD_REACTORS
330
398
102
}
330
1F
100
AcDbEntity
  8
LC-004-002-RND-0
 62
     7
370
    50
100
AcDbCircle
 10
1589.271784
 20
1663.819787
 30
0.0
 40
20.00000000000013
100
AcDbArc
 50
184.0
 51
264.0
  0
LINE
  5
176
102
{ACAD_REACTORS
330
398
102
}
330
1F
100
AcDbEntity
  8
LC-002-002-----0
 62
     7
370
    50
100
AcDbLine
 10
1541.754131
 20
1927.621865
 30
0.0
 11
1560.564258
 21
1658.624525
 31
0.0
  0
LINE
  5
177
102
{ACAD_REACTORS
330
398
102
}
330
1F
100
AcDbEntity
  8
LC-002-002-----0
 62
     7
370
    50
100
AcDbLine
 10
1542.326163
 20
2072.938574
 30
0.0
 11
1541.754131
 21
2064.758135
 31
0.0
  0
ARC
  5
178
102
{ACAD_REACTORS
330
398
102
}
330
1F
100
AcDbEntity
  8
LC-002-002-----0
 62
     7
370
    50
100
AcDbCircle
 10
1536.766311
 20
2065.106917
 30
0.0
 40
4.999999999999865
100
AcDbArc
 50
295.0
 51
356.0
  0
ARC
  5
179
102
{ACAD_REACTORS
330
398
102
}
330
1F
100
AcDbEntity
  8
LC-002-002-----0
 62
     7
370
    50
100
AcDbCircle
 10
1536.766311
 20
1927.273083
 30
0.0
 40
5.000000000000032
100
AcDbArc
 50
4.0
 51
65.0
  0
LINE
  5
17A
102
{ACAD_REACTORS
330
398
102
}
330
1F
100
AcDbEntity
  8
LC-002-002-----0
 62
     7
370
    50
100
AcDbLine
 10
1790.530034
 20
2118.967539
 30
0.0
 11
1563.759017
 21
2095.132945
 31
0.0
  0
LINE
  5
17B
102
{ACAD_REACTORS
330
398
102
}
330
1F
100
AcDbEntity
  8
LC-002-002-----0
 62
     7
370
    50
100
AcDbLine
 10
1581.997112
 20
1636.430154
 30
0.0
 11
1790.530034
 21
1614.512461
 31
0.0
  0
ARC
  5
17C
102
{ACAD_REACTORS
330
398
102
}
330
1F
100
AcDbEntity
  8
LC-002-002-----0
 62
     7
370
    50
100
AcDbCircle
 10
1566.2677
 20
2071.264419
 30
0.0
 40
23.99999999999987
100
AcDbArc
 50
96.0
 51
176.0
  0
ARC
  5
17D
102
{ACAD_REACTORS
330
398
102
}
330
1F
100
AcDbEntity
  8
LC-004-002-RND-0
 62
     7
370
    50
100
AcDbCircle
 10
1584.505795
 20
1660.29868
 30
0.0
 40
24.00000000000015
100
AcDbArc
 50
184.0
 51
264.0
  0
LINE
  5
17E
102
{ACAD_REACTORS
330
398
102
}
330
1F
100
AcDbEntity
  8
LC-002-002-----0
 62
     7
370
    50
100
AcDbLine
 10
1797.007392
 20
2146.14
 30
0.0
 11
1797.007392
 21
2133.64
 31
0.0
  0
LINE
  5
17F
102
{ACAD_REACTORS
330
398
102
}
330
1F
100
AcDbEntity
  8
LC-002-002-----0
 62
     7
370
    50
100
AcDbLine
 10
1797.007392
 20
2133.64
 30
0.0
 11
1795.007392
 21
2133.64
 31
0.0
  0
ARC
  5
180
102
{ACAD_REACTORS
330
398
102
}
330
1F
100
AcDbEntity
  8
LC-002-002-----0
 62
     7
370
    50
100
AcDbCircle
 10
1790.007392
 20
2123.940148
 30
0.0
 40
5.000000000000286
100
AcDbArc
 50
276.0
 51
0.0
  0
LINE
  5
181
102
{ACAD_REACTORS
330
398
102
}
330
1F
100
AcDbEntity
  8
LC-002-002-----0
 62
     7
370
    50
100
AcDbLine
 10
1795.007392
 20
2133.64
 30
0.0
 11
1795.007392
 21
2123.940148
 31
0.0
  0
LINE
  5
182
102
{ACAD_REACTORS
330
398
102
}
330
1F
100
AcDbEntity
  8
LC-002-002-----0
 62
     7
370
    50
100
AcDbLine
 10
1797.007392
 20
1587.34
 30
0.0
 11
1797.007392
 21
1599.84
 31
0.0
  0
LINE
  5
183
102
{ACAD_REACTORS
330
398
102
}
330
1F
100
AcDbEntity
  8
LC-002-002-----0
 62
     7
370
    50
100
AcDbLine
 10
1797.007392
 20
1599.84
 30
0.0
 11
1795.007392
 21
1599.84
 31
0.0
  0
ARC
  5
184
102
{ACAD_REACTORS
330
398
102
}
330
1F
100
AcDbEntity
  8
LC-002-002-----0
 62
     7
370
    50
100
AcDbCircle
 10
1790.007392
 20
1609.539852
 30
0.0
 40
5.0
100
AcDbArc
 50
0.0
 51
84.0
  0
LINE
  5
185
102
{ACAD_REACTORS
330
398
102
}
330
1F
100
AcDbEntity
  8
LC-002-002-----0
 62
     7
370
    50
100
AcDbLine
 10
1795.007392
 20
1609.539852
 30
0.0
 11
1795.007392
 21
1599.84
 31
0.0
  0
LINE
  5
186
102
{ACAD_REACTORS
330
398
102
}
330
1F
100
AcDbEntity
  8
LC-002-002-----0
 62
     7
370
    50
100
AcDbLine
 10
1545.997264
 20
2042.19
 30
0.0
 11
1545.997264
 21
1950.19
 31
0.0
  0
LINE
  5
187
102
{ACAD_REACTORS
330
398
102
}
330
1F
100
AcDbEntity
  8
LC-002-002-----0
 62
     7
370
    50
100
AcDbLine
 10
1545.997264
 20
1950.19
 30
0.0
 11
1535.908449
 21
1950.19
 31
0.0
  0
LINE
  5
188
102
{ACAD_REACTORS
330
398
102
}
330
1F
100
AcDbEntity
  8
LC-002-002-----0
 62
     7
370
    50
100
AcDbLine
 10
1545.997264
 20
2042.19
 30
0.0
 11
1535.908449
 21
2042.19
 31
0.0
  0
LINE
  5
189
102
{ACAD_REACTORS
330
398
102
}
330
1F
100
AcDbEntity
  8
LC-002-002-----0
 62
     7
370
    50
100
AcDbLine
 10
1551.082409
 20
2069.138441
 30
0.0
 11
1550.078885
 21
2054.787378
 31
0.0
  0
LINE
  5
18A
102
{ACAD_REACTORS
330
398
102
}
330
1F
100
AcDbEntity
  8
LC-002-002-----0
 62
     7
370
    50
100
AcDbLine
 10
1804.007392
 20
2142.852967
 30
0.0
 11
1804.007392
 21
1590.627033
 31
0.0
  0
LINE
  5
18B
102
{ACAD_REACTORS
330
398
102
}
330
1F
100
AcDbEntity
  8
LC-002-002-----0
 62
     7
370
    50
100
AcDbLine
 10
1550.078885
 20
1937.592622
 30
0.0
 11
1569.320503
 21
1662.424658
 31
0.0
  0
LINE
  5
18C
102
{ACAD_REACTORS
330
398
102
}
330
1F
100
AcDbEntity
  8
LC-002-002-----0
 62
     7
370
    50
100
AcDbLine
 10
1545.997264
 20
1950.19
 30
0.0
 11
1547.874147
 21
1939.54567
 31
0.0
  0
LINE
  5
18D
102
{ACAD_REACTORS
330
398
102
}
330
1F
100
AcDbEntity
  8
LC-002-002-----0
 62
     7
370
    50
100
AcDbLine
 10
1547.874147
 20
2052.83433
 30
0.0
 11
1545.997264
 21
2042.19
 31
0.0
  0
LINE
  5
18E
102
{ACAD_REACTORS
330
398
102
}
330
1F
100
AcDbEntity
  8
LC-002-002-----0
 62
     7
370
    50
100
AcDbLine
 10
1587.181215
 20
1643.929349
 30
0.0
 11
1800.425506
 21
1621.516471
 31
0.0
  0
LINE
  5
18F
102
{ACAD_REACTORS
330
398
102
}
330
1F
100
AcDbEntity
  8
LC-002-002-----0
 62
     7
370
    50
100
AcDbLine
 10
1548.771799
 20
1938.723123
 30
0.0
 11
1548.986395
 21
1938.704348
 31
0.0
  0
LINE
  5
190
102
{ACAD_REACTORS
330
398
102
}
330
1F
100
AcDbEntity
  8
LC-002-002-----0
 62
     7
370
    50
100
AcDbLine
 10
1797.007392
 20
2146.14
 30
0.0
 11
1801.216661
 21
2145.845659
 31
0.0
  0
LINE
  5
191
102
{ACAD_REACTORS
330
398
102
}
330
1F
100
AcDbEntity
  8
LC-002-002-----0
 62
     7
370
    50
100
AcDbLine
 10
1801.216661
 20
1587.634341
 30
0.0
 11
1797.007392
 21
1587.34
 31
0.0
  0
LINE
  5
192
102
{ACAD_REACTORS
330
398
102
}
330
1F
100
AcDbEntity
  8
LC-002-002-----0
 62
     7
370
    50
100
AcDbLine
 10
1548.986395
 20
2053.675652
 30
0.0
 11
1548.771799
 21
2053.656877
 31
0.0
  0
LINE
  5
193
102
{ACAD_REACTORS
330
398
102
}
330
1F
100
AcDbEntity
  8
LC-002-002-----0
 62
     7
370
    50
100
AcDbLine
 10
1800.425506
 20
2111.963529
 30
0.0
 11
1568.943121
 21
2087.63375
 31
0.0
  0
ARC
  5
194
102
{ACAD_REACTORS
330
398
102
}
330
1F
100
AcDbEntity
  8
LC-002-002-----0
 62
     7
370
    50
100
AcDbCircle
 10
1800.007392
 20
2115.941616
 30
0.0
 40
4.000000000000085
100
AcDbArc
 50
276.0
 51
0.0
  0
ARC
  5
195
102
{ACAD_REACTORS
330
398
102
}
330
1F
100
AcDbEntity
  8
LC-002-002-----0
 62
     7
370
    50
100
AcDbCircle
 10
1800.007392
 20
1617.538384
 30
0.0
 40
4.0
100
AcDbArc
 50
0.0
 51
84.0
  0
ARC
  5
196
102
{ACAD_REACTORS
330
398
102
}
330
1F
100
AcDbEntity
  8
LC-002-002-----0
 62
     7
370
    50
100
AcDbCircle
 10
1801.007392
 20
1590.627033
 30
0.0
 40
3.000000000000006
100
AcDbArc
 50
274.0
 51
0.0
  0
ARC
  5
197
102
{ACAD_REACTORS
330
398
102
}
330
1F
100
AcDbEntity
  8
LC-002-002-----0
 62
     7
370
    50
100
AcDbCircle
 10
1801.007392
 20
2142.852967
 30
0.0
 40
3.0
100
AcDbArc
 50
0.0
 51
86.0
  0
ARC
  5
198
102
{ACAD_REACTORS
330
398
102
}
330
1F
100
AcDbEntity
  8
LC-002-002-----0
 62
     7
370
    50
100
AcDbCircle
 10
1548.881808
 20
2054.871085
 30
0.0
 40
1.200000000000195
100
AcDbArc
 50
275.0
 51
356.0
  0
ARC
  5
199
102
{ACAD_REACTORS
330
398
102
}
330
1F
100
AcDbEntity
  8
LC-002-002-----0
 62
     7
370
    50
100
AcDbCircle
 10
1548.881808
 20
1937.508915
 30
0.0
 40
1.200000000000081
100
AcDbArc
 50
4.0
 51
85.0
  0
ARC
  5
19A
102
{ACAD_REACTORS
330
398
102
}
330
1F
100
AcDbEntity
  8
LC-002-002-----0
 62
     7
370
    50
100
AcDbCircle
 10
1548.858955
 20
2052.660682
 30
0.0
 40
0.9999999999993475
100
AcDbArc
 50
95.0
 51
170.0
  0
ARC
  5
19B
102
{ACAD_REACTORS
330
398
102
}
330
1F
100
AcDbEntity
  8
LC-002-002-----0
 62
     7
370
    50
100
AcDbCircle
 10
1548.858955
 20
1939.719318
 30
0.0
 40
1.000000000000125
100
AcDbArc
 50
190.0
 51
265.0
  0
LINE
  5
19C
102
{ACAD_REACTORS
330
398
102
}
330
1F
100
AcDbEntity
  8
LC-002-002-----0
 62
     7
370
    50
100
AcDbLine
 10
1535.908449
 20
2057.278789
 30
0.0
 11
1535.908449
 21
1935.101211
 31
0.0
  0
ARC
  5
19D
102
{ACAD_REACTORS
330
398
102
}
330
1F
100
AcDbEntity
  8
LC-002-002-----0
 62
     7
370
    50
100
AcDbCircle
 10
1538.908449
 20
1935.101211
 30
0.0
 40
3.0
100
AcDbArc
 50
180.0
 51
245.0
  0
LINE
  5
19E
102
{ACAD_REACTORS
330
398
102
}
330
1F
100
AcDbEntity
  8
LC-002-002-----0
 62
     7
370
    50
100
AcDbLine
 10
1537.640594
 20
1932.382287
 30
0.0
 11
1538.879402
 21
1931.804622
 31
0.0
  0
LINE
  5
19F
102
{ACAD_REACTORS
330
398
102
}
330
1F
100
AcDbEntity
  8
LC-002-002-----0
 62
     7
370
    50
100
AcDbLine
 10
1541.890252
 20
2066.971001
 30
0.0
 11
1541.734886
 21
2064.749161
 31
0.0
  0
ARC
  5
1A0
102
{ACAD_REACTORS
330
398
102
}
330
1F
100
AcDbEntity
  8
LC-002-002-----0
 62
     7
370
    50
100
AcDbCircle
 10
1538.908449
 20
2057.278789
 30
0.0
 40
3.000000000000466
100
AcDbArc
 50
115.0
 51
180.0
  0
LINE
  5
1A1
102
{ACAD_REACTORS
330
398
102
}
330
1F
100
AcDbEntity
  8
LC-002-002-----0
 62
     7
370
    50
100
AcDbLine
 10
1537.640594
 20
2059.997713
 30
0.0
 11
1538.879402
 21
2060.575378
 31
0.0
  0
LINE
  5
1A2
102
{ACAD_REACTORS
330
398
102
}
330
1F
100
AcDbEntity
  8
LC-002-002-----0
 62
     7
370
    25
100
AcDbLine
 10
1549.976538
 20
2053.764977
 30
0.0
 11
1549.976538
 21
1938.615023
 31
0.0
  0
LINE
  5
1A3
102
{ACAD_REACTORS
330
398
102
}
330
1F
100
AcDbEntity
  8
LC-002-002-----0
  6
DASHED
 62
     7
370
    25
100
AcDbLine
 10
1790.530034
 20
2050.267539
 30
0.0
 11
1563.353959
 21
2026.390371
 31
0.0
  0
LINE
  5
1A4
102
{ACAD_REACTORS
330
398
102
}
330
1F
100
AcDbEntity
  8
LC-002-002-----0
  6
DASHED
 62
     7
370
    25
100
AcDbLine
 10
1800.425506
 20
2043.263529
 30
0.0
 11
1568.538063
 21
2018.891176
 31
0.0
  0
ARC
  5
1A5
102
{ACAD_REACTORS
330
398
102
}
330
1F
100
AcDbEntity
  8
LC-002-002-----0
  6
DASHED
 62
     7
370
    25
100
AcDbCircle
 10
1790.007392
 20
2055.240148
 30
0.0
 40
4.999999999999833
100
AcDbArc
 50
276.0
 51
0.0
  0
ARC
  5
1A6
102
{ACAD_REACTORS
330
398
102
}
330
1F
100
AcDbEntity
  8
LC-002-002-----0
  6
DASHED
 62
     7
370
    25
100
AcDbCircle
 10
1800.007392
 20
2047.241616
 30
0.0
 40
3.999999999999991
100
AcDbArc
 50
276.0
 51
0.0
  0
LINE
  5
1A7
102
{ACAD_REACTORS
330
398
102
}
330
1F
100
AcDbEntity
  8
LC-002-002-----0
  6
DASHED
 62
     7
370
    25
100
AcDbLine
 10
1795.007392
 20
2133.64
 30
0.0
 11
1795.007392
 21
2055.240148
 31
0.0
  0
ARC
  5
1A8
102
{ACAD_REACTORS
330
398
102
}
330
1F
100
AcDbEntity
  8
LC-004-002-RND-0
  6
DASHED
 62
     7
370
    25
100
AcDbCircle
 10
1565.862643
 20
2002.521846
 30
0.0
 40
24.00000000000018
100
AcDbArc
 50
96.0
 51
176.0
  0
ARC
  5
1A9
102
{ACAD_REACTORS
330
398
102
}
330
1F
100
AcDbEntity
  8
LC-004-002-RND-0
  6
DASHED
 62
     7
370
    25
100
AcDbCircle
 10
1570.628632
 20
1999.000738
 30
0.0
 40
20.00000000000014
100
AcDbArc
 50
96.0
 51
176.0
  0
ARC
  5
1AA
102
{ACAD_REACTORS
330
398
102
}
330
1F
100
AcDbEntity
  8
LC-002-002-----0
 62
     7
370
    50
100
AcDbCircle
 10
1538.939302
 20
1872.326211
 30
0.0
 40
3.0
100
AcDbArc
 50
180.0
 51
245.0
  0
LINE
  5
1AB
102
{ACAD_REACTORS
330
398
102
}
330
1F
100
AcDbEntity
  8
LC-002-002-----0
 62
     7
370
    50
100
AcDbLine
 10
1537.671447
 20
1869.607287
 30
0.0
 11
1543.415978
 21
1866.928569
 31
0.0
  0
LINE
  5
1AC
102
{ACAD_REACTORS
330
398
102
}
330
1F
100
AcDbEntity
  8
LC-002-002-----0
 62
     7
370
    50
100
AcDbLine
 10
1535.939302
 20
1934.672063
 30
0.0
 11
1535.939302
 21
1872.326211
 31
0.0
  0
DIMENSION
  5
1AF
330
1F
100
AcDbEntity
  8
LC-005-003-----0
 62
     7
370
    25
100
AcDbDimension
  2
*D2
 10
994.342808
 20
750.0
 30
0.0
 11
801.692808
 21
780.0
 31
0.0
 70
   160
 71
     5
 42
770.6
  3
LC-DIM-L-0025-02-02
100
AcDbAlignedDimension
 13
609.042808
 23
820.60935
 33
0.0
 14
994.342808
 24
820.60935
 34
0.0
100
AcDbRotatedDimension
1001
ACAD
1000
DSTYLE
1002
{
1070
   144
1040
2.0
1002
}
  0
DIMENSION
  5
1BD
330
1F
100
AcDbEntity
  8
LC-005-003-----0
 62
     7
370
    25
100
AcDbDimension
  2
*D3
 10
500.0
 20
867.80935
 30
0.0
 11
470.0
 21
990.60935
 31
0.0
 70
   160
 71
     5
 42
491.2
 53
90.0
  3
LC-DIM-L-0025-02-02
100
AcDbAlignedDimension
 13
546.692808
 23
1113.40935
 33
0.0
 14
546.692808
 24
867.80935
 34
0.0
 50
90.0
100
AcDbRotatedDimension
1001
ACAD
1000
DSTYLE
1002
{
1070
   144
1040
2.0
1002
}
  0
DIMENSION
  5
1CB
330
1F
100
AcDbEntity
  8
LC-005-003-----0
 62
     7
370
    25
100
AcDbDimension
  2
*D4
 10
1301.959738
 20
1450.0
 30
0.0
 11
882.859738
 21
1480.0
 31
0.0
 70
   160
 71
     5
 42
838.2
  3
LC-DIM-L-0025-02-02
100
AcDbAlignedDimension
 13
463.759738
 23
1577.34
 33
0.0
 14
1301.959738
 24
1577.34
 34
0.0
100
AcDbRotatedDimension
  0
DIMENSION
  5
1D8
330
1F
100
AcDbEntity
  8
LC-005-003-----0
 62
     7
370
    25
100
AcDbDimension
  2
*D5
 10
350.0
 20
1587.34
 30
0.0
 11
320.0
 21
1866.74
 31
0.0
 70
   160
 71
     5
 42
558.8
 53
90.0
  3
LC-DIM-L-0025-02-02
100
AcDbAlignedDimension
 13
633.759738
 23
2146.14
 33
0.0
 14
453.759738
 24
1587.34
 34
0.0
 50
90.0
100
AcDbRotatedDimension
  0
DIMENSION
  5
1E6
330
1F
100
AcDbEntity
  8
LC-005-003-----0
 62
     7
370
    25
100
AcDbDimension
  2
*D6
 10
700.0
 20
2395.24
 30
0.0
 11
670.0
 21
2522.24
 31
0.0
 70
   160
 71
     5
 42
254.0
 53
90.0
  3
LC-DIM-L-0025-02-32
100
AcDbAlignedDimension
 13
882.859738
 23
2649.24
 33
0.0
 14
715.999738
 24
2395.24
 34
0.0
 50
90.0
100
AcDbRotatedDimension
  0
DIMENSION
  5
1F1
330
1F
100
AcDbEntity
  8
LC-005-003-----0
 62
     7
370
    25
100
AcDbDimension
  2
*D7
 10
1100.0
 20
2395.24
 30
0.0
 11
1070.0
 21
2522.24
 31
0.0
 70
   160
 71
     5
 42
254.0
 53
90.0
  3
LC-DIM-L-0025-02-32
100
AcDbAlignedDimension
 13
882.859738
 23
2649.24
 33
0.0
 14
1101.659738
 24
2395.24
 34
0.0
 50
90.0
100
AcDbRotatedDimension
  0
DIMENSION
  5
1FC
330
1F
100
AcDbEntity
  8
LC-005-003-----0
 62
     7
370
    25
100
AcDbDimension
  2
*D8
 10
1268.159738
 20
2800.0
 30
0.0
 11
882.859738
 21
2830.0
 31
0.0
 70
   160
 71
     5
 42
770.6
  3
LC-DIM-L-0025-02-02
100
AcDbAlignedDimension
 13
497.559738
 23
2659.24
 33
0.0
 14
1268.159738
 24
2659.24
 34
0.0
100
AcDbRotatedDimension
  0
DIMENSION
  5
209
330
1F
100
AcDbEntity
  8
LC-005-003-----0
 62
     7
370
    25
100
AcDbDimension
  2
*D9
 10
497.559738
 20
2750.0
 30
0.0
 11
708.709738
 21
2780.0
 31
0.0
 70
   160
 71
     5
 42
422.3
  3
LC-DIM-L-0025-02-02
100
AcDbAlignedDimension
 13
919.859738
 23
2659.24
 33
0.0
 14
497.559738
 24
2659.24
 34
0.0
100
AcDbRotatedDimension
  0
DIMENSION
  5
217
330
1F
100
AcDbEntity
  8
LC-005-003-----0
 62
     7
370
    25
100
AcDbDimension
  2
*D10
 10
1268.159738
 20
2750.0
 30
0.0
 11
1109.009738
 21
2780.0
 31
0.0
 70
   160
 71
     5
 42
318.3
  3
LC-DIM-L-0025-02-02
100
AcDbAlignedDimension
 13
949.859738
 23
2659.24
 33
0.0
 14
1268.159738
 24
2659.24
 34
0.0
100
AcDbRotatedDimension
  0
DIMENSION
  5
224
330
1F
100
AcDbEntity
  8
LC-005-003-----0
 62
     7
370
    25
100
AcDbDimension
  2
*D11
 10
949.859738
 20
2700.0
 30
0.0
 11
908.005533
 21
2730.0
 31
0.0
 70
   160
 71
     5
 42
30.0
  3
LC-DIM-L-0025-02-02
100
AcDbAlignedDimension
 13
919.859738
 23
2659.24
 33
0.0
 14
949.859738
 24
2659.24
 34
0.0
100
AcDbRotatedDimension
  0
DIMENSION
  5
233
330
1F
100
AcDbEntity
  8
LC-005-003-----0
 62
     7
370
    25
100
AcDbDimension
  2
*D12
 10
2000.0
 20
1621.14
 30
0.0
 11
1970.0
 21
1866.74
 31
0.0
 70
   160
 71
     5
 42
491.2
 53
90.0
  3
LC-DIM-L-0025-02-02
100
AcDbAlignedDimension
 13
1814.007392
 23
2112.34
 33
0.0
 14
1814.007392
 24
1621.14
 34
0.0
 50
90.0
100
AcDbRotatedDimension
  0
DIMENSION
  5
241
330
1F
100
AcDbEntity
  8
LC-005-003-----0
 62
     7
370
    25
100
AcDbDimension
  2
*D13
 10
1900.0
 20
1621.14
 30
0.0
 11
1870.0
 21
1832.39
 31
0.0
 70
   160
 71
     5
 42
422.5
 53
90.0
  3
LC-DIM-L-0025-02-02
100
AcDbAlignedDimension
 13
1814.007392
 23
2043.64
 33
0.0
 14
1814.007392
 24
1621.14
 34
0.0
 50
90.0
100
AcDbRotatedDimension
  0
DIMENSION
  5
24F
330
1F
100
AcDbEntity
  8
LC-005-003-----0
 62
     7
370
    25
100
AcDbDimension
  2
*D14
 10
497.559738
 20
1500.0
 30
0.0
 11
518.985484
 21
1530.0
 31
0.0
 70
   160
 71
     5
 42
33.8
  3
LC-DIM-L-0025-02-02
100
AcDbAlignedDimension
 13
463.759738
 23
1577.34
 33
0.0
 14
497.559738
 24
1577.34
 34
0.0
100
AcDbRotatedDimension
  0
DIMENSION
  5
25E
330
1F
100
AcDbEntity
  8
LC-005-003-----0
 62
     7
370
    25
100
AcDbDimension
  2
*D15
 10
1268.159738
 20
1500.0
 30
0.0
 11
1256.219229
 21
1530.0
 31
0.0
 70
   160
 71
     5
 42
33.8
  3
LC-DIM-L-0025-02-02
100
AcDbAlignedDimension
 13
1301.959738
 23
1577.34
 33
0.0
 14
1268.159738
 24
1577.34
 34
0.0
100
AcDbRotatedDimension
  0
DIMENSION
  5
26D
330
1F
100
AcDbEntity
  8
LC-005-003-----0
 62
     7
370
    25
100
AcDbDimension
  2
*D16
 10
400.0
 20
1621.14
 30
0.0
 11
370.0
 21
1604.24
 31
0.0
 70
   160
 71
     5
 42
33.8
 53
90.0
  3
LC-DIM-L-0025-02-02
100
AcDbAlignedDimension
 13
453.759738
 23
1587.34
 33
0.0
 14
453.759738
 24
1621.14
 34
0.0
 50
90.0
100
AcDbRotatedDimension
  0
INSERT
  5
2B2
330
1F
100
AcDbEntity
  8
LC-006-005-----0
 62
     7
370
    25
100
AcDbBlockReference
  2
*X117
 10
0.0
 20
0.0
 30
0.0
  0
TEXT
  5
2B4
330
1F
100
AcDbEntity
  8
LC-007-004-----0
 62
     7
370
    18
100
AcDbText
 10
1705.120817
 20
561.221442
 30
0.0
 40
17.5
  1
Material: 
 41
0.8
  7
LCTX0-400-0-0pDIN-Schrift
100
AcDbText
  0
TEXT
  5
2B5
330
1F
100
AcDbEntity
  8
LC-007-004-----0
 62
     7
370
    25
100
AcDbText
 10
1801.335838
 20
557.471443
 30
0.0
 40
25.0
  1
Cristalite
 41
0.8
  7
LCTX0-400-0-0pDIN-Schrift
100
AcDbText
  0
TEXT
  5
2B6
330
1F
100
AcDbEntity
  8
LC-007-004-----0
 62
     7
370
    25
100
AcDbText
 10
1257.518666
 20
477.939631
 30
0.0
 40
25.0
  1
Art. Nr.  846
 41
0.8
  7
LCTX0-400-0-0pDIN-Schrift
100
AcDbText
  0
DIMENSION
  5
2B8
330
1F
100
AcDbEntity
  8
LC-005-003-----0
 62
     7
370
    25
100
AcDbDimension
  2
*D18
 10
850.0
 20
2522.24
 30
0.0
 11
820.0
 21
2585.74
 31
0.0
 70
   160
 71
     5
 42
127.0
 53
90.0
  3
LC-DIM-L-0025-02-22
100
AcDbAlignedDimension
 13
857.859738
 23
2649.24
 33
0.0
 14
909.859738
 24
2522.24
 34
0.0
 50
90.0
100
AcDbRotatedDimension
  0
DIMENSION
  5
2C4
330
1F
100
AcDbEntity
  8
LC-005-003-----0
 62
     7
370
    25
100
AcDbDimension
  2
*D19
 10
1400.0
 20
2077.44
 30
0.0
 11
1370.0
 21
1832.39
 31
0.0
 70
   160
 71
     5
 42
490.1
 53
90.0
  3
LC-DIM-L-0025-02-02
100
AcDbAlignedDimension
 13
1311.959738
 23
1587.34
 33
0.0
 14
1224.359738
 24
2077.44
 34
0.0
 50
90.0
100
AcDbRotatedDimension
  0
ARC
  5
2D2
102
{ACAD_REACTORS
330
392
102
}
330
1F
100
AcDbEntity
  8
LC-002-002-----0
 62
     7
370
    50
100
AcDbCircle
 10
617.042808
 20
875.80935
 30
0.0
 40
8.0
100
AcDbArc
 50
180.0
 51
270.0
  0
ARC
  5
2D3
102
{ACAD_REACTORS
330
392
102
}
330
1F
100
AcDbEntity
  8
LC-002-002-----0
 62
     7
370
    50
100
AcDbCircle
 10
986.342808
 20
875.80935
 30
0.0
 40
8.0
100
AcDbArc
 50
270.0
 51
0.0
  0
ARC
  5
2D4
102
{ACAD_REACTORS
330
392
102
}
330
1F
100
AcDbEntity
  8
LC-002-002-----0
 62
     7
370
    50
100
AcDbCircle
 10
619.042808
 20
1072.017966
 30
0.0
 40
9.999999999999892
100
AcDbArc
 50
125.112827
 51
180.0
  0
ARC
  5
2D5
102
{ACAD_REACTORS
330
392
102
}
330
1F
100
AcDbEntity
  8
LC-002-002-----0
 62
     7
370
    50
100
AcDbCircle
 10
986.342808
 20
1066.257304
 30
0.0
 40
8.0
100
AcDbArc
 50
0.0
 51
82.697292
  0
LINE
  5
2D6
102
{ACAD_REACTORS
330
392
102
}
330
1F
100
AcDbEntity
  8
LC-002-002-----0
 62
     7
370
    50
100
AcDbLine
 10
609.042808
 20
875.80935
 30
0.0
 11
609.042808
 21
1072.017966
 31
0.0
  0
LINE
  5
2D7
102
{ACAD_REACTORS
330
392
102
}
330
1F
100
AcDbEntity
  8
LC-002-002-----0
 62
     7
370
    50
100
AcDbLine
 10
617.042808
 20
867.80935
 30
0.0
 11
986.342808
 21
867.80935
 31
0.0
  0
LINE
  5
2D8
102
{ACAD_REACTORS
330
392
102
}
330
1F
100
AcDbEntity
  8
LC-002-002-----0
 62
     7
370
    50
100
AcDbLine
 10
994.342808
 20
875.80935
 30
0.0
 11
994.342808
 21
1066.257304
 31
0.0
  0
ARC
  5
2D9
102
{ACAD_REACTORS
330
392
102
}
330
1F
100
AcDbEntity
  8
LC-002-002-----0
 62
     7
370
    50
100
AcDbCircle
 10
718.262808
 20
930.90935
 30
0.0
 40
182.4999999999999
100
AcDbArc
 50
56.826326
 51
125.112827
  0
ARC
  5
2DA
102
{ACAD_REACTORS
330
392
102
}
330
1F
100
AcDbEntity
  8
LC-002-002-----0
 62
     7
370
    50
100
AcDbCircle
 10
844.934675
 20
1124.678511
 30
0.0
 40
48.99999999999985
100
AcDbArc
 50
236.826326
 51
275.850813
  0
ARC
  5
2DB
102
{ACAD_REACTORS
330
392
102
}
330
1F
100
AcDbEntity
  8
LC-002-002-----0
 62
     7
370
    50
100
AcDbCircle
 10
911.092808
 20
479.05935
 30
0.0
 40
600.0000000000006
100
AcDbArc
 50
82.697292
 51
95.850813
  0
DIMENSION
  5
2DC
330
1F
100
AcDbEntity
  8
LC-005-003-----0
 62
     7
370
    25
100
AcDbDimension
  2
*D20
 10
1100.0
 20
867.80935
 30
0.0
 11
1070.0
 21
973.43435
 31
0.0
 70
   160
 71
     5
 42
422.5
 53
90.0
  3
LC-DIM-L-0025-02-02
100
AcDbAlignedDimension
 13
1056.692808
 23
1079.05935
 33
0.0
 14
1056.692808
 24
867.80935
 34
0.0
 50
90.0
100
AcDbRotatedDimension
1001
ACAD
1000
DSTYLE
1002
{
1070
   144
1040
2.0
1002
}
  0
DIMENSION
  5
2EA
330
1F
100
AcDbEntity
  8
LC-005-003-----0
 62
     7
370
    25
100
AcDbDimension
  2
*D21
 10
800.0
 20
867.80935
 30
0.0
 11
770.0
 21
971.74393
 31
0.0
 70
   160
 71
     5
 42
415.738323
 53
90.0
  3
LC-DIM-L-0025-02-02
100
AcDbAlignedDimension
 13
824.934675
 23
1075.678511
 33
0.0
 14
781.692808
 24
867.80935
 34
0.0
 50
90.0
100
AcDbRotatedDimension
1001
ACAD
1000
DSTYLE
1002
{
1070
   144
1040
2.0
1002
}
  0
DIMENSION
  5
2F9
330
1F
100
AcDbEntity
  8
LC-005-003-----0
 62
     7
370
    25
100
AcDbDimension
  2
*D22
 10
718.262808
 20
930.90935
 30
0.0
 11
724.637772
 21
1029.092368
 31
0.0
 70
   164
 71
     5
 42
365.0
  3
LC-DIM-R-0025-02-02
100
AcDbRadialDimension
 15
672.59734
 25
1107.603761
 35
0.0
 40
1.0
1001
ACAD
1000
DSTYLE
1002
{
1070
   144
1040
2.0
1070
    73
1070
     1
1002
}
  0
DIMENSION
  5
303
330
1F
100
AcDbEntity
  8
LC-005-003-----0
 62
     7
370
    25
100
AcDbDimension
  2
*D23
 10
911.092808
 20
479.05935
 30
0.0
 11
885.052954
 21
966.772768
 31
0.0
 70
   164
 71
     5
 42
1200.0
  3
LC-DIM-R-0025-02-02
100
AcDbRadialDimension
 15
924.301509
 25
1078.913941
 35
0.0
 40
1.0
1001
ACAD
1000
DSTYLE
1002
{
1070
   144
1040
2.0
1070
    73
1070
     1
1002
}
  0
LINE
  5
30E
330
1F
100
AcDbEntity
  8
LC-002-002-----0
  6
DASHDOT
 62
     7
370
    35
100
AcDbLine
 10
417.742016
 20
1252.929191
 30
0.0
 11
1583.700327
 21
1252.929191
 31
0.0
  0
LINE
  5
30F
330
1F
100
AcDbEntity
  8
LC-002-002-----0
  6
DASHDOT
 62
     7
370
    35
100
AcDbLine
 10
1583.700327
 20
1252.929191
 30
0.0
 11
1583.700327
 21
696.433141
 31
0.0
  0
LINE
  5
310
330
1F
100
AcDbEntity
  8
LC-002-002-----0
  6
DASHDOT
 62
     7
370
    35
100
AcDbLine
 10
417.742016
 20
696.433141
 30
0.0
 11
417.742016
 21
1252.929191
 31
0.0
  0
LINE
  5
311
330
1F
100
AcDbEntity
  8
LC-002-002-----0
  6
DASHDOT
 62
     7
370
    35
100
AcDbLine
 10
1583.700327
 20
696.433141
 30
0.0
 11
417.742016
 21
696.433141
 31
0.0
  0
TEXT
  5
312
330
1F
100
AcDbEntity
  8
LC-007-004-----0
 62
     7
370
    35
100
AcDbText
 10
530.147058
 20
1188.75935
 30
0.0
 40
35.0
  1
Ausschnitt Unterbau 1:20
 41
0.7
  7
LCTX0-400-0-0pDIN-Schrift
 72
     1
 11
801.692808
 21
1188.75935
 31
0.0
100
AcDbText
  0
LINE
  5
313
102
{ACAD_REACTORS
330
394
102
}
330
1F
100
AcDbEntity
  8
LC-002-002-----0
 62
     7
370
    50
100
AcDbLine
 10
1246.867058
 20
1158.917779
 30
0.0
 11
1246.867058
 21
1018.917779
 31
0.0
  0
LINE
  5
314
102
{ACAD_REACTORS
330
394
102
}
330
1F
100
AcDbEntity
  8
LC-002-002-----0
 62
     7
370
    50
100
AcDbLine
 10
1246.867058
 20
1158.917779
 30
0.0
 11
1546.501557
 21
1158.917779
 31
0.0
  0
INSERT
  5
31F
330
1F
100
AcDbEntity
  8
LC-006-005-----0
 62
     7
370
    25
100
AcDbBlockReference
  2
*X224
 10
0.0
 20
0.0
 30
0.0
  0
LINE
  5
320
330
1F
100
AcDbEntity
  8
LC-002-002-----0
 62
     7
370
    50
100
AcDbLine
 10
1246.867058
 20
1018.917779
 30
0.0
 11
1546.501557
 21
1018.917779
 31
0.0
  0
DIMENSION
  5
321
330
1F
100
AcDbEntity
  8
LC-005-003-----0
 62
     7
370
    25
100
AcDbDimension
  2
*D25
 10
1264.875139
 20
998.917779
 30
0.0
 11
1199.712909
 21
1026.131931
 31
0.0
 70
   164
 71
     5
 42
4.0
  3
LC-DIM-R-0025-02-02
100
AcDbRadialDimension
 15
1247.433231
 25
1008.704497
 35
0.0
 40
1.0
1001
ACAD
1000
DSTYLE
1002
{
1070
   144
1040
0.2
1002
}
  0
LINE
  5
32B
102
{ACAD_REACTORS
330
395
102
}
330
1F
100
AcDbEntity
  8
LC-002-002-----0
 62
     7
370
    50
100
AcDbLine
 10
1280.004752
 20
951.53099
 30
0.0
 11
1266.769388
 21
825.604908
 31
0.0
  0
LINE
  5
32C
102
{ACAD_REACTORS
330
395
102
}
330
1F
100
AcDbEntity
  8
LC-002-002-----0
 62
     7
370
    50
100
AcDbLine
 10
1353.367058
 20
973.917779
 30
0.0
 11
1304.8678
 21
973.917779
 31
0.0
  0
LINE
  5
32D
102
{ACAD_REACTORS
330
395
102
}
330
1F
100
AcDbEntity
  8
LC-002-002-----0
 62
     7
370
    50
100
AcDbLine
 10
1415.867058
 20
983.917779
 30
0.0
 11
1353.367058
 21
983.917779
 31
0.0
  0
LINE
  5
32E
102
{ACAD_REACTORS
330
395
102
}
330
1F
100
AcDbEntity
  8
LC-002-002-----0
 62
     7
370
    50
100
AcDbLine
 10
1353.367058
 20
983.917779
 30
0.0
 11
1353.367058
 21
973.917779
 31
0.0
  0
ARC
  5
32F
102
{ACAD_REACTORS
330
395
102
}
330
1F
100
AcDbEntity
  8
LC-004-002-RND-0
 62
     7
370
    50
100
AcDbCircle
 10
1304.8678
 20
948.917779
 30
0.0
 40
25.0
100
AcDbArc
 50
90.0
 51
174.0
  0
LINE
  5
330
102
{ACAD_REACTORS
330
395
102
}
330
1F
100
AcDbEntity
  8
LC-002-002-----0
 62
     7
370
    50
100
AcDbLine
 10
1244.984701
 20
1001.008348
 30
0.0
 11
1226.549056
 21
825.604908
 31
0.0
  0
LINE
  5
331
102
{ACAD_REACTORS
330
395
102
}
330
1F
100
AcDbEntity
  8
LC-002-002-----0
 62
     7
370
    50
100
AcDbLine
 10
1415.867058
 20
983.917779
 30
0.0
 11
1414.395354
 21
1004.964126
 31
0.0
  0
LINE
  5
332
102
{ACAD_REACTORS
330
395
102
}
330
1F
100
AcDbEntity
  8
LC-002-002-----0
 62
     7
370
    50
100
AcDbLine
 10
1399.431893
 20
1018.917779
 30
0.0
 11
1264.875139
 21
1018.917779
 31
0.0
  0
ARC
  5
333
102
{ACAD_REACTORS
330
395
102
}
330
1F
100
AcDbEntity
  8
LC-002-002-----0
 62
     7
370
    50
100
AcDbCircle
 10
1264.875139
 20
998.917779
 30
0.0
 40
20.0
100
AcDbArc
 50
90.0
 51
174.0
  0
ARC
  5
334
102
{ACAD_REACTORS
330
395
102
}
330
1F
100
AcDbEntity
  8
LC-002-002-----0
 62
     7
370
    50
100
AcDbCircle
 10
1399.431893
 20
1003.917779
 30
0.0
 40
15.00000000000009
100
AcDbArc
 50
4.0
 51
90.0
  0
INSERT
  5
345
102
{ACAD_REACTORS
330
395
102
}
330
1F
100
AcDbEntity
  8
LC-006-005-----0
 62
     7
370
    25
100
AcDbBlockReference
  2
*X326
 10
0.0
 20
0.0
 30
0.0
  0
LINE
  5
347
102
{ACAD_REACTORS
330
396
102
}
330
1F
100
AcDbEntity
  8
LC-008-003-MTG-0
 62
     7
370
    25
100
AcDbLine
 10
639.372522
 20
898.139064
 30
0.0
 11
611.385953
 21
870.152495
 31
0.0
  0
LINE
  5
348
102
{ACAD_REACTORS
330
396
102
}
330
1F
100
AcDbEntity
  8
LC-005-003-----0
 62
     7
370
    25
100
AcDbLine
 10
631.219787
 20
885.371531
 30
0.0
 11
611.385953
 21
870.152495
 31
0.0
  0
LINE
  5
349
102
{ACAD_REACTORS
330
396
102
}
330
1F
100
AcDbEntity
  8
LC-005-003-----0
 62
     7
370
    25
100
AcDbLine
 10
611.385953
 20
870.152495
 30
0.0
 11
626.604989
 21
889.986329
 31
0.0
  0
LINE
  5
34A
102
{ACAD_REACTORS
330
396
102
}
330
1F
100
AcDbEntity
  8
LC-005-003-----0
 62
     7
370
    25
100
AcDbLine
 10
626.604989
 20
889.986329
 30
0.0
 11
631.219787
 21
885.371531
 31
0.0
  0
LINE
  5
34B
102
{ACAD_REACTORS
330
396
102
}
330
1F
100
AcDbEntity
  8
LC-005-003-----0
 62
     7
370
    25
100
AcDbLine
 10
630.659184
 20
886.010776
 30
0.0
 11
615.982147
 21
874.748689
 31
0.0
  0
LINE
  5
34C
102
{ACAD_REACTORS
330
396
102
}
330
1F
100
AcDbEntity
  8
LC-005-003-----0
 62
     7
370
    25
100
AcDbLine
 10
615.982147
 20
874.748689
 30
0.0
 11
627.244234
 21
889.425726
 31
0.0
  0
LINE
  5
34D
102
{ACAD_REACTORS
330
396
102
}
330
1F
100
AcDbEntity
  8
LC-005-003-----0
 62
     7
370
    25
100
AcDbLine
 10
630.098582
 20
886.650021
 30
0.0
 11
620.578341
 21
879.344884
 31
0.0
  0
LINE
  5
34E
102
{ACAD_REACTORS
330
396
102
}
330
1F
100
AcDbEntity
  8
LC-005-003-----0
 62
     7
370
    25
100
AcDbLine
 10
620.578341
 20
879.344884
 30
0.0
 11
627.883479
 21
888.865124
 31
0.0
  0
LINE
  5
34F
102
{ACAD_REACTORS
330
396
102
}
330
1F
100
AcDbEntity
  8
LC-005-003-----0
 62
     7
370
    25
100
AcDbLine
 10
629.537979
 20
887.289265
 30
0.0
 11
625.174536
 21
883.941078
 31
0.0
  0
LINE
  5
350
102
{ACAD_REACTORS
330
396
102
}
330
1F
100
AcDbEntity
  8
LC-005-003-----0
 62
     7
370
    25
100
AcDbLine
 10
625.174536
 20
883.941078
 30
0.0
 11
628.522723
 21
888.304521
 31
0.0
  0
LINE
  5
351
102
{ACAD_REACTORS
330
397
102
}
330
1F
100
AcDbEntity
  8
LC-008-003-MTG-0
 62
     7
370
    25
100
AcDbLine
 10
964.013093
 20
898.139064
 30
0.0
 11
991.999662
 21
870.152495
 31
0.0
  0
LINE
  5
352
102
{ACAD_REACTORS
330
397
102
}
330
1F
100
AcDbEntity
  8
LC-005-003-----0
 62
     7
370
    25
100
AcDbLine
 10
972.165828
 20
885.371531
 30
0.0
 11
991.999662
 21
870.152495
 31
0.0
  0
LINE
  5
353
102
{ACAD_REACTORS
330
397
102
}
330
1F
100
AcDbEntity
  8
LC-005-003-----0
 62
     7
370
    25
100
AcDbLine
 10
991.999662
 20
870.152495
 30
0.0
 11
976.780626
 21
889.986329
 31
0.0
  0
LINE
  5
354
102
{ACAD_REACTORS
330
397
102
}
330
1F
100
AcDbEntity
  8
LC-005-003-----0
 62
     7
370
    25
100
AcDbLine
 10
976.780626
 20
889.986329
 30
0.0
 11
972.165828
 21
885.371531
 31
0.0
  0
LINE
  5
355
102
{ACAD_REACTORS
330
397
102
}
330
1F
100
AcDbEntity
  8
LC-005-003-----0
 62
     7
370
    25
100
AcDbLine
 10
972.726431
 20
886.010776
 30
0.0
 11
987.403468
 21
874.748689
 31
0.0
  0
LINE
  5
356
102
{ACAD_REACTORS
330
397
102
}
330
1F
100
AcDbEntity
  8
LC-005-003-----0
 62
     7
370
    25
100
AcDbLine
 10
987.403468
 20
874.748689
 30
0.0
 11
976.141381
 21
889.425726
 31
0.0
  0
LINE
  5
357
102
{ACAD_REACTORS
330
397
102
}
330
1F
100
AcDbEntity
  8
LC-005-003-----0
 62
     7
370
    25
100
AcDbLine
 10
973.287034
 20
886.650021
 30
0.0
 11
982.807274
 21
879.344884
 31
0.0
  0
LINE
  5
358
102
{ACAD_REACTORS
330
397
102
}
330
1F
100
AcDbEntity
  8
LC-005-003-----0
 62
     7
370
    25
100
AcDbLine
 10
982.807274
 20
879.344884
 30
0.0
 11
975.502136
 21
888.865124
 31
0.0
  0
LINE
  5
359
102
{ACAD_REACTORS
330
397
102
}
330
1F
100
AcDbEntity
  8
LC-005-003-----0
 62
     7
370
    25
100
AcDbLine
 10
973.847636
 20
887.289265
 30
0.0
 11
978.21108
 21
883.941078
 31
0.0
  0
LINE
  5
35A
102
{ACAD_REACTORS
330
397
102
}
330
1F
100
AcDbEntity
  8
LC-005-003-----0
 62
     7
370
    25
100
AcDbLine
 10
978.21108
 20
883.941078
 30
0.0
 11
974.862892
 21
888.304521
 31
0.0
  0
LINE
  5
35B
102
{ACAD_REACTORS
330
397
102
}
330
1F
100
AcDbEntity
  8
LC-008-003-MTG-0
 62
     7
370
    25
100
AcDbLine
 10
964.013093
 20
1043.92759
 30
0.0
 11
991.999662
 21
1071.914158
 31
0.0
  0
LINE
  5
35C
102
{ACAD_REACTORS
330
397
102
}
330
1F
100
AcDbEntity
  8
LC-005-003-----0
 62
     7
370
    25
100
AcDbLine
 10
972.165828
 20
1056.695122
 30
0.0
 11
991.999662
 21
1071.914158
 31
0.0
  0
LINE
  5
35D
102
{ACAD_REACTORS
330
397
102
}
330
1F
100
AcDbEntity
  8
LC-005-003-----0
 62
     7
370
    25
100
AcDbLine
 10
991.999662
 20
1071.914158
 30
0.0
 11
976.780626
 21
1052.080325
 31
0.0
  0
LINE
  5
35E
102
{ACAD_REACTORS
330
397
102
}
330
1F
100
AcDbEntity
  8
LC-005-003-----0
 62
     7
370
    25
100
AcDbLine
 10
976.780626
 20
1052.080325
 30
0.0
 11
972.165828
 21
1056.695122
 31
0.0
  0
LINE
  5
35F
102
{ACAD_REACTORS
330
397
102
}
330
1F
100
AcDbEntity
  8
LC-005-003-----0
 62
     7
370
    25
100
AcDbLine
 10
972.726431
 20
1056.055878
 30
0.0
 11
987.403468
 21
1067.317964
 31
0.0
  0
LINE
  5
360
102
{ACAD_REACTORS
330
397
102
}
330
1F
100
AcDbEntity
  8
LC-005-003-----0
 62
     7
370
    25
100
AcDbLine
 10
987.403468
 20
1067.317964
 30
0.0
 11
976.141381
 21
1052.640927
 31
0.0
  0
LINE
  5
361
102
{ACAD_REACTORS
330
397
102
}
330
1F
100
AcDbEntity
  8
LC-005-003-----0
 62
     7
370
    25
100
AcDbLine
 10
973.287034
 20
1055.416633
 30
0.0
 11
982.807274
 21
1062.72177
 31
0.0
  0
LINE
  5
362
102
{ACAD_REACTORS
330
397
102
}
330
1F
100
AcDbEntity
  8
LC-005-003-----0
 62
     7
370
    25
100
AcDbLine
 10
982.807274
 20
1062.72177
 30
0.0
 11
975.502136
 21
1053.20153
 31
0.0
  0
LINE
  5
363
102
{ACAD_REACTORS
330
397
102
}
330
1F
100
AcDbEntity
  8
LC-005-003-----0
 62
     7
370
    25
100
AcDbLine
 10
973.847636
 20
1054.777388
 30
0.0
 11
978.21108
 21
1058.125576
 31
0.0
  0
LINE
  5
364
102
{ACAD_REACTORS
330
397
102
}
330
1F
100
AcDbEntity
  8
LC-005-003-----0
 62
     7
370
    25
100
AcDbLine
 10
978.21108
 20
1058.125576
 30
0.0
 11
974.862892
 21
1053.762133
 31
0.0
  0
LINE
  5
365
102
{ACAD_REACTORS
330
397
102
}
330
1F
100
AcDbEntity
  8
LC-008-003-MTG-0
 62
     7
370
    25
100
AcDbLine
 10
964.013093
 20
898.139064
 30
0.0
 11
964.013093
 21
947.086531
 31
0.0
  0
TEXT
  5
366
102
{ACAD_REACTORS
330
397
102
}
330
1F
100
AcDbEntity
  8
LC-005-003-----0
 62
     7
370
    25
100
AcDbText
 10
976.513093
 20
947.697077
 30
0.0
 40
25.0
  1
R16
 50
90.0
 41
0.7
  7
LCTX0-400-0-0pDIN-Schrift
 72
     1
 11
976.513093
 21
971.033327
 31
0.0
100
AcDbText
  0
LINE
  5
367
102
{ACAD_REACTORS
330
397
102
}
330
1F
100
AcDbEntity
  8
LC-008-003-MTG-0
 62
     7
370
    25
100
AcDbLine
 10
964.013093
 20
1043.92759
 30
0.0
 11
964.013093
 21
994.980123
 31
0.0
  0
LINE
  5
368
102
{ACAD_REACTORS
330
399
102
}
330
1F
100
AcDbEntity
  8
LC-008-003-MTG-0
 62
     7
370
    25
100
AcDbLine
 10
641.372522
 20
1049.688252
 30
0.0
 11
611.97174
 21
1079.089034
 31
0.0
  0
LINE
  5
369
102
{ACAD_REACTORS
330
399
102
}
330
1F
100
AcDbEntity
  8
LC-005-003-----0
 62
     7
370
    25
100
AcDbLine
 10
631.805573
 20
1063.869998
 30
0.0
 11
611.97174
 21
1079.089034
 31
0.0
  0
LINE
  5
36A
102
{ACAD_REACTORS
330
399
102
}
330
1F
100
AcDbEntity
  8
LC-005-003-----0
 62
     7
370
    25
100
AcDbLine
 10
611.97174
 20
1079.089034
 30
0.0
 11
627.190775
 21
1059.2552
 31
0.0
  0
LINE
  5
36B
102
{ACAD_REACTORS
330
399
102
}
330
1F
100
AcDbEntity
  8
LC-005-003-----0
 62
     7
370
    25
100
AcDbLine
 10
627.190775
 20
1059.2552
 30
0.0
 11
631.805573
 21
1063.869998
 31
0.0
  0
LINE
  5
36C
102
{ACAD_REACTORS
330
399
102
}
330
1F
100
AcDbEntity
  8
LC-005-003-----0
 62
     7
370
    25
100
AcDbLine
 10
631.244971
 20
1063.230753
 30
0.0
 11
616.567934
 21
1074.49284
 31
0.0
  0
LINE
  5
36D
102
{ACAD_REACTORS
330
399
102
}
330
1F
100
AcDbEntity
  8
LC-005-003-----0
 62
     7
370
    25
100
AcDbLine
 10
616.567934
 20
1074.49284
 30
0.0
 11
627.83002
 21
1059.815803
 31
0.0
  0
LINE
  5
36E
102
{ACAD_REACTORS
330
399
102
}
330
1F
100
AcDbEntity
  8
LC-005-003-----0
 62
     7
370
    25
100
AcDbLine
 10
630.684368
 20
1062.591508
 30
0.0
 11
621.164128
 21
1069.896646
 31
0.0
  0
LINE
  5
36F
102
{ACAD_REACTORS
330
399
102
}
330
1F
100
AcDbEntity
  8
LC-005-003-----0
 62
     7
370
    25
100
AcDbLine
 10
621.164128
 20
1069.896646
 30
0.0
 11
628.469265
 21
1060.376406
 31
0.0
  0
LINE
  5
370
102
{ACAD_REACTORS
330
399
102
}
330
1F
100
AcDbEntity
  8
LC-005-003-----0
 62
     7
370
    25
100
AcDbLine
 10
630.123765
 20
1061.952264
 30
0.0
 11
625.760322
 21
1065.300452
 31
0.0
  0
LINE
  5
371
102
{ACAD_REACTORS
330
399
102
}
330
1F
100
AcDbEntity
  8
LC-005-003-----0
 62
     7
370
    25
100
AcDbLine
 10
625.760322
 20
1065.300452
 30
0.0
 11
629.10851
 21
1060.937008
 31
0.0
  0
LINE
  5
372
102
{ACAD_REACTORS
330
396
102
}
330
1F
100
AcDbEntity
  8
LC-008-003-MTG-0
 62
     7
370
    25
100
AcDbLine
 10
639.372522
 20
898.139064
 30
0.0
 11
639.372522
 21
908.139064
 31
0.0
  0
LINE
  5
373
102
{ACAD_REACTORS
330
399
102
}
330
1F
100
AcDbEntity
  8
LC-008-003-MTG-0
 62
     7
370
    25
100
AcDbLine
 10
641.372522
 20
1039.688252
 30
0.0
 11
641.372522
 21
1049.688252
 31
0.0
  0
TEXT
  5
374
102
{ACAD_REACTORS
330
396
102
}
330
1F
100
AcDbEntity
  8
LC-005-003-----0
 62
     7
370
    25
100
AcDbText
 10
651.872522
 20
909.276547
 30
0.0
 40
25.0
  1
R16
 50
90.0
 41
0.7
  7
LCTX0-400-0-0pDIN-Schrift
 72
     1
 11
651.872522
 21
932.612797
 31
0.0
100
AcDbText
  0
TEXT
  5
375
102
{ACAD_REACTORS
330
399
102
}
330
1F
100
AcDbEntity
  8
LC-005-003-----0
 62
     7
370
    25
100
AcDbText
 10
653.872522
 20
990.417018
 30
0.0
 40
25.0
  1
R20
 50
90.0
 41
0.7
  7
LCTX0-400-0-0pDIN-Schrift
 72
     1
 11
653.872522
 21
1015.214518
 31
0.0
100
AcDbText
  0
TEXT
  5
376
102
{ACAD_REACTORS
330
391
102
}
330
1F
100
AcDbEntity
  8
LC-005-003-----0
 62
     7
370
    25
100
AcDbText
 10
829.034422
 20
1042.85812
 30
0.0
 40
25.0
  1
R98
 41
0.7
  7
LCTX0-400-0-0pDIN-Schrift
 72
     2
 11
878.804422
 21
1042.85812
 31
0.0
100
AcDbText
  0
LINE
  5
377
102
{ACAD_REACTORS
330
391
102
}
330
1F
100
AcDbEntity
  8
LC-008-003-MTG-0
 62
     7
370
    25
100
AcDbLine
 10
829.722047
 20
1027.85812
 30
0.0
 11
888.804422
 21
1027.85812
 31
0.0
  0
LINE
  5
378
102
{ACAD_REACTORS
330
391
102
}
330
1F
100
AcDbEntity
  8
LC-008-003-MTG-0
 62
     7
370
    25
100
AcDbLine
 10
829.722047
 20
1027.85812
 30
0.0
 11
840.370037
 21
1075.891586
 31
0.0
  0
LINE
  5
379
102
{ACAD_REACTORS
330
391
102
}
330
1F
100
AcDbEntity
  8
LC-005-003-----0
 62
     7
370
    25
100
AcDbLine
 10
838.191525
 20
1050.986685
 30
0.0
 11
840.370037
 21
1075.891586
 31
0.0
  0
LINE
  5
37A
102
{ACAD_REACTORS
330
391
102
}
330
1F
100
AcDbEntity
  8
LC-005-003-----0
 62
     7
370
    25
100
AcDbLine
 10
840.370037
 20
1075.891586
 30
0.0
 11
831.819894
 21
1052.399139
 31
0.0
  0
LINE
  5
37B
102
{ACAD_REACTORS
330
391
102
}
330
1F
100
AcDbEntity
  8
LC-005-003-----0
 62
     7
370
    25
100
AcDbLine
 10
831.819894
 20
1052.399139
 30
0.0
 11
838.191525
 21
1050.986685
 31
0.0
  0
LINE
  5
37C
102
{ACAD_REACTORS
330
391
102
}
330
1F
100
AcDbEntity
  8
LC-005-003-----0
 62
     7
370
    25
100
AcDbLine
 10
837.351178
 20
1051.116013
 30
0.0
 11
838.963277
 21
1069.54564
 31
0.0
  0
LINE
  5
37D
102
{ACAD_REACTORS
330
391
102
}
330
1F
100
AcDbEntity
  8
LC-005-003-----0
 62
     7
370
    25
100
AcDbLine
 10
838.963277
 20
1069.54564
 30
0.0
 11
832.636171
 21
1052.16123
 31
0.0
  0
LINE
  5
37E
102
{ACAD_REACTORS
330
391
102
}
330
1F
100
AcDbEntity
  8
LC-005-003-----0
 62
     7
370
    25
100
AcDbLine
 10
836.510831
 20
1051.245342
 30
0.0
 11
837.556517
 21
1063.199695
 31
0.0
  0
LINE
  5
37F
102
{ACAD_REACTORS
330
391
102
}
330
1F
100
AcDbEntity
  8
LC-005-003-----0
 62
     7
370
    25
100
AcDbLine
 10
837.556517
 20
1063.199695
 30
0.0
 11
833.452448
 21
1051.92332
 31
0.0
  0
LINE
  5
380
102
{ACAD_REACTORS
330
391
102
}
330
1F
100
AcDbEntity
  8
LC-005-003-----0
 62
     7
370
    25
100
AcDbLine
 10
835.670484
 20
1051.374671
 30
0.0
 11
836.149756
 21
1056.853749
 31
0.0
  0
LINE
  5
381
102
{ACAD_REACTORS
330
391
102
}
330
1F
100
AcDbEntity
  8
LC-005-003-----0
 62
     7
370
    25
100
AcDbLine
 10
836.149756
 20
1056.853749
 30
0.0
 11
834.268725
 21
1051.685411
 31
0.0
  0
DIMENSION
  5
382
330
1F
100
AcDbEntity
  8
LC-005-003-----0
 62
     7
370
    25
100
AcDbDimension
  2
*D27
 10
400.0
 20
2112.34
 30
0.0
 11
370.0
 21
2086.817081
 31
0.0
 70
   160
 71
     5
 42
33.8
 53
90.0
  3
LC-DIM-L-0025-02-02
100
AcDbAlignedDimension
 13
633.759738
 23
2146.14
 33
0.0
 14
503.759738
 24
2112.34
 34
0.0
 50
90.0
100
AcDbRotatedDimension
  0
ENDSEC
  0
SECTION
  2
OBJECTS
  0
DICTIONARY
  5
C
330
0
100
AcDbDictionary
281
     1
  3
ACAD_GROUP
350
D
  3
ACAD_LAYOUT
350
1A
  3
ACAD_MLINESTYLE
350
17
  3
ACAD_PLOTSETTINGS
350
19
  3
ACAD_PLOTSTYLENAME
350
E
  0
DICTIONARY
  5
D
102
{ACAD_REACTORS
330
C
102
}
330
C
100
AcDbDictionary
281
     1
  3
LCGROUP12
350
391
  3
LCGROUP1848
350
39A
  3
LCGROUP1934
350
393
  3
LCGROUP2026
350
398
  3
LCGROUP2456
350
392
  3
LCGROUP2511
350
394
  3
LCGROUP2520
350
395
  3
LCGROUP2534
350
396
  3
LCGROUP2556
350
397
  3
LCGROUP2581
350
399
  0
DICTIONARY
  5
1A
102
{ACAD_REACTORS
330
C
102
}
330
C
100
AcDbDictionary
281
     1
  3
Layout1
350
1E
  3
Layout2
350
26
  3
Model
350
22
  0
DICTIONARY
  5
17
102
{ACAD_REACTORS
330
C
102
}
330
C
100
AcDbDictionary
281
     1
  3
Standard
350
18
  0
DICTIONARY
  5
19
102
{ACAD_REACTORS
330
C
102
}
330
C
100
AcDbDictionary
281
     1
  0
ACDBDICTIONARYWDFLT
  5
E
102
{ACAD_REACTORS
330
C
102
}
330
C
100
AcDbDictionary
281
     1
  3
Normal
350
F
100
AcDbDictionaryWithDefault
340
F
  0
GROUP
  5
391
102
{ACAD_REACTORS
330
D
102
}
330
D
100
AcDbGroup
300
GRP12
 70
     1
 71
     1
340
376
340
377
340
378
340
379
340
37A
340
37B
340
37C
340
37D
340
37E
340
37F
340
380
340
381
  0
GROUP
  5
39A
102
{ACAD_REACTORS
330
D
102
}
330
D
100
AcDbGroup
300
GRP1848
 70
     1
 71
     1
340
10A
340
10B
340
10C
340
10D
340
10E
340
110
340
111
340
112
340
113
340
114
340
115
340
116
340
117
340
118
340
119
340
11A
340
11B
340
11C
340
11D
340
11E
340
11F
340
120
340
121
340
122
340
123
340
124
340
125
340
126
340
127
340
128
340
129
340
12A
340
12B
340
12C
340
12D
340
12E
340
12F
340
130
340
131
340
132
340
133
340
134
340
135
340
136
340
137
340
138
340
139
340
13A
340
13B
340
13C
340
13D
340
13E
340
13F
340
140
340
141
340
142
340
143
340
144
340
145
340
146
340
147
340
148
340
149
340
14A
340
14B
340
14C
340
14D
340
14E
340
14F
340
150
340
151
340
152
340
153
340
154
340
155
340
156
340
157
340
158
340
159
  0
GROUP
  5
393
102
{ACAD_REACTORS
330
D
102
}
330
D
100
AcDbGroup
300
GRP1934
 70
     1
 71
     1
340
106
340
107
340
108
340
15A
340
15B
340
15C
340
15D
340
15E
340
15F
340
160
340
161
340
162
340
163
340
164
340
165
340
166
340
167
340
168
340
169
340
16A
340
16B
340
16C
340
16D
340
16E
340
16F
340
170
340
171
340
172
340
173
  0
GROUP
  5
398
102
{ACAD_REACTORS
330
D
102
}
330
D
100
AcDbGroup
300
GRP2026
 70
     1
 71
     1
340
109
340
174
340
175
340
176
340
177
340
178
340
179
340
17A
340
17B
340
17C
340
17D
340
17E
340
17F
340
180
340
181
340
182
340
183
340
184
340
185
340
186
340
187
340
188
340
189
340
18A
340
18B
340
18C
340
18D
340
18E
340
18F
340
190
340
191
340
192
340
193
340
194
340
195
340
196
340
197
340
198
340
199
340
19A
340
19B
340
19C
340
19D
340
19E
340
19F
340
1A0
340
1A1
340
1A2
340
1A3
340
1A4
340
1A5
340
1A6
340
1A7
340
1A8
340
1A9
340
1AA
340
1AB
340
1AC
  0
GROUP
  5
392
102
{ACAD_REACTORS
330
D
102
}
330
D
100
AcDbGroup
300
GRP2456
 70
     1
 71
     1
340
2D2
340
2D3
340
2D4
340
2D5
340
2D6
340
2D7
340
2D8
340
2D9
340
2DA
340
2DB
  0
GROUP
  5
394
102
{ACAD_REACTORS
330
D
102
}
330
D
100
AcDbGroup
300
Gruppe 3208
 70
     1
 71
     1
340
313
340
314
  0
GROUP
  5
395
102
{ACAD_REACTORS
330
D
102
}
330
D
100
AcDbGroup
300
Gruppe 2520
 70
     1
 71
     1
340
32B
340
32C
340
32D
340
32E
340
32F
340
330
340
331
340
332
340
333
340
334
340
345
  0
GROUP
  5
396
102
{ACAD_REACTORS
330
D
102
}
330
D
100
AcDbGroup
300
Gruppe 3515
 70
     1
 71
     1
340
347
340
348
340
349
340
34A
340
34B
340
34C
340
34D
340
34E
340
34F
340
350
340
372
340
374
  0
GROUP
  5
397
102
{ACAD_REACTORS
330
D
102
}
330
D
100
AcDbGroup
300
Gruppe 3515
 70
     1
 71
     1
340
351
340
352
340
353
340
354
340
355
340
356
340
357
340
358
340
359
340
35A
340
35B
340
35C
340
35D
340
35E
340
35F
340
360
340
361
340
362
340
363
340
364
340
365
340
366
340
367
  0
GROUP
  5
399
102
{ACAD_REACTORS
330
D
102
}
330
D
100
AcDbGroup
300
Gruppe 3515
 70
     1
 71
     1
340
368
340
369
340
36A
340
36B
340
36C
340
36D
340
36E
340
36F
340
370
340
371
340
373
340
375
  0
LAYOUT
  5
1E
102
{ACAD_REACTORS
330
1A
102
}
330
1A
100
AcDbPlotSettings
  1

  2

  4

  6

 40
0.0
 41
0.0
 42
0.0
 43
0.0
 44
0.0
 45
0.0
 46
0.0
 47
0.0
 48
0.0
 49
0.0
140
0.0
141
0.0
142
1.0
143
1.0
 70
   688
 72
     0
 73
     0
 74
     5
  7

 75
    16
 76
     0
 77
     2
 78
   300
147
1.0
148
0.0
149
0.0
100
AcDbLayout
  1
Layout1
 70
     1
 71
     1
 10
0.0
 20
0.0
 11
2100.0
 21
2970.0
 12
0.0
 22
0.0
 32
0.0
 14
0.0
 24
0.0
 34
0.0
 15
2100.0
 25
2970.0
 35
0.0
146
0.0
 13
0.0
 23
0.0
 33
0.0
 16
1.0
 26
0.0
 36
0.0
 17
0.0
 27
1.0
 37
0.0
 76
     0
330
1B
  0
LAYOUT
  5
26
102
{ACAD_REACTORS
330
1A
102
}
330
1A
100
AcDbPlotSettings
  1

  2

  4

  6

 40
0.0
 41
0.0
 42
0.0
 43
0.0
 44
0.0
 45
0.0
 46
0.0
 47
0.0
 48
0.0
 49
0.0
140
0.0
141
0.0
142
1.0
143
1.0
 70
   688
 72
     0
 73
     0
 74
     5
  7

 75
    16
 76
     0
 77
     2
 78
   300
147
1.0
148
0.0
149
0.0
100
AcDbLayout
  1
Layout2
 70
     1
 71
     2
 10
0.0
 20
0.0
 11
0.0
 21
0.0
 12
0.0
 22
0.0
 32
0.0
 14
0.0
 24
0.0
 34
0.0
 15
0.0
 25
0.0
 35
0.0
146
0.0
 13
0.0
 23
0.0
 33
0.0
 16
1.0
 26
0.0
 36
0.0
 17
0.0
 27
1.0
 37
0.0
 76
     0
330
23
  0
LAYOUT
  5
22
102
{ACAD_REACTORS
330
1A
102
}
330
1A
100
AcDbPlotSettings
  1

  2

  4

  6

 40
0.0
 41
0.0
 42
0.0
 43
0.0
 44
0.0
 45
0.0
 46
0.0
 47
0.0
 48
0.0
 49
0.0
140
0.0
141
0.0
142
1.0
143
1.0
 70
  1776
 72
     0
 73
     0
 74
     0
  7

 75
     0
 76
     0
 77
     2
 78
   300
147
1.0
148
0.0
149
0.0
100
AcDbLayout
  1
Model
 70
     1
 71
     0
 10
0.0
 20
0.0
 11
2100.0
 21
2970.0
 12
0.0
 22
0.0
 32
0.0
 14
0.0
 24
0.0
 34
0.0
 15
2100.0
 25
2970.0
 35
0.0
146
0.0
 13
0.0
 23
0.0
 33
0.0
 16
1.0
 26
0.0
 36
0.0
 17
0.0
 27
1.0
 37
0.0
 76
     0
330
1F
  0
MLINESTYLE
  5
18
102
{ACAD_REACTORS
330
17
102
}
330
17
100
AcDbMlineStyle
  2
Standard
 70
     0
  3

 62
   256
 51
90.0
 52
90.0
 71
     2
 49
0.5
 62
   256
  6
BYLAYER
 49
-0.5
 62
   256
  6
BYLAYER
  0
ACDBPLACEHOLDER
  5
F
102
{ACAD_REACTORS
330
E
102
}
330
E
  0
ENDSEC
  0
EOF
