  0
SECTION
  2
HEADER
  9
$ACADVER
  1
AC1018
  9
$ACADMAINTVER
 70
     0
  9
$DWGCODEPAGE
  3
ANSI_1252
  9
$INSBASE
 10
0.0
 20
0.0
 30
0.0
  9
$EXTMIN
 10
0.0
 20
0.0
 30
0.0
  9
$EXTMAX
 10
2100.0
 20
2970.0
 30
0.0
  9
$LIMMIN
 10
0.0
 20
0.0
  9
$LIMMAX
 10
2100.0
 20
2970.0
  9
$ORTHOMODE
 70
     0
  9
$REGENMODE
 70
     1
  9
$FILLMODE
 70
     1
  9
$QTEXTMODE
 70
     0
  9
$MIRRTEXT
 70
     1
  9
$LTSCALE
 40
10.0
  9
$ATTMODE
 70
     1
  9
$TEXTSIZE
 40
2.5
  9
$TRACEWID
 40
1.0
  9
$TEXTSTYLE
  7
Standard
  9
$CLAYER
  8
0
  9
$CELTYPE
  6
ByLayer
  9
$CECOLOR
 62
     7
  9
$CELTSCALE
 40
1.0
  9
$DISPSILH
 70
     0
  9
$DIMSCALE
 40
10.0
  9
$DIMASZ
 40
3.5
  9
$DIMEXO
 40
0.625
  9
$DIMDLI
 40
3.75
  9
$DIMRND
 40
0.0
  9
$DIMDLE
 40
0.0
  9
$DIMEXE
 40
1.25
  9
$DIMTP
 40
0.0
  9
$DIMTM
 40
0.0
  9
$DIMTXT
 40
3.5
  9
$DIMCEN
 40
2.5
  9
$DIMTSZ
 40
0.0
  9
$DIMTOL
 70
     0
  9
$DIMLIM
 70
     0
  9
$DIMTIH
 70
     0
  9
$DIMTOH
 70
     0
  9
$DIMSE1
 70
     0
  9
$DIMSE2
 70
     0
  9
$DIMTAD
 70
     1
  9
$DIMZIN
 70
     8
  9
$DIMBLK
  1

  9
$DIMASO
 70
     1
  9
$DIMSHO
 70
     1
  9
$DIMPOST
  1

  9
$DIMAPOST
  1

  9
$DIMALT
 70
     0
  9
$DIMALTD
 70
     3
  9
$DIMALTF
 40
0.03937
  9
$DIMLFAC
 40
1.0
  9
$DIMTOFL
 70
     1
  9
$DIMTVP
 40
0.0
  9
$DIMTIX
 70
     0
  9
$DIMSOXD
 70
     0
  9
$DIMSAH
 70
     0
  9
$DIMBLK1
  1

  9
$DIMBLK2
  1

  9
$DIMSTYLE
  2
ISO-25
  9
$DIMCLRD
 70
     0
  9
$DIMCLRE
 70
     0
  9
$DIMCLRT
 70
     0
  9
$DIMTFAC
 40
1.0
  9
$DIMGAP
 40
0.625
  9
$DIMJUST
 70
     0
  9
$DIMSD1
 70
     0
  9
$DIMSD2
 70
     0
  9
$DIMTOLJ
 70
     0
  9
$DIMTZIN
 70
     8
  9
$DIMALTZ
 70
     0
  9
$DIMALTTZ
 70
     0
  9
$DIMUPT
 70
     0
  9
$DIMDEC
 70
     2
  9
$DIMTDEC
 70
     2
  9
$DIMALTU
 70
     2
  9
$DIMALTTD
 70
     3
  9
$DIMTXSTY
  7
Standard
  9
$DIMAUNIT
 70
     0
  9
$DIMADEC
 70
     0
  9
$DIMALTRND
 40
0.0
  9
$DIMAZIN
 70
     0
  9
$DIMDSEP
 70
    44
  9
$DIMATFIT
 70
     3
  9
$DIMFRAC
 70
     0
  9
$DIMLDRBLK
  1

  9
$DIMLUNIT
 70
     2
  9
$DIMLWD
 70
    -2
  9
$DIMLWE
 70
    -2
  9
$DIMTMOVE
 70
     0
  9
$LUNITS
 70
     2
  9
$LUPREC
 70
     4
  9
$SKETCHINC
 40
1.0
  9
$FILLETRAD
 40
10.0
  9
$AUNITS
 70
     0
  9
$AUPREC
 70
     0
  9
$MENU
  1
.
  9
$ELEVATION
 40
0.0
  9
$PELEVATION
 40
0.0
  9
$THICKNESS
 40
0.0
  9
$LIMCHECK
 70
     0
  9
$CHAMFERA
 40
10.0
  9
$CHAMFERB
 40
10.0
  9
$CHAMFERC
 40
20.0
  9
$CHAMFERD
 40
0.0
  9
$SKPOLY
 70
     0
  9
$TDCREATE
 40
2456631.653414734
  9
$TDUCREATE
 40
2456631.611748067
  9
$TDUPDATE
 40
2456631.653414745
  9
$TDUUPDATE
 40
2456631.611748079
  9
$TDINDWG
 40
0.0000000116
  9
$TDUSRTIMER
 40
0.0000000116
  9
$USRTIMER
 70
     1
  9
$ANGBASE
 50
0.0
  9
$ANGDIR
 70
     0
  9
$PDMODE
 70
     0
  9
$PDSIZE
 40
0.0
  9
$PLINEWID
 40
0.0
  9
$SPLFRAME
 70
     0
  9
$SPLINETYPE
 70
     6
  9
$SPLINESEGS
 70
     8
  9
$HANDSEED
  5
5FF
  9
$SURFTAB1
 70
     6
  9
$SURFTAB2
 70
     6
  9
$SURFTYPE
 70
     6
  9
$SURFU
 70
     6
  9
$SURFV
 70
     6
  9
$UCSBASE
  2

  9
$UCSNAME
  2

  9
$UCSORG
 10
0.0
 20
0.0
 30
0.0
  9
$UCSXDIR
 10
1.0
 20
0.0
 30
0.0
  9
$UCSYDIR
 10
0.0
 20
1.0
 30
0.0
  9
$UCSORTHOREF
  2

  9
$UCSORTHOVIEW
 70
     0
  9
$UCSORGTOP
 10
0.0
 20
0.0
 30
0.0
  9
$UCSORGBOTTOM
 10
0.0
 20
0.0
 30
0.0
  9
$UCSORGLEFT
 10
0.0
 20
0.0
 30
0.0
  9
$UCSORGRIGHT
 10
0.0
 20
0.0
 30
0.0
  9
$UCSORGFRONT
 10
0.0
 20
0.0
 30
0.0
  9
$UCSORGBACK
 10
0.0
 20
0.0
 30
0.0
  9
$PUCSBASE
  2

  9
$PUCSNAME
  2

  9
$PUCSORG
 10
0.0
 20
0.0
 30
0.0
  9
$PUCSXDIR
 10
1.0
 20
0.0
 30
0.0
  9
$PUCSYDIR
 10
0.0
 20
1.0
 30
0.0
  9
$PUCSORTHOREF
  2

  9
$PUCSORTHOVIEW
 70
     0
  9
$PUCSORGTOP
 10
0.0
 20
0.0
 30
0.0
  9
$PUCSORGBOTTOM
 10
0.0
 20
0.0
 30
0.0
  9
$PUCSORGLEFT
 10
0.0
 20
0.0
 30
0.0
  9
$PUCSORGRIGHT
 10
0.0
 20
0.0
 30
0.0
  9
$PUCSORGFRONT
 10
0.0
 20
0.0
 30
0.0
  9
$PUCSORGBACK
 10
0.0
 20
0.0
 30
0.0
  9
$USERI1
 70
     0
  9
$USERI2
 70
     0
  9
$USERI3
 70
     0
  9
$USERI4
 70
     0
  9
$USERI5
 70
     0
  9
$USERR1
 40
0.0
  9
$USERR2
 40
0.0
  9
$USERR3
 40
0.0
  9
$USERR4
 40
0.0
  9
$USERR5
 40
0.0
  9
$WORLDVIEW
 70
     1
  9
$SHADEDGE
 70
     3
  9
$SHADEDIF
 70
    70
  9
$TILEMODE
 70
     1
  9
$MAXACTVP
 70
    64
  9
$PINSBASE
 10
0.0
 20
0.0
 30
0.0
  9
$PLIMCHECK
 70
     0
  9
$PEXTMIN
 10
0.0
 20
0.0
 30
0.0
  9
$PEXTMAX
 10
2100.0
 20
2970.0
 30
0.0
  9
$PLIMMIN
 10
0.0
 20
0.0
  9
$PLIMMAX
 10
2100.0
 20
2970.0
  9
$UNITMODE
 70
     0
  9
$VISRETAIN
 70
     1
  9
$PLINEGEN
 70
     0
  9
$PSLTSCALE
 70
     1
  9
$TREEDEPTH
 70
  3020
  9
$CMLSTYLE
  2
Standard
  9
$CMLJUST
 70
     0
  9
$CMLSCALE
 40
20.0
  9
$PROXYGRAPHICS
 70
     1
  9
$MEASUREMENT
 70
     1
  9
$CELWEIGHT
370
    -1
  9
$ENDCAPS
280
     0
  9
$JOINSTYLE
280
     0
  9
$LWDISPLAY
290
     0
  9
$INSUNITS
 70
     4
  9
$HYPERLINKBASE
  1

  9
$STYLESHEET
  1

  9
$XEDIT
290
     1
  9
$CEPSNTYPE
380
     0
  9
$PSTYLEMODE
290
     1
  9
$FINGERPRINTGUID
  2
{FAEB1C30-E019-11D5-929B-00C0DF256EC4}
  9
$VERSIONGUID
  2
{FAEB1C32-E019-11D5-929B-00C0DF256EC4}
  9
$EXTNAMES
290
     1
  9
$PSVPSCALE
 40
0.0
  9
$OLESTARTUP
290
     0
  9
$SORTENTS
280
   127
  9
$INDEXCTL
280
     0
  9
$HIDETEXT
280
     1
  9
$XCLIPFRAME
290
     0
  9
$HALOGAP
280
     0
  9
$OBSCOLOR
 70
   257
  9
$OBSLTYPE
280
     0
  9
$INTERSECTIONDISPLAY
280
     0
  9
$INTERSECTIONCOLOR
 70
   257
  9
$DIMASSOC
280
     2
  9
$PROJECTNAME
  1

  0
ENDSEC
  0
SECTION
  2
CLASSES
  0
CLASS
  1
ACDBDICTIONARYWDFLT
  2
AcDbDictionaryWithDefault
  3
ObjectDBX Classes
 90
        0
 91
        1
280
     0
281
     0
  0
ENDSEC
  0
SECTION
  2
TABLES
  0
TABLE
  2
VPORT
  5
8
330
0
100
AcDbSymbolTable
 70
     2
  0
VPORT
  5
29
330
8
100
AcDbSymbolTableRecord
100
AcDbViewportTableRecord
  2
*ACTIVE
 70
     0
 10
0.0
 20
0.0
 11
1.0
 21
1.0
 12
1050.0
 22
1485.0
 13
0.0
 23
0.0
 14
1.0
 24
1.0
 15
0.0
 25
0.0
 16
0.0
 26
0.0
 36
1.0
 17
0.0
 27
0.0
 37
0.0
 40
2970.0
 41
0.707071
 42
50.0
 43
0.0
 44
0.0
 50
0.0
 51
0.0
 71
    16
 72
   100
 73
     1
 74
     0
 75
     0
 76
     0
 77
     0
 78
     0
281
     0
 65
     0
110
0.0
120
0.0
130
0.0
111
1.0
121
0.0
131
0.0
112
0.0
122
1.0
132
0.0
 79
     0
146
0.0
  0
ENDTAB
  0
TABLE
  2
LTYPE
  5
5
330
0
100
AcDbSymbolTable
 70
     4
  0
LTYPE
  5
14
330
5
100
AcDbSymbolTableRecord
100
AcDbLinetypeTableRecord
  2
ByBlock
 70
     0
  3

 72
    65
 73
     0
 40
0.0
  0
LTYPE
  5
15
330
5
100
AcDbSymbolTableRecord
100
AcDbLinetypeTableRecord
  2
ByLayer
 70
     0
  3

 72
    65
 73
     0
 40
0.0
  0
LTYPE
  5
16
330
5
100
AcDbSymbolTableRecord
100
AcDbLinetypeTableRecord
  2
Continuous
 70
     0
  3
Solid line
 72
    65
 73
     0
 40
0.0
  0
LTYPE
  5
2A
330
5
100
AcDbSymbolTableRecord
100
AcDbLinetypeTableRecord
  2
DASHED
 70
     0
  3
__ __ __ __ __
 72
    65
 73
     2
 40
6.25
 49
5.0
 74
     4
 75
     0
340
0
 46
1.0
 50
0.0
 44
0.0
 45
0.0
 49
-1.25
 74
     4
 75
     0
340
0
 46
1.0
 50
0.0
 44
0.0
 45
0.0
  0
LTYPE
  5
103
330
5
100
AcDbSymbolTableRecord
100
AcDbLinetypeTableRecord
  2
CENTER
 70
     0
  3
__ . __ . __ . __ . __
 72
    65
 73
     4
 40
7.5
 49
5.0
 74
     4
 75
     0
340
0
 46
1.0
 50
0.0
 44
0.0
 45
0.0
 49
-1.25
 74
     4
 75
     0
340
0
 46
1.0
 50
0.0
 44
0.0
 45
0.0
 49
0.0
 74
     4
 75
     0
340
0
 46
1.0
 50
0.0
 44
0.0
 45
0.0
 49
-1.25
 74
     4
 75
     0
340
0
 46
1.0
 50
0.0
 44
0.0
 45
0.0
  0
LTYPE
  5
107
330
5
100
AcDbSymbolTableRecord
100
AcDbLinetypeTableRecord
  2
DASHDOT
 70
     0
  3
__ . __ . __ . __ . __
 72
    65
 73
     4
 40
7.5
 49
5.0
 74
     4
 75
     0
340
0
 46
1.0
 50
0.0
 44
0.0
 45
0.0
 49
-1.25
 74
     4
 75
     0
340
0
 46
1.0
 50
0.0
 44
0.0
 45
0.0
 49
0.0
 74
     4
 75
     0
340
0
 46
1.0
 50
0.0
 44
0.0
 45
0.0
 49
-1.25
 74
     4
 75
     0
340
0
 46
1.0
 50
0.0
 44
0.0
 45
0.0
  0
ENDTAB
  0
TABLE
  2
LAYER
  5
2
330
0
100
AcDbSymbolTable
 70
    15
  0
LAYER
  5
10
330
2
100
AcDbSymbolTableRecord
100
AcDbLayerTableRecord
  2
0
 70
     0
 62
     7
  6
Continuous
370
    -3
390
F
  0
LAYER
  5
2B
330
2
100
AcDbSymbolTableRecord
100
AcDbLayerTableRecord
  2
LC-INFO-1-10-mm-A4H-0
 70
     1
 62
     7
  6
ByBlock
370
    -3
390
F
  0
LAYER
  5
2C
330
2
100
AcDbSymbolTableRecord
100
AcDbLayerTableRecord
  2
LC-CUT-HIDDEN
 70
     0
 62
     7
  6
DASHED
370
    -3
390
F
  0
LAYER
  5
2D
330
2
100
AcDbSymbolTableRecord
100
AcDbLayerTableRecord
  2
LC-VIEWPORT
 70
     0
 62
     7
  6
ByBlock
370
    -3
390
F
  0
LAYER
  5
2E
330
2
100
AcDbSymbolTableRecord
100
AcDbLayerTableRecord
  2
LC-3D-HIDDEN
 70
     0
 62
     9
  6
DASHED
370
    -3
390
F
  0
LAYER
  5
33
330
2
100
AcDbSymbolTableRecord
100
AcDbLayerTableRecord
  2
LC-001-111-----0
 70
     0
 62
   253
  6
ByBlock
370
    -3
390
F
  0
LAYER
  5
A0
330
2
100
AcDbSymbolTableRecord
100
AcDbLayerTableRecord
  2
LC-002-002-----0
 70
     0
 62
     1
  6
ByBlock
370
    -3
390
F
  0
LAYER
  5
101
330
2
100
AcDbSymbolTableRecord
100
AcDbLayerTableRecord
  2
LC-003-230-ZVN-0
 70
     0
 62
     1
  6
ByBlock
370
    -3
390
F
  0
LAYER
  5
104
330
2
100
AcDbSymbolTableRecord
100
AcDbLayerTableRecord
  2
LC-004-006-MLN-0
 70
     0
 62
     2
  6
CENTER
370
    -3
390
F
  0
LAYER
  5
114
330
2
100
AcDbSymbolTableRecord
100
AcDbLayerTableRecord
  2
LC-005-002-RND-0
 70
     0
 62
     1
  6
ByBlock
370
    -3
390
F
  0
LAYER
  5
23F
330
2
100
AcDbSymbolTableRecord
100
AcDbLayerTableRecord
  2
LC-006-100-D00-0
 70
     0
 62
    44
  6
ByBlock
370
    -3
390
F
  0
LAYER
  5
275
330
2
100
AcDbSymbolTableRecord
100
AcDbLayerTableRecord
  2
LC-007-003-----0
 70
     0
 62
     2
  6
ByBlock
370
    -3
390
F
  0
LAYER
  5
277
330
2
100
AcDbSymbolTableRecord
100
AcDbLayerTableRecord
  2
Defpoints
 70
     0
 62
     7
  6
Continuous
290
     0
370
    -3
390
F
  0
LAYER
  5
464
330
2
100
AcDbSymbolTableRecord
100
AcDbLayerTableRecord
  2
LC-008-004-----0
 70
     0
 62
     7
  6
ByBlock
370
    -3
390
F
  0
LAYER
  5
518
330
2
100
AcDbSymbolTableRecord
100
AcDbLayerTableRecord
  2
LC-009-005-----0
 70
     0
 62
     2
  6
ByBlock
370
    -3
390
F
  0
ENDTAB
  0
TABLE
  2
STYLE
  5
3
330
0
100
AcDbSymbolTable
 70
     2
  0
STYLE
  5
11
330
3
100
AcDbSymbolTableRecord
100
AcDbTextStyleTableRecord
  2
Standard
 70
     0
 40
0.0
 41
1.0
 50
0.0
 71
     0
 42
2.5
  3
txt
  4

  0
STYLE
  5
2F
330
3
100
AcDbSymbolTableRecord
100
AcDbTextStyleTableRecord
  2
LCTX0-400-0-0pDIN-Schrift
 70
     0
 40
0.0
 41
0.7
 50
0.0
 71
     0
 42
3.5
  3
TXT
  4

  0
ENDTAB
  0
TABLE
  2
VIEW
  5
6
330
0
100
AcDbSymbolTable
 70
     0
  0
ENDTAB
  0
TABLE
  2
UCS
  5
7
330
0
100
AcDbSymbolTable
 70
     0
  0
ENDTAB
  0
TABLE
  2
APPID
  5
9
330
0
100
AcDbSymbolTable
 70
     1
  0
APPID
  5
12
330
9
100
AcDbSymbolTableRecord
100
AcDbRegAppTableRecord
  2
ACAD
 70
     0
  0
ENDTAB
  0
TABLE
  2
DIMSTYLE
  5
A
330
0
100
AcDbSymbolTable
 70
     5
100
AcDbDimStyleTable
  0
DIMSTYLE
105
27
330
A
100
AcDbSymbolTableRecord
100
AcDbDimStyleTableRecord
  2
ISO-25
 70
     0
 41
2.5
 42
0.625
 43
3.75
 44
1.25
 73
     0
 74
     0
 77
     1
 78
     8
140
2.5
141
2.5
143
0.03937
147
0.625
171
     3
172
     1
271
     2
272
     2
274
     3
278
    44
283
     0
284
     8
340
11
  0
DIMSTYLE
105
274
102
{ACAD_REACTORS
330
276
330
284
330
5BB
330
5C8
102
}
330
A
100
AcDbSymbolTableRecord
100
AcDbDimStyleTableRecord
  2
LC-DIM-L-0025-00-02
 70
     0
 40
10.0
 41
2.5
 42
0.0
 43
7.5
 44
1.8
 73
     0
 74
     0
 77
     1
 78
     8
140
2.5
141
0.0
146
0.71
147
1.5
172
     1
176
     2
177
     2
178
     2
271
     0
278
    44
289
     1
340
2F
  0
DIMSTYLE
105
453
102
{ACAD_REACTORS
330
454
330
471
330
492
330
49F
330
4AC
330
4DB
330
4E8
330
4F5
330
502
330
532
102
}
330
A
100
AcDbSymbolTableRecord
100
AcDbDimStyleTableRecord
  2
LC-DIM-L-0025-02-02
 70
     0
 40
10.0
 41
2.5
 42
0.0
 43
7.5
 44
1.8
 73
     0
 74
     0
 77
     1
 78
     8
 79
     2
140
2.5
141
0.0
146
0.71
147
1.5
172
     1
176
     2
177
     2
178
     2
179
     2
271
     2
278
    44
289
     1
340
2F
  0
DIMSTYLE
105
47E
102
{ACAD_REACTORS
330
47F
330
489
102
}
330
A
100
AcDbSymbolTableRecord
100
AcDbDimStyleTableRecord
  2
LC-DIM-R-0025-02-02
 70
     0
 40
10.0
 41
2.5
 42
0.0
 43
7.5
 44
1.8
 73
     0
 74
     0
 77
     1
 78
     8
 79
     2
140
2.5
141
0.0
146
0.71
147
1.5
176
     2
177
     2
178
     2
179
     2
271
     2
278
    44
289
     1
340
2F
  0
DIMSTYLE
105
5D5
102
{ACAD_REACTORS
330
5D6
330
5E3
102
}
330
A
100
AcDbSymbolTableRecord
100
AcDbDimStyleTableRecord
  2
LC-DIM-L-0025-01-02
 70
     0
 40
10.0
 41
2.5
 42
0.0
 43
7.5
 44
1.8
 73
     0
 74
     0
 77
     1
 78
     8
 79
     2
140
2.5
141
0.0
146
0.71
147
1.5
172
     1
176
     2
177
     2
178
     2
179
     1
271
     1
278
    44
289
     1
340
2F
  0
ENDTAB
  0
TABLE
  2
BLOCK_RECORD
  5
1
330
0
100
AcDbSymbolTable
 70
    36
  0
BLOCK_RECORD
  5
1F
330
1
100
AcDbSymbolTableRecord
100
AcDbBlockTableRecord
  2
*Model_Space
340
22
  0
BLOCK_RECORD
  5
1B
330
1
100
AcDbSymbolTableRecord
100
AcDbBlockTableRecord
  2
*Paper_Space
340
1E
  0
BLOCK_RECORD
  5
23
330
1
100
AcDbSymbolTableRecord
100
AcDbBlockTableRecord
  2
*Paper_Space0
340
26
  0
BLOCK_RECORD
  5
30
330
1
100
AcDbSymbolTableRecord
100
AcDbBlockTableRecord
  2
SYM1
340
0
102
{BLKREFS
331
102
102
}
  0
BLOCK_RECORD
  5
278
330
1
100
AcDbSymbolTableRecord
100
AcDbBlockTableRecord
  2
*D2
340
0
  0
BLOCK_RECORD
  5
285
330
1
100
AcDbSymbolTableRecord
100
AcDbBlockTableRecord
  2
*D3
340
0
  0
BLOCK_RECORD
  5
2D9
330
1
100
AcDbSymbolTableRecord
100
AcDbBlockTableRecord
  2
POLY1
340
0
102
{BLKREFS
331
2E8
102
}
  0
BLOCK_RECORD
  5
2EA
330
1
100
AcDbSymbolTableRecord
100
AcDbBlockTableRecord
  2
POLY2
340
0
102
{BLKREFS
331
2F9
102
}
  0
BLOCK_RECORD
  5
2FB
330
1
100
AcDbSymbolTableRecord
100
AcDbBlockTableRecord
  2
POLY3
340
0
102
{BLKREFS
331
30A
102
}
  0
BLOCK_RECORD
  5
31E
330
1
100
AcDbSymbolTableRecord
100
AcDbBlockTableRecord
  2
POLY4
340
0
102
{BLKREFS
331
32D
102
}
  0
BLOCK_RECORD
  5
32F
330
1
100
AcDbSymbolTableRecord
100
AcDbBlockTableRecord
  2
POLY5
340
0
102
{BLKREFS
331
33E
102
}
  0
BLOCK_RECORD
  5
340
330
1
100
AcDbSymbolTableRecord
100
AcDbBlockTableRecord
  2
POLY6
340
0
102
{BLKREFS
331
34F
102
}
  0
BLOCK_RECORD
  5
386
330
1
100
AcDbSymbolTableRecord
100
AcDbBlockTableRecord
  2
POLY7
340
0
102
{BLKREFS
331
395
102
}
  0
BLOCK_RECORD
  5
397
330
1
100
AcDbSymbolTableRecord
100
AcDbBlockTableRecord
  2
POLY8
340
0
102
{BLKREFS
331
3A6
102
}
  0
BLOCK_RECORD
  5
3D0
330
1
100
AcDbSymbolTableRecord
100
AcDbBlockTableRecord
  2
POLY9
340
0
102
{BLKREFS
331
3DF
102
}
  0
BLOCK_RECORD
  5
3EF
330
1
100
AcDbSymbolTableRecord
100
AcDbBlockTableRecord
  2
POLY10
340
0
102
{BLKREFS
331
3FE
102
}
  0
BLOCK_RECORD
  5
400
330
1
100
AcDbSymbolTableRecord
100
AcDbBlockTableRecord
  2
POLY11
340
0
102
{BLKREFS
331
40F
102
}
  0
BLOCK_RECORD
  5
436
330
1
100
AcDbSymbolTableRecord
100
AcDbBlockTableRecord
  2
POLY12
340
0
102
{BLKREFS
331
445
102
}
  0
BLOCK_RECORD
  5
455
330
1
100
AcDbSymbolTableRecord
100
AcDbBlockTableRecord
  2
*D16
340
0
  0
BLOCK_RECORD
  5
472
330
1
100
AcDbSymbolTableRecord
100
AcDbBlockTableRecord
  2
*D17
340
0
  0
BLOCK_RECORD
  5
480
330
1
100
AcDbSymbolTableRecord
100
AcDbBlockTableRecord
  2
*D18
340
0
  0
BLOCK_RECORD
  5
48A
330
1
100
AcDbSymbolTableRecord
100
AcDbBlockTableRecord
  2
*D19
340
0
  0
BLOCK_RECORD
  5
493
330
1
100
AcDbSymbolTableRecord
100
AcDbBlockTableRecord
  2
*D20
340
0
  0
BLOCK_RECORD
  5
4A0
330
1
100
AcDbSymbolTableRecord
100
AcDbBlockTableRecord
  2
*D21
340
0
  0
BLOCK_RECORD
  5
4AD
330
1
100
AcDbSymbolTableRecord
100
AcDbBlockTableRecord
  2
*D22
340
0
  0
BLOCK_RECORD
  5
4DC
330
1
100
AcDbSymbolTableRecord
100
AcDbBlockTableRecord
  2
*D23
340
0
  0
BLOCK_RECORD
  5
4E9
330
1
100
AcDbSymbolTableRecord
100
AcDbBlockTableRecord
  2
*D24
340
0
  0
BLOCK_RECORD
  5
4F6
330
1
100
AcDbSymbolTableRecord
100
AcDbBlockTableRecord
  2
*D25
340
0
  0
BLOCK_RECORD
  5
503
330
1
100
AcDbSymbolTableRecord
100
AcDbBlockTableRecord
  2
*D26
340
0
  0
BLOCK_RECORD
  5
515
330
1
100
AcDbSymbolTableRecord
100
AcDbBlockTableRecord
  2
*X127
340
0
102
{BLKREFS
331
51D
102
}
  0
BLOCK_RECORD
  5
527
330
1
100
AcDbSymbolTableRecord
100
AcDbBlockTableRecord
  2
*X228
340
0
102
{BLKREFS
331
531
102
}
  0
BLOCK_RECORD
  5
533
330
1
100
AcDbSymbolTableRecord
100
AcDbBlockTableRecord
  2
*D29
340
0
  0
BLOCK_RECORD
  5
557
330
1
100
AcDbSymbolTableRecord
100
AcDbBlockTableRecord
  2
POLY13
340
0
102
{BLKREFS
331
580
102
}
  0
BLOCK_RECORD
  5
5B3
330
1
100
AcDbSymbolTableRecord
100
AcDbBlockTableRecord
  2
*X331
340
0
102
{BLKREFS
331
5B9
102
}
  0
BLOCK_RECORD
  5
5BC
330
1
100
AcDbSymbolTableRecord
100
AcDbBlockTableRecord
  2
*D32
340
0
  0
BLOCK_RECORD
  5
5C9
330
1
100
AcDbSymbolTableRecord
100
AcDbBlockTableRecord
  2
*D33
340
0
  0
BLOCK_RECORD
  5
5D7
330
1
100
AcDbSymbolTableRecord
100
AcDbBlockTableRecord
  2
*D34
340
0
  0
BLOCK_RECORD
  5
5E4
330
1
100
AcDbSymbolTableRecord
100
AcDbBlockTableRecord
  2
*D35
340
0
  0
ENDTAB
  0
ENDSEC
  0
SECTION
  2
BLOCKS
  0
BLOCK
  5
20
330
1F
100
AcDbEntity
  8
0
100
AcDbBlockBegin
  2
*Model_Space
 70
     0
 71
     0
 10
0.0
 20
0.0
 30
0.0
  3
*Model_Space
  1

  0
ENDBLK
  5
21
330
1F
100
AcDbEntity
  8
0
100
AcDbBlockEnd
  0
BLOCK
  5
1C
330
1B
100
AcDbEntity
 67
     1
  8
0
100
AcDbBlockBegin
  2
*Paper_Space
 70
     0
 71
     0
 10
0.0
 20
0.0
 30
0.0
  3
*Paper_Space
  1

  0
ENDBLK
  5
1D
330
1B
100
AcDbEntity
 67
     1
  8
0
100
AcDbBlockEnd
  0
BLOCK
  5
24
330
23
100
AcDbEntity
  8
0
100
AcDbBlockBegin
  2
*Paper_Space0
 70
     0
 71
     0
 10
0.0
 20
0.0
 30
0.0
  3
*Paper_Space0
  1

  0
ENDBLK
  5
25
330
23
100
AcDbEntity
  8
0
100
AcDbBlockEnd
  0
BLOCK
  5
31
330
30
100
AcDbEntity
  8
0
100
AcDbBlockBegin
  2
SYM1
 70
     0
 71
     0
 10
0.0
 20
0.0
 30
0.0
  3
SYM1
  1

  4
SYM1
  0
LINE
  5
34
330
30
100
AcDbEntity
  8
LC-001-111-----0
 62
   253
370
    50
100
AcDbLine
 10
2050.0
 20
50.0
 30
0.0
 11
2050.0
 21
2920.0
 31
0.0
  0
LINE
  5
35
330
30
100
AcDbEntity
  8
LC-001-111-----0
 62
   253
370
    25
100
AcDbLine
 10
178.0
 20
220.0
 30
0.0
 11
724.0
 21
220.0
 31
0.0
  0
LINE
  5
36
330
30
100
AcDbEntity
  8
LC-001-111-----0
 62
   253
370
    35
100
AcDbLine
 10
724.0
 20
220.0
 30
0.0
 11
2050.0
 21
220.0
 31
0.0
  0
LINE
  5
37
330
30
100
AcDbEntity
  8
LC-001-111-----0
 62
   253
370
    50
100
AcDbLine
 10
178.0
 20
602.5
 30
0.0
 11
2050.0
 21
602.5
 31
0.0
  0
LINE
  5
38
330
30
100
AcDbEntity
  8
LC-001-111-----0
 62
   253
370
    25
100
AcDbLine
 10
178.0
 20
92.5
 30
0.0
 11
2050.0
 21
92.5
 31
0.0
  0
LINE
  5
39
330
30
100
AcDbEntity
  8
LC-001-111-----0
 62
   253
370
    25
100
AcDbLine
 10
178.0
 20
135.0
 30
0.0
 11
724.0
 21
135.0
 31
0.0
  0
LINE
  5
3A
330
30
100
AcDbEntity
  8
LC-001-111-----0
 62
   253
370
    25
100
AcDbLine
 10
178.0
 20
177.5
 30
0.0
 11
724.0
 21
177.5
 31
0.0
  0
LINE
  5
3B
330
30
100
AcDbEntity
  8
LC-001-111-----0
 62
   253
370
    25
100
AcDbLine
 10
178.0
 20
262.5
 30
0.0
 11
1166.0
 21
262.5
 31
0.0
  0
LINE
  5
3C
330
30
100
AcDbEntity
  8
LC-001-111-----0
 62
   253
370
    25
100
AcDbLine
 10
178.0
 20
305.0
 30
0.0
 11
1166.0
 21
305.0
 31
0.0
  0
LINE
  5
3D
330
30
100
AcDbEntity
  8
LC-001-111-----0
 62
   253
370
    25
100
AcDbLine
 10
178.0
 20
347.5
 30
0.0
 11
1166.0
 21
347.5
 31
0.0
  0
LINE
  5
3E
330
30
100
AcDbEntity
  8
LC-001-111-----0
 62
   253
370
    25
100
AcDbLine
 10
178.0
 20
390.0
 30
0.0
 11
1166.0
 21
390.0
 31
0.0
  0
LINE
  5
3F
330
30
100
AcDbEntity
  8
LC-001-111-----0
 62
   253
370
    35
100
AcDbLine
 10
178.0
 20
432.5
 30
0.0
 11
2050.0
 21
432.5
 31
0.0
  0
LINE
  5
40
330
30
100
AcDbEntity
  8
LC-001-111-----0
 62
   253
370
    25
100
AcDbLine
 10
828.0
 20
262.5
 30
0.0
 11
828.0
 21
432.5
 31
0.0
  0
LINE
  5
41
330
30
100
AcDbEntity
  8
LC-001-111-----0
 62
   253
370
    35
100
AcDbLine
 10
1920.0
 20
92.5
 30
0.0
 11
1920.0
 21
220.0
 31
0.0
  0
LINE
  5
42
330
30
100
AcDbEntity
  8
LC-001-111-----0
 62
   253
370
    25
100
AcDbLine
 10
1166.0
 20
538.75
 30
0.0
 11
2050.0
 21
538.75
 31
0.0
  0
LINE
  5
43
330
30
100
AcDbEntity
  8
LC-001-111-----0
 62
   253
370
    25
100
AcDbLine
 10
256.0
 20
50.0
 30
0.0
 11
256.0
 21
432.5
 31
0.0
  0
LINE
  5
44
330
30
100
AcDbEntity
  8
LC-001-111-----0
 62
   253
370
    25
100
AcDbLine
 10
516.0
 20
50.0
 30
0.0
 11
516.0
 21
432.5
 31
0.0
  0
LINE
  5
45
330
30
100
AcDbEntity
  8
LC-001-111-----0
 62
   253
370
    25
100
AcDbLine
 10
646.0
 20
50.0
 30
0.0
 11
646.0
 21
432.5
 31
0.0
  0
LINE
  5
46
330
30
100
AcDbEntity
  8
LC-001-111-----0
 62
   253
370
    35
100
AcDbLine
 10
724.0
 20
50.0
 30
0.0
 11
724.0
 21
602.5
 31
0.0
  0
LINE
  5
47
330
30
100
AcDbEntity
  8
LC-001-111-----0
 62
   253
370
    35
100
AcDbLine
 10
1166.0
 20
50.0
 30
0.0
 11
1166.0
 21
602.5
 31
0.0
  0
LINE
  5
48
330
30
100
AcDbEntity
  8
LC-001-111-----0
 62
   253
370
    25
100
AcDbLine
 10
1920.0
 20
135.0
 30
0.0
 11
2050.0
 21
135.0
 31
0.0
  0
LINE
  5
49
330
30
100
AcDbEntity
  8
LC-001-111-----0
 62
   253
370
    25
100
AcDbLine
 10
984.0
 20
220.0
 30
0.0
 11
984.0
 21
602.5
 31
0.0
  0
LINE
  5
4A
330
30
100
AcDbEntity
  8
LC-001-111-----0
 62
   253
370
    25
100
AcDbLine
 10
1686.0
 20
538.75
 30
0.0
 11
1686.0
 21
602.5
 31
0.0
  0
LINE
  5
4B
330
30
100
AcDbEntity
  8
LC-001-111-----0
 62
   253
370
    25
100
AcDbLine
 10
1608.0
 20
50.0
 30
0.0
 11
1608.0
 21
92.5
 31
0.0
  0
LINE
  5
4C
330
30
100
AcDbEntity
  8
LC-001-111-----0
 62
   253
370
    50
100
AcDbLine
 10
178.0
 20
50.0
 30
0.0
 11
178.0
 21
2920.0
 31
0.0
  0
LINE
  5
4D
330
30
100
AcDbEntity
  8
LC-001-111-----0
 62
   253
370
    50
100
AcDbLine
 10
178.0
 20
2920.0
 30
0.0
 11
2050.0
 21
2920.0
 31
0.0
  0
TEXT
  5
4E
330
30
100
AcDbEntity
  8
LC-001-111-----0
 62
     7
370
    25
100
AcDbText
 10
1471.410714
 20
558.125
 30
0.0
 40
25.0
  1
1:10
 41
0.75
  7
LCTX0-400-0-0pDIN-Schrift
 72
     1
 11
1504.0
 21
558.125
 31
0.0
100
AcDbText
  0
TEXT
  5
4F
330
30
100
AcDbEntity
  8
LC-001-111-----0
 62
     7
370
    25
100
AcDbText
 10
740.285714
 20
398.75
 30
0.0
 40
25.0
  1
2010
 41
0.75
  7
LCTX0-400-0-0pDIN-Schrift
 72
     1
 11
776.0
 21
398.75
 31
0.0
100
AcDbText
  0
TEXT
  5
50
330
30
100
AcDbEntity
  8
LC-001-111-----0
 62
     7
370
    25
100
AcDbText
 10
861.803571
 20
356.25
 30
0.0
 40
25.0
  1
09.03.
 41
0.75
  7
LCTX0-400-0-0pDIN-Schrift
 72
     1
 11
906.0
 21
356.25
 31
0.0
100
AcDbText
  0
TEXT
  5
51
330
30
100
AcDbEntity
  8
LC-001-111-----0
 62
     7
370
    25
100
AcDbText
 10
1056.696429
 20
356.25
 30
0.0
 40
25.0
  1
HÄ
 41
0.75
  7
LCTX0-400-0-0pDIN-Schrift
 72
     1
 11
1075.0
 21
356.25
 31
0.0
100
AcDbText
  0
TEXT
  5
52
330
30
100
AcDbEntity
  8
LC-001-111-----0
 62
   253
370
    20
100
AcDbText
 10
1183.923077
 20
560.625
 30
0.0
 40
20.0
  1
Maßstab
 41
0.75
  7
LCTX0-400-0-0pDIN-Schrift
100
AcDbText
  0
TEXT
  5
53
330
30
100
AcDbEntity
  8
LC-001-111-----0
 62
   253
370
    20
100
AcDbText
 10
869.928571
 20
401.25
 30
0.0
 40
20.0
  1
Datum
 41
0.75
  7
LCTX0-400-0-0pDIN-Schrift
 72
     1
 11
906.0
 21
401.25
 31
0.0
100
AcDbText
  0
TEXT
  5
54
330
30
100
AcDbEntity
  8
LC-001-111-----0
 62
   253
370
    20
100
AcDbText
 10
1042.857143
 20
401.25
 30
0.0
 40
20.0
  1
Name
 41
0.75
  7
LCTX0-400-0-0pDIN-Schrift
 72
     1
 11
1075.0
 21
401.25
 31
0.0
100
AcDbText
  0
TEXT
  5
55
330
30
100
AcDbEntity
  8
LC-001-111-----0
 62
   253
370
    20
100
AcDbText
 10
741.923077
 20
358.75
 30
0.0
 40
20.0
  1
Bearb.
 41
0.75
  7
LCTX0-400-0-0pDIN-Schrift
100
AcDbText
  0
TEXT
  5
56
330
30
100
AcDbEntity
  8
LC-001-111-----0
 62
   253
370
    20
100
AcDbText
 10
741.923077
 20
316.25
 30
0.0
 40
20.0
  1
Gepr.
 41
0.75
  7
LCTX0-400-0-0pDIN-Schrift
100
AcDbText
  0
TEXT
  5
57
330
30
100
AcDbEntity
  8
LC-001-111-----0
 62
   253
370
    20
100
AcDbText
 10
741.923077
 20
273.75
 30
0.0
 40
20.0
  1
Norm
 41
0.75
  7
LCTX0-400-0-0pDIN-Schrift
100
AcDbText
  0
TEXT
  5
58
330
30
100
AcDbEntity
  8
LC-001-111-----0
 62
   253
370
    20
100
AcDbText
 10
1937.923077
 20
188.75
 30
0.0
 40
20.0
  1
Blatt
 41
0.75
  7
LCTX0-400-0-0pDIN-Schrift
100
AcDbText
  0
TEXT
  5
59
330
30
100
AcDbEntity
  8
LC-001-111-----0
 62
   253
370
    20
100
AcDbText
 10
2012.076923
 20
103.75
 30
0.0
 40
20.0
  1
Bl.
 41
0.75
  7
LCTX0-400-0-0pDIN-Schrift
 72
     2
 11
2037.076923
 21
103.75
 31
0.0
100
AcDbText
  0
TEXT
  5
5A
330
30
100
AcDbEntity
  8
LC-001-111-----0
 62
   253
370
    20
100
AcDbText
 10
200.0
 20
61.25
 30
0.0
 40
20.0
  1
Zust.
 41
0.6
  7
LCTX0-400-0-0pDIN-Schrift
 72
     1
 11
222.0
 21
61.25
 31
0.0
100
AcDbText
  0
TEXT
  5
5B
330
30
100
AcDbEntity
  8
LC-001-111-----0
 62
   253
370
    20
100
AcDbText
 10
334.928571
 20
61.25
 30
0.0
 40
20.0
  1
Änderung
 41
0.75
  7
LCTX0-400-0-0pDIN-Schrift
 72
     1
 11
386.0
 21
61.25
 31
0.0
100
AcDbText
  0
TEXT
  5
5C
330
30
100
AcDbEntity
  8
LC-001-111-----0
 62
   253
370
    20
100
AcDbText
 10
544.928571
 20
61.25
 30
0.0
 40
20.0
  1
Datum
 41
0.75
  7
LCTX0-400-0-0pDIN-Schrift
 72
     1
 11
581.0
 21
61.25
 31
0.0
100
AcDbText
  0
TEXT
  5
5D
330
30
100
AcDbEntity
  8
LC-001-111-----0
 62
   253
370
    20
100
AcDbText
 10
652.857143
 20
61.25
 30
0.0
 40
20.0
  1
Name
 41
0.75
  7
LCTX0-400-0-0pDIN-Schrift
 72
     1
 11
685.0
 21
61.25
 31
0.0
100
AcDbText
  0
TEXT
  5
5E
330
30
100
AcDbEntity
  8
LC-001-111-----0
 62
     7
370
    50
100
AcDbText
 10
1466.035714
 20
343.75
 30
0.0
 40
50.0
  1
City D200
 41
0.75
  7
LCTX0-400-0-0pDIN-Schrift
 72
     1
 11
1608.0
 21
343.75
 31
0.0
100
AcDbText
  0
TEXT
  5
5F
330
30
100
AcDbEntity
  8
LC-001-111-----0
 62
     7
370
    50
100
AcDbText
 10
1328.714286
 20
131.25
 30
0.0
 40
50.0
  1
4.10.752.04.00
 41
0.75
  7
LCTX0-400-0-0pDIN-Schrift
 72
     1
 11
1543.0
 21
131.25
 31
0.0
100
AcDbText
  0
ARC
  5
60
330
30
100
AcDbEntity
  8
LC-001-111-----0
 62
   253
370
    25
100
AcDbCircle
 10
758.903191
 20
174.567744
 30
0.0
 40
20.81533311668208
100
AcDbArc
 50
62.408264
 51
94.48185
  0
LINE
  5
61
330
30
100
AcDbEntity
  8
LC-001-111-----0
 62
   253
370
    50
100
AcDbLine
 10
178.0
 20
50.0
 30
0.0
 11
2050.0
 21
50.0
 31
0.0
  0
LINE
  5
62
330
30
100
AcDbEntity
  8
LC-001-111-----0
 62
   253
370
    25
100
AcDbLine
 10
50.0
 20
1485.0
 30
0.0
 11
0.0
 21
1485.0
 31
0.0
  0
LINE
  5
63
330
30
100
AcDbEntity
  8
LC-001-111-----0
 62
   253
370
    25
100
AcDbLine
 10
1063.835603
 20
195.169147
 30
0.0
 11
1063.835603
 21
157.149147
 31
0.0
  0
LINE
  5
64
330
30
100
AcDbEntity
  8
LC-001-111-----0
 62
   253
370
    25
100
AcDbLine
 10
2100.0
 20
2970.0
 30
0.0
 11
2100.0
 21
0.0
 31
0.0
  0
LINE
  5
65
330
30
100
AcDbEntity
  8
LC-001-111-----0
 62
   253
370
    25
100
AcDbLine
 10
2100.0
 20
0.0
 30
0.0
 11
0.0
 21
0.0
 31
0.0
  0
LINE
  5
66
330
30
100
AcDbEntity
  8
LC-001-111-----0
 62
   253
370
    25
100
AcDbLine
 10
0.0
 20
0.0
 30
0.0
 11
0.0
 21
2970.0
 31
0.0
  0
LINE
  5
67
330
30
100
AcDbEntity
  8
LC-001-111-----0
 62
   253
370
    25
100
AcDbLine
 10
2100.0
 20
2970.0
 30
0.0
 11
0.0
 21
2970.0
 31
0.0
  0
TEXT
  5
68
330
30
100
AcDbEntity
  8
LC-001-111-----0
 62
   253
370
    20
100
AcDbText
 10
743.5
 20
111.159147
 30
0.0
 40
20.0
  1
Hofbauerstraße 1  ·  D-94209 REGEN
 41
0.65
  7
LCTX0-400-0-0pDIN-Schrift
 72
     1
 11
945.0
 21
111.159147
 31
0.0
100
AcDbText
  0
ARC
  5
69
330
30
100
AcDbEntity
  8
LC-001-111-----0
 62
   253
370
    25
100
AcDbCircle
 10
758.032826
 20
185.671748
 30
0.0
 40
9.677270814709853
100
AcDbArc
 50
94.48185
 51
252.731329
  0
ARC
  5
6A
330
30
100
AcDbEntity
  8
LC-001-111-----0
 62
   253
370
    25
100
AcDbCircle
 10
823.845603
 20
176.159147
 30
0.0
 40
19.01000000000008
100
AcDbArc
 50
74.719456
 51
285.280544
  0
LINE
  5
6B
330
30
100
AcDbEntity
  8
LC-001-111-----0
 62
   253
370
    25
100
AcDbLine
 10
828.855603
 20
157.821208
 30
0.0
 11
828.855603
 21
163.204148
 31
0.0
  0
ARC
  5
6C
330
30
100
AcDbEntity
  8
LC-001-111-----0
 62
   253
370
    25
100
AcDbCircle
 10
823.845603
 20
176.159147
 30
0.0
 40
13.88999999999995
100
AcDbArc
 50
68.857352
 51
291.142648
  0
ARC
  5
6D
330
30
100
AcDbEntity
  8
LC-001-111-----0
 62
   253
370
    25
100
AcDbCircle
 10
823.845603
 20
176.159147
 30
0.0
 40
12.39000000000002
100
AcDbArc
 50
58.303227
 51
301.696773
  0
ARC
  5
6E
330
30
100
AcDbEntity
  8
LC-001-111-----0
 62
   253
370
    25
100
AcDbCircle
 10
1019.845603
 20
176.159147
 30
0.0
 40
19.01000000000008
100
AcDbArc
 50
74.719456
 51
285.280544
  0
LINE
  5
6F
330
30
100
AcDbEntity
  8
LC-001-111-----0
 62
   253
370
    25
100
AcDbLine
 10
830.355603
 20
165.617231
 30
0.0
 11
830.355603
 21
156.709726
 31
0.0
  0
LINE
  5
70
330
30
100
AcDbEntity
  8
LC-001-111-----0
 62
   253
370
    25
100
AcDbLine
 10
755.160101
 20
176.430697
 30
0.0
 11
762.683613
 21
174.091896
 31
0.0
  0
ARC
  5
71
330
30
100
AcDbEntity
  8
LC-001-111-----0
 62
   253
370
    25
100
AcDbCircle
 10
823.845603
 20
176.159147
 30
0.0
 40
20.51000000000012
100
AcDbArc
 50
71.493868
 51
288.506132
  0
LINE
  5
72
330
30
100
AcDbEntity
  8
LC-001-111-----0
 62
   253
370
    25
100
AcDbLine
 10
1024.855603
 20
157.821208
 30
0.0
 11
1024.855603
 21
163.204148
 31
0.0
  0
LINE
  5
73
330
30
100
AcDbEntity
  8
LC-001-111-----0
 62
   253
370
    25
100
AcDbLine
 10
830.355603
 20
195.608569
 30
0.0
 11
830.355603
 21
186.701063
 31
0.0
  0
ARC
  5
74
330
30
100
AcDbEntity
  8
LC-001-111-----0
 62
   253
370
    25
100
AcDbCircle
 10
1019.845603
 20
176.159147
 30
0.0
 40
13.88999999999995
100
AcDbArc
 50
68.857352
 51
291.142648
  0
LINE
  5
75
330
30
100
AcDbEntity
  8
LC-001-111-----0
 62
   253
370
    25
100
AcDbLine
 10
862.835603
 20
155.649147
 30
0.0
 11
862.835603
 21
196.669147
 31
0.0
  0
LINE
  5
76
330
30
100
AcDbEntity
  8
LC-001-111-----0
 62
   253
370
    25
100
AcDbLine
 10
862.835603
 20
196.669147
 30
0.0
 11
872.355603
 21
196.669147
 31
0.0
  0
LINE
  5
77
330
30
100
AcDbEntity
  8
LC-001-111-----0
 62
   253
370
    25
100
AcDbLine
 10
872.355603
 20
196.669147
 30
0.0
 11
872.355603
 21
179.519147
 31
0.0
  0
LINE
  5
78
330
30
100
AcDbEntity
  8
LC-001-111-----0
 62
   253
370
    25
100
AcDbLine
 10
872.355603
 20
179.519147
 30
0.0
 11
887.335603
 21
179.519147
 31
0.0
  0
LINE
  5
79
330
30
100
AcDbEntity
  8
LC-001-111-----0
 62
   253
370
    25
100
AcDbLine
 10
887.335603
 20
179.519147
 30
0.0
 11
887.335603
 21
196.669147
 31
0.0
  0
LINE
  5
7A
330
30
100
AcDbEntity
  8
LC-001-111-----0
 62
   253
370
    25
100
AcDbLine
 10
887.335603
 20
196.669147
 30
0.0
 11
896.855603
 21
196.669147
 31
0.0
  0
LINE
  5
7B
330
30
100
AcDbEntity
  8
LC-001-111-----0
 62
   253
370
    25
100
AcDbLine
 10
896.855603
 20
196.669147
 30
0.0
 11
896.855603
 21
155.649147
 31
0.0
  0
LINE
  5
7C
330
30
100
AcDbEntity
  8
LC-001-111-----0
 62
   253
370
    25
100
AcDbLine
 10
896.855603
 20
155.649147
 30
0.0
 11
887.335603
 21
155.649147
 31
0.0
  0
LINE
  5
7D
330
30
100
AcDbEntity
  8
LC-001-111-----0
 62
   253
370
    25
100
AcDbLine
 10
887.335603
 20
155.649147
 30
0.0
 11
887.335603
 21
172.799147
 31
0.0
  0
LINE
  5
7E
330
30
100
AcDbEntity
  8
LC-001-111-----0
 62
   253
370
    25
100
AcDbLine
 10
887.335603
 20
172.799147
 30
0.0
 11
872.355603
 21
172.799147
 31
0.0
  0
LINE
  5
7F
330
30
100
AcDbEntity
  8
LC-001-111-----0
 62
   253
370
    25
100
AcDbLine
 10
872.355603
 20
172.799147
 30
0.0
 11
872.355603
 21
155.649147
 31
0.0
  0
LINE
  5
80
330
30
100
AcDbEntity
  8
LC-001-111-----0
 62
   253
370
    25
100
AcDbLine
 10
872.355603
 20
155.649147
 30
0.0
 11
862.835603
 21
155.649147
 31
0.0
  0
CIRCLE
  5
81
330
30
100
AcDbEntity
  8
LC-001-111-----0
 62
   253
370
    25
100
AcDbCircle
 10
946.345603
 20
176.159147
 30
0.0
 40
12.39000000000044
  0
CIRCLE
  5
82
330
30
100
AcDbEntity
  8
LC-001-111-----0
 62
   253
370
    25
100
AcDbCircle
 10
946.345603
 20
176.159147
 30
0.0
 40
20.51000000000049
  0
ARC
  5
83
330
30
100
AcDbEntity
  8
LC-001-111-----0
 62
   253
370
    25
100
AcDbCircle
 10
1019.845603
 20
176.159147
 30
0.0
 40
12.39000000000002
100
AcDbArc
 50
58.303227
 51
301.696773
  0
LINE
  5
84
330
30
100
AcDbEntity
  8
LC-001-111-----0
 62
   253
370
    25
100
AcDbLine
 10
864.335603
 20
195.169147
 30
0.0
 11
864.335603
 21
157.149147
 31
0.0
  0
LINE
  5
85
330
30
100
AcDbEntity
  8
LC-001-111-----0
 62
   253
370
    25
100
AcDbLine
 10
1026.355603
 20
165.617231
 30
0.0
 11
1026.355603
 21
156.709726
 31
0.0
  0
LINE
  5
86
330
30
100
AcDbEntity
  8
LC-001-111-----0
 62
   253
370
    25
100
AcDbLine
 10
864.335603
 20
157.149147
 30
0.0
 11
870.855603
 21
157.149147
 31
0.0
  0
LINE
  5
87
330
30
100
AcDbEntity
  8
LC-001-111-----0
 62
   253
370
    25
100
AcDbLine
 10
870.855603
 20
157.149147
 30
0.0
 11
870.855603
 21
174.299147
 31
0.0
  0
LINE
  5
88
330
30
100
AcDbEntity
  8
LC-001-111-----0
 62
   253
370
    25
100
AcDbLine
 10
870.855603
 20
174.299147
 30
0.0
 11
888.835603
 21
174.299147
 31
0.0
  0
LINE
  5
89
330
30
100
AcDbEntity
  8
LC-001-111-----0
 62
   253
370
    25
100
AcDbLine
 10
888.835603
 20
174.299147
 30
0.0
 11
888.835603
 21
157.149147
 31
0.0
  0
LINE
  5
8A
330
30
100
AcDbEntity
  8
LC-001-111-----0
 62
   253
370
    25
100
AcDbLine
 10
888.835603
 20
157.149147
 30
0.0
 11
895.355603
 21
157.149147
 31
0.0
  0
LINE
  5
8B
330
30
100
AcDbEntity
  8
LC-001-111-----0
 62
   253
370
    25
100
AcDbLine
 10
895.355603
 20
157.149147
 30
0.0
 11
895.355603
 21
195.169147
 31
0.0
  0
LINE
  5
8C
330
30
100
AcDbEntity
  8
LC-001-111-----0
 62
   253
370
    25
100
AcDbLine
 10
895.355603
 20
195.169147
 30
0.0
 11
888.835603
 21
195.169147
 31
0.0
  0
LINE
  5
8D
330
30
100
AcDbEntity
  8
LC-001-111-----0
 62
   253
370
    25
100
AcDbLine
 10
888.835603
 20
195.169147
 30
0.0
 11
888.835603
 21
178.019147
 31
0.0
  0
LINE
  5
8E
330
30
100
AcDbEntity
  8
LC-001-111-----0
 62
   253
370
    25
100
AcDbLine
 10
888.835603
 20
178.019147
 30
0.0
 11
870.855603
 21
178.019147
 31
0.0
  0
LINE
  5
8F
330
30
100
AcDbEntity
  8
LC-001-111-----0
 62
   253
370
    25
100
AcDbLine
 10
870.855603
 20
178.019147
 30
0.0
 11
870.855603
 21
195.169147
 31
0.0
  0
CIRCLE
  5
90
330
30
100
AcDbEntity
  8
LC-001-111-----0
 62
   253
370
    25
100
AcDbCircle
 10
946.345603
 20
176.159147
 30
0.0
 40
19.01000000000055
  0
ARC
  5
91
330
30
100
AcDbEntity
  8
LC-001-111-----0
 62
   253
370
    25
100
AcDbCircle
 10
760.836588
 20
168.15034
 30
0.0
 40
6.222024781007809
100
AcDbArc
 50
268.246912
 51
72.731329
  0
ARC
  5
92
330
30
100
AcDbEntity
  8
LC-001-111-----0
 62
   253
370
    25
100
AcDbCircle
 10
761.412387
 20
186.963179
 30
0.0
 40
25.04367341134793
100
AcDbArc
 50
239.19233
 51
268.246912
  0
LINE
  5
93
330
30
100
AcDbEntity
  8
LC-001-111-----0
 62
   253
370
    25
100
AcDbLine
 10
748.586073
 20
165.453385
 30
0.0
 11
748.586073
 21
160.350534
 31
0.0
  0
ARC
  5
94
330
30
100
AcDbEntity
  8
LC-001-111-----0
 62
   253
370
    25
100
AcDbCircle
 10
760.81067
 20
180.45076
 30
0.0
 40
23.52572762426598
100
AcDbArc
 50
238.692783
 51
274.343327
  0
ARC
  5
95
330
30
100
AcDbEntity
  8
LC-001-111-----0
 62
   253
370
    25
100
AcDbCircle
 10
1019.845603
 20
176.159147
 30
0.0
 40
20.51000000000012
100
AcDbArc
 50
71.493868
 51
288.506132
  0
ARC
  5
96
330
30
100
AcDbEntity
  8
LC-001-111-----0
 62
   253
370
    25
100
AcDbCircle
 10
761.779647
 20
167.692822
 30
0.0
 40
10.73104525444839
100
AcDbArc
 50
274.343327
 51
74.255463
  0
LINE
  5
97
330
30
100
AcDbEntity
  8
LC-001-111-----0
 62
   253
370
    25
100
AcDbLine
 10
1026.355603
 20
195.608569
 30
0.0
 11
1026.355603
 21
186.701063
 31
0.0
  0
LINE
  5
98
330
30
100
AcDbEntity
  8
LC-001-111-----0
 62
   253
370
    25
100
AcDbLine
 10
764.691502
 20
178.02125
 30
0.0
 11
757.135251
 21
180.151556
 31
0.0
  0
LINE
  5
99
330
30
100
AcDbEntity
  8
LC-001-111-----0
 62
   253
370
    25
100
AcDbLine
 10
1024.855603
 20
189.114146
 30
0.0
 11
1024.855603
 21
194.497086
 31
0.0
  0
ARC
  5
9A
330
30
100
AcDbEntity
  8
LC-001-111-----0
 62
   253
370
    25
100
AcDbCircle
 10
758.632108
 20
185.460948
 30
0.0
 40
5.51636013010035
100
AcDbArc
 50
90.951212
 51
254.255463
  0
ARC
  5
9B
330
30
100
AcDbEntity
  8
LC-001-111-----0
 62
   253
370
    25
100
AcDbCircle
 10
758.906662
 20
168.924866
 30
0.0
 40
22.05472179307849
100
AcDbArc
 50
64.088485
 51
90.951212
  0
LINE
  5
9C
330
30
100
AcDbEntity
  8
LC-001-111-----0
 62
   253
370
    25
100
AcDbLine
 10
768.544191
 20
188.762426
 30
0.0
 11
768.544191
 21
193.015758
 31
0.0
  0
LINE
  5
9D
330
30
100
AcDbEntity
  8
LC-001-111-----0
 62
   253
370
    25
100
AcDbLine
 10
1071.855603
 20
177.513832
 30
0.0
 11
1087.818366
 21
196.669147
 31
0.0
  0
LINE
  5
9E
330
30
100
AcDbEntity
  8
LC-001-111-----0
 62
   253
370
    25
100
AcDbLine
 10
1087.818366
 20
196.669147
 30
0.0
 11
1099.299433
 21
196.669147
 31
0.0
  0
LINE
  5
9F
330
30
100
AcDbEntity
  8
LC-001-111-----0
 62
   253
370
    25
100
AcDbLine
 10
1099.299433
 20
196.669147
 30
0.0
 11
1082.207766
 21
176.159147
 31
0.0
  0
LINE
  5
A1
330
30
100
AcDbEntity
  8
LC-002-002-----0
 62
     1
370
    25
100
AcDbLine
 10
1143.855603
 20
159.963432
 30
0.0
 11
1143.855603
 21
192.354862
 31
0.0
  0
LINE
  5
A2
330
30
100
AcDbEntity
  8
LC-002-002-----0
 62
     1
370
    25
100
AcDbLine
 10
1143.855603
 20
192.354862
 30
0.0
 11
1127.659888
 21
176.159147
 31
0.0
  0
LINE
  5
A3
330
30
100
AcDbEntity
  8
LC-002-002-----0
 62
     1
370
    25
100
AcDbLine
 10
1127.659888
 20
176.159147
 30
0.0
 11
1143.855603
 21
159.963432
 31
0.0
  0
LINE
  5
A4
330
30
100
AcDbEntity
  8
LC-002-002-----0
 62
     1
370
    25
100
AcDbLine
 10
1142.355603
 20
163.584752
 30
0.0
 11
1142.355603
 21
188.733542
 31
0.0
  0
LINE
  5
A5
330
30
100
AcDbEntity
  8
LC-001-111-----0
 62
   253
370
    25
100
AcDbLine
 10
1082.207766
 20
176.159147
 30
0.0
 11
1099.299433
 21
155.649147
 31
0.0
  0
LINE
  5
A6
330
30
100
AcDbEntity
  8
LC-001-111-----0
 62
   253
370
    25
100
AcDbLine
 10
1099.299433
 20
155.649147
 30
0.0
 11
1087.818366
 21
155.649147
 31
0.0
  0
LINE
  5
A7
330
30
100
AcDbEntity
  8
LC-001-111-----0
 62
   253
370
    25
100
AcDbLine
 10
1087.818366
 20
155.649147
 30
0.0
 11
1071.855603
 21
174.804462
 31
0.0
  0
LINE
  5
A8
330
30
100
AcDbEntity
  8
LC-001-111-----0
 62
   253
370
    25
100
AcDbLine
 10
1062.335603
 20
155.649147
 30
0.0
 11
1062.335603
 21
196.669147
 31
0.0
  0
LINE
  5
A9
330
30
100
AcDbEntity
  8
LC-001-111-----0
 62
   253
370
    25
100
AcDbLine
 10
828.855603
 20
189.114146
 30
0.0
 11
828.855603
 21
194.497086
 31
0.0
  0
ARC
  5
AA
330
30
100
AcDbEntity
  8
LC-001-111-----0
 62
   253
370
    25
100
AcDbCircle
 10
758.903191
 20
174.567744
 30
0.0
 40
19.31533311668209
100
AcDbArc
 50
65.072024
 51
94.48185
  0
LINE
  5
AB
330
30
100
AcDbEntity
  8
LC-001-111-----0
 62
   253
370
    25
100
AcDbLine
 10
1063.835603
 20
157.149147
 30
0.0
 11
1070.355603
 21
157.149147
 31
0.0
  0
LINE
  5
AC
330
30
100
AcDbEntity
  8
LC-001-111-----0
 62
   253
370
    25
100
AcDbLine
 10
1070.355603
 20
157.149147
 30
0.0
 11
1070.355603
 21
195.169147
 31
0.0
  0
LINE
  5
AD
330
30
100
AcDbEntity
  8
LC-001-111-----0
 62
   253
370
    25
100
AcDbLine
 10
1070.355603
 20
195.169147
 30
0.0
 11
1063.835603
 21
195.169147
 31
0.0
  0
LINE
  5
AE
330
30
100
AcDbEntity
  8
LC-001-111-----0
 62
   253
370
    25
100
AcDbLine
 10
1065.335603
 20
193.669147
 30
0.0
 11
1065.335603
 21
158.649147
 31
0.0
  0
LINE
  5
AF
330
30
100
AcDbEntity
  8
LC-002-002-----0
 62
     1
370
    25
100
AcDbLine
 10
1142.355603
 20
188.733542
 30
0.0
 11
1129.781208
 21
176.159147
 31
0.0
  0
LINE
  5
B0
330
30
100
AcDbEntity
  8
LC-002-002-----0
 62
     1
370
    25
100
AcDbLine
 10
1129.781208
 20
176.159147
 30
0.0
 11
1142.355603
 21
163.584752
 31
0.0
  0
LINE
  5
B1
330
30
100
AcDbEntity
  8
LC-001-111-----0
 62
   253
370
    25
100
AcDbLine
 10
1062.335603
 20
196.669147
 30
0.0
 11
1071.855603
 21
196.669147
 31
0.0
  0
LINE
  5
B2
330
30
100
AcDbEntity
  8
LC-001-111-----0
 62
   253
370
    25
100
AcDbLine
 10
1071.855603
 20
196.669147
 30
0.0
 11
1071.855603
 21
155.649147
 31
0.0
  0
LINE
  5
B3
330
30
100
AcDbEntity
  8
LC-001-111-----0
 62
   253
370
    25
100
AcDbLine
 10
1071.855603
 20
155.649147
 30
0.0
 11
1062.335603
 21
155.649147
 31
0.0
  0
ARC
  5
B4
330
30
100
AcDbEntity
  8
LC-001-111-----0
 62
   253
370
    25
100
AcDbCircle
 10
758.032826
 20
185.671748
 30
0.0
 40
8.177270814709827
100
AcDbArc
 50
94.48185
 51
252.731329
  0
LINE
  5
B5
330
30
100
AcDbEntity
  8
LC-001-111-----0
 62
   253
370
    25
100
AcDbLine
 10
755.60538
 20
177.863082
 30
0.0
 11
763.128892
 21
175.524281
 31
0.0
  0
ARC
  5
B6
330
30
100
AcDbEntity
  8
LC-001-111-----0
 62
   253
370
    25
100
AcDbCircle
 10
760.836588
 20
168.15034
 30
0.0
 40
7.72202478100773
100
AcDbArc
 50
268.246912
 51
72.731329
  0
LINE
  5
B7
330
30
100
AcDbEntity
  8
LC-001-111-----0
 62
   253
370
    25
100
AcDbLine
 10
827.355603
 20
191.143539
 30
0.0
 11
827.355603
 21
193.313738
 31
0.0
  0
ARC
  5
B8
330
30
100
AcDbEntity
  8
LC-001-111-----0
 62
   253
370
    25
100
AcDbCircle
 10
823.845603
 20
176.159147
 30
0.0
 40
17.50999999999996
100
AcDbArc
 50
78.436322
 51
281.563678
  0
LINE
  5
B9
330
30
100
AcDbEntity
  8
LC-001-111-----0
 62
   253
370
    25
100
AcDbLine
 10
827.355603
 20
159.004556
 30
0.0
 11
827.355603
 21
161.174755
 31
0.0
  0
LINE
  5
BA
330
30
100
AcDbEntity
  8
LC-002-002-----0
 62
     1
370
    25
100
AcDbLine
 10
1145.355603
 20
195.976182
 30
0.0
 11
1145.355603
 21
156.342112
 31
0.0
  0
LINE
  5
BB
330
30
100
AcDbEntity
  8
LC-002-002-----0
 62
     1
370
    25
100
AcDbLine
 10
1145.355603
 20
156.342112
 30
0.0
 11
1125.538568
 21
176.159147
 31
0.0
  0
LINE
  5
BC
330
30
100
AcDbEntity
  8
LC-002-002-----0
 62
     1
370
    25
100
AcDbLine
 10
1125.538568
 20
176.159147
 30
0.0
 11
1145.355603
 21
195.976182
 31
0.0
  0
LINE
  5
BD
330
30
100
AcDbEntity
  8
LC-001-111-----0
 62
   253
370
    25
100
AcDbLine
 10
1065.335603
 20
158.649147
 30
0.0
 11
1068.855603
 21
158.649147
 31
0.0
  0
LINE
  5
BE
330
30
100
AcDbEntity
  8
LC-001-111-----0
 62
   253
370
    25
100
AcDbLine
 10
1068.855603
 20
158.649147
 30
0.0
 11
1068.855603
 21
193.669147
 31
0.0
  0
LINE
  5
BF
330
30
100
AcDbEntity
  8
LC-001-111-----0
 62
   253
370
    25
100
AcDbLine
 10
1068.855603
 20
193.669147
 30
0.0
 11
1065.335603
 21
193.669147
 31
0.0
  0
LINE
  5
C0
330
30
100
AcDbEntity
  8
LC-001-111-----0
 62
   253
370
    25
100
AcDbLine
 10
1067.095603
 20
192.169147
 30
0.0
 11
1067.095603
 21
160.149147
 31
0.0
  0
ARC
  5
C1
330
30
100
AcDbEntity
  8
LC-001-111-----0
 62
   253
370
    25
100
AcDbCircle
 10
823.845603
 20
176.159147
 30
0.0
 40
15.38999999999992
100
AcDbArc
 50
76.816519
 51
283.183481
  0
LINE
  5
C2
330
30
100
AcDbEntity
  8
LC-001-111-----0
 62
   253
370
    25
100
AcDbLine
 10
870.855603
 20
195.169147
 30
0.0
 11
864.335603
 21
195.169147
 31
0.0
  0
LINE
  5
C3
330
30
100
AcDbEntity
  8
LC-001-111-----0
 62
   253
370
    25
100
AcDbLine
 10
1096.09687
 20
195.169147
 30
0.0
 11
1088.520928
 21
195.169147
 31
0.0
  0
LINE
  5
C4
330
30
100
AcDbEntity
  8
LC-001-111-----0
 62
   253
370
    25
100
AcDbLine
 10
865.835603
 20
158.649147
 30
0.0
 11
869.355603
 21
158.649147
 31
0.0
  0
LINE
  5
C5
330
30
100
AcDbEntity
  8
LC-001-111-----0
 62
   253
370
    25
100
AcDbLine
 10
1023.355603
 20
191.143539
 30
0.0
 11
1023.355603
 21
193.313738
 31
0.0
  0
LINE
  5
C6
330
30
100
AcDbEntity
  8
LC-001-111-----0
 62
   253
370
    25
100
AcDbLine
 10
892.095603
 20
192.169147
 30
0.0
 11
892.095603
 21
160.149147
 31
0.0
  0
TEXT
  5
C7
330
30
100
AcDbEntity
  8
LC-001-111-----0
 62
     1
370
    15
100
AcDbText
 10
1122.071429
 20
21.25
 30
0.0
 40
15.0
  1
City-D200
 41
0.75
  7
LCTX0-400-0-0pDIN-Schrift
 72
     1
 11
1166.0
 21
21.25
 31
0.0
100
AcDbText
  0
CIRCLE
  5
C8
330
30
100
AcDbEntity
  8
LC-001-111-----0
 62
   253
370
    25
100
AcDbCircle
 10
946.345603
 20
176.159147
 30
0.0
 40
17.51000000000047
  0
LINE
  5
C9
330
30
100
AcDbEntity
  8
LC-001-111-----0
 62
   253
370
    25
100
AcDbLine
 10
1088.520928
 20
195.169147
 30
0.0
 11
1072.679261
 21
176.159147
 31
0.0
  0
ARC
  5
CA
330
30
100
AcDbEntity
  8
LC-001-111-----0
 62
   253
370
    25
100
AcDbCircle
 10
1019.845603
 20
176.159147
 30
0.0
 40
17.50999999999996
100
AcDbArc
 50
78.436322
 51
281.563678
  0
ARC
  5
CB
330
30
100
AcDbEntity
  8
LC-001-111-----0
 62
   253
370
    25
100
AcDbCircle
 10
761.412387
 20
186.963179
 30
0.0
 40
26.54367341134783
100
AcDbArc
 50
244.741378
 51
268.246912
  0
LINE
  5
CC
330
30
100
AcDbEntity
  8
LC-001-111-----0
 62
   253
370
    25
100
AcDbLine
 10
1023.355603
 20
159.004556
 30
0.0
 11
1023.355603
 21
161.174755
 31
0.0
  0
LINE
  5
CD
330
30
100
AcDbEntity
  8
LC-002-002-----0
 62
     1
370
    25
100
AcDbLine
 10
1140.855603
 20
167.206073
 30
0.0
 11
1140.855603
 21
185.112221
 31
0.0
  0
LINE
  5
CE
330
30
100
AcDbEntity
  8
LC-002-002-----0
 62
     1
370
    25
100
AcDbLine
 10
1140.855603
 20
185.112221
 30
0.0
 11
1131.902529
 21
176.159147
 31
0.0
  0
LINE
  5
CF
330
30
100
AcDbEntity
  8
LC-002-002-----0
 62
     1
370
    25
100
AcDbLine
 10
1131.902529
 20
176.159147
 30
0.0
 11
1140.855603
 21
167.206073
 31
0.0
  0
CIRCLE
  5
D0
330
30
100
AcDbEntity
  8
LC-001-111-----0
 62
   253
370
    25
100
AcDbCircle
 10
946.345603
 20
176.159147
 30
0.0
 40
13.89000000000002
  0
LINE
  5
D1
330
30
100
AcDbEntity
  8
LC-001-111-----0
 62
   253
370
    25
100
AcDbLine
 10
890.335603
 20
158.649147
 30
0.0
 11
893.855603
 21
158.649147
 31
0.0
  0
LINE
  5
D2
330
30
100
AcDbEntity
  8
LC-001-111-----0
 62
   253
370
    25
100
AcDbLine
 10
893.855603
 20
158.649147
 30
0.0
 11
893.855603
 21
193.669147
 31
0.0
  0
ARC
  5
D3
330
30
100
AcDbEntity
  8
LC-001-111-----0
 62
   253
370
    25
100
AcDbCircle
 10
758.906662
 20
168.924866
 30
0.0
 40
20.55472179307891
100
AcDbArc
 50
57.190491
 51
90.951212
  0
ARC
  5
D4
330
30
100
AcDbEntity
  8
LC-001-111-----0
 62
   253
370
    25
100
AcDbCircle
 10
761.779647
 20
167.692822
 30
0.0
 40
12.23104525444841
100
AcDbArc
 50
274.343327
 51
74.255463
  0
LINE
  5
D5
330
30
100
AcDbEntity
  8
LC-001-111-----0
 62
   253
370
    25
100
AcDbLine
 10
893.855603
 20
193.669147
 30
0.0
 11
890.335603
 21
193.669147
 31
0.0
  0
LINE
  5
D6
330
30
100
AcDbEntity
  8
LC-001-111-----0
 62
   253
370
    25
100
AcDbLine
 10
890.335603
 20
193.669147
 30
0.0
 11
890.335603
 21
158.649147
 31
0.0
  0
LINE
  5
D7
330
30
100
AcDbEntity
  8
LC-001-111-----0
 62
   253
370
    25
100
AcDbLine
 10
890.335603
 20
176.159147
 30
0.0
 11
869.355603
 21
176.159147
 31
0.0
  0
LINE
  5
D8
330
30
100
AcDbEntity
  8
LC-001-111-----0
 62
   253
370
    25
100
AcDbLine
 10
869.355603
 20
158.649147
 30
0.0
 11
869.355603
 21
193.669147
 31
0.0
  0
LINE
  5
D9
330
30
100
AcDbEntity
  8
LC-001-111-----0
 62
   253
370
    25
100
AcDbLine
 10
869.355603
 20
193.669147
 30
0.0
 11
865.835603
 21
193.669147
 31
0.0
  0
LINE
  5
DA
330
30
100
AcDbEntity
  8
LC-001-111-----0
 62
   253
370
    25
100
AcDbLine
 10
865.835603
 20
193.669147
 30
0.0
 11
865.835603
 21
158.649147
 31
0.0
  0
LINE
  5
DB
330
30
100
AcDbEntity
  8
LC-001-111-----0
 62
   253
370
    25
100
AcDbLine
 10
867.595603
 20
192.169147
 30
0.0
 11
867.595603
 21
160.149147
 31
0.0
  0
CIRCLE
  5
DC
330
30
100
AcDbEntity
  8
LC-001-111-----0
 62
   253
370
    25
100
AcDbCircle
 10
946.345603
 20
176.159147
 30
0.0
 40
15.38999999999984
  0
LINE
  5
DD
330
30
100
AcDbEntity
  8
LC-001-111-----0
 62
   253
370
    25
100
AcDbLine
 10
1072.679261
 20
176.159147
 30
0.0
 11
1088.520928
 21
157.149147
 31
0.0
  0
LINE
  5
DE
330
30
100
AcDbEntity
  8
LC-001-111-----0
 62
   253
370
    25
100
AcDbLine
 10
1088.520928
 20
157.149147
 30
0.0
 11
1096.09687
 21
157.149147
 31
0.0
  0
LINE
  5
DF
330
30
100
AcDbEntity
  8
LC-001-111-----0
 62
   253
370
    25
100
AcDbLine
 10
1096.09687
 20
157.149147
 30
0.0
 11
1080.255204
 21
176.159147
 31
0.0
  0
LINE
  5
E0
330
30
100
AcDbEntity
  8
LC-001-111-----0
 62
   253
370
    25
100
AcDbLine
 10
770.044191
 20
186.20063
 30
0.0
 11
770.044191
 21
193.903002
 31
0.0
  0
ARC
  5
E1
330
30
100
AcDbEntity
  8
LC-001-111-----0
 62
   253
370
    25
100
AcDbCircle
 10
761.412387
 20
186.963179
 30
0.0
 40
23.54367341134796
100
AcDbArc
 50
232.518913
 51
268.246912
  0
ARC
  5
E2
330
30
100
AcDbEntity
  8
LC-001-111-----0
 62
   253
370
    25
100
AcDbCircle
 10
760.836588
 20
168.15034
 30
0.0
 40
4.722024781007908
100
AcDbArc
 50
268.246912
 51
72.731329
  0
LINE
  5
E3
330
30
100
AcDbEntity
  8
LC-001-111-----0
 62
   253
370
    25
100
AcDbLine
 10
757.542274
 20
181.595277
 30
0.0
 11
765.098525
 21
179.464972
 31
0.0
  0
ARC
  5
E4
330
30
100
AcDbEntity
  8
LC-001-111-----0
 62
   253
370
    25
100
AcDbCircle
 10
758.632108
 20
185.460948
 30
0.0
 40
4.016360130100384
100
AcDbArc
 50
90.951212
 51
254.255463
  0
ARC
  5
E5
330
30
100
AcDbEntity
  8
LC-001-111-----0
 62
   253
370
    25
100
AcDbCircle
 10
758.032826
 20
185.671748
 30
0.0
 40
11.17727081470983
100
AcDbArc
 50
94.48185
 51
252.731329
  0
LINE
  5
E6
330
30
100
AcDbEntity
  8
LC-001-111-----0
 62
   253
370
    25
100
AcDbLine
 10
762.238334
 20
172.659511
 30
0.0
 11
754.714822
 21
174.998312
 31
0.0
  0
LINE
  5
E7
330
30
100
AcDbEntity
  8
LC-001-111-----0
 62
   253
370
    25
100
AcDbLine
 10
747.086073
 20
168.279997
 30
0.0
 11
747.086073
 21
159.524163
 31
0.0
  0
ARC
  5
E8
330
30
100
AcDbEntity
  8
LC-001-111-----0
 62
   253
370
    25
100
AcDbCircle
 10
758.903191
 20
174.567744
 30
0.0
 40
22.31533311668187
100
AcDbArc
 50
60.049399
 51
94.48185
  0
ARC
  5
E9
330
30
100
AcDbEntity
  8
LC-001-111-----0
 62
   253
370
    25
100
AcDbCircle
 10
760.81067
 20
180.45076
 30
0.0
 40
25.02572762426604
100
AcDbArc
 50
236.741348
 51
274.343327
  0
LINE
  5
EA
330
30
100
AcDbEntity
  8
LC-001-111-----0
 62
   253
370
    25
100
AcDbLine
 10
1080.255204
 20
176.159147
 30
0.0
 11
1096.09687
 21
195.169147
 31
0.0
  0
LINE
  5
EB
330
30
100
AcDbEntity
  8
LC-001-111-----0
 62
   253
370
    25
100
AcDbLine
 10
750.086073
 20
162.957321
 30
0.0
 11
750.086073
 21
161.212369
 31
0.0
  0
LINE
  5
EC
330
30
100
AcDbEntity
  8
LC-001-111-----0
 62
   253
370
    25
100
AcDbLine
 10
1078.302641
 20
176.159147
 30
0.0
 11
1092.894308
 21
193.669147
 31
0.0
  0
LINE
  5
ED
330
30
100
AcDbEntity
  8
LC-002-002-----0
 62
     1
370
    25
100
AcDbLine
 10
1139.355603
 20
170.827393
 30
0.0
 11
1139.355603
 21
181.490901
 31
0.0
  0
LINE
  5
EE
330
30
100
AcDbEntity
  8
LC-002-002-----0
 62
     1
370
    25
100
AcDbLine
 10
1139.355603
 20
181.490901
 30
0.0
 11
1134.023849
 21
176.159147
 31
0.0
  0
LINE
  5
EF
330
30
100
AcDbEntity
  8
LC-002-002-----0
 62
     1
370
    25
100
AcDbLine
 10
1134.023849
 20
176.159147
 30
0.0
 11
1139.355603
 21
170.827393
 31
0.0
  0
LINE
  5
F0
330
30
100
AcDbEntity
  8
LC-002-002-----0
 62
     1
370
    25
100
AcDbLine
 10
1137.855603
 20
174.448713
 30
0.0
 11
1137.855603
 21
177.869581
 31
0.0
  0
LINE
  5
F1
330
30
100
AcDbEntity
  8
LC-002-002-----0
 62
     1
370
    25
100
AcDbLine
 10
1137.855603
 20
177.869581
 30
0.0
 11
1136.145169
 21
176.159147
 31
0.0
  0
LINE
  5
F2
330
30
100
AcDbEntity
  8
LC-002-002-----0
 62
     1
370
    25
100
AcDbLine
 10
1136.145169
 20
176.159147
 30
0.0
 11
1137.855603
 21
174.448713
 31
0.0
  0
LINE
  5
F3
330
30
100
AcDbEntity
  8
LC-001-111-----0
 62
   253
370
    25
100
AcDbLine
 10
1092.894308
 20
193.669147
 30
0.0
 11
1089.22349
 21
193.669147
 31
0.0
  0
LINE
  5
F4
330
30
100
AcDbEntity
  8
LC-001-111-----0
 62
   253
370
    25
100
AcDbLine
 10
1089.22349
 20
193.669147
 30
0.0
 11
1074.631824
 21
176.159147
 31
0.0
  0
ARC
  5
F5
330
30
100
AcDbEntity
  8
LC-001-111-----0
 62
   253
370
    25
100
AcDbCircle
 10
1019.845603
 20
176.159147
 30
0.0
 40
15.38999999999992
100
AcDbArc
 50
76.816519
 51
283.183481
  0
LINE
  5
F6
330
30
100
AcDbEntity
  8
LC-001-111-----0
 62
   253
370
    25
100
AcDbLine
 10
1074.631824
 20
176.159147
 30
0.0
 11
1089.22349
 21
158.649147
 31
0.0
  0
LINE
  5
F7
330
30
100
AcDbEntity
  8
LC-001-111-----0
 62
   253
370
    25
100
AcDbLine
 10
1089.22349
 20
158.649147
 30
0.0
 11
1092.894308
 21
158.649147
 31
0.0
  0
LINE
  5
F8
330
30
100
AcDbEntity
  8
LC-001-111-----0
 62
   253
370
    25
100
AcDbLine
 10
1092.894308
 20
158.649147
 30
0.0
 11
1078.302641
 21
176.159147
 31
0.0
  0
LINE
  5
F9
330
30
100
AcDbEntity
  8
LC-001-111-----0
 62
   253
370
    25
100
AcDbLine
 10
1076.467232
 20
176.159147
 30
0.0
 11
1090.098623
 21
192.516815
 31
0.0
  0
LINE
  5
FA
330
30
100
AcDbEntity
  8
LC-001-111-----0
 62
   253
370
    25
100
AcDbLine
 10
1076.467232
 20
176.159147
 30
0.0
 11
1090.098623
 21
159.801479
 31
0.0
  0
ARC
  5
FB
330
30
100
AcDbEntity
  8
LC-001-111-----0
 62
   253
370
    25
100
AcDbCircle
 10
760.81067
 20
180.45076
 30
0.0
 40
22.02572762426587
100
AcDbArc
 50
240.862164
 51
274.343327
  0
ARC
  5
FC
330
30
100
AcDbEntity
  8
LC-001-111-----0
 62
   253
370
    25
100
AcDbCircle
 10
761.779647
 20
167.692822
 30
0.0
 40
9.231045254448425
100
AcDbArc
 50
274.343327
 51
74.255463
  0
LINE
  5
FD
330
30
100
AcDbEntity
  8
LC-001-111-----0
 62
   253
370
    25
100
AcDbLine
 10
764.284479
 20
176.577529
 30
0.0
 11
756.728228
 21
178.707834
 31
0.0
  0
ARC
  5
FE
330
30
100
AcDbEntity
  8
LC-001-111-----0
 62
   253
370
    25
100
AcDbCircle
 10
758.632108
 20
185.460948
 30
0.0
 40
7.016360130100396
100
AcDbArc
 50
90.951212
 51
254.255463
  0
ARC
  5
FF
330
30
100
AcDbEntity
  8
LC-001-111-----0
 62
   253
370
    25
100
AcDbCircle
 10
758.906662
 20
168.924866
 30
0.0
 40
23.55472179307856
100
AcDbArc
 50
69.789306
 51
90.951212
  0
LINE
  5
100
330
30
100
AcDbEntity
  8
LC-001-111-----0
 62
   253
370
    25
100
AcDbLine
 10
767.044191
 20
191.029289
 30
0.0
 11
767.044191
 21
192.083629
 31
0.0
  0
ENDBLK
  5
32
330
30
100
AcDbEntity
  8
0
100
AcDbBlockEnd
  0
BLOCK
  5
282
330
278
100
AcDbEntity
  8
0
100
AcDbBlockBegin
  2
*D2
 70
     1
 71
     0
 10
0.0
 20
0.0
 30
0.0
  3
*D2
  1

  0
LINE
  5
279
330
278
100
AcDbEntity
  8
LC-007-003-----0
 62
     2
370
    -2
100
AcDbLine
 10
1902.866913
 20
2063.9582
 30
0.0
 11
2018.0
 21
2063.9582
 31
0.0
  0
LINE
  5
27A
330
278
100
AcDbEntity
  8
LC-007-003-----0
 62
     2
370
    -2
100
AcDbLine
 10
1902.866913
 20
1621.039913
 30
0.0
 11
2018.0
 21
1621.039913
 31
0.0
  0
LINE
  5
27B
330
278
100
AcDbEntity
  8
LC-007-003-----0
 62
     2
370
    -2
100
AcDbLine
 10
2000.0
 20
2038.9582
 30
0.0
 11
2000.0
 21
1646.039913
 31
0.0
  0
SOLID
  5
27C
330
278
100
AcDbEntity
  8
LC-007-003-----0
 62
     2
100
AcDbTrace
 10
2004.166667
 20
2038.9582
 30
0.0
 11
1995.833333
 21
2038.9582
 31
0.0
 12
2000.0
 22
2063.9582
 32
0.0
 13
2000.0
 23
2063.9582
 33
0.0
  0
SOLID
  5
27D
330
278
100
AcDbEntity
  8
LC-007-003-----0
 62
     2
100
AcDbTrace
 10
1995.833333
 20
1646.039913
 30
0.0
 11
2004.166667
 21
1646.039913
 31
0.0
 12
2000.0
 22
1621.039913
 32
0.0
 13
2000.0
 23
1621.039913
 33
0.0
  0
MTEXT
  5
27E
330
278
100
AcDbEntity
  8
LC-007-003-----0
 62
     2
100
AcDbMText
 10
1970.0
 20
1867.196014
 30
0.0
 40
25.0
 41
0.0
 71
     5
 72
     1
  1
\A1;443
  7
LCTX0-400-0-0pDIN-Schrift
 11
6.123031769111886E-17
 21
1.0
 31
0.0
 73
     1
 44
1.0
  0
POINT
  5
27F
330
278
100
AcDbEntity
  8
Defpoints
 62
     0
100
AcDbPoint
 10
1902.866913
 20
2063.9582
 30
0.0
  0
POINT
  5
280
330
278
100
AcDbEntity
  8
Defpoints
 62
     0
100
AcDbPoint
 10
1902.866913
 20
1621.039913
 30
0.0
  0
POINT
  5
281
330
278
100
AcDbEntity
  8
Defpoints
 62
     0
100
AcDbPoint
 10
2000.0
 20
1621.039913
 30
0.0
  0
ENDBLK
  5
283
330
278
100
AcDbEntity
  8
0
100
AcDbBlockEnd
  0
BLOCK
  5
28F
330
285
100
AcDbEntity
  8
0
100
AcDbBlockBegin
  2
*D3
 70
     1
 71
     0
 10
0.0
 20
0.0
 30
0.0
  3
*D3
  1

  0
LINE
  5
286
330
285
100
AcDbEntity
  8
LC-007-003-----0
 62
     2
370
    -2
100
AcDbLine
 10
1592.968275
 20
1892.499056
 30
0.0
 11
1592.968275
 21
1548.888566
 31
0.0
  0
LINE
  5
287
330
285
100
AcDbEntity
  8
LC-007-003-----0
 62
     2
370
    -2
100
AcDbLine
 10
1898.513913
 20
1592.492334
 30
0.0
 11
1898.513913
 21
1548.888566
 31
0.0
  0
LINE
  5
288
330
285
100
AcDbEntity
  8
LC-007-003-----0
 62
     2
370
    -2
100
AcDbLine
 10
1617.968275
 20
1566.888566
 30
0.0
 11
1873.513913
 21
1566.888566
 31
0.0
  0
SOLID
  5
289
330
285
100
AcDbEntity
  8
LC-007-003-----0
 62
     2
100
AcDbTrace
 10
1617.968275
 20
1571.055233
 30
0.0
 11
1617.968275
 21
1562.7219
 31
0.0
 12
1592.968275
 22
1566.888566
 32
0.0
 13
1592.968275
 23
1566.888566
 33
0.0
  0
SOLID
  5
28A
330
285
100
AcDbEntity
  8
LC-007-003-----0
 62
     2
100
AcDbTrace
 10
1873.513913
 20
1562.7219
 30
0.0
 11
1873.513913
 21
1571.055233
 31
0.0
 12
1898.513913
 22
1566.888566
 32
0.0
 13
1898.513913
 23
1566.888566
 33
0.0
  0
MTEXT
  5
28B
330
285
100
AcDbEntity
  8
LC-007-003-----0
 62
     2
100
AcDbMText
 10
1745.467619
 20
1596.888566
 30
0.0
 40
25.0
 41
0.0
 71
     5
 72
     1
  1
\A1;306
  7
LCTX0-400-0-0pDIN-Schrift
 73
     1
 44
1.0
  0
POINT
  5
28C
330
285
100
AcDbEntity
  8
Defpoints
 62
     0
100
AcDbPoint
 10
1592.968275
 20
1892.499056
 30
0.0
  0
POINT
  5
28D
330
285
100
AcDbEntity
  8
Defpoints
 62
     0
100
AcDbPoint
 10
1898.513913
 20
1592.492334
 30
0.0
  0
POINT
  5
28E
330
285
100
AcDbEntity
  8
Defpoints
 62
     0
100
AcDbPoint
 10
1898.513913
 20
1566.888566
 30
0.0
  0
ENDBLK
  5
290
330
285
100
AcDbEntity
  8
0
100
AcDbBlockEnd
  0
BLOCK
  5
2DA
330
2D9
100
AcDbEntity
  8
0
100
AcDbBlockBegin
  2
POLY1
 70
     0
 71
     0
 10
0.0
 20
0.0
 30
0.0
  3
POLY1
  1

  4
POLY1
  0
LINE
  5
2DC
330
2D9
100
AcDbEntity
  8
LC-002-002-----0
 62
     7
370
    25
100
AcDbLine
 10
1643.885549
 20
2001.204224
 30
0.0
 11
1643.885549
 21
2001.204224
 31
0.0
  0
LINE
  5
2DD
330
2D9
100
AcDbEntity
  8
LC-002-002-----0
 62
     7
370
    25
100
AcDbLine
 10
1643.885549
 20
2001.204224
 30
0.0
 11
1643.826611
 21
2000.689451
 31
0.0
  0
LINE
  5
2DE
330
2D9
100
AcDbEntity
  8
LC-002-002-----0
 62
     7
370
    25
100
AcDbLine
 10
1643.826611
 20
2000.689451
 30
0.0
 11
1643.826611
 21
2000.689451
 31
0.0
  0
LINE
  5
2DF
330
2D9
100
AcDbEntity
  8
LC-002-002-----0
 62
     7
370
    25
100
AcDbLine
 10
1643.826611
 20
2000.689451
 30
0.0
 11
1643.653065
 21
2000.208093
 31
0.0
  0
LINE
  5
2E0
330
2D9
100
AcDbEntity
  8
LC-002-002-----0
 62
     7
370
    25
100
AcDbLine
 10
1643.653065
 20
2000.208093
 30
0.0
 11
1643.653065
 21
2000.208093
 31
0.0
  0
LINE
  5
2E1
330
2D9
100
AcDbEntity
  8
LC-002-002-----0
 62
     7
370
    25
100
AcDbLine
 10
1643.653065
 20
2000.208093
 30
0.0
 11
1643.37693
 21
1999.794526
 31
0.0
  0
LINE
  5
2E2
330
2D9
100
AcDbEntity
  8
LC-002-002-----0
 62
     7
370
    25
100
AcDbLine
 10
1643.37693
 20
1999.794526
 30
0.0
 11
1643.37693
 21
1999.794526
 31
0.0
  0
LINE
  5
2E3
330
2D9
100
AcDbEntity
  8
LC-002-002-----0
 62
     7
370
    25
100
AcDbLine
 10
1643.37693
 20
1999.794526
 30
0.0
 11
1643.015584
 21
1999.475581
 31
0.0
  0
LINE
  5
2E4
330
2D9
100
AcDbEntity
  8
LC-002-002-----0
 62
     7
370
    25
100
AcDbLine
 10
1643.015584
 20
1999.475581
 30
0.0
 11
1643.015584
 21
1999.475581
 31
0.0
  0
LINE
  5
2E5
330
2D9
100
AcDbEntity
  8
LC-002-002-----0
 62
     7
370
    25
100
AcDbLine
 10
1643.015584
 20
1999.475581
 30
0.0
 11
1642.592197
 21
1999.273617
 31
0.0
  0
LINE
  5
2E6
330
2D9
100
AcDbEntity
  8
LC-002-002-----0
 62
     7
370
    25
100
AcDbLine
 10
1642.592197
 20
1999.273617
 30
0.0
 11
1642.592197
 21
1999.273617
 31
0.0
  0
LINE
  5
2E7
330
2D9
100
AcDbEntity
  8
LC-002-002-----0
 62
     7
370
    25
100
AcDbLine
 10
1642.592197
 20
1999.273617
 30
0.0
 11
1642.134715
 21
1999.204224
 31
0.0
  0
ENDBLK
  5
2DB
330
2D9
100
AcDbEntity
  8
0
100
AcDbBlockEnd
  0
BLOCK
  5
2EB
330
2EA
100
AcDbEntity
  8
0
100
AcDbBlockBegin
  2
POLY2
 70
     0
 71
     0
 10
0.0
 20
0.0
 30
0.0
  3
POLY2
  1

  4
POLY2
  0
LINE
  5
2ED
330
2EA
100
AcDbEntity
  8
LC-002-002-----0
 62
     7
370
    25
100
AcDbLine
 10
1620.673068
 20
2001.204224
 30
0.0
 11
1620.673068
 21
2001.204224
 31
0.0
  0
LINE
  5
2EE
330
2EA
100
AcDbEntity
  8
LC-002-002-----0
 62
     7
370
    25
100
AcDbLine
 10
1620.673068
 20
2001.204224
 30
0.0
 11
1620.673102
 21
2000.689436
 31
0.0
  0
LINE
  5
2EF
330
2EA
100
AcDbEntity
  8
LC-002-002-----0
 62
     7
370
    25
100
AcDbLine
 10
1620.673102
 20
2000.689436
 30
0.0
 11
1620.673102
 21
2000.689436
 31
0.0
  0
LINE
  5
2F0
330
2EA
100
AcDbEntity
  8
LC-002-002-----0
 62
     7
370
    25
100
AcDbLine
 10
1620.673102
 20
2000.689436
 30
0.0
 11
1620.673065
 21
2000.208066
 31
0.0
  0
LINE
  5
2F1
330
2EA
100
AcDbEntity
  8
LC-002-002-----0
 62
     7
370
    25
100
AcDbLine
 10
1620.673065
 20
2000.208066
 30
0.0
 11
1620.673065
 21
2000.208066
 31
0.0
  0
LINE
  5
2F2
330
2EA
100
AcDbEntity
  8
LC-002-002-----0
 62
     7
370
    25
100
AcDbLine
 10
1620.673065
 20
2000.208066
 30
0.0
 11
1620.673071
 21
1999.794496
 31
0.0
  0
LINE
  5
2F3
330
2EA
100
AcDbEntity
  8
LC-002-002-----0
 62
     7
370
    25
100
AcDbLine
 10
1620.673071
 20
1999.794496
 30
0.0
 11
1620.673071
 21
1999.794496
 31
0.0
  0
LINE
  5
2F4
330
2EA
100
AcDbEntity
  8
LC-002-002-----0
 62
     7
370
    25
100
AcDbLine
 10
1620.673071
 20
1999.794496
 30
0.0
 11
1620.673046
 21
1999.47556
 31
0.0
  0
LINE
  5
2F5
330
2EA
100
AcDbEntity
  8
LC-002-002-----0
 62
     7
370
    25
100
AcDbLine
 10
1620.673046
 20
1999.47556
 30
0.0
 11
1620.673046
 21
1999.47556
 31
0.0
  0
LINE
  5
2F6
330
2EA
100
AcDbEntity
  8
LC-002-002-----0
 62
     7
370
    25
100
AcDbLine
 10
1620.673046
 20
1999.47556
 30
0.0
 11
1620.673095
 21
1999.273603
 31
0.0
  0
LINE
  5
2F7
330
2EA
100
AcDbEntity
  8
LC-002-002-----0
 62
     7
370
    25
100
AcDbLine
 10
1620.673095
 20
1999.273603
 30
0.0
 11
1620.673095
 21
1999.273603
 31
0.0
  0
LINE
  5
2F8
330
2EA
100
AcDbEntity
  8
LC-002-002-----0
 62
     7
370
    25
100
AcDbLine
 10
1620.673095
 20
1999.273603
 30
0.0
 11
1620.673076
 21
1999.204224
 31
0.0
  0
ENDBLK
  5
2EC
330
2EA
100
AcDbEntity
  8
0
100
AcDbBlockEnd
  0
BLOCK
  5
2FC
330
2FB
100
AcDbEntity
  8
0
100
AcDbBlockBegin
  2
POLY3
 70
     0
 71
     0
 10
0.0
 20
0.0
 30
0.0
  3
POLY3
  1

  4
POLY3
  0
LINE
  5
2FE
330
2FB
100
AcDbEntity
  8
LC-002-002-----0
 62
     7
370
    25
100
AcDbLine
 10
1597.460587
 20
2001.204224
 30
0.0
 11
1597.460587
 21
2001.204224
 31
0.0
  0
LINE
  5
2FF
330
2FB
100
AcDbEntity
  8
LC-002-002-----0
 62
     7
370
    25
100
AcDbLine
 10
1597.460587
 20
2001.204224
 30
0.0
 11
1597.519525
 21
2000.689451
 31
0.0
  0
LINE
  5
300
330
2FB
100
AcDbEntity
  8
LC-002-002-----0
 62
     7
370
    25
100
AcDbLine
 10
1597.519525
 20
2000.689451
 30
0.0
 11
1597.519525
 21
2000.689451
 31
0.0
  0
LINE
  5
301
330
2FB
100
AcDbEntity
  8
LC-002-002-----0
 62
     7
370
    25
100
AcDbLine
 10
1597.519525
 20
2000.689451
 30
0.0
 11
1597.69307
 21
2000.208093
 31
0.0
  0
LINE
  5
302
330
2FB
100
AcDbEntity
  8
LC-002-002-----0
 62
     7
370
    25
100
AcDbLine
 10
1597.69307
 20
2000.208093
 30
0.0
 11
1597.69307
 21
2000.208093
 31
0.0
  0
LINE
  5
303
330
2FB
100
AcDbEntity
  8
LC-002-002-----0
 62
     7
370
    25
100
AcDbLine
 10
1597.69307
 20
2000.208093
 30
0.0
 11
1597.969206
 21
1999.794526
 31
0.0
  0
LINE
  5
304
330
2FB
100
AcDbEntity
  8
LC-002-002-----0
 62
     7
370
    25
100
AcDbLine
 10
1597.969206
 20
1999.794526
 30
0.0
 11
1597.969206
 21
1999.794526
 31
0.0
  0
LINE
  5
305
330
2FB
100
AcDbEntity
  8
LC-002-002-----0
 62
     7
370
    25
100
AcDbLine
 10
1597.969206
 20
1999.794526
 30
0.0
 11
1598.330552
 21
1999.475581
 31
0.0
  0
LINE
  5
306
330
2FB
100
AcDbEntity
  8
LC-002-002-----0
 62
     7
370
    25
100
AcDbLine
 10
1598.330552
 20
1999.475581
 30
0.0
 11
1598.330552
 21
1999.475581
 31
0.0
  0
LINE
  5
307
330
2FB
100
AcDbEntity
  8
LC-002-002-----0
 62
     7
370
    25
100
AcDbLine
 10
1598.330552
 20
1999.475581
 30
0.0
 11
1598.753938
 21
1999.273617
 31
0.0
  0
LINE
  5
308
330
2FB
100
AcDbEntity
  8
LC-002-002-----0
 62
     7
370
    25
100
AcDbLine
 10
1598.753938
 20
1999.273617
 30
0.0
 11
1598.753938
 21
1999.273617
 31
0.0
  0
LINE
  5
309
330
2FB
100
AcDbEntity
  8
LC-002-002-----0
 62
     7
370
    25
100
AcDbLine
 10
1598.753938
 20
1999.273617
 30
0.0
 11
1599.211421
 21
1999.204224
 31
0.0
  0
ENDBLK
  5
2FD
330
2FB
100
AcDbEntity
  8
0
100
AcDbBlockEnd
  0
BLOCK
  5
31F
330
31E
100
AcDbEntity
  8
0
100
AcDbBlockBegin
  2
POLY4
 70
     0
 71
     0
 10
0.0
 20
0.0
 30
0.0
  3
POLY4
  1

  4
POLY4
  0
LINE
  5
321
330
31E
100
AcDbEntity
  8
LC-002-002-----0
 62
     7
370
    25
100
AcDbLine
 10
1643.885549
 20
1909.499056
 30
0.0
 11
1643.885549
 21
1909.499056
 31
0.0
  0
LINE
  5
322
330
31E
100
AcDbEntity
  8
LC-002-002-----0
 62
     7
370
    25
100
AcDbLine
 10
1643.885549
 20
1909.499056
 30
0.0
 11
1643.826611
 21
1910.01383
 31
0.0
  0
LINE
  5
323
330
31E
100
AcDbEntity
  8
LC-002-002-----0
 62
     7
370
    25
100
AcDbLine
 10
1643.826611
 20
1910.01383
 30
0.0
 11
1643.826611
 21
1910.01383
 31
0.0
  0
LINE
  5
324
330
31E
100
AcDbEntity
  8
LC-002-002-----0
 62
     7
370
    25
100
AcDbLine
 10
1643.826611
 20
1910.01383
 30
0.0
 11
1643.653065
 21
1910.495188
 31
0.0
  0
LINE
  5
325
330
31E
100
AcDbEntity
  8
LC-002-002-----0
 62
     7
370
    25
100
AcDbLine
 10
1643.653065
 20
1910.495188
 30
0.0
 11
1643.653065
 21
1910.495188
 31
0.0
  0
LINE
  5
326
330
31E
100
AcDbEntity
  8
LC-002-002-----0
 62
     7
370
    25
100
AcDbLine
 10
1643.653065
 20
1910.495188
 30
0.0
 11
1643.37693
 21
1910.908755
 31
0.0
  0
LINE
  5
327
330
31E
100
AcDbEntity
  8
LC-002-002-----0
 62
     7
370
    25
100
AcDbLine
 10
1643.37693
 20
1910.908755
 30
0.0
 11
1643.37693
 21
1910.908755
 31
0.0
  0
LINE
  5
328
330
31E
100
AcDbEntity
  8
LC-002-002-----0
 62
     7
370
    25
100
AcDbLine
 10
1643.37693
 20
1910.908755
 30
0.0
 11
1643.015584
 21
1911.2277
 31
0.0
  0
LINE
  5
329
330
31E
100
AcDbEntity
  8
LC-002-002-----0
 62
     7
370
    25
100
AcDbLine
 10
1643.015584
 20
1911.2277
 30
0.0
 11
1643.015584
 21
1911.2277
 31
0.0
  0
LINE
  5
32A
330
31E
100
AcDbEntity
  8
LC-002-002-----0
 62
     7
370
    25
100
AcDbLine
 10
1643.015584
 20
1911.2277
 30
0.0
 11
1642.592197
 21
1911.429663
 31
0.0
  0
LINE
  5
32B
330
31E
100
AcDbEntity
  8
LC-002-002-----0
 62
     7
370
    25
100
AcDbLine
 10
1642.592197
 20
1911.429663
 30
0.0
 11
1642.592197
 21
1911.429663
 31
0.0
  0
LINE
  5
32C
330
31E
100
AcDbEntity
  8
LC-002-002-----0
 62
     7
370
    25
100
AcDbLine
 10
1642.592197
 20
1911.429663
 30
0.0
 11
1642.134715
 21
1911.499056
 31
0.0
  0
ENDBLK
  5
320
330
31E
100
AcDbEntity
  8
0
100
AcDbBlockEnd
  0
BLOCK
  5
330
330
32F
100
AcDbEntity
  8
0
100
AcDbBlockBegin
  2
POLY5
 70
     0
 71
     0
 10
0.0
 20
0.0
 30
0.0
  3
POLY5
  1

  4
POLY5
  0
LINE
  5
332
330
32F
100
AcDbEntity
  8
LC-002-002-----0
 62
     7
370
    25
100
AcDbLine
 10
1620.673068
 20
1909.499056
 30
0.0
 11
1620.673068
 21
1909.499056
 31
0.0
  0
LINE
  5
333
330
32F
100
AcDbEntity
  8
LC-002-002-----0
 62
     7
370
    25
100
AcDbLine
 10
1620.673068
 20
1909.499056
 30
0.0
 11
1620.673102
 21
1910.013844
 31
0.0
  0
LINE
  5
334
330
32F
100
AcDbEntity
  8
LC-002-002-----0
 62
     7
370
    25
100
AcDbLine
 10
1620.673102
 20
1910.013844
 30
0.0
 11
1620.673102
 21
1910.013844
 31
0.0
  0
LINE
  5
335
330
32F
100
AcDbEntity
  8
LC-002-002-----0
 62
     7
370
    25
100
AcDbLine
 10
1620.673102
 20
1910.013844
 30
0.0
 11
1620.673065
 21
1910.495214
 31
0.0
  0
LINE
  5
336
330
32F
100
AcDbEntity
  8
LC-002-002-----0
 62
     7
370
    25
100
AcDbLine
 10
1620.673065
 20
1910.495214
 30
0.0
 11
1620.673065
 21
1910.495214
 31
0.0
  0
LINE
  5
337
330
32F
100
AcDbEntity
  8
LC-002-002-----0
 62
     7
370
    25
100
AcDbLine
 10
1620.673065
 20
1910.495214
 30
0.0
 11
1620.673071
 21
1910.908785
 31
0.0
  0
LINE
  5
338
330
32F
100
AcDbEntity
  8
LC-002-002-----0
 62
     7
370
    25
100
AcDbLine
 10
1620.673071
 20
1910.908785
 30
0.0
 11
1620.673071
 21
1910.908785
 31
0.0
  0
LINE
  5
339
330
32F
100
AcDbEntity
  8
LC-002-002-----0
 62
     7
370
    25
100
AcDbLine
 10
1620.673071
 20
1910.908785
 30
0.0
 11
1620.673046
 21
1911.227721
 31
0.0
  0
LINE
  5
33A
330
32F
100
AcDbEntity
  8
LC-002-002-----0
 62
     7
370
    25
100
AcDbLine
 10
1620.673046
 20
1911.227721
 30
0.0
 11
1620.673046
 21
1911.227721
 31
0.0
  0
LINE
  5
33B
330
32F
100
AcDbEntity
  8
LC-002-002-----0
 62
     7
370
    25
100
AcDbLine
 10
1620.673046
 20
1911.227721
 30
0.0
 11
1620.673095
 21
1911.429678
 31
0.0
  0
LINE
  5
33C
330
32F
100
AcDbEntity
  8
LC-002-002-----0
 62
     7
370
    25
100
AcDbLine
 10
1620.673095
 20
1911.429678
 30
0.0
 11
1620.673095
 21
1911.429678
 31
0.0
  0
LINE
  5
33D
330
32F
100
AcDbEntity
  8
LC-002-002-----0
 62
     7
370
    25
100
AcDbLine
 10
1620.673095
 20
1911.429678
 30
0.0
 11
1620.673076
 21
1911.499056
 31
0.0
  0
ENDBLK
  5
331
330
32F
100
AcDbEntity
  8
0
100
AcDbBlockEnd
  0
BLOCK
  5
341
330
340
100
AcDbEntity
  8
0
100
AcDbBlockBegin
  2
POLY6
 70
     0
 71
     0
 10
0.0
 20
0.0
 30
0.0
  3
POLY6
  1

  4
POLY6
  0
LINE
  5
343
330
340
100
AcDbEntity
  8
LC-002-002-----0
 62
     7
370
    25
100
AcDbLine
 10
1597.460587
 20
1909.499056
 30
0.0
 11
1597.460587
 21
1909.499056
 31
0.0
  0
LINE
  5
344
330
340
100
AcDbEntity
  8
LC-002-002-----0
 62
     7
370
    25
100
AcDbLine
 10
1597.460587
 20
1909.499056
 30
0.0
 11
1597.519525
 21
1910.01383
 31
0.0
  0
LINE
  5
345
330
340
100
AcDbEntity
  8
LC-002-002-----0
 62
     7
370
    25
100
AcDbLine
 10
1597.519525
 20
1910.01383
 30
0.0
 11
1597.519525
 21
1910.01383
 31
0.0
  0
LINE
  5
346
330
340
100
AcDbEntity
  8
LC-002-002-----0
 62
     7
370
    25
100
AcDbLine
 10
1597.519525
 20
1910.01383
 30
0.0
 11
1597.69307
 21
1910.495188
 31
0.0
  0
LINE
  5
347
330
340
100
AcDbEntity
  8
LC-002-002-----0
 62
     7
370
    25
100
AcDbLine
 10
1597.69307
 20
1910.495188
 30
0.0
 11
1597.69307
 21
1910.495188
 31
0.0
  0
LINE
  5
348
330
340
100
AcDbEntity
  8
LC-002-002-----0
 62
     7
370
    25
100
AcDbLine
 10
1597.69307
 20
1910.495188
 30
0.0
 11
1597.969206
 21
1910.908755
 31
0.0
  0
LINE
  5
349
330
340
100
AcDbEntity
  8
LC-002-002-----0
 62
     7
370
    25
100
AcDbLine
 10
1597.969206
 20
1910.908755
 30
0.0
 11
1597.969206
 21
1910.908755
 31
0.0
  0
LINE
  5
34A
330
340
100
AcDbEntity
  8
LC-002-002-----0
 62
     7
370
    25
100
AcDbLine
 10
1597.969206
 20
1910.908755
 30
0.0
 11
1598.330552
 21
1911.2277
 31
0.0
  0
LINE
  5
34B
330
340
100
AcDbEntity
  8
LC-002-002-----0
 62
     7
370
    25
100
AcDbLine
 10
1598.330552
 20
1911.2277
 30
0.0
 11
1598.330552
 21
1911.2277
 31
0.0
  0
LINE
  5
34C
330
340
100
AcDbEntity
  8
LC-002-002-----0
 62
     7
370
    25
100
AcDbLine
 10
1598.330552
 20
1911.2277
 30
0.0
 11
1598.753938
 21
1911.429663
 31
0.0
  0
LINE
  5
34D
330
340
100
AcDbEntity
  8
LC-002-002-----0
 62
     7
370
    25
100
AcDbLine
 10
1598.753938
 20
1911.429663
 30
0.0
 11
1598.753938
 21
1911.429663
 31
0.0
  0
LINE
  5
34E
330
340
100
AcDbEntity
  8
LC-002-002-----0
 62
     7
370
    25
100
AcDbLine
 10
1598.753938
 20
1911.429663
 30
0.0
 11
1599.211421
 21
1911.499056
 31
0.0
  0
ENDBLK
  5
342
330
340
100
AcDbEntity
  8
0
100
AcDbBlockEnd
  0
BLOCK
  5
387
330
386
100
AcDbEntity
  8
0
100
AcDbBlockBegin
  2
POLY7
 70
     0
 71
     0
 10
0.0
 20
0.0
 30
0.0
  3
POLY7
  1

  4
POLY7
  0
LINE
  5
389
330
386
100
AcDbEntity
  8
LC-002-002-----0
 62
     7
370
    25
100
AcDbLine
 10
1062.93579
 20
2426.411758
 30
0.0
 11
1062.93579
 21
2426.411758
 31
0.0
  0
LINE
  5
38A
330
386
100
AcDbEntity
  8
LC-002-002-----0
 62
     7
370
    25
100
AcDbLine
 10
1062.93579
 20
2426.411758
 30
0.0
 11
1062.421017
 21
2426.470696
 31
0.0
  0
LINE
  5
38B
330
386
100
AcDbEntity
  8
LC-002-002-----0
 62
     7
370
    25
100
AcDbLine
 10
1062.421017
 20
2426.470696
 30
0.0
 11
1062.421017
 21
2426.470696
 31
0.0
  0
LINE
  5
38C
330
386
100
AcDbEntity
  8
LC-002-002-----0
 62
     7
370
    25
100
AcDbLine
 10
1062.421017
 20
2426.470696
 30
0.0
 11
1061.939659
 21
2426.644242
 31
0.0
  0
LINE
  5
38D
330
386
100
AcDbEntity
  8
LC-002-002-----0
 62
     7
370
    25
100
AcDbLine
 10
1061.939659
 20
2426.644242
 30
0.0
 11
1061.939659
 21
2426.644242
 31
0.0
  0
LINE
  5
38E
330
386
100
AcDbEntity
  8
LC-002-002-----0
 62
     7
370
    25
100
AcDbLine
 10
1061.939659
 20
2426.644242
 30
0.0
 11
1061.526092
 21
2426.920377
 31
0.0
  0
LINE
  5
38F
330
386
100
AcDbEntity
  8
LC-002-002-----0
 62
     7
370
    25
100
AcDbLine
 10
1061.526092
 20
2426.920377
 30
0.0
 11
1061.526092
 21
2426.920377
 31
0.0
  0
LINE
  5
390
330
386
100
AcDbEntity
  8
LC-002-002-----0
 62
     7
370
    25
100
AcDbLine
 10
1061.526092
 20
2426.920377
 30
0.0
 11
1061.207146
 21
2427.281723
 31
0.0
  0
LINE
  5
391
330
386
100
AcDbEntity
  8
LC-002-002-----0
 62
     7
370
    25
100
AcDbLine
 10
1061.207146
 20
2427.281723
 30
0.0
 11
1061.207146
 21
2427.281723
 31
0.0
  0
LINE
  5
392
330
386
100
AcDbEntity
  8
LC-002-002-----0
 62
     7
370
    25
100
AcDbLine
 10
1061.207146
 20
2427.281723
 30
0.0
 11
1061.005183
 21
2427.70511
 31
0.0
  0
LINE
  5
393
330
386
100
AcDbEntity
  8
LC-002-002-----0
 62
     7
370
    25
100
AcDbLine
 10
1061.005183
 20
2427.70511
 30
0.0
 11
1061.005183
 21
2427.70511
 31
0.0
  0
LINE
  5
394
330
386
100
AcDbEntity
  8
LC-002-002-----0
 62
     7
370
    25
100
AcDbLine
 10
1061.005183
 20
2427.70511
 30
0.0
 11
1060.93579
 21
2428.162592
 31
0.0
  0
ENDBLK
  5
388
330
386
100
AcDbEntity
  8
0
100
AcDbBlockEnd
  0
BLOCK
  5
398
330
397
100
AcDbEntity
  8
0
100
AcDbBlockBegin
  2
POLY8
 70
     0
 71
     0
 10
0.0
 20
0.0
 30
0.0
  3
POLY8
  1

  4
POLY8
  0
LINE
  5
39A
330
397
100
AcDbEntity
  8
LC-002-002-----0
 62
     7
370
    25
100
AcDbLine
 10
1062.93579
 20
2449.624239
 30
0.0
 11
1062.93579
 21
2449.624239
 31
0.0
  0
LINE
  5
39B
330
397
100
AcDbEntity
  8
LC-002-002-----0
 62
     7
370
    25
100
AcDbLine
 10
1062.93579
 20
2449.624239
 30
0.0
 11
1062.421002
 21
2449.624273
 31
0.0
  0
LINE
  5
39C
330
397
100
AcDbEntity
  8
LC-002-002-----0
 62
     7
370
    25
100
AcDbLine
 10
1062.421002
 20
2449.624273
 30
0.0
 11
1062.421002
 21
2449.624273
 31
0.0
  0
LINE
  5
39D
330
397
100
AcDbEntity
  8
LC-002-002-----0
 62
     7
370
    25
100
AcDbLine
 10
1062.421002
 20
2449.624273
 30
0.0
 11
1061.939632
 21
2449.624236
 31
0.0
  0
LINE
  5
39E
330
397
100
AcDbEntity
  8
LC-002-002-----0
 62
     7
370
    25
100
AcDbLine
 10
1061.939632
 20
2449.624236
 30
0.0
 11
1061.939632
 21
2449.624236
 31
0.0
  0
LINE
  5
39F
330
397
100
AcDbEntity
  8
LC-002-002-----0
 62
     7
370
    25
100
AcDbLine
 10
1061.939632
 20
2449.624236
 30
0.0
 11
1061.526062
 21
2449.624243
 31
0.0
  0
LINE
  5
3A0
330
397
100
AcDbEntity
  8
LC-002-002-----0
 62
     7
370
    25
100
AcDbLine
 10
1061.526062
 20
2449.624243
 30
0.0
 11
1061.526062
 21
2449.624243
 31
0.0
  0
LINE
  5
3A1
330
397
100
AcDbEntity
  8
LC-002-002-----0
 62
     7
370
    25
100
AcDbLine
 10
1061.526062
 20
2449.624243
 30
0.0
 11
1061.207126
 21
2449.624217
 31
0.0
  0
LINE
  5
3A2
330
397
100
AcDbEntity
  8
LC-002-002-----0
 62
     7
370
    25
100
AcDbLine
 10
1061.207126
 20
2449.624217
 30
0.0
 11
1061.207126
 21
2449.624217
 31
0.0
  0
LINE
  5
3A3
330
397
100
AcDbEntity
  8
LC-002-002-----0
 62
     7
370
    25
100
AcDbLine
 10
1061.207126
 20
2449.624217
 30
0.0
 11
1061.005169
 21
2449.624266
 31
0.0
  0
LINE
  5
3A4
330
397
100
AcDbEntity
  8
LC-002-002-----0
 62
     7
370
    25
100
AcDbLine
 10
1061.005169
 20
2449.624266
 30
0.0
 11
1061.005169
 21
2449.624266
 31
0.0
  0
LINE
  5
3A5
330
397
100
AcDbEntity
  8
LC-002-002-----0
 62
     7
370
    25
100
AcDbLine
 10
1061.005169
 20
2449.624266
 30
0.0
 11
1060.93579
 21
2449.624248
 31
0.0
  0
ENDBLK
  5
399
330
397
100
AcDbEntity
  8
0
100
AcDbBlockEnd
  0
BLOCK
  5
3D1
330
3D0
100
AcDbEntity
  8
0
100
AcDbBlockBegin
  2
POLY9
 70
     0
 71
     0
 10
0.0
 20
0.0
 30
0.0
  3
POLY9
  1

  4
POLY9
  0
LINE
  5
3D3
330
3D0
100
AcDbEntity
  8
LC-002-002-----0
 62
     7
370
    25
100
AcDbLine
 10
1062.93579
 20
2472.83672
 30
0.0
 11
1062.93579
 21
2472.83672
 31
0.0
  0
LINE
  5
3D4
330
3D0
100
AcDbEntity
  8
LC-002-002-----0
 62
     7
370
    25
100
AcDbLine
 10
1062.93579
 20
2472.83672
 30
0.0
 11
1062.421017
 21
2472.777782
 31
0.0
  0
LINE
  5
3D5
330
3D0
100
AcDbEntity
  8
LC-002-002-----0
 62
     7
370
    25
100
AcDbLine
 10
1062.421017
 20
2472.777782
 30
0.0
 11
1062.421017
 21
2472.777782
 31
0.0
  0
LINE
  5
3D6
330
3D0
100
AcDbEntity
  8
LC-002-002-----0
 62
     7
370
    25
100
AcDbLine
 10
1062.421017
 20
2472.777782
 30
0.0
 11
1061.939659
 21
2472.604237
 31
0.0
  0
LINE
  5
3D7
330
3D0
100
AcDbEntity
  8
LC-002-002-----0
 62
     7
370
    25
100
AcDbLine
 10
1061.939659
 20
2472.604237
 30
0.0
 11
1061.939659
 21
2472.604237
 31
0.0
  0
LINE
  5
3D8
330
3D0
100
AcDbEntity
  8
LC-002-002-----0
 62
     7
370
    25
100
AcDbLine
 10
1061.939659
 20
2472.604237
 30
0.0
 11
1061.526092
 21
2472.328101
 31
0.0
  0
LINE
  5
3D9
330
3D0
100
AcDbEntity
  8
LC-002-002-----0
 62
     7
370
    25
100
AcDbLine
 10
1061.526092
 20
2472.328101
 30
0.0
 11
1061.526092
 21
2472.328101
 31
0.0
  0
LINE
  5
3DA
330
3D0
100
AcDbEntity
  8
LC-002-002-----0
 62
     7
370
    25
100
AcDbLine
 10
1061.526092
 20
2472.328101
 30
0.0
 11
1061.207146
 21
2471.966756
 31
0.0
  0
LINE
  5
3DB
330
3D0
100
AcDbEntity
  8
LC-002-002-----0
 62
     7
370
    25
100
AcDbLine
 10
1061.207146
 20
2471.966756
 30
0.0
 11
1061.207146
 21
2471.966756
 31
0.0
  0
LINE
  5
3DC
330
3D0
100
AcDbEntity
  8
LC-002-002-----0
 62
     7
370
    25
100
AcDbLine
 10
1061.207146
 20
2471.966756
 30
0.0
 11
1061.005183
 21
2471.543369
 31
0.0
  0
LINE
  5
3DD
330
3D0
100
AcDbEntity
  8
LC-002-002-----0
 62
     7
370
    25
100
AcDbLine
 10
1061.005183
 20
2471.543369
 30
0.0
 11
1061.005183
 21
2471.543369
 31
0.0
  0
LINE
  5
3DE
330
3D0
100
AcDbEntity
  8
LC-002-002-----0
 62
     7
370
    25
100
AcDbLine
 10
1061.005183
 20
2471.543369
 30
0.0
 11
1060.93579
 21
2471.085887
 31
0.0
  0
ENDBLK
  5
3D2
330
3D0
100
AcDbEntity
  8
0
100
AcDbBlockEnd
  0
BLOCK
  5
3F0
330
3EF
100
AcDbEntity
  8
0
100
AcDbBlockBegin
  2
POLY10
 70
     0
 71
     0
 10
0.0
 20
0.0
 30
0.0
  3
POLY10
  1

  4
POLY10
  0
LINE
  5
3F2
330
3EF
100
AcDbEntity
  8
LC-002-002-----0
 62
     7
370
    25
100
AcDbLine
 10
927.743934
 20
2426.411758
 30
0.0
 11
927.743934
 21
2426.411758
 31
0.0
  0
LINE
  5
3F3
330
3EF
100
AcDbEntity
  8
LC-002-002-----0
 62
     7
370
    25
100
AcDbLine
 10
927.743934
 20
2426.411758
 30
0.0
 11
928.258707
 21
2426.470696
 31
0.0
  0
LINE
  5
3F4
330
3EF
100
AcDbEntity
  8
LC-002-002-----0
 62
     7
370
    25
100
AcDbLine
 10
928.258707
 20
2426.470696
 30
0.0
 11
928.258707
 21
2426.470696
 31
0.0
  0
LINE
  5
3F5
330
3EF
100
AcDbEntity
  8
LC-002-002-----0
 62
     7
370
    25
100
AcDbLine
 10
928.258707
 20
2426.470696
 30
0.0
 11
928.740065
 21
2426.644242
 31
0.0
  0
LINE
  5
3F6
330
3EF
100
AcDbEntity
  8
LC-002-002-----0
 62
     7
370
    25
100
AcDbLine
 10
928.740065
 20
2426.644242
 30
0.0
 11
928.740065
 21
2426.644242
 31
0.0
  0
LINE
  5
3F7
330
3EF
100
AcDbEntity
  8
LC-002-002-----0
 62
     7
370
    25
100
AcDbLine
 10
928.740065
 20
2426.644242
 30
0.0
 11
929.153632
 21
2426.920377
 31
0.0
  0
LINE
  5
3F8
330
3EF
100
AcDbEntity
  8
LC-002-002-----0
 62
     7
370
    25
100
AcDbLine
 10
929.153632
 20
2426.920377
 30
0.0
 11
929.153632
 21
2426.920377
 31
0.0
  0
LINE
  5
3F9
330
3EF
100
AcDbEntity
  8
LC-002-002-----0
 62
     7
370
    25
100
AcDbLine
 10
929.153632
 20
2426.920377
 30
0.0
 11
929.472577
 21
2427.281723
 31
0.0
  0
LINE
  5
3FA
330
3EF
100
AcDbEntity
  8
LC-002-002-----0
 62
     7
370
    25
100
AcDbLine
 10
929.472577
 20
2427.281723
 30
0.0
 11
929.472577
 21
2427.281723
 31
0.0
  0
LINE
  5
3FB
330
3EF
100
AcDbEntity
  8
LC-002-002-----0
 62
     7
370
    25
100
AcDbLine
 10
929.472577
 20
2427.281723
 30
0.0
 11
929.67454
 21
2427.70511
 31
0.0
  0
LINE
  5
3FC
330
3EF
100
AcDbEntity
  8
LC-002-002-----0
 62
     7
370
    25
100
AcDbLine
 10
929.67454
 20
2427.70511
 30
0.0
 11
929.67454
 21
2427.70511
 31
0.0
  0
LINE
  5
3FD
330
3EF
100
AcDbEntity
  8
LC-002-002-----0
 62
     7
370
    25
100
AcDbLine
 10
929.67454
 20
2427.70511
 30
0.0
 11
929.743934
 21
2428.162592
 31
0.0
  0
ENDBLK
  5
3F1
330
3EF
100
AcDbEntity
  8
0
100
AcDbBlockEnd
  0
BLOCK
  5
401
330
400
100
AcDbEntity
  8
0
100
AcDbBlockBegin
  2
POLY11
 70
     0
 71
     0
 10
0.0
 20
0.0
 30
0.0
  3
POLY11
  1

  4
POLY11
  0
LINE
  5
403
330
400
100
AcDbEntity
  8
LC-002-002-----0
 62
     7
370
    25
100
AcDbLine
 10
927.743934
 20
2449.624239
 30
0.0
 11
927.743934
 21
2449.624239
 31
0.0
  0
LINE
  5
404
330
400
100
AcDbEntity
  8
LC-002-002-----0
 62
     7
370
    25
100
AcDbLine
 10
927.743934
 20
2449.624239
 30
0.0
 11
928.258721
 21
2449.624273
 31
0.0
  0
LINE
  5
405
330
400
100
AcDbEntity
  8
LC-002-002-----0
 62
     7
370
    25
100
AcDbLine
 10
928.258721
 20
2449.624273
 30
0.0
 11
928.258721
 21
2449.624273
 31
0.0
  0
LINE
  5
406
330
400
100
AcDbEntity
  8
LC-002-002-----0
 62
     7
370
    25
100
AcDbLine
 10
928.258721
 20
2449.624273
 30
0.0
 11
928.740091
 21
2449.624236
 31
0.0
  0
LINE
  5
407
330
400
100
AcDbEntity
  8
LC-002-002-----0
 62
     7
370
    25
100
AcDbLine
 10
928.740091
 20
2449.624236
 30
0.0
 11
928.740091
 21
2449.624236
 31
0.0
  0
LINE
  5
408
330
400
100
AcDbEntity
  8
LC-002-002-----0
 62
     7
370
    25
100
AcDbLine
 10
928.740091
 20
2449.624236
 30
0.0
 11
929.153662
 21
2449.624243
 31
0.0
  0
LINE
  5
409
330
400
100
AcDbEntity
  8
LC-002-002-----0
 62
     7
370
    25
100
AcDbLine
 10
929.153662
 20
2449.624243
 30
0.0
 11
929.153662
 21
2449.624243
 31
0.0
  0
LINE
  5
40A
330
400
100
AcDbEntity
  8
LC-002-002-----0
 62
     7
370
    25
100
AcDbLine
 10
929.153662
 20
2449.624243
 30
0.0
 11
929.472598
 21
2449.624217
 31
0.0
  0
LINE
  5
40B
330
400
100
AcDbEntity
  8
LC-002-002-----0
 62
     7
370
    25
100
AcDbLine
 10
929.472598
 20
2449.624217
 30
0.0
 11
929.472598
 21
2449.624217
 31
0.0
  0
LINE
  5
40C
330
400
100
AcDbEntity
  8
LC-002-002-----0
 62
     7
370
    25
100
AcDbLine
 10
929.472598
 20
2449.624217
 30
0.0
 11
929.674555
 21
2449.624266
 31
0.0
  0
LINE
  5
40D
330
400
100
AcDbEntity
  8
LC-002-002-----0
 62
     7
370
    25
100
AcDbLine
 10
929.674555
 20
2449.624266
 30
0.0
 11
929.674555
 21
2449.624266
 31
0.0
  0
LINE
  5
40E
330
400
100
AcDbEntity
  8
LC-002-002-----0
 62
     7
370
    25
100
AcDbLine
 10
929.674555
 20
2449.624266
 30
0.0
 11
929.743934
 21
2449.624248
 31
0.0
  0
ENDBLK
  5
402
330
400
100
AcDbEntity
  8
0
100
AcDbBlockEnd
  0
BLOCK
  5
437
330
436
100
AcDbEntity
  8
0
100
AcDbBlockBegin
  2
POLY12
 70
     0
 71
     0
 10
0.0
 20
0.0
 30
0.0
  3
POLY12
  1

  4
POLY12
  0
LINE
  5
439
330
436
100
AcDbEntity
  8
LC-002-002-----0
 62
     7
370
    25
100
AcDbLine
 10
927.743934
 20
2472.83672
 30
0.0
 11
927.743934
 21
2472.83672
 31
0.0
  0
LINE
  5
43A
330
436
100
AcDbEntity
  8
LC-002-002-----0
 62
     7
370
    25
100
AcDbLine
 10
927.743934
 20
2472.83672
 30
0.0
 11
928.258707
 21
2472.777782
 31
0.0
  0
LINE
  5
43B
330
436
100
AcDbEntity
  8
LC-002-002-----0
 62
     7
370
    25
100
AcDbLine
 10
928.258707
 20
2472.777782
 30
0.0
 11
928.258707
 21
2472.777782
 31
0.0
  0
LINE
  5
43C
330
436
100
AcDbEntity
  8
LC-002-002-----0
 62
     7
370
    25
100
AcDbLine
 10
928.258707
 20
2472.777782
 30
0.0
 11
928.740065
 21
2472.604237
 31
0.0
  0
LINE
  5
43D
330
436
100
AcDbEntity
  8
LC-002-002-----0
 62
     7
370
    25
100
AcDbLine
 10
928.740065
 20
2472.604237
 30
0.0
 11
928.740065
 21
2472.604237
 31
0.0
  0
LINE
  5
43E
330
436
100
AcDbEntity
  8
LC-002-002-----0
 62
     7
370
    25
100
AcDbLine
 10
928.740065
 20
2472.604237
 30
0.0
 11
929.153632
 21
2472.328101
 31
0.0
  0
LINE
  5
43F
330
436
100
AcDbEntity
  8
LC-002-002-----0
 62
     7
370
    25
100
AcDbLine
 10
929.153632
 20
2472.328101
 30
0.0
 11
929.153632
 21
2472.328101
 31
0.0
  0
LINE
  5
440
330
436
100
AcDbEntity
  8
LC-002-002-----0
 62
     7
370
    25
100
AcDbLine
 10
929.153632
 20
2472.328101
 30
0.0
 11
929.472577
 21
2471.966756
 31
0.0
  0
LINE
  5
441
330
436
100
AcDbEntity
  8
LC-002-002-----0
 62
     7
370
    25
100
AcDbLine
 10
929.472577
 20
2471.966756
 30
0.0
 11
929.472577
 21
2471.966756
 31
0.0
  0
LINE
  5
442
330
436
100
AcDbEntity
  8
LC-002-002-----0
 62
     7
370
    25
100
AcDbLine
 10
929.472577
 20
2471.966756
 30
0.0
 11
929.67454
 21
2471.543369
 31
0.0
  0
LINE
  5
443
330
436
100
AcDbEntity
  8
LC-002-002-----0
 62
     7
370
    25
100
AcDbLine
 10
929.67454
 20
2471.543369
 30
0.0
 11
929.67454
 21
2471.543369
 31
0.0
  0
LINE
  5
444
330
436
100
AcDbEntity
  8
LC-002-002-----0
 62
     7
370
    25
100
AcDbLine
 10
929.67454
 20
2471.543369
 30
0.0
 11
929.743934
 21
2471.085887
 31
0.0
  0
ENDBLK
  5
438
330
436
100
AcDbEntity
  8
0
100
AcDbBlockEnd
  0
BLOCK
  5
45F
330
455
100
AcDbEntity
  8
0
100
AcDbBlockBegin
  2
*D16
 70
     1
 71
     0
 10
0.0
 20
0.0
 30
0.0
  3
*D16
  1

  0
LINE
  5
456
330
455
100
AcDbEntity
  8
LC-007-003-----0
 62
     2
370
    -2
100
AcDbLine
 10
894.791814
 20
1073.949133
 30
0.0
 11
968.0
 21
1073.949133
 31
0.0
  0
LINE
  5
457
330
455
100
AcDbEntity
  8
LC-007-003-----0
 62
     2
370
    -2
100
AcDbLine
 10
894.791814
 20
833.949133
 30
0.0
 11
968.0
 21
833.949133
 31
0.0
  0
LINE
  5
458
330
455
100
AcDbEntity
  8
LC-007-003-----0
 62
     2
370
    -2
100
AcDbLine
 10
950.0
 20
1048.949133
 30
0.0
 11
950.0
 21
858.949133
 31
0.0
  0
SOLID
  5
459
330
455
100
AcDbEntity
  8
LC-007-003-----0
 62
     2
100
AcDbTrace
 10
954.166667
 20
1048.949133
 30
0.0
 11
945.833333
 21
1048.949133
 31
0.0
 12
950.0
 22
1073.949133
 32
0.0
 13
950.0
 23
1073.949133
 33
0.0
  0
SOLID
  5
45A
330
455
100
AcDbEntity
  8
LC-007-003-----0
 62
     2
100
AcDbTrace
 10
945.833333
 20
858.949133
 30
0.0
 11
954.166667
 21
858.949133
 31
0.0
 12
950.0
 22
833.949133
 32
0.0
 13
950.0
 23
833.949133
 33
0.0
  0
MTEXT
  5
45B
330
455
100
AcDbEntity
  8
LC-007-003-----0
 62
     2
100
AcDbMText
 10
920.0
 20
947.813104
 30
0.0
 40
25.0
 41
0.0
 71
     5
 72
     1
  1
\A1;480
  7
LCTX0-400-0-0pDIN-Schrift
 11
6.123031769111886E-17
 21
1.0
 31
0.0
 73
     1
 44
1.0
  0
POINT
  5
45C
330
455
100
AcDbEntity
  8
Defpoints
 62
     0
100
AcDbPoint
 10
894.791814
 20
1073.949133
 30
0.0
  0
POINT
  5
45D
330
455
100
AcDbEntity
  8
Defpoints
 62
     0
100
AcDbPoint
 10
894.791814
 20
833.949133
 30
0.0
  0
POINT
  5
45E
330
455
100
AcDbEntity
  8
Defpoints
 62
     0
100
AcDbPoint
 10
950.0
 20
833.949133
 30
0.0
  0
ENDBLK
  5
460
330
455
100
AcDbEntity
  8
0
100
AcDbBlockEnd
  0
BLOCK
  5
47C
330
472
100
AcDbEntity
  8
0
100
AcDbBlockBegin
  2
*D17
 70
     1
 71
     0
 10
0.0
 20
0.0
 30
0.0
  3
*D17
  1

  0
LINE
  5
473
330
472
100
AcDbEntity
  8
LC-007-003-----0
 62
     2
370
    -2
100
AcDbLine
 10
1762.022288
 20
827.035045
 30
0.0
 11
1868.0
 21
827.035045
 31
0.0
  0
LINE
  5
474
330
472
100
AcDbEntity
  8
LC-007-003-----0
 62
     2
370
    -2
100
AcDbLine
 10
1762.022288
 20
1070.035045
 30
0.0
 11
1868.0
 21
1070.035045
 31
0.0
  0
LINE
  5
475
330
472
100
AcDbEntity
  8
LC-007-003-----0
 62
     2
370
    -2
100
AcDbLine
 10
1850.0
 20
852.035045
 30
0.0
 11
1850.0
 21
1045.035045
 31
0.0
  0
SOLID
  5
476
330
472
100
AcDbEntity
  8
LC-007-003-----0
 62
     2
100
AcDbTrace
 10
1845.833333
 20
852.035045
 30
0.0
 11
1854.166667
 21
852.035045
 31
0.0
 12
1850.0
 22
827.035045
 32
0.0
 13
1850.0
 23
827.035045
 33
0.0
  0
SOLID
  5
477
330
472
100
AcDbEntity
  8
LC-007-003-----0
 62
     2
100
AcDbTrace
 10
1854.166667
 20
1045.035045
 30
0.0
 11
1845.833333
 21
1045.035045
 31
0.0
 12
1850.0
 22
1070.035045
 32
0.0
 13
1850.0
 23
1070.035045
 33
0.0
  0
MTEXT
  5
478
330
472
100
AcDbEntity
  8
LC-007-003-----0
 62
     2
100
AcDbMText
 10
1820.0
 20
948.026009
 30
0.0
 40
25.0
 41
0.0
 71
     5
 72
     1
  1
\A1;486
  7
LCTX0-400-0-0pDIN-Schrift
 11
6.123031769111886E-17
 21
1.0
 31
0.0
 73
     1
 44
1.0
  0
POINT
  5
479
330
472
100
AcDbEntity
  8
Defpoints
 62
     0
100
AcDbPoint
 10
1762.022288
 20
827.035045
 30
0.0
  0
POINT
  5
47A
330
472
100
AcDbEntity
  8
Defpoints
 62
     0
100
AcDbPoint
 10
1762.022288
 20
1070.035045
 30
0.0
  0
POINT
  5
47B
330
472
100
AcDbEntity
  8
Defpoints
 62
     0
100
AcDbPoint
 10
1850.0
 20
1070.035045
 30
0.0
  0
ENDBLK
  5
47D
330
472
100
AcDbEntity
  8
0
100
AcDbBlockEnd
  0
BLOCK
  5
486
330
480
100
AcDbEntity
  8
0
100
AcDbBlockBegin
  2
*D18
 70
     1
 71
     0
 10
0.0
 20
0.0
 30
0.0
  3
*D18
  1

  0
LINE
  5
481
330
480
100
AcDbEntity
  8
LC-007-003-----0
 62
     2
370
    -2
100
AcDbLine
 10
1196.354942
 20
1068.160173
 30
0.0
 11
1186.038297
 21
1080.247408
 31
0.0
  0
MTEXT
  5
482
330
480
100
AcDbEntity
  8
LC-007-003-----0
 62
     2
100
AcDbMText
 10
1232.969807
 20
1050.109532
 30
0.0
 40
25.0
 41
0.0
 71
     5
 72
     1
  1
\A1;R10
  7
LCTX0-400-0-0pDIN-Schrift
 11
0.6491995546049998
 21
-0.7606181290901959
 31
0.0
 73
     1
 44
1.0
  0
SOLID
  5
483
330
480
100
AcDbEntity
  8
LC-007-003-----0
 62
     2
100
AcDbTrace
 10
1221.667517
 20
1044.921499
 30
0.0
 11
1215.329032
 21
1039.511503
 31
0.0
 12
1202.268286
 22
1061.231954
 32
0.0
 13
1202.268286
 23
1061.231954
 33
0.0
  0
POINT
  5
484
330
480
100
AcDbEntity
  8
Defpoints
 62
     0
100
AcDbPoint
 10
1202.268286
 20
1061.231954
 30
0.0
  0
POINT
  5
485
330
480
100
AcDbEntity
  8
Defpoints
 62
     0
100
AcDbPoint
 10
1199.022288
 20
1065.035045
 30
0.0
  0
ENDBLK
  5
487
330
480
100
AcDbEntity
  8
0
100
AcDbBlockEnd
  0
BLOCK
  5
490
330
48A
100
AcDbEntity
  8
0
100
AcDbBlockBegin
  2
*D19
 70
     1
 71
     0
 10
0.0
 20
0.0
 30
0.0
  3
*D19
  1

  0
LINE
  5
48B
330
48A
100
AcDbEntity
  8
LC-007-003-----0
 62
     2
370
    -2
100
AcDbLine
 10
344.149886
 20
1056.179173
 30
0.0
 11
352.524633
 21
1044.751052
 31
0.0
  0
MTEXT
  5
48C
330
48A
100
AcDbEntity
  8
LC-007-003-----0
 62
     2
100
AcDbMText
 10
380.114235
 20
1036.043251
 30
0.0
 40
25.0
 41
0.0
 71
     5
 72
     1
  1
\A1;R10
  7
LCTX0-400-0-0pDIN-Schrift
 11
0.5910939745918347
 21
-0.8066026984837255
 31
0.0
 73
     1
 44
1.0
  0
SOLID
  5
48D
330
48A
100
AcDbEntity
  8
LC-007-003-----0
 62
     2
100
AcDbTrace
 10
319.609089
 20
1082.618295
 30
0.0
 11
326.330779
 21
1087.544079
 31
0.0
 12
337.747283
 22
1064.91612
 32
0.0
 13
337.747283
 23
1064.91612
 33
0.0
  0
POINT
  5
48E
330
48A
100
AcDbEntity
  8
Defpoints
 62
     0
100
AcDbPoint
 10
337.747283
 20
1064.91612
 30
0.0
  0
POINT
  5
48F
330
48A
100
AcDbEntity
  8
Defpoints
 62
     0
100
AcDbPoint
 10
334.791814
 20
1068.949133
 30
0.0
  0
ENDBLK
  5
491
330
48A
100
AcDbEntity
  8
0
100
AcDbBlockEnd
  0
BLOCK
  5
49D
330
493
100
AcDbEntity
  8
0
100
AcDbBlockBegin
  2
*D20
 70
     1
 71
     0
 10
0.0
 20
0.0
 30
0.0
  3
*D20
  1

  0
LINE
  5
494
330
493
100
AcDbEntity
  8
LC-007-003-----0
 62
     2
370
    -2
100
AcDbLine
 10
329.791814
 20
838.949133
 30
0.0
 11
329.791814
 21
732.0
 31
0.0
  0
LINE
  5
495
330
493
100
AcDbEntity
  8
LC-007-003-----0
 62
     2
370
    -2
100
AcDbLine
 10
899.791814
 20
838.949133
 30
0.0
 11
899.791814
 21
732.0
 31
0.0
  0
LINE
  5
496
330
493
100
AcDbEntity
  8
LC-007-003-----0
 62
     2
370
    -2
100
AcDbLine
 10
354.791814
 20
750.0
 30
0.0
 11
874.791814
 21
750.0
 31
0.0
  0
SOLID
  5
497
330
493
100
AcDbEntity
  8
LC-007-003-----0
 62
     2
100
AcDbTrace
 10
354.791814
 20
754.166667
 30
0.0
 11
354.791814
 21
745.833333
 31
0.0
 12
329.791814
 22
750.0
 32
0.0
 13
329.791814
 23
750.0
 33
0.0
  0
SOLID
  5
498
330
493
100
AcDbEntity
  8
LC-007-003-----0
 62
     2
100
AcDbTrace
 10
874.791814
 20
745.833333
 30
0.0
 11
874.791814
 21
754.166667
 31
0.0
 12
899.791814
 22
750.0
 32
0.0
 13
899.791814
 23
750.0
 33
0.0
  0
MTEXT
  5
499
330
493
100
AcDbEntity
  8
LC-007-003-----0
 62
     2
100
AcDbMText
 10
622.675113
 20
780.0
 30
0.0
 40
25.0
 41
0.0
 71
     5
 72
     1
  1
\A1;1140
  7
LCTX0-400-0-0pDIN-Schrift
 73
     1
 44
1.0
  0
POINT
  5
49A
330
493
100
AcDbEntity
  8
Defpoints
 62
     0
100
AcDbPoint
 10
329.791814
 20
838.949133
 30
0.0
  0
POINT
  5
49B
330
493
100
AcDbEntity
  8
Defpoints
 62
     0
100
AcDbPoint
 10
899.791814
 20
838.949133
 30
0.0
  0
POINT
  5
49C
330
493
100
AcDbEntity
  8
Defpoints
 62
     0
100
AcDbPoint
 10
899.791814
 20
750.0
 30
0.0
  0
ENDBLK
  5
49E
330
493
100
AcDbEntity
  8
0
100
AcDbBlockEnd
  0
BLOCK
  5
4AA
330
4A0
100
AcDbEntity
  8
0
100
AcDbBlockBegin
  2
*D21
 70
     1
 71
     0
 10
0.0
 20
0.0
 30
0.0
  3
*D21
  1

  0
LINE
  5
4A1
330
4A0
100
AcDbEntity
  8
LC-007-003-----0
 62
     2
370
    -2
100
AcDbLine
 10
499.791814
 20
1115.30985
 30
0.0
 11
499.791814
 21
1082.0
 31
0.0
  0
LINE
  5
4A2
330
4A0
100
AcDbEntity
  8
LC-007-003-----0
 62
     2
370
    -2
100
AcDbLine
 10
899.791814
 20
1115.30985
 30
0.0
 11
899.791814
 21
1082.0
 31
0.0
  0
LINE
  5
4A3
330
4A0
100
AcDbEntity
  8
LC-007-003-----0
 62
     2
370
    -2
100
AcDbLine
 10
524.791814
 20
1100.0
 30
0.0
 11
874.791814
 21
1100.0
 31
0.0
  0
SOLID
  5
4A4
330
4A0
100
AcDbEntity
  8
LC-007-003-----0
 62
     2
100
AcDbTrace
 10
524.791814
 20
1104.166667
 30
0.0
 11
524.791814
 21
1095.833333
 31
0.0
 12
499.791814
 22
1100.0
 32
0.0
 13
499.791814
 23
1100.0
 33
0.0
  0
SOLID
  5
4A5
330
4A0
100
AcDbEntity
  8
LC-007-003-----0
 62
     2
100
AcDbTrace
 10
874.791814
 20
1095.833333
 30
0.0
 11
874.791814
 21
1104.166667
 31
0.0
 12
899.791814
 22
1100.0
 32
0.0
 13
899.791814
 23
1100.0
 33
0.0
  0
MTEXT
  5
4A6
330
4A0
100
AcDbEntity
  8
LC-007-003-----0
 62
     2
100
AcDbMText
 10
704.791605
 20
1130.0
 30
0.0
 40
25.0
 41
0.0
 71
     5
 72
     1
  1
\A1;800
  7
LCTX0-400-0-0pDIN-Schrift
 73
     1
 44
1.0
  0
POINT
  5
4A7
330
4A0
100
AcDbEntity
  8
Defpoints
 62
     0
100
AcDbPoint
 10
499.791814
 20
1115.30985
 30
0.0
  0
POINT
  5
4A8
330
4A0
100
AcDbEntity
  8
Defpoints
 62
     0
100
AcDbPoint
 10
899.791814
 20
1115.30985
 30
0.0
  0
POINT
  5
4A9
330
4A0
100
AcDbEntity
  8
Defpoints
 62
     0
100
AcDbPoint
 10
899.791814
 20
1100.0
 30
0.0
  0
ENDBLK
  5
4AB
330
4A0
100
AcDbEntity
  8
0
100
AcDbBlockEnd
  0
BLOCK
  5
4B7
330
4AD
100
AcDbEntity
  8
0
100
AcDbBlockBegin
  2
*D22
 70
     1
 71
     0
 10
0.0
 20
0.0
 30
0.0
  3
*D22
  1

  0
LINE
  5
4AE
330
4AD
100
AcDbEntity
  8
LC-007-003-----0
 62
     2
370
    -2
100
AcDbLine
 10
1194.022288
 20
832.035045
 30
0.0
 11
1194.022288
 21
732.0
 31
0.0
  0
LINE
  5
4AF
330
4AD
100
AcDbEntity
  8
LC-007-003-----0
 62
     2
370
    -2
100
AcDbLine
 10
1767.022288
 20
832.035045
 30
0.0
 11
1767.022288
 21
732.0
 31
0.0
  0
LINE
  5
4B0
330
4AD
100
AcDbEntity
  8
LC-007-003-----0
 62
     2
370
    -2
100
AcDbLine
 10
1219.022288
 20
750.0
 30
0.0
 11
1742.022288
 21
750.0
 31
0.0
  0
SOLID
  5
4B1
330
4AD
100
AcDbEntity
  8
LC-007-003-----0
 62
     2
100
AcDbTrace
 10
1219.022288
 20
754.166667
 30
0.0
 11
1219.022288
 21
745.833333
 31
0.0
 12
1194.022288
 22
750.0
 32
0.0
 13
1194.022288
 23
750.0
 33
0.0
  0
SOLID
  5
4B2
330
4AD
100
AcDbEntity
  8
LC-007-003-----0
 62
     2
100
AcDbTrace
 10
1742.022288
 20
745.833333
 30
0.0
 11
1742.022288
 21
754.166667
 31
0.0
 12
1767.022288
 22
750.0
 32
0.0
 13
1767.022288
 23
750.0
 33
0.0
  0
MTEXT
  5
4B3
330
4AD
100
AcDbEntity
  8
LC-007-003-----0
 62
     2
100
AcDbMText
 10
1491.869504
 20
780.0
 30
0.0
 40
25.0
 41
0.0
 71
     5
 72
     1
  1
\A1;1146
  7
LCTX0-400-0-0pDIN-Schrift
 73
     1
 44
1.0
  0
POINT
  5
4B4
330
4AD
100
AcDbEntity
  8
Defpoints
 62
     0
100
AcDbPoint
 10
1194.022288
 20
832.035045
 30
0.0
  0
POINT
  5
4B5
330
4AD
100
AcDbEntity
  8
Defpoints
 62
     0
100
AcDbPoint
 10
1767.022288
 20
832.035045
 30
0.0
  0
POINT
  5
4B6
330
4AD
100
AcDbEntity
  8
Defpoints
 62
     0
100
AcDbPoint
 10
1767.022288
 20
750.0
 30
0.0
  0
ENDBLK
  5
4B8
330
4AD
100
AcDbEntity
  8
0
100
AcDbBlockEnd
  0
BLOCK
  5
4E6
330
4DC
100
AcDbEntity
  8
0
100
AcDbBlockBegin
  2
*D23
 70
     1
 71
     0
 10
0.0
 20
0.0
 30
0.0
  3
*D23
  1

  0
LINE
  5
4DD
330
4DC
100
AcDbEntity
  8
LC-007-003-----0
 62
     2
370
    -2
100
AcDbLine
 10
239.839381
 20
1609.498679
 30
0.0
 11
239.839381
 21
1498.888566
 31
0.0
  0
LINE
  5
4DE
330
4DC
100
AcDbEntity
  8
LC-007-003-----0
 62
     2
370
    -2
100
AcDbLine
 10
1399.839408
 20
1609.498679
 30
0.0
 11
1399.839408
 21
1498.888566
 31
0.0
  0
LINE
  5
4DF
330
4DC
100
AcDbEntity
  8
LC-007-003-----0
 62
     2
370
    -2
100
AcDbLine
 10
264.839381
 20
1516.888566
 30
0.0
 11
1374.839408
 21
1516.888566
 31
0.0
  0
SOLID
  5
4E0
330
4DC
100
AcDbEntity
  8
LC-007-003-----0
 62
     2
100
AcDbTrace
 10
264.839381
 20
1521.055233
 30
0.0
 11
264.839381
 21
1512.7219
 31
0.0
 12
239.839381
 22
1516.888566
 32
0.0
 13
239.839381
 23
1516.888566
 33
0.0
  0
SOLID
  5
4E1
330
4DC
100
AcDbEntity
  8
LC-007-003-----0
 62
     2
100
AcDbTrace
 10
1374.839408
 20
1512.7219
 30
0.0
 11
1374.839408
 21
1521.055233
 31
0.0
 12
1399.839408
 22
1516.888566
 32
0.0
 13
1399.839408
 23
1516.888566
 33
0.0
  0
MTEXT
  5
4E2
330
4DC
100
AcDbEntity
  8
LC-007-003-----0
 62
     2
100
AcDbMText
 10
835.129965
 20
1546.888566
 30
0.0
 40
25.0
 41
0.0
 71
     5
 72
     1
  1
\A1;1160
  7
LCTX0-400-0-0pDIN-Schrift
 73
     1
 44
1.0
  0
POINT
  5
4E3
330
4DC
100
AcDbEntity
  8
Defpoints
 62
     0
100
AcDbPoint
 10
239.839381
 20
1609.498679
 30
0.0
  0
POINT
  5
4E4
330
4DC
100
AcDbEntity
  8
Defpoints
 62
     0
100
AcDbPoint
 10
1399.839408
 20
1609.498679
 30
0.0
  0
POINT
  5
4E5
330
4DC
100
AcDbEntity
  8
Defpoints
 62
     0
100
AcDbPoint
 10
1399.839408
 20
1516.888566
 30
0.0
  0
ENDBLK
  5
4E7
330
4DC
100
AcDbEntity
  8
0
100
AcDbBlockEnd
  0
BLOCK
  5
4F3
330
4E9
100
AcDbEntity
  8
0
100
AcDbBlockBegin
  2
*D24
 70
     1
 71
     0
 10
0.0
 20
0.0
 30
0.0
  3
*D24
  1

  0
LINE
  5
4EA
330
4E9
100
AcDbEntity
  8
LC-007-003-----0
 62
     2
370
    -2
100
AcDbLine
 10
1382.839408
 20
2092.499433
 30
0.0
 11
1468.0
 21
2092.499433
 31
0.0
  0
LINE
  5
4EB
330
4E9
100
AcDbEntity
  8
LC-007-003-----0
 62
     2
370
    -2
100
AcDbLine
 10
1382.839408
 20
1592.498679
 30
0.0
 11
1468.0
 21
1592.498679
 31
0.0
  0
LINE
  5
4EC
330
4E9
100
AcDbEntity
  8
LC-007-003-----0
 62
     2
370
    -2
100
AcDbLine
 10
1450.0
 20
2067.499433
 30
0.0
 11
1450.0
 21
1617.498679
 31
0.0
  0
SOLID
  5
4ED
330
4E9
100
AcDbEntity
  8
LC-007-003-----0
 62
     2
100
AcDbTrace
 10
1454.166667
 20
2067.499433
 30
0.0
 11
1445.833333
 21
2067.499433
 31
0.0
 12
1450.0
 22
2092.499433
 32
0.0
 13
1450.0
 23
2092.499433
 33
0.0
  0
SOLID
  5
4EE
330
4E9
100
AcDbEntity
  8
LC-007-003-----0
 62
     2
100
AcDbTrace
 10
1445.833333
 20
1617.498679
 30
0.0
 11
1454.166667
 21
1617.498679
 31
0.0
 12
1450.0
 22
1592.498679
 32
0.0
 13
1450.0
 23
1592.498679
 33
0.0
  0
MTEXT
  5
4EF
330
4E9
100
AcDbEntity
  8
LC-007-003-----0
 62
     2
100
AcDbMText
 10
1420.0
 20
1857.045547
 30
0.0
 40
25.0
 41
0.0
 71
     5
 72
     1
  1
\A1;500
  7
LCTX0-400-0-0pDIN-Schrift
 11
6.123031769111886E-17
 21
1.0
 31
0.0
 73
     1
 44
1.0
  0
POINT
  5
4F0
330
4E9
100
AcDbEntity
  8
Defpoints
 62
     0
100
AcDbPoint
 10
1382.839408
 20
2092.499433
 30
0.0
  0
POINT
  5
4F1
330
4E9
100
AcDbEntity
  8
Defpoints
 62
     0
100
AcDbPoint
 10
1382.839408
 20
1592.498679
 30
0.0
  0
POINT
  5
4F2
330
4E9
100
AcDbEntity
  8
Defpoints
 62
     0
100
AcDbPoint
 10
1450.0
 20
1592.498679
 30
0.0
  0
ENDBLK
  5
4F4
330
4E9
100
AcDbEntity
  8
0
100
AcDbBlockEnd
  0
BLOCK
  5
500
330
4F6
100
AcDbEntity
  8
0
100
AcDbBlockBegin
  2
*D25
 70
     1
 71
     0
 10
0.0
 20
0.0
 30
0.0
  3
*D25
  1

  0
LINE
  5
4F7
330
4F6
100
AcDbEntity
  8
LC-007-003-----0
 62
     2
370
    -2
100
AcDbLine
 10
1399.839408
 20
2075.499433
 30
0.0
 11
1399.839408
 21
2184.888566
 31
0.0
  0
LINE
  5
4F8
330
4F6
100
AcDbEntity
  8
LC-007-003-----0
 62
     2
370
    -2
100
AcDbLine
 10
995.339562
 20
2088.613977
 30
0.0
 11
995.339562
 21
2184.888566
 31
0.0
  0
LINE
  5
4F9
330
4F6
100
AcDbEntity
  8
LC-007-003-----0
 62
     2
370
    -2
100
AcDbLine
 10
1374.839408
 20
2166.888566
 30
0.0
 11
1020.339562
 21
2166.888566
 31
0.0
  0
SOLID
  5
4FA
330
4F6
100
AcDbEntity
  8
LC-007-003-----0
 62
     2
100
AcDbTrace
 10
1374.839408
 20
2162.7219
 30
0.0
 11
1374.839408
 21
2171.055233
 31
0.0
 12
1399.839408
 22
2166.888566
 32
0.0
 13
1399.839408
 23
2166.888566
 33
0.0
  0
SOLID
  5
4FB
330
4F6
100
AcDbEntity
  8
LC-007-003-----0
 62
     2
100
AcDbTrace
 10
1020.339562
 20
2171.055233
 30
0.0
 11
1020.339562
 21
2162.7219
 31
0.0
 12
995.339562
 22
2166.888566
 32
0.0
 13
995.339562
 23
2166.888566
 33
0.0
  0
MTEXT
  5
4FC
330
4F6
100
AcDbEntity
  8
LC-007-003-----0
 62
     2
100
AcDbMText
 10
1189.507396
 20
2196.888566
 30
0.0
 40
25.0
 41
0.0
 71
     5
 72
     1
  1
\A1;404,5
  7
LCTX0-400-0-0pDIN-Schrift
 73
     1
 44
1.0
  0
POINT
  5
4FD
330
4F6
100
AcDbEntity
  8
Defpoints
 62
     0
100
AcDbPoint
 10
1399.839408
 20
2075.499433
 30
0.0
  0
POINT
  5
4FE
330
4F6
100
AcDbEntity
  8
Defpoints
 62
     0
100
AcDbPoint
 10
995.339562
 20
2088.613977
 30
0.0
  0
POINT
  5
4FF
330
4F6
100
AcDbEntity
  8
Defpoints
 62
     0
100
AcDbPoint
 10
995.339562
 20
2166.888566
 30
0.0
  0
ENDBLK
  5
501
330
4F6
100
AcDbEntity
  8
0
100
AcDbBlockEnd
  0
BLOCK
  5
50F
330
503
100
AcDbEntity
  8
0
100
AcDbBlockBegin
  2
*D26
 70
     1
 71
     0
 10
0.0
 20
0.0
 30
0.0
  3
*D26
  1

  0
LINE
  5
504
330
503
100
AcDbEntity
  8
LC-007-003-----0
 62
     2
370
    -2
100
AcDbLine
 10
977.839562
 20
2054.499433
 30
0.0
 11
882.0
 21
2054.499433
 31
0.0
  0
LINE
  5
505
330
503
100
AcDbEntity
  8
LC-007-003-----0
 62
     2
370
    -2
100
AcDbLine
 10
995.339562
 20
2092.499433
 30
0.0
 11
882.0
 21
2092.499433
 31
0.0
  0
LINE
  5
506
330
503
100
AcDbEntity
  8
LC-007-003-----0
 62
     2
370
    -2
100
AcDbLine
 10
900.0
 20
2029.499433
 30
0.0
 11
900.0
 21
2004.499433
 31
0.0
  0
LINE
  5
507
330
503
100
AcDbEntity
  8
LC-007-003-----0
 62
     2
370
    -2
100
AcDbLine
 10
900.0
 20
2117.499433
 30
0.0
 11
900.0
 21
2181.104488
 31
0.0
  0
LINE
  5
508
330
503
100
AcDbEntity
  8
LC-007-003-----0
 62
     2
370
    -2
100
AcDbLine
 10
900.0
 20
2054.499433
 30
0.0
 11
900.0
 21
2092.499433
 31
0.0
  0
SOLID
  5
509
330
503
100
AcDbEntity
  8
LC-007-003-----0
 62
     2
100
AcDbTrace
 10
904.166667
 20
2029.499433
 30
0.0
 11
895.833333
 21
2029.499433
 31
0.0
 12
900.0
 22
2054.499433
 32
0.0
 13
900.0
 23
2054.499433
 33
0.0
  0
SOLID
  5
50A
330
503
100
AcDbEntity
  8
LC-007-003-----0
 62
     2
100
AcDbTrace
 10
895.833333
 20
2117.499433
 30
0.0
 11
904.166667
 21
2117.499433
 31
0.0
 12
900.0
 22
2092.499433
 32
0.0
 13
900.0
 23
2092.499433
 33
0.0
  0
MTEXT
  5
50B
330
503
100
AcDbEntity
  8
LC-007-003-----0
 62
     2
100
AcDbMText
 10
870.0
 20
2151.937822
 30
0.0
 40
25.0
 41
0.0
 71
     5
 72
     1
  1
\A1;38
  7
LCTX0-400-0-0pDIN-Schrift
 11
6.123031769111886E-17
 21
1.0
 31
0.0
 73
     1
 44
1.0
  0
POINT
  5
50C
330
503
100
AcDbEntity
  8
Defpoints
 62
     0
100
AcDbPoint
 10
977.839562
 20
2054.499433
 30
0.0
  0
POINT
  5
50D
330
503
100
AcDbEntity
  8
Defpoints
 62
     0
100
AcDbPoint
 10
995.339562
 20
2092.499433
 30
0.0
  0
POINT
  5
50E
330
503
100
AcDbEntity
  8
Defpoints
 62
     0
100
AcDbPoint
 10
900.0
 20
2092.499433
 30
0.0
  0
ENDBLK
  5
510
330
503
100
AcDbEntity
  8
0
100
AcDbBlockEnd
  0
BLOCK
  5
516
330
515
100
AcDbEntity
  8
0
100
AcDbBlockBegin
  2
*X127
 70
     1
 71
     0
 10
0.0
 20
0.0
 30
0.0
  3
*X127
  1

  4
*X1
  0
LINE
  5
519
330
515
100
AcDbEntity
  8
LC-009-005-----0
 62
     7
370
    25
100
AcDbLine
 10
1443.952065
 20
2688.46
 30
0.0
 11
1464.017331
 21
2708.525266
 31
0.0
  0
LINE
  5
51A
330
515
100
AcDbEntity
  8
LC-009-005-----0
 62
     7
370
    25
100
AcDbLine
 10
1415.667794
 20
2688.46
 30
0.0
 11
1453.667794
 21
2726.46
 31
0.0
  0
LINE
  5
51B
330
515
100
AcDbEntity
  8
LC-009-005-----0
 62
     7
370
    25
100
AcDbLine
 10
1389.839408
 20
2690.915885
 30
0.0
 11
1425.383523
 21
2726.46
 31
0.0
  0
LINE
  5
51C
330
515
100
AcDbEntity
  8
LC-009-005-----0
 62
     7
370
    25
100
AcDbLine
 10
1389.839408
 20
2719.200156
 30
0.0
 11
1397.099251
 21
2726.46
 31
0.0
  0
ENDBLK
  5
517
330
515
100
AcDbEntity
  8
0
100
AcDbBlockEnd
  0
BLOCK
  5
528
330
527
100
AcDbEntity
  8
0
100
AcDbBlockBegin
  2
*X228
 70
     1
 71
     0
 10
0.0
 20
0.0
 30
0.0
  3
*X228
  1

  4
*X2
  0
LINE
  5
52A
330
527
100
AcDbEntity
  8
LC-009-005-----0
 62
     7
370
    25
100
AcDbLine
 10
1370.839408
 20
2615.347342
 30
0.0
 11
1389.839408
 21
2634.347342
 31
0.0
  0
LINE
  5
52B
330
527
100
AcDbEntity
  8
LC-009-005-----0
 62
     7
370
    25
100
AcDbLine
 10
1370.839408
 20
2643.631614
 30
0.0
 11
1389.839408
 21
2662.631614
 31
0.0
  0
LINE
  5
52C
330
527
100
AcDbEntity
  8
LC-009-005-----0
 62
     7
370
    25
100
AcDbLine
 10
1370.839408
 20
2671.915885
 30
0.0
 11
1387.383523
 21
2688.46
 31
0.0
  0
LINE
  5
52D
330
527
100
AcDbEntity
  8
LC-009-005-----0
 62
     7
370
    25
100
AcDbLine
 10
598.716987
 20
2606.900245
 30
0.0
 11
608.839408
 21
2617.022666
 31
0.0
  0
LINE
  5
52E
330
527
100
AcDbEntity
  8
LC-009-005-----0
 62
     7
370
    25
100
AcDbLine
 10
589.839408
 20
2626.306937
 30
0.0
 11
608.839408
 21
2645.306937
 31
0.0
  0
LINE
  5
52F
330
527
100
AcDbEntity
  8
LC-009-005-----0
 62
     7
370
    25
100
AcDbLine
 10
589.839408
 20
2654.591209
 30
0.0
 11
608.839408
 21
2673.591209
 31
0.0
  0
LINE
  5
530
330
527
100
AcDbEntity
  8
LC-009-005-----0
 62
     7
370
    25
100
AcDbLine
 10
589.839408
 20
2682.87548
 30
0.0
 11
595.423928
 21
2688.46
 31
0.0
  0
ENDBLK
  5
529
330
527
100
AcDbEntity
  8
0
100
AcDbBlockEnd
  0
BLOCK
  5
53D
330
533
100
AcDbEntity
  8
0
100
AcDbBlockBegin
  2
*D29
 70
     1
 71
     0
 10
0.0
 20
0.0
 30
0.0
  3
*D29
  1

  0
LINE
  5
534
330
533
100
AcDbEntity
  8
LC-007-003-----0
 62
     2
370
    -2
100
AcDbLine
 10
589.839408
 20
2606.900245
 30
0.0
 11
589.839408
 21
2341.242556
 31
0.0
  0
LINE
  5
535
330
533
100
AcDbEntity
  8
LC-007-003-----0
 62
     2
370
    -2
100
AcDbLine
 10
1389.839408
 20
2606.900245
 30
0.0
 11
1389.839408
 21
2341.242556
 31
0.0
  0
LINE
  5
536
330
533
100
AcDbEntity
  8
LC-007-003-----0
 62
     2
370
    -2
100
AcDbLine
 10
614.839408
 20
2359.242556
 30
0.0
 11
1364.839408
 21
2359.242556
 31
0.0
  0
SOLID
  5
537
330
533
100
AcDbEntity
  8
LC-007-003-----0
 62
     2
100
AcDbTrace
 10
614.839408
 20
2363.409223
 30
0.0
 11
614.839408
 21
2355.075889
 31
0.0
 12
589.839408
 22
2359.242556
 32
0.0
 13
589.839408
 23
2359.242556
 33
0.0
  0
SOLID
  5
538
330
533
100
AcDbEntity
  8
LC-007-003-----0
 62
     2
100
AcDbTrace
 10
1364.839408
 20
2355.075889
 30
0.0
 11
1364.839408
 21
2363.409223
 31
0.0
 12
1389.839408
 22
2359.242556
 32
0.0
 13
1389.839408
 23
2359.242556
 33
0.0
  0
MTEXT
  5
539
330
533
100
AcDbEntity
  8
LC-007-003-----0
 62
     2
100
AcDbMText
 10
1005.855008
 20
2389.242556
 30
0.0
 40
25.0
 41
0.0
 71
     5
 72
     1
  1
\A1;800
  7
LCTX0-400-0-0pDIN-Schrift
 73
     1
 44
1.0
  0
POINT
  5
53A
330
533
100
AcDbEntity
  8
Defpoints
 62
     0
100
AcDbPoint
 10
589.839408
 20
2606.900245
 30
0.0
  0
POINT
  5
53B
330
533
100
AcDbEntity
  8
Defpoints
 62
     0
100
AcDbPoint
 10
1389.839408
 20
2606.900245
 30
0.0
  0
POINT
  5
53C
330
533
100
AcDbEntity
  8
Defpoints
 62
     0
100
AcDbPoint
 10
1389.839408
 20
2359.242556
 30
0.0
  0
ENDBLK
  5
53E
330
533
100
AcDbEntity
  8
0
100
AcDbBlockEnd
  0
BLOCK
  5
558
330
557
100
AcDbEntity
  8
0
100
AcDbBlockBegin
  2
POLY13
 70
     0
 71
     0
 10
0.0
 20
0.0
 30
0.0
  3
POLY13
  1

  4
POLY13
  0
LINE
  5
55A
330
557
100
AcDbEntity
  8
LC-002-002-----0
 62
     7
370
    25
100
AcDbLine
 10
1693.926499
 20
2079.572933
 30
0.0
 11
1693.926499
 21
2079.572933
 31
0.0
  0
LINE
  5
55B
330
557
100
AcDbEntity
  8
LC-002-002-----0
 62
     7
370
    25
100
AcDbLine
 10
1693.926499
 20
2079.572933
 30
0.0
 11
1693.926536
 21
2079.427949
 31
0.0
  0
LINE
  5
55C
330
557
100
AcDbEntity
  8
LC-002-002-----0
 62
     7
370
    25
100
AcDbLine
 10
1693.926536
 20
2079.427949
 30
0.0
 11
1693.926536
 21
2079.427949
 31
0.0
  0
LINE
  5
55D
330
557
100
AcDbEntity
  8
LC-002-002-----0
 62
     7
370
    25
100
AcDbLine
 10
1693.926536
 20
2079.427949
 30
0.0
 11
1693.926976
 21
2079.003308
 31
0.0
  0
LINE
  5
55E
330
557
100
AcDbEntity
  8
LC-002-002-----0
 62
     7
370
    25
100
AcDbLine
 10
1693.926976
 20
2079.003308
 30
0.0
 11
1693.926976
 21
2079.003308
 31
0.0
  0
LINE
  5
55F
330
557
100
AcDbEntity
  8
LC-002-002-----0
 62
     7
370
    25
100
AcDbLine
 10
1693.926976
 20
2079.003308
 30
0.0
 11
1693.926548
 21
2078.298961
 31
0.0
  0
LINE
  5
560
330
557
100
AcDbEntity
  8
LC-002-002-----0
 62
     7
370
    25
100
AcDbLine
 10
1693.926548
 20
2078.298961
 30
0.0
 11
1693.926548
 21
2078.298961
 31
0.0
  0
LINE
  5
561
330
557
100
AcDbEntity
  8
LC-002-002-----0
 62
     7
370
    25
100
AcDbLine
 10
1693.926548
 20
2078.298961
 30
0.0
 11
1693.926409
 21
2077.30055
 31
0.0
  0
LINE
  5
562
330
557
100
AcDbEntity
  8
LC-002-002-----0
 62
     7
370
    25
100
AcDbLine
 10
1693.926409
 20
2077.30055
 30
0.0
 11
1693.926409
 21
2077.30055
 31
0.0
  0
LINE
  5
563
330
557
100
AcDbEntity
  8
LC-002-002-----0
 62
     7
370
    25
100
AcDbLine
 10
1693.926409
 20
2077.30055
 30
0.0
 11
1693.926452
 21
2075.955455
 31
0.0
  0
LINE
  5
564
330
557
100
AcDbEntity
  8
LC-002-002-----0
 62
     7
370
    25
100
AcDbLine
 10
1693.926452
 20
2075.955455
 30
0.0
 11
1693.926452
 21
2075.955455
 31
0.0
  0
LINE
  5
565
330
557
100
AcDbEntity
  8
LC-002-002-----0
 62
     7
370
    25
100
AcDbLine
 10
1693.926452
 20
2075.955455
 30
0.0
 11
1693.926469
 21
2074.263602
 31
0.0
  0
LINE
  5
566
330
557
100
AcDbEntity
  8
LC-002-002-----0
 62
     7
370
    25
100
AcDbLine
 10
1693.926469
 20
2074.263602
 30
0.0
 11
1693.926469
 21
2074.263602
 31
0.0
  0
LINE
  5
567
330
557
100
AcDbEntity
  8
LC-002-002-----0
 62
     7
370
    25
100
AcDbLine
 10
1693.926469
 20
2074.263602
 30
0.0
 11
1693.926772
 21
2072.260297
 31
0.0
  0
LINE
  5
568
330
557
100
AcDbEntity
  8
LC-002-002-----0
 62
     7
370
    25
100
AcDbLine
 10
1693.926772
 20
2072.260297
 30
0.0
 11
1693.926772
 21
2072.260297
 31
0.0
  0
LINE
  5
569
330
557
100
AcDbEntity
  8
LC-002-002-----0
 62
     7
370
    25
100
AcDbLine
 10
1693.926772
 20
2072.260297
 30
0.0
 11
1693.92662
 21
2070.001859
 31
0.0
  0
LINE
  5
56A
330
557
100
AcDbEntity
  8
LC-002-002-----0
 62
     7
370
    25
100
AcDbLine
 10
1693.92662
 20
2070.001859
 30
0.0
 11
1693.92662
 21
2070.001859
 31
0.0
  0
LINE
  5
56B
330
557
100
AcDbEntity
  8
LC-002-002-----0
 62
     7
370
    25
100
AcDbLine
 10
1693.92662
 20
2070.001859
 30
0.0
 11
1693.926585
 21
2067.578929
 31
0.0
  0
LINE
  5
56C
330
557
100
AcDbEntity
  8
LC-002-002-----0
 62
     7
370
    25
100
AcDbLine
 10
1693.926585
 20
2067.578929
 30
0.0
 11
1693.926585
 21
2067.578929
 31
0.0
  0
LINE
  5
56D
330
557
100
AcDbEntity
  8
LC-002-002-----0
 62
     7
370
    25
100
AcDbLine
 10
1693.926585
 20
2067.578929
 30
0.0
 11
1693.926587
 21
2065.096735
 31
0.0
  0
LINE
  5
56E
330
557
100
AcDbEntity
  8
LC-002-002-----0
 62
     7
370
    25
100
AcDbLine
 10
1693.926587
 20
2065.096735
 30
0.0
 11
1693.926587
 21
2065.096735
 31
0.0
  0
LINE
  5
56F
330
557
100
AcDbEntity
  8
LC-002-002-----0
 62
     7
370
    25
100
AcDbLine
 10
1693.926587
 20
2065.096735
 30
0.0
 11
1693.926637
 21
2062.684391
 31
0.0
  0
LINE
  5
570
330
557
100
AcDbEntity
  8
LC-002-002-----0
 62
     7
370
    25
100
AcDbLine
 10
1693.926637
 20
2062.684391
 30
0.0
 11
1693.926637
 21
2062.684391
 31
0.0
  0
LINE
  5
571
330
557
100
AcDbEntity
  8
LC-002-002-----0
 62
     7
370
    25
100
AcDbLine
 10
1693.926637
 20
2062.684391
 30
0.0
 11
1693.926773
 21
2060.445323
 31
0.0
  0
LINE
  5
572
330
557
100
AcDbEntity
  8
LC-002-002-----0
 62
     7
370
    25
100
AcDbLine
 10
1693.926773
 20
2060.445323
 30
0.0
 11
1693.926773
 21
2060.445323
 31
0.0
  0
LINE
  5
573
330
557
100
AcDbEntity
  8
LC-002-002-----0
 62
     7
370
    25
100
AcDbLine
 10
1693.926773
 20
2060.445323
 30
0.0
 11
1693.926474
 21
2058.463479
 31
0.0
  0
LINE
  5
574
330
557
100
AcDbEntity
  8
LC-002-002-----0
 62
     7
370
    25
100
AcDbLine
 10
1693.926474
 20
2058.463479
 30
0.0
 11
1693.926474
 21
2058.463479
 31
0.0
  0
LINE
  5
575
330
557
100
AcDbEntity
  8
LC-002-002-----0
 62
     7
370
    25
100
AcDbLine
 10
1693.926474
 20
2058.463479
 30
0.0
 11
1693.926461
 21
2056.789188
 31
0.0
  0
LINE
  5
576
330
557
100
AcDbEntity
  8
LC-002-002-----0
 62
     7
370
    25
100
AcDbLine
 10
1693.926461
 20
2056.789188
 30
0.0
 11
1693.926461
 21
2056.789188
 31
0.0
  0
LINE
  5
577
330
557
100
AcDbEntity
  8
LC-002-002-----0
 62
     7
370
    25
100
AcDbLine
 10
1693.926461
 20
2056.789188
 30
0.0
 11
1693.926407
 21
2055.454036
 31
0.0
  0
LINE
  5
578
330
557
100
AcDbEntity
  8
LC-002-002-----0
 62
     7
370
    25
100
AcDbLine
 10
1693.926407
 20
2055.454036
 30
0.0
 11
1693.926407
 21
2055.454036
 31
0.0
  0
LINE
  5
579
330
557
100
AcDbEntity
  8
LC-002-002-----0
 62
     7
370
    25
100
AcDbLine
 10
1693.926407
 20
2055.454036
 30
0.0
 11
1693.926537
 21
2054.458101
 31
0.0
  0
LINE
  5
57A
330
557
100
AcDbEntity
  8
LC-002-002-----0
 62
     7
370
    25
100
AcDbLine
 10
1693.926537
 20
2054.458101
 30
0.0
 11
1693.926537
 21
2054.458101
 31
0.0
  0
LINE
  5
57B
330
557
100
AcDbEntity
  8
LC-002-002-----0
 62
     7
370
    25
100
AcDbLine
 10
1693.926537
 20
2054.458101
 30
0.0
 11
1693.926945
 21
2053.752005
 31
0.0
  0
LINE
  5
57C
330
557
100
AcDbEntity
  8
LC-002-002-----0
 62
     7
370
    25
100
AcDbLine
 10
1693.926945
 20
2053.752005
 30
0.0
 11
1693.926945
 21
2053.752005
 31
0.0
  0
LINE
  5
57D
330
557
100
AcDbEntity
  8
LC-002-002-----0
 62
     7
370
    25
100
AcDbLine
 10
1693.926945
 20
2053.752005
 30
0.0
 11
1693.926507
 21
2053.324357
 31
0.0
  0
LINE
  5
57E
330
557
100
AcDbEntity
  8
LC-002-002-----0
 62
     7
370
    25
100
AcDbLine
 10
1693.926507
 20
2053.324357
 30
0.0
 11
1693.926507
 21
2053.324357
 31
0.0
  0
LINE
  5
57F
330
557
100
AcDbEntity
  8
LC-002-002-----0
 62
     7
370
    25
100
AcDbLine
 10
1693.926507
 20
2053.324357
 30
0.0
 11
1693.926468
 21
2053.177852
 31
0.0
  0
ENDBLK
  5
559
330
557
100
AcDbEntity
  8
0
100
AcDbBlockEnd
  0
BLOCK
  5
5B4
330
5B3
100
AcDbEntity
  8
0
100
AcDbBlockBegin
  2
*X331
 70
     1
 71
     0
 10
0.0
 20
0.0
 30
0.0
  3
*X331
  1

  4
*X3
  0
LINE
  5
5B6
330
5B3
100
AcDbEntity
  8
LC-009-005-----0
 62
     7
370
    25
100
AcDbLine
 10
227.728401
 20
2688.46
 30
0.0
 11
249.839408
 21
2710.571006
 31
0.0
  0
LINE
  5
5B7
330
5B3
100
AcDbEntity
  8
LC-009-005-----0
 62
     7
370
    25
100
AcDbLine
 10
202.256856
 20
2691.272726
 30
0.0
 11
237.44413
 21
2726.46
 31
0.0
  0
LINE
  5
5B8
330
5B3
100
AcDbEntity
  8
LC-009-005-----0
 62
     7
370
    25
100
AcDbLine
 10
200.686442
 20
2717.986583
 30
0.0
 11
209.159859
 21
2726.46
 31
0.0
  0
ENDBLK
  5
5B5
330
5B3
100
AcDbEntity
  8
0
100
AcDbBlockEnd
  0
BLOCK
  5
5C6
330
5BC
100
AcDbEntity
  8
0
100
AcDbBlockBegin
  2
*D32
 70
     1
 71
     0
 10
0.0
 20
0.0
 30
0.0
  3
*D32
  1

  0
LINE
  5
5BD
330
5BC
100
AcDbEntity
  8
LC-007-003-----0
 62
     2
370
    -2
100
AcDbLine
 10
1021.635351
 20
2704.339566
 30
0.0
 11
1021.635351
 21
2818.0
 31
0.0
  0
LINE
  5
5BE
330
5BC
100
AcDbEntity
  8
LC-007-003-----0
 62
     2
370
    -2
100
AcDbLine
 10
1357.040483
 20
2704.341843
 30
0.0
 11
1357.040483
 21
2818.0
 31
0.0
  0
LINE
  5
5BF
330
5BC
100
AcDbEntity
  8
LC-007-003-----0
 62
     2
370
    -2
100
AcDbLine
 10
1046.635351
 20
2800.0
 30
0.0
 11
1332.040483
 21
2800.0
 31
0.0
  0
SOLID
  5
5C0
330
5BC
100
AcDbEntity
  8
LC-007-003-----0
 62
     2
100
AcDbTrace
 10
1046.635351
 20
2804.166667
 30
0.0
 11
1046.635351
 21
2795.833333
 31
0.0
 12
1021.635351
 22
2800.0
 32
0.0
 13
1021.635351
 23
2800.0
 33
0.0
  0
SOLID
  5
5C1
330
5BC
100
AcDbEntity
  8
LC-007-003-----0
 62
     2
100
AcDbTrace
 10
1332.040483
 20
2795.833333
 30
0.0
 11
1332.040483
 21
2804.166667
 31
0.0
 12
1357.040483
 22
2800.0
 32
0.0
 13
1357.040483
 23
2800.0
 33
0.0
  0
MTEXT
  5
5C2
330
5BC
100
AcDbEntity
  8
LC-007-003-----0
 62
     2
100
AcDbMText
 10
1179.530312
 20
2830.0
 30
0.0
 40
25.0
 41
0.0
 71
     5
 72
     1
  1
\A1;335
  7
LCTX0-400-0-0pDIN-Schrift
 73
     1
 44
1.0
  0
POINT
  5
5C3
330
5BC
100
AcDbEntity
  8
Defpoints
 62
     0
100
AcDbPoint
 10
1021.635351
 20
2704.339566
 30
0.0
  0
POINT
  5
5C4
330
5BC
100
AcDbEntity
  8
Defpoints
 62
     0
100
AcDbPoint
 10
1357.040483
 20
2704.341843
 30
0.0
  0
POINT
  5
5C5
330
5BC
100
AcDbEntity
  8
Defpoints
 62
     0
100
AcDbPoint
 10
1357.040483
 20
2800.0
 30
0.0
  0
ENDBLK
  5
5C7
330
5BC
100
AcDbEntity
  8
0
100
AcDbBlockEnd
  0
BLOCK
  5
5D3
330
5C9
100
AcDbEntity
  8
0
100
AcDbBlockBegin
  2
*D33
 70
     1
 71
     0
 10
0.0
 20
0.0
 30
0.0
  3
*D33
  1

  0
LINE
  5
5CA
330
5C9
100
AcDbEntity
  8
LC-007-003-----0
 62
     2
370
    -2
100
AcDbLine
 10
969.043772
 20
2704.339566
 30
0.0
 11
969.043772
 21
2818.0
 31
0.0
  0
LINE
  5
5CB
330
5C9
100
AcDbEntity
  8
LC-007-003-----0
 62
     2
370
    -2
100
AcDbLine
 10
633.638641
 20
2704.341843
 30
0.0
 11
633.638641
 21
2818.0
 31
0.0
  0
LINE
  5
5CC
330
5C9
100
AcDbEntity
  8
LC-007-003-----0
 62
     2
370
    -2
100
AcDbLine
 10
944.043772
 20
2800.0
 30
0.0
 11
658.638641
 21
2800.0
 31
0.0
  0
SOLID
  5
5CD
330
5C9
100
AcDbEntity
  8
LC-007-003-----0
 62
     2
100
AcDbTrace
 10
944.043772
 20
2795.833333
 30
0.0
 11
944.043772
 21
2804.166667
 31
0.0
 12
969.043772
 22
2800.0
 32
0.0
 13
969.043772
 23
2800.0
 33
0.0
  0
SOLID
  5
5CE
330
5C9
100
AcDbEntity
  8
LC-007-003-----0
 62
     2
100
AcDbTrace
 10
658.638641
 20
2804.166667
 30
0.0
 11
658.638641
 21
2795.833333
 31
0.0
 12
633.638641
 22
2800.0
 32
0.0
 13
633.638641
 23
2800.0
 33
0.0
  0
MTEXT
  5
5CF
330
5C9
100
AcDbEntity
  8
LC-007-003-----0
 62
     2
100
AcDbMText
 10
788.015871
 20
2830.0
 30
0.0
 40
25.0
 41
0.0
 71
     5
 72
     1
  1
\A1;335
  7
LCTX0-400-0-0pDIN-Schrift
 73
     1
 44
1.0
  0
POINT
  5
5D0
330
5C9
100
AcDbEntity
  8
Defpoints
 62
     0
100
AcDbPoint
 10
969.043772
 20
2704.339566
 30
0.0
  0
POINT
  5
5D1
330
5C9
100
AcDbEntity
  8
Defpoints
 62
     0
100
AcDbPoint
 10
633.638641
 20
2704.341843
 30
0.0
  0
POINT
  5
5D2
330
5C9
100
AcDbEntity
  8
Defpoints
 62
     0
100
AcDbPoint
 10
633.638641
 20
2800.0
 30
0.0
  0
ENDBLK
  5
5D4
330
5C9
100
AcDbEntity
  8
0
100
AcDbBlockEnd
  0
BLOCK
  5
5E1
330
5D7
100
AcDbEntity
  8
0
100
AcDbBlockBegin
  2
*D34
 70
     1
 71
     0
 10
0.0
 20
0.0
 30
0.0
  3
*D34
  1

  0
LINE
  5
5D8
330
5D7
100
AcDbEntity
  8
LC-007-003-----0
 62
     2
370
    -2
100
AcDbLine
 10
1129.839511
 20
2538.448973
 30
0.0
 11
1168.0
 21
2538.448973
 31
0.0
  0
LINE
  5
5D9
330
5D7
100
AcDbEntity
  8
LC-007-003-----0
 62
     2
370
    -2
100
AcDbLine
 10
1129.839511
 20
2733.460001
 30
0.0
 11
1168.0
 21
2733.460001
 31
0.0
  0
LINE
  5
5DA
330
5D7
100
AcDbEntity
  8
LC-007-003-----0
 62
     2
370
    -2
100
AcDbLine
 10
1150.0
 20
2563.448973
 30
0.0
 11
1150.0
 21
2708.460001
 31
0.0
  0
SOLID
  5
5DB
330
5D7
100
AcDbEntity
  8
LC-007-003-----0
 62
     2
100
AcDbTrace
 10
1145.833333
 20
2563.448973
 30
0.0
 11
1154.166667
 21
2563.448973
 31
0.0
 12
1150.0
 22
2538.448973
 32
0.0
 13
1150.0
 23
2538.448973
 33
0.0
  0
SOLID
  5
5DC
330
5D7
100
AcDbEntity
  8
LC-007-003-----0
 62
     2
100
AcDbTrace
 10
1154.166667
 20
2708.460001
 30
0.0
 11
1145.833333
 21
2708.460001
 31
0.0
 12
1150.0
 22
2733.460001
 32
0.0
 13
1150.0
 23
2733.460001
 33
0.0
  0
MTEXT
  5
5DD
330
5D7
100
AcDbEntity
  8
LC-007-003-----0
 62
     2
100
AcDbMText
 10
1120.0
 20
2646.935357
 30
0.0
 40
25.0
 41
0.0
 71
     5
 72
     1
  1
\A1;195
  7
LCTX0-400-0-0pDIN-Schrift
 11
6.123031769111886E-17
 21
1.0
 31
0.0
 73
     1
 44
1.0
  0
POINT
  5
5DE
330
5D7
100
AcDbEntity
  8
Defpoints
 62
     0
100
AcDbPoint
 10
1129.839511
 20
2538.448973
 30
0.0
  0
POINT
  5
5DF
330
5D7
100
AcDbEntity
  8
Defpoints
 62
     0
100
AcDbPoint
 10
1129.839511
 20
2733.460001
 30
0.0
  0
POINT
  5
5E0
330
5D7
100
AcDbEntity
  8
Defpoints
 62
     0
100
AcDbPoint
 10
1150.0
 20
2733.460001
 30
0.0
  0
ENDBLK
  5
5E2
330
5D7
100
AcDbEntity
  8
0
100
AcDbBlockEnd
  0
BLOCK
  5
5EE
330
5E4
100
AcDbEntity
  8
0
100
AcDbBlockBegin
  2
*D35
 70
     1
 71
     0
 10
0.0
 20
0.0
 30
0.0
  3
*D35
  1

  0
LINE
  5
5E5
330
5E4
100
AcDbEntity
  8
LC-007-003-----0
 62
     2
370
    -2
100
AcDbLine
 10
860.839612
 20
2538.448973
 30
0.0
 11
832.0
 21
2538.448973
 31
0.0
  0
LINE
  5
5E6
330
5E4
100
AcDbEntity
  8
LC-007-003-----0
 62
     2
370
    -2
100
AcDbLine
 10
860.839612
 20
2733.460001
 30
0.0
 11
832.0
 21
2733.460001
 31
0.0
  0
LINE
  5
5E7
330
5E4
100
AcDbEntity
  8
LC-007-003-----0
 62
     2
370
    -2
100
AcDbLine
 10
850.0
 20
2563.448973
 30
0.0
 11
850.0
 21
2708.460001
 31
0.0
  0
SOLID
  5
5E8
330
5E4
100
AcDbEntity
  8
LC-007-003-----0
 62
     2
100
AcDbTrace
 10
845.833333
 20
2563.448973
 30
0.0
 11
854.166667
 21
2563.448973
 31
0.0
 12
850.0
 22
2538.448973
 32
0.0
 13
850.0
 23
2538.448973
 33
0.0
  0
SOLID
  5
5E9
330
5E4
100
AcDbEntity
  8
LC-007-003-----0
 62
     2
100
AcDbTrace
 10
854.166667
 20
2708.460001
 30
0.0
 11
845.833333
 21
2708.460001
 31
0.0
 12
850.0
 22
2733.460001
 32
0.0
 13
850.0
 23
2733.460001
 33
0.0
  0
MTEXT
  5
5EA
330
5E4
100
AcDbEntity
  8
LC-007-003-----0
 62
     2
100
AcDbMText
 10
820.0
 20
2640.881693
 30
0.0
 40
25.0
 41
0.0
 71
     5
 72
     1
  1
\A1;195
  7
LCTX0-400-0-0pDIN-Schrift
 11
6.123031769111886E-17
 21
1.0
 31
0.0
 73
     1
 44
1.0
  0
POINT
  5
5EB
330
5E4
100
AcDbEntity
  8
Defpoints
 62
     0
100
AcDbPoint
 10
860.839612
 20
2538.448973
 30
0.0
  0
POINT
  5
5EC
330
5E4
100
AcDbEntity
  8
Defpoints
 62
     0
100
AcDbPoint
 10
860.839612
 20
2733.460001
 30
0.0
  0
POINT
  5
5ED
330
5E4
100
AcDbEntity
  8
Defpoints
 62
     0
100
AcDbPoint
 10
850.0
 20
2733.460001
 30
0.0
  0
ENDBLK
  5
5EF
330
5E4
100
AcDbEntity
  8
0
100
AcDbBlockEnd
  0
ENDSEC
  0
SECTION
  2
ENTITIES
  0
INSERT
  5
102
330
1F
100
AcDbEntity
  8
LC-003-230-ZVN-0
 62
     7
370
    50
100
AcDbBlockReference
  2
SYM1
 10
0.0
 20
0.0
 30
0.0
  0
LINE
  5
105
330
1F
100
AcDbEntity
  8
LC-004-006-MLN-0
 62
     7
370
    25
100
AcDbLine
 10
995.339562
 20
2033.999433
 30
0.0
 11
995.339562
 21
2095.499433
 31
0.0
  0
LINE
  5
106
102
{ACAD_REACTORS
330
5F2
102
}
330
1F
100
AcDbEntity
  8
LC-002-002-----0
 62
     7
370
    50
100
AcDbLine
 10
1389.839408
 20
2688.46
 30
0.0
 11
1389.839408
 21
2606.900245
 31
0.0
  0
CIRCLE
  5
108
102
{ACAD_REACTORS
330
5FE
102
}
330
1F
100
AcDbEntity
  8
LC-004-006-MLN-0
  6
DASHDOT
 62
     7
370
    25
100
AcDbCircle
 10
995.339562
 20
2054.499433
 30
0.0
 40
17.5
  0
LINE
  5
109
330
1F
100
AcDbEntity
  8
LC-004-006-MLN-0
 62
     7
370
    25
100
AcDbLine
 10
974.839562
 20
2054.499433
 30
0.0
 11
1015.839562
 21
2054.499433
 31
0.0
  0
LINE
  5
10A
102
{ACAD_REACTORS
330
5F2
102
}
330
1F
100
AcDbEntity
  8
LC-002-002-----0
 62
     7
370
    50
100
AcDbLine
 10
1370.839408
 20
2688.46
 30
0.0
 11
1370.839408
 21
2606.900245
 31
0.0
  0
LINE
  5
10B
102
{ACAD_REACTORS
330
5F2
102
}
330
1F
100
AcDbEntity
  8
LC-002-002-----0
 62
     7
370
    50
100
AcDbLine
 10
1370.839408
 20
2688.46
 30
0.0
 11
1389.839408
 21
2688.46
 31
0.0
  0
LINE
  5
10C
330
1F
100
AcDbEntity
  8
LC-004-006-MLN-0
 62
     7
370
    25
100
AcDbLine
 10
860.839612
 20
2541.448973
 30
0.0
 11
860.839612
 21
2521.226468
 31
0.0
  0
LINE
  5
10D
102
{ACAD_REACTORS
330
5FE
102
}
330
1F
100
AcDbEntity
  8
LC-002-002-----0
 62
     7
370
    50
100
AcDbLine
 10
984.299567
 20
1998.701295
 30
0.0
 11
984.299567
 21
1686.296818
 31
0.0
  0
LINE
  5
10E
102
{ACAD_REACTORS
330
5F5
102
}
330
1F
100
AcDbEntity
  8
LC-004-006-MLN-0
 62
     7
370
    25
100
AcDbLine
 10
1869.337297
 20
2070.055368
 30
0.0
 11
1870.866913
 21
2057.145671
 31
0.0
  0
LINE
  5
10F
102
{ACAD_REACTORS
330
5F7
102
}
330
1F
100
AcDbEntity
  8
LC-002-002-----0
 62
     7
370
    50
100
AcDbLine
 10
959.52843
 20
2733.46
 30
0.0
 11
1031.150693
 21
2733.46
 31
0.0
  0
LINE
  5
110
102
{ACAD_REACTORS
330
5F7
102
}
330
1F
100
AcDbEntity
  8
LC-002-002-----0
 62
     7
370
    50
100
AcDbLine
 10
1006.379556
 20
2722.46
 30
0.0
 11
984.299567
 21
2722.46
 31
0.0
  0
LINE
  5
111
102
{ACAD_REACTORS
330
5F7
102
}
330
1F
100
AcDbEntity
  8
LC-002-002-----0
 62
     7
370
    50
100
AcDbLine
 10
977.812815
 20
2719.9048
 30
0.0
 11
984.299567
 21
2722.46
 31
0.0
  0
LINE
  5
112
102
{ACAD_REACTORS
330
5F7
102
}
330
1F
100
AcDbEntity
  8
LC-002-002-----0
 62
     7
370
    50
100
AcDbLine
 10
1006.379556
 20
2722.46
 30
0.0
 11
1012.866309
 21
2719.9048
 31
0.0
  0
LINE
  5
113
102
{ACAD_REACTORS
330
5F7
102
}
330
1F
100
AcDbEntity
  8
LC-002-002-----0
 62
     7
370
    50
100
AcDbLine
 10
1015.22641
 20
2707.747934
 30
0.0
 11
1014.122352
 21
2718.253009
 31
0.0
  0
ARC
  5
115
102
{ACAD_REACTORS
330
5F7
102
}
330
1F
100
AcDbEntity
  8
LC-005-002-RND-0
 62
     7
370
    50
100
AcDbCircle
 10
1397.546386
 20
2729.408761
 30
0.0
 40
2.000000000000068
100
AcDbArc
 50
5.497073
 51
51.825141
  0
LINE
  5
116
102
{ACAD_REACTORS
330
5F7
102
}
330
1F
100
AcDbEntity
  8
LC-002-002-----0
 62
     7
370
    50
100
AcDbLine
 10
976.556772
 20
2718.253009
 30
0.0
 11
975.452713
 21
2707.747934
 31
0.0
  0
ARC
  5
117
102
{ACAD_REACTORS
330
5F7
102
}
330
1F
100
AcDbEntity
  8
LC-005-002-RND-0
 62
     7
370
    50
100
AcDbCircle
 10
1367.705775
 20
2729.082247
 30
0.0
 40
2.000000000000094
100
AcDbArc
 50
112.922075
 51
173.999948
  0
LINE
  5
118
102
{ACAD_REACTORS
330
5F7
102
}
330
1F
100
AcDbEntity
  8
LC-002-002-----0
 62
     7
370
    50
100
AcDbLine
 10
1341.627626
 20
2557.690861
 30
0.0
 11
1356.908473
 21
2703.085791
 31
0.0
  0
ARC
  5
119
102
{ACAD_REACTORS
330
5F7
102
}
330
1F
100
AcDbEntity
  8
LC-005-002-RND-0
 62
     7
370
    50
100
AcDbCircle
 10
1361.463689
 20
2707.960039
 30
0.0
 40
2.000000000000023
100
AcDbArc
 50
287.735795
 51
353.999948
  0
ARC
  5
11A
102
{ACAD_REACTORS
330
5F7
102
}
330
1F
100
AcDbEntity
  8
LC-005-002-RND-0
 62
     7
370
    50
100
AcDbCircle
 10
1358.897518
 20
2702.876744
 30
0.0
 40
2.00000000000002
100
AcDbArc
 50
109.456679
 51
174.000302
  0
LINE
  5
11B
102
{ACAD_REACTORS
330
5F7
102
}
330
1F
100
AcDbEntity
  8
LC-002-002-----0
 62
     7
370
    50
100
AcDbLine
 10
1021.767345
 20
2703.083569
 30
0.0
 11
1037.418345
 21
2554.154662
 31
0.0
  0
LINE
  5
11C
102
{ACAD_REACTORS
330
5F7
102
}
330
1F
100
AcDbEntity
  8
LC-002-002-----0
 62
     7
370
    50
100
AcDbLine
 10
1031.150691
 20
2733.460001
 30
0.0
 11
1344.242065
 21
2733.460001
 31
0.0
  0
LINE
  5
11D
102
{ACAD_REACTORS
330
5F7
102
}
330
1F
100
AcDbEntity
  8
LC-002-002-----0
 62
     7
370
    50
100
AcDbLine
 10
1344.242065
 20
2733.46
 30
0.0
 11
1373.339583
 21
2733.46
 31
0.0
  0
ARC
  5
11E
102
{ACAD_REACTORS
330
5F7
102
}
330
1F
100
AcDbEntity
  8
LC-005-002-RND-0
 62
     7
370
    50
100
AcDbCircle
 10
623.984112
 20
2719.465564
 30
0.0
 40
1.999999999999979
100
AcDbArc
 50
6.000052
 51
67.123333
  0
LINE
  5
11F
102
{ACAD_REACTORS
330
5F7
102
}
330
1F
100
AcDbEntity
  8
LC-002-002-----0
 62
     7
370
    50
100
AcDbLine
 10
621.265215
 20
2722.367947
 30
0.0
 11
313.74566
 21
2728.091144
 31
0.0
  0
LINE
  5
120
102
{ACAD_REACTORS
330
5F7
102
}
330
1F
100
AcDbEntity
  8
LC-002-002-----0
 62
     7
370
    50
100
AcDbLine
 10
308.425075
 20
2729.684351
 30
0.0
 11
313.180988
 21
2728.183514
 31
0.0
  0
ARC
  5
121
102
{ACAD_REACTORS
330
5F7
102
}
330
1F
100
AcDbEntity
  8
LC-005-002-RND-0
 62
     7
370
    50
100
AcDbCircle
 10
313.782875
 20
2730.090798
 30
0.0
 40
2.000000000000109
100
AcDbArc
 50
252.485722
 51
268.9338
  0
LINE
  5
122
102
{ACAD_REACTORS
330
5F7
102
}
330
1F
100
AcDbEntity
  8
LC-002-002-----0
 62
     7
370
    50
100
AcDbLine
 10
802.277993
 20
2538.498872
 30
0.0
 11
662.308305
 21
2545.17006
 31
0.0
  0
LINE
  5
123
102
{ACAD_REACTORS
330
5F7
102
}
330
1F
100
AcDbEntity
  8
LC-002-002-----0
 62
     7
370
    50
100
AcDbLine
 10
244.257907
 20
2733.46
 30
0.0
 11
259.757903
 21
2733.46
 31
0.0
  0
LINE
  5
124
102
{ACAD_REACTORS
330
5F7
102
}
330
1F
100
AcDbEntity
  8
LC-002-002-----0
 62
     7
370
    50
100
AcDbLine
 10
616.586844
 20
2733.46
 30
0.0
 11
650.707844
 21
2733.46
 31
0.0
  0
LINE
  5
125
102
{ACAD_REACTORS
330
5F7
102
}
330
1F
100
AcDbEntity
  8
LC-002-002-----0
 62
     7
370
    50
100
AcDbLine
 10
959.528433
 20
2733.460001
 30
0.0
 11
650.707844
 21
2733.46
 31
0.0
  0
LINE
  5
126
102
{ACAD_REACTORS
330
5F7
102
}
330
1F
100
AcDbEntity
  8
LC-002-002-----0
 62
     7
370
    50
100
AcDbLine
 10
1373.339587
 20
2733.46
 30
0.0
 11
1395.4208
 21
2733.46
 31
0.0
  0
ARC
  5
127
102
{ACAD_REACTORS
330
5F7
102
}
330
1F
100
AcDbEntity
  8
LC-005-002-RND-0
 62
     7
370
    50
100
AcDbCircle
 10
662.974812
 20
2559.154186
 30
0.0
 40
13.99999999999989
100
AcDbArc
 50
185.999698
 51
267.271253
  0
ARC
  5
128
102
{ACAD_REACTORS
330
5FE
102
}
330
1F
100
AcDbEntity
  8
LC-005-002-RND-0
 62
     7
370
    50
100
AcDbCircle
 10
256.839381
 20
2075.499433
 30
0.0
 40
17.0
100
AcDbArc
 50
90.0
 51
180.0
  0
LINE
  5
129
102
{ACAD_REACTORS
330
5F7
102
}
330
1F
100
AcDbEntity
  8
LC-002-002-----0
 62
     7
370
    50
100
AcDbLine
 10
662.018054
 20
2536.174725
 30
0.0
 11
792.691787
 21
2529.85703
 31
0.0
  0
ARC
  5
12A
102
{ACAD_REACTORS
330
5F7
102
}
330
1F
100
AcDbEntity
  8
LC-005-002-RND-0
 62
     7
370
    50
100
AcDbCircle
 10
663.08045
 20
2558.149058
 30
0.0
 40
22.0
100
AcDbArc
 50
185.999698
 51
267.232071
  0
ARC
  5
12B
330
1F
100
AcDbEntity
  8
LC-005-002-RND-0
 62
     7
370
    50
100
AcDbCircle
 10
802.220864
 20
2537.300233
 30
0.0
 40
1.199999999999946
100
AcDbArc
 50
5.0
 51
87.271253
  0
ARC
  5
12C
102
{ACAD_REACTORS
330
5FE
102
}
330
1F
100
AcDbEntity
  8
LC-005-002-RND-0
 62
     7
370
    50
100
AcDbCircle
 10
256.839381
 20
1609.498679
 30
0.0
 40
17.0
100
AcDbArc
 50
180.0
 51
270.0
  0
LINE
  5
12D
102
{ACAD_REACTORS
330
5F7
102
}
330
1F
100
AcDbEntity
  8
LC-002-002-----0
 62
     7
370
    25
100
AcDbLine
 10
803.324946
 20
2538.448973
 30
0.0
 11
918.354278
 21
2538.448973
 31
0.0
  0
LINE
  5
12E
102
{ACAD_REACTORS
330
5F7
102
}
330
1F
100
AcDbEntity
  8
LC-004-006-MLN-0
 62
     7
370
    25
100
AcDbLine
 10
1129.839511
 20
2541.448973
 30
0.0
 11
1129.839511
 21
2521.226468
 31
0.0
  0
LINE
  5
12F
102
{ACAD_REACTORS
330
5FA
102
}
330
1F
100
AcDbEntity
  8
LC-002-002-----0
 62
     7
370
    25
100
AcDbLine
 10
1695.275296
 20
1897.499056
 30
0.0
 11
1695.275296
 21
1787.499056
 31
0.0
  0
ARC
  5
130
102
{ACAD_REACTORS
330
5FE
102
}
330
1F
100
AcDbEntity
  8
LC-005-002-RND-0
 62
     7
370
    50
100
AcDbCircle
 10
1382.839408
 20
1609.498679
 30
0.0
 40
17.0
100
AcDbArc
 50
270.0
 51
0.0
  0
LINE
  5
131
102
{ACAD_REACTORS
330
5F7
102
}
330
1F
100
AcDbEntity
  8
LC-002-002-----0
 62
     7
370
    50
100
AcDbLine
 10
284.257862
 20
2733.459997
 30
0.0
 11
616.586844
 21
2733.459997
 31
0.0
  0
ARC
  5
132
102
{ACAD_REACTORS
330
5F7
102
}
330
1F
100
AcDbEntity
  8
LC-005-002-RND-0
 62
     7
370
    50
100
AcDbCircle
 10
631.781606
 20
2702.876744
 30
0.0
 40
1.999999999999996
100
AcDbArc
 50
5.999698
 51
70.543321
  0
ARC
  5
133
102
{ACAD_REACTORS
330
5F7
102
}
330
1F
100
AcDbEntity
  8
LC-005-002-RND-0
 62
     7
370
    50
100
AcDbCircle
 10
629.215435
 20
2707.960039
 30
0.0
 40
1.999999999999979
100
AcDbArc
 50
186.000052
 51
252.264205
  0
ARC
  5
134
102
{ACAD_REACTORS
330
5F7
102
}
330
1F
100
AcDbEntity
  8
LC-005-002-RND-0
 62
     7
370
    50
100
AcDbCircle
 10
939.337452
 20
2555.61787
 30
0.0
 40
13.9999999999999
100
AcDbArc
 50
278.201379
 51
354.000783
  0
ARC
  5
135
102
{ACAD_REACTORS
330
5F7
102
}
330
1F
100
AcDbEntity
  8
LC-005-002-RND-0
 62
     7
370
    50
100
AcDbCircle
 10
970.900826
 20
2702.87454
 30
0.0
 40
2.000000000000142
100
AcDbArc
 50
109.45951
 51
174.000783
  0
ARC
  5
136
102
{ACAD_REACTORS
330
5F7
102
}
330
1F
100
AcDbEntity
  8
LC-005-002-RND-0
 62
     7
370
    50
100
AcDbCircle
 10
919.46682
 20
2537.39692
 30
0.0
 40
1.199999999999883
100
AcDbArc
 50
98.201379
 51
175.0
  0
LINE
  5
137
102
{ACAD_REACTORS
330
5F7
102
}
330
1F
100
AcDbEntity
  8
LC-002-002-----0
 62
     7
370
    50
100
AcDbLine
 10
968.911779
 20
2703.083569
 30
0.0
 11
953.260779
 21
2554.154662
 31
0.0
  0
LINE
  5
138
102
{ACAD_REACTORS
330
5F7
102
}
330
1F
100
AcDbEntity
  8
LC-002-002-----0
 62
     7
370
    50
100
AcDbLine
 10
633.77065
 20
2703.085791
 30
0.0
 11
649.051498
 21
2557.690861
 31
0.0
  0
LINE
  5
139
102
{ACAD_REACTORS
330
5F7
102
}
330
1F
100
AcDbEntity
  8
LC-002-002-----0
 62
     7
370
    50
100
AcDbLine
 10
625.973155
 20
2719.674622
 30
0.0
 11
627.226391
 21
2707.750981
 31
0.0
  0
ARC
  5
13A
102
{ACAD_REACTORS
330
5F7
102
}
330
1F
100
AcDbEntity
  8
LC-005-002-RND-0
 62
     7
370
    50
100
AcDbCircle
 10
973.463668
 20
2707.956978
 30
0.0
 40
2.000000000000036
100
AcDbArc
 50
287.739992
 51
354.000374
  0
LINE
  5
13B
102
{ACAD_REACTORS
330
5F7
102
}
330
1F
100
AcDbEntity
  8
LC-002-002-----0
 62
     7
370
    50
100
AcDbLine
 10
1365.716731
 20
2729.291306
 30
0.0
 11
1363.452732
 21
2707.750981
 31
0.0
  0
LINE
  5
13C
102
{ACAD_REACTORS
330
5F7
102
}
330
1F
100
AcDbEntity
  8
LC-002-002-----0
 62
     7
370
    50
100
AcDbLine
 10
259.757899
 20
2733.46
 30
0.0
 11
284.257862
 21
2733.46
 31
0.0
  0
LINE
  5
13D
102
{ACAD_REACTORS
330
5F7
102
}
330
1F
100
AcDbEntity
  8
LC-002-002-----0
 62
     7
370
    50
100
AcDbLine
 10
240.141604
 20
2729.600384
 30
0.0
 11
239.839381
 21
2726.46
 31
0.0
  0
LINE
  5
13E
102
{ACAD_REACTORS
330
5F7
102
}
330
1F
100
AcDbEntity
  8
LC-002-002-----0
 62
     7
370
    50
100
AcDbLine
 10
1399.839408
 20
2726.46
 30
0.0
 11
1399.537188
 21
2729.600351
 31
0.0
  0
LINE
  5
13F
102
{ACAD_REACTORS
330
5F7
102
}
330
1F
100
AcDbEntity
  8
LC-002-002-----0
 62
     7
370
    50
100
AcDbLine
 10
942.339886
 20
2532.549441
 30
0.0
 11
928.679262
 21
2530.58058
 31
0.0
  0
ARC
  5
140
102
{ACAD_REACTORS
330
5F7
102
}
330
1F
100
AcDbEntity
  8
LC-005-002-RND-0
 62
     7
370
    50
100
AcDbCircle
 10
939.201526
 20
2554.324443
 30
0.0
 40
22.0
100
AcDbArc
 50
278.201379
 51
354.000783
  0
ARC
  5
141
102
{ACAD_REACTORS
330
5F7
102
}
330
1F
100
AcDbEntity
  8
LC-005-002-RND-0
 62
     7
370
    50
100
AcDbCircle
 10
268.114173
 20
2734.444749
 30
0.0
 40
4.000000000000171
100
AcDbArc
 50
246.918372
 51
268.920347
  0
ARC
  5
142
102
{ACAD_REACTORS
330
5F7
102
}
330
1F
100
AcDbEntity
  8
LC-002-002-----0
 62
     7
370
    50
100
AcDbCircle
 10
565.404899
 20
2580.631447
 30
0.0
 40
152.6865489346999
100
AcDbArc
 50
67.123333
 51
69.709806
  0
LINE
  5
143
102
{ACAD_REACTORS
330
5F7
102
}
330
1F
100
AcDbEntity
  8
LC-002-002-----0
 62
     7
370
    50
100
AcDbLine
 10
941.334591
 20
2541.761051
 30
0.0
 11
919.295636
 21
2538.584648
 31
0.0
  0
ARC
  5
144
102
{ACAD_REACTORS
330
5FE
102
}
330
1F
100
AcDbEntity
  8
LC-005-002-RND-0
 62
     7
370
    50
100
AcDbCircle
 10
995.339565
 20
2238.336977
 30
0.0
 40
214.9999999999994
100
AcDbArc
 50
262.4
 51
277.6
  0
ARC
  5
145
102
{ACAD_REACTORS
330
5FE
102
}
330
1F
100
AcDbEntity
  8
LC-005-002-RND-0
 62
     7
370
    50
100
AcDbCircle
 10
1382.839408
 20
2075.499433
 30
0.0
 40
17.0
100
AcDbArc
 50
0.0
 51
90.0
  0
ARC
  5
146
102
{ACAD_REACTORS
330
5F7
102
}
330
1F
100
AcDbEntity
  8
LC-005-002-RND-0
 62
     7
370
    50
100
AcDbCircle
 10
973.301845
 20
2706.415679
 30
0.0
 40
10.00000000000008
100
AcDbArc
 50
300.785894
 51
354.001073
  0
ARC
  5
147
102
{ACAD_REACTORS
330
5FE
102
}
330
1F
100
AcDbEntity
  8
LC-002-002-----0
 62
     7
370
    50
100
AcDbCircle
 10
312.402716
 20
1842.499056
 30
0.0
 40
3.999999922648385
100
AcDbArc
 50
90.0
 51
270.0
  0
LINE
  5
148
102
{ACAD_REACTORS
330
5F7
102
}
330
1F
100
AcDbEntity
  8
LC-002-002-----0
 62
     7
370
    50
100
AcDbLine
 10
900.402169
 20
2533.226468
 30
0.0
 11
821.277055
 21
2533.226468
 31
0.0
  0
ARC
  5
149
102
{ACAD_REACTORS
330
5F7
102
}
330
1F
100
AcDbEntity
  8
LC-002-002-----0
 62
     7
370
    50
100
AcDbCircle
 10
978.545817
 20
2718.043965
 30
0.0
 40
1.999999999999805
100
AcDbArc
 50
111.5
 51
174.000374
  0
ARC
  5
14A
102
{ACAD_REACTORS
330
5F7
102
}
330
1F
100
AcDbEntity
  8
LC-002-002-----0
 62
     7
370
    50
100
AcDbCircle
 10
1012.133307
 20
2718.043965
 30
0.0
 40
1.999999999999778
100
AcDbArc
 50
5.999626
 51
68.5
  0
ARC
  5
14B
102
{ACAD_REACTORS
330
5FE
102
}
330
1F
100
AcDbEntity
  8
LC-005-002-RND-0
 62
     7
370
    50
100
AcDbCircle
 10
276.757903
 20
2051.703815
 30
0.0
 40
17.0
100
AcDbArc
 50
90.0
 51
179.999999
  0
ARC
  5
14C
102
{ACAD_REACTORS
330
5FE
102
}
330
1F
100
AcDbEntity
  8
LC-005-002-RND-0
 62
     7
370
    50
100
AcDbCircle
 10
1355.339583
 20
1633.691796
 30
0.0
 40
17.99999999999998
100
AcDbArc
 50
262.4
 51
0.0
  0
ARC
  5
14D
102
{ACAD_REACTORS
330
5FE
102
}
330
1F
100
AcDbEntity
  8
LC-005-002-RND-0
 62
     7
370
    50
100
AcDbCircle
 10
1355.339583
 20
2051.306315
 30
0.0
 40
18.0
100
AcDbArc
 50
0.0
 51
97.6
  0
ARC
  5
14E
102
{ACAD_REACTORS
330
5FE
102
}
330
1F
100
AcDbEntity
  8
LC-005-002-RND-0
 62
     7
370
    25
100
AcDbCircle
 10
1351.704351
 20
2050.686824
 30
0.0
 40
14.0
100
AcDbArc
 50
360.0
 51
97.600055
  0
ARC
  5
14F
102
{ACAD_REACTORS
330
5FE
102
}
330
1F
100
AcDbEntity
  8
LC-005-002-RND-0
 62
     7
370
    25
100
AcDbCircle
 10
1314.757248
 20
2016.123672
 30
0.0
 40
12.00000000000007
100
AcDbArc
 50
359.999994
 51
98.080833
  0
ARC
  5
150
102
{ACAD_REACTORS
330
5FE
102
}
330
1F
100
AcDbEntity
  8
LC-005-002-RND-0
 62
     7
370
    25
100
AcDbCircle
 10
1344.913838
 20
2049.087502
 30
0.0
 40
12.0
100
AcDbArc
 50
0.0
 51
97.604073
  0
LINE
  5
151
102
{ACAD_REACTORS
330
5F7
102
}
330
1F
100
AcDbEntity
  8
LC-002-002-----0
 62
     7
370
    50
100
AcDbLine
 10
1349.478168
 20
2555.849547
 30
0.0
 11
1364.003284
 21
2694.053815
 31
0.0
  0
LINE
  5
152
102
{ACAD_REACTORS
330
5F7
102
}
330
1F
100
AcDbEntity
  8
LC-002-002-----0
 62
     7
370
    50
100
AcDbLine
 10
1014.672425
 20
2694.051965
 30
0.0
 11
1029.616363
 21
2551.85119
 31
0.0
  0
LINE
  5
153
102
{ACAD_REACTORS
330
5F7
102
}
330
1F
100
AcDbEntity
  8
LC-002-002-----0
 62
     7
370
    50
100
AcDbLine
 10
1007.052476
 20
2708.982549
 30
0.0
 11
1007.432041
 21
2705.370578
 31
0.0
  0
ARC
  5
154
102
{ACAD_REACTORS
330
5FE
102
}
330
1F
100
AcDbEntity
  8
LC-005-002-RND-0
 62
     7
370
    25
100
AcDbCircle
 10
1314.757157
 20
1668.874709
 30
0.0
 40
12.00000000000006
100
AcDbArc
 50
261.919124
 51
359.999996
  0
ARC
  5
155
102
{ACAD_REACTORS
330
5F7
102
}
330
1F
100
AcDbEntity
  8
LC-002-002-----0
 62
     7
370
    50
100
AcDbCircle
 10
980.979315
 20
2693.52939
 30
0.0
 40
4.999999999999783
100
AcDbArc
 50
120.785894
 51
174.000783
  0
LINE
  5
156
102
{ACAD_REACTORS
330
5FE
102
}
330
1F
100
AcDbEntity
  8
LC-002-002-----0
 62
     7
370
    50
100
AcDbLine
 10
965.209208
 20
2020.508037
 30
0.0
 11
952.566215
 21
2022.194972
 31
0.0
  0
ARC
  5
157
102
{ACAD_REACTORS
330
5FE
102
}
330
1F
100
AcDbEntity
  8
LC-005-002-RND-0
 62
     7
370
    50
100
AcDbCircle
 10
962.299567
 20
1998.701295
 30
0.0
 40
22.0
100
AcDbArc
 50
0.0
 51
82.4
  0
ARC
  5
158
102
{ACAD_REACTORS
330
5FE
102
}
330
1F
100
AcDbEntity
  8
LC-005-002-RND-0
 62
     7
370
    25
100
AcDbCircle
 10
1063.918036
 20
1980.509875
 30
0.0
 40
11.99999999999979
100
AcDbArc
 50
98.080946
 51
179.999892
  0
ARC
  5
159
102
{ACAD_REACTORS
330
5FE
102
}
330
1F
100
AcDbEntity
  8
LC-005-002-RND-0
 62
     7
370
    25
100
AcDbCircle
 10
1063.917968
 20
1704.488411
 30
0.0
 40
11.99999999999989
100
AcDbArc
 50
179.999905
 51
261.919069
  0
LINE
  5
15A
102
{ACAD_REACTORS
330
5F7
102
}
330
1F
100
AcDbEntity
  8
LC-002-002-----0
 62
     7
370
    50
100
AcDbLine
 10
922.304958
 20
2524.226468
 30
0.0
 11
799.374266
 21
2524.226468
 31
0.0
  0
ARC
  5
15B
102
{ACAD_REACTORS
330
5F7
102
}
330
1F
100
AcDbEntity
  8
LC-002-002-----0
 62
     7
370
    50
100
AcDbCircle
 10
792.493218
 20
2524.860974
 30
0.0
 40
4.999999867100304
100
AcDbArc
 50
15.005862
 51
87.723961
  0
ARC
  5
15C
102
{ACAD_REACTORS
330
5F7
102
}
330
1F
100
AcDbEntity
  8
LC-002-002-----0
 62
     7
370
    50
100
AcDbCircle
 10
929.392526
 20
2525.631716
 30
0.0
 40
4.9999998642999
100
AcDbArc
 50
97.101004
 51
164.994223
  0
LINE
  5
15D
102
{ACAD_REACTORS
330
5F7
102
}
330
1F
100
AcDbEntity
  8
LC-002-002-----0
 62
     7
370
    50
100
AcDbLine
 10
983.626648
 20
2708.982549
 30
0.0
 11
983.247083
 21
2705.370581
 31
0.0
  0
LINE
  5
15E
102
{ACAD_REACTORS
330
5F7
102
}
330
1F
100
AcDbEntity
  8
LC-002-002-----0
 62
     7
370
    50
100
AcDbLine
 10
976.006699
 20
2694.051965
 30
0.0
 11
961.081039
 21
2552.025116
 31
0.0
  0
LINE
  5
15F
102
{ACAD_REACTORS
330
5F7
102
}
330
1F
100
AcDbEntity
  8
LC-002-002-----0
 62
     7
370
    50
100
AcDbLine
 10
626.675839
 20
2694.053815
 30
0.0
 11
641.200956
 21
2555.849547
 31
0.0
  0
LINE
  5
160
102
{ACAD_REACTORS
330
5F7
102
}
330
1F
100
AcDbEntity
  8
LC-002-002-----0
 62
     7
370
    50
100
AcDbLine
 10
619.048737
 20
2709.02197
 30
0.0
 11
619.432138
 21
2705.374185
 31
0.0
  0
ARC
  5
161
102
{ACAD_REACTORS
330
5FE
102
}
330
1F
100
AcDbEntity
  8
LC-005-002-RND-0
 62
     7
370
    25
100
AcDbCircle
 10
959.48693
 20
2003.684396
 30
0.0
 40
16.00000000000006
100
AcDbArc
 50
0.000028
 51
82.396014
  0
ARC
  5
162
102
{ACAD_REACTORS
330
5FE
102
}
330
1F
100
AcDbEntity
  8
LC-005-002-RND-0
 62
     7
370
    25
100
AcDbCircle
 10
952.910593
 20
2004.018835
 30
0.0
 40
16.00000000000001
100
AcDbArc
 50
0.002409
 51
60.752245
  0
LINE
  5
163
102
{ACAD_REACTORS
330
5F7
102
}
330
1F
100
AcDbEntity
  8
LC-002-002-----0
 62
     7
370
    50
100
AcDbLine
 10
256.612611
 20
2717.46
 30
0.0
 11
255.667118
 21
2717.46
 31
0.0
  0
LINE
  5
164
102
{ACAD_REACTORS
330
5F7
102
}
330
1F
100
AcDbEntity
  8
LC-002-002-----0
 62
     7
370
    50
100
AcDbLine
 10
304.415277
 20
2720.75832
 30
0.0
 11
276.380267
 21
2721.286661
 31
0.0
  0
LINE
  5
165
102
{ACAD_REACTORS
330
5F7
102
}
330
1F
100
AcDbEntity
  8
LC-002-002-----0
 62
     7
370
    50
100
AcDbLine
 10
251.839381
 20
2724.045389
 30
0.0
 11
251.839381
 21
2723.842689
 31
0.0
  0
ARC
  5
166
102
{ACAD_REACTORS
330
5F7
102
}
330
1F
100
AcDbEntity
  8
LC-002-002-----0
 62
     7
370
    50
100
AcDbCircle
 10
250.394297
 20
2722.46
 30
0.0
 40
2.000000000000266
100
AcDbArc
 50
4.999987
 51
44.028233
  0
ARC
  5
167
102
{ACAD_REACTORS
330
5F7
102
}
330
1F
100
AcDbEntity
  8
LC-002-002-----0
 62
     7
370
    50
100
AcDbCircle
 10
254.213877
 20
2718.96
 30
0.0
 40
1.499999999999961
100
AcDbArc
 50
185.000001
 51
270.0
  0
LINE
  5
168
102
{ACAD_REACTORS
330
5F7
102
}
330
1F
100
AcDbEntity
  8
LC-002-002-----0
 62
     7
370
    50
100
AcDbLine
 10
255.533508
 20
2717.46
 30
0.0
 11
254.213877
 21
2717.46
 31
0.0
  0
LINE
  5
169
102
{ACAD_REACTORS
330
5F7
102
}
330
1F
100
AcDbEntity
  8
LC-002-002-----0
 62
     7
370
    50
100
AcDbLine
 10
252.386687
 20
2722.634311
 30
0.0
 11
252.719585
 21
2718.829266
 31
0.0
  0
ARC
  5
16A
102
{ACAD_REACTORS
330
5F7
102
}
330
1F
100
AcDbEntity
  8
LC-002-002-----0
 62
     7
370
    50
100
AcDbCircle
 10
304.226854
 20
2710.760096
 30
0.0
 40
9.999999999899481
100
AcDbArc
 50
70.770579
 51
88.920347
  0
ARC
  5
16B
102
{ACAD_REACTORS
330
5F7
102
}
330
1F
100
AcDbEntity
  8
LC-002-002-----0
 62
     7
370
    50
100
AcDbCircle
 10
614.076128
 20
2708.499323
 30
0.0
 40
4.999998692399931
100
AcDbArc
 50
6.000056
 51
88.9338
  0
ARC
  5
16C
102
{ACAD_REACTORS
330
5F7
102
}
330
1F
100
AcDbEntity
  8
LC-002-002-----0
 62
     7
370
    50
100
AcDbCircle
 10
1389.284492
 20
2722.46
 30
0.0
 40
2.000000000000269
100
AcDbArc
 50
135.975771
 51
175.000016
  0
LINE
  5
16D
102
{ACAD_REACTORS
330
5F7
102
}
330
1F
100
AcDbEntity
  8
LC-002-002-----0
 62
     7
370
    50
100
AcDbLine
 10
1385.464905
 20
2717.46
 30
0.0
 11
1384.249608
 21
2717.46
 31
0.0
  0
LINE
  5
16E
102
{ACAD_REACTORS
330
5F7
102
}
330
1F
100
AcDbEntity
  8
LC-002-002-----0
 62
     7
370
    50
100
AcDbLine
 10
1384.249608
 20
2717.46
 30
0.0
 11
1384.145281
 21
2717.46
 31
0.0
  0
ARC
  5
16F
102
{ACAD_REACTORS
330
5F7
102
}
330
1F
100
AcDbEntity
  8
LC-002-002-----0
 62
     7
370
    50
100
AcDbCircle
 10
1385.464912
 20
2718.96
 30
0.0
 40
1.5
100
AcDbArc
 50
270.0
 51
355.0
  0
LINE
  5
170
102
{ACAD_REACTORS
330
5F7
102
}
330
1F
100
AcDbEntity
  8
LC-002-002-----0
 62
     7
370
    50
100
AcDbLine
 10
1385.452232
 20
2717.46
 30
0.0
 11
1384.145281
 21
2717.46
 31
0.0
  0
LINE
  5
171
102
{ACAD_REACTORS
330
5F7
102
}
330
1F
100
AcDbEntity
  8
LC-002-002-----0
 62
     7
370
    50
100
AcDbLine
 10
1387.292102
 20
2722.634311
 30
0.0
 11
1386.959204
 21
2718.829266
 31
0.0
  0
LINE
  5
172
102
{ACAD_REACTORS
330
5F7
102
}
330
1F
100
AcDbEntity
  8
LC-002-002-----0
 62
     7
370
    50
100
AcDbLine
 10
1386.915725
 20
2725.96
 30
0.0
 11
1387.629472
 21
2725.96
 31
0.0
  0
LINE
  5
173
102
{ACAD_REACTORS
330
5F7
102
}
330
1F
100
AcDbEntity
  8
LC-002-002-----0
 62
     7
370
    50
100
AcDbLine
 10
1387.839408
 20
2725.886619
 30
0.0
 11
1387.839408
 21
2725.954487
 31
0.0
  0
LINE
  5
174
102
{ACAD_REACTORS
330
5F7
102
}
330
1F
100
AcDbEntity
  8
LC-002-002-----0
 62
     7
370
    50
100
AcDbLine
 10
1384.459204
 20
2718.829266
 30
0.0
 11
1384.923335
 21
2724.134311
 31
0.0
  0
LINE
  5
175
102
{ACAD_REACTORS
330
5F7
102
}
330
1F
100
AcDbEntity
  8
LC-002-002-----0
 62
     7
370
    50
100
AcDbLine
 10
1373.640217
 20
2717.46
 30
0.0
 11
1382.964912
 21
2717.46
 31
0.0
  0
LINE
  5
176
102
{ACAD_REACTORS
330
5F7
102
}
330
1F
100
AcDbEntity
  8
LC-002-002-----0
 62
     7
370
    50
100
AcDbLine
 10
1384.145281
 20
2717.459999
 30
0.0
 11
1384.003487
 21
2717.46
 31
0.0
  0
LINE
  5
177
102
{ACAD_REACTORS
330
5F7
102
}
330
1F
100
AcDbEntity
  8
LC-002-002-----0
 62
     7
370
    50
100
AcDbLine
 10
1384.011671
 20
2717.46
 30
0.0
 11
1382.964912
 21
2717.46
 31
0.0
  0
LINE
  5
178
102
{ACAD_REACTORS
330
5F7
102
}
330
1F
100
AcDbEntity
  8
LC-002-002-----0
 62
     7
370
    50
100
AcDbLine
 10
1371.651173
 20
2715.669057
 30
0.0
 11
1370.420029
 21
2703.955505
 31
0.0
  0
LINE
  5
179
102
{ACAD_REACTORS
330
5F7
102
}
330
1F
100
AcDbEntity
  8
LC-002-002-----0
 62
     7
370
    50
100
AcDbLine
 10
1387.839408
 20
2724.933566
 30
0.0
 11
1387.839408
 21
2725.886619
 31
0.0
  0
LINE
  5
17A
102
{ACAD_REACTORS
330
5F7
102
}
330
1F
100
AcDbEntity
  8
LC-002-002-----0
 62
     7
370
    50
100
AcDbLine
 10
1387.839408
 20
2724.045369
 30
0.0
 11
1387.839408
 21
2724.933566
 31
0.0
  0
LINE
  5
17B
102
{ACAD_REACTORS
330
5F7
102
}
330
1F
100
AcDbEntity
  8
LC-002-002-----0
 62
     7
370
    50
100
AcDbLine
 10
1387.839408
 20
2723.842687
 30
0.0
 11
1387.839408
 21
2724.045369
 31
0.0
  0
LINE
  5
17C
102
{ACAD_REACTORS
330
5F7
102
}
330
1F
100
AcDbEntity
  8
LC-002-002-----0
 62
     7
370
    50
100
AcDbLine
 10
614.169166
 20
2713.498452
 30
0.0
 11
313.735247
 21
2719.08978
 31
0.0
  0
ARC
  5
17D
102
{ACAD_REACTORS
330
5F7
102
}
330
1F
100
AcDbEntity
  8
LC-002-002-----0
 62
     7
370
    50
100
AcDbCircle
 10
314.1074
 20
2739.086317
 30
0.0
 40
19.99999999999984
100
AcDbArc
 50
250.770579
 51
268.9338
  0
LINE
  5
17E
102
{ACAD_REACTORS
330
5F7
102
}
330
1F
100
AcDbEntity
  8
LC-002-002-----0
 62
     7
370
    50
100
AcDbLine
 10
1384.011671
 20
2717.46
 30
0.0
 11
1383.066178
 21
2717.46
 31
0.0
  0
LINE
  5
17F
102
{ACAD_REACTORS
330
5F7
102
}
330
1F
100
AcDbEntity
  8
LC-002-002-----0
 62
     7
370
    50
100
AcDbLine
 10
252.763064
 20
2725.96
 30
0.0
 11
252.049317
 21
2725.96
 31
0.0
  0
LINE
  5
180
102
{ACAD_REACTORS
330
5F7
102
}
330
1F
100
AcDbEntity
  8
LC-002-002-----0
 62
     7
370
    50
100
AcDbLine
 10
251.839381
 20
2725.954487
 30
0.0
 11
251.839381
 21
2725.886662
 31
0.0
  0
LINE
  5
181
102
{ACAD_REACTORS
330
5F7
102
}
330
1F
100
AcDbEntity
  8
LC-002-002-----0
 62
     7
370
    50
100
AcDbLine
 10
255.219585
 20
2718.829266
 30
0.0
 11
254.755454
 21
2724.134311
 31
0.0
  0
LINE
  5
182
102
{ACAD_REACTORS
330
5F7
102
}
330
1F
100
AcDbEntity
  8
LC-002-002-----0
 62
     7
370
    50
100
AcDbLine
 10
269.746705
 20
2717.46
 30
0.0
 11
256.713877
 21
2717.46
 31
0.0
  0
LINE
  5
183
102
{ACAD_REACTORS
330
5F7
102
}
330
1F
100
AcDbEntity
  8
LC-002-002-----0
 62
     7
370
    50
100
AcDbLine
 10
256.713877
 20
2717.46
 30
0.0
 11
255.667118
 21
2717.46
 31
0.0
  0
LINE
  5
184
102
{ACAD_REACTORS
330
5F7
102
}
330
1F
100
AcDbEntity
  8
LC-002-002-----0
 62
     7
370
    50
100
AcDbLine
 10
255.67521
 20
2717.459999
 30
0.0
 11
255.533508
 21
2717.46
 31
0.0
  0
LINE
  5
185
102
{ACAD_REACTORS
330
5F7
102
}
330
1F
100
AcDbEntity
  8
LC-002-002-----0
 62
     7
370
    50
100
AcDbLine
 10
251.839381
 20
2724.933543
 30
0.0
 11
251.839381
 21
2724.045389
 31
0.0
  0
LINE
  5
186
102
{ACAD_REACTORS
330
5F7
102
}
330
1F
100
AcDbEntity
  8
LC-002-002-----0
 62
     7
370
    50
100
AcDbLine
 10
251.839381
 20
2725.886662
 30
0.0
 11
251.839381
 21
2724.933543
 31
0.0
  0
LINE
  5
187
102
{ACAD_REACTORS
330
5FE
102
}
330
1F
100
AcDbEntity
  8
LC-002-002-----0
 62
     7
370
    25
100
AcDbLine
 10
663.922822
 20
2018.427369
 30
0.0
 11
663.922381
 21
1842.499056
 31
0.0
  0
LINE
  5
188
102
{ACAD_REACTORS
330
5F7
102
}
330
1F
100
AcDbEntity
  8
LC-002-002-----0
 62
     7
370
    50
100
AcDbLine
 10
797.442414
 20
2525.70883
 30
0.0
 11
797.322845
 21
2526.15507
 31
0.0
  0
LINE
  5
189
102
{ACAD_REACTORS
330
5FE
102
}
330
1F
100
AcDbEntity
  8
LC-002-002-----0
 62
     7
370
    25
100
AcDbLine
 10
675.328529
 20
2028.328051
 30
0.0
 11
927.58878
 21
1992.512015
 31
0.0
  0
LINE
  5
18A
102
{ACAD_REACTORS
330
5F7
102
}
330
1F
100
AcDbEntity
  8
LC-002-002-----0
 62
     7
370
    50
100
AcDbLine
 10
663.203078
 20
2536.115903
 30
0.0
 11
663.461436
 21
2536.104942
 31
0.0
  0
ARC
  5
18B
102
{ACAD_REACTORS
330
5FE
102
}
330
1F
100
AcDbEntity
  8
LC-005-002-RND-0
 62
     7
370
    25
100
AcDbCircle
 10
673.922822
 20
2018.427344
 30
0.0
 40
9.999999999999861
100
AcDbArc
 50
81.919127
 51
179.999856
  0
ARC
  5
18C
102
{ACAD_REACTORS
330
5FE
102
}
330
1F
100
AcDbEntity
  8
LC-005-002-RND-0
 62
     7
370
    25
100
AcDbCircle
 10
925.761361
 20
1979.641097
 30
0.0
 40
13.00000000000019
100
AcDbArc
 50
359.999892
 51
81.919127
  0
ARC
  5
18D
102
{ACAD_REACTORS
330
5FE
102
}
330
1F
100
AcDbEntity
  8
LC-005-002-RND-0
 62
     7
370
    50
100
AcDbCircle
 10
634.408649
 20
1968.703815
 30
0.0
 40
99.99999999999963
100
AcDbArc
 50
82.4
 51
90.0
  0
ARC
  5
18E
102
{ACAD_REACTORS
330
5FE
102
}
330
1F
100
AcDbEntity
  8
LC-002-002-----0
 62
     7
370
    50
100
AcDbCircle
 10
617.577751
 20
1754.499058
 30
0.0
 40
4.000001391050091
100
AcDbArc
 50
270.0
 51
90.0
  0
LINE
  5
18F
102
{ACAD_REACTORS
330
5FE
102
}
330
1F
100
AcDbEntity
  8
LC-002-002-----0
 62
     7
370
    25
100
AcDbLine
 10
1129.837081
 20
2001.98953
 30
0.0
 11
1217.9486
 21
2014.499146
 31
0.0
  0
LINE
  5
190
102
{ACAD_REACTORS
330
5FE
102
}
330
1F
100
AcDbEntity
  8
LC-002-002-----0
 62
     7
370
    25
100
AcDbLine
 10
1129.837081
 20
1683.008764
 30
0.0
 11
1217.948601
 21
1670.499294
 31
0.0
  0
CIRCLE
  5
191
102
{ACAD_REACTORS
330
5FE
102
}
330
1F
100
AcDbEntity
  8
LC-002-002-----0
 62
     7
370
    50
100
AcDbCircle
 10
860.904108
 20
1842.499056
 30
0.0
 40
45.0
  0
CIRCLE
  5
192
102
{ACAD_REACTORS
330
5FE
102
}
330
1F
100
AcDbEntity
  8
LC-002-002-----0
 62
     7
370
    50
100
AcDbCircle
 10
860.904108
 20
1842.499056
 30
0.0
 40
57.5
  0
ARC
  5
193
102
{ACAD_REACTORS
330
5FE
102
}
330
1F
100
AcDbEntity
  8
LC-005-002-RND-0
 62
     7
370
    25
100
AcDbCircle
 10
645.765286
 20
2049.087096
 30
0.0
 40
11.99999999999965
100
AcDbArc
 50
107.035211
 51
180.0
  0
ARC
  5
194
102
{ACAD_REACTORS
330
5FE
102
}
330
1F
100
AcDbEntity
  8
LC-005-002-RND-0
 62
     7
370
    25
100
AcDbCircle
 10
638.693351
 20
2049.720192
 30
0.0
 40
14.00000000000034
100
AcDbArc
 50
118.554549
 51
180.0
  0
ARC
  5
195
102
{ACAD_REACTORS
330
5FE
102
}
330
1F
100
AcDbEntity
  8
LC-005-002-RND-0
 62
     7
370
    25
100
AcDbCircle
 10
638.352795
 20
2044.307755
 30
0.0
 40
19.9999999999997
100
AcDbArc
 50
113.732269
 51
179.999999
  0
ARC
  5
196
102
{ACAD_REACTORS
330
5F7
102
}
330
1F
100
AcDbEntity
  8
LC-002-002-----0
 62
     7
370
    50
100
AcDbCircle
 10
1403.184096
 20
2577.51415
 30
0.0
 40
134.9551843276002
100
AcDbArc
 50
107.735795
 51
109.456679
  0
ARC
  5
197
102
{ACAD_REACTORS
330
5F7
102
}
330
1F
100
AcDbEntity
  8
LC-002-002-----0
 62
     7
370
    50
100
AcDbCircle
 10
1424.025178
 20
2595.898718
 30
0.0
 40
146.6019622366
100
AcDbArc
 50
110.226738
 51
112.922075
  0
ARC
  5
198
102
{ACAD_REACTORS
330
5F7
102
}
330
1F
100
AcDbEntity
  8
LC-002-002-----0
 62
     7
370
    50
100
AcDbCircle
 10
1356.972859
 20
2677.802426
 30
0.0
 40
67.6462101946999
100
AcDbArc
 50
51.825141
 51
55.3635
  0
ARC
  5
199
102
{ACAD_REACTORS
330
5F7
102
}
330
1F
100
AcDbEntity
  8
LC-002-002-----0
 62
     7
370
    50
100
AcDbCircle
 10
1387.629472
 20
2721.96
 30
0.0
 40
4.000000000000025
100
AcDbArc
 50
86.991517
 51
90.0
  0
ARC
  5
19A
102
{ACAD_REACTORS
330
5F7
102
}
330
1F
100
AcDbEntity
  8
LC-002-002-----0
 62
     7
370
    50
100
AcDbCircle
 10
1386.915725
 20
2723.96
 30
0.0
 40
2.0
100
AcDbArc
 50
90.0
 51
175.0
  0
ARC
  5
19B
102
{ACAD_REACTORS
330
5F7
102
}
330
1F
100
AcDbEntity
  8
LC-002-002-----0
 62
     7
370
    50
100
AcDbCircle
 10
1382.964912
 20
2718.96
 30
0.0
 40
1.5
100
AcDbArc
 50
270.0
 51
355.0
  0
ARC
  5
19C
102
{ACAD_REACTORS
330
5F7
102
}
330
1F
100
AcDbEntity
  8
LC-002-002-----0
 62
     7
370
    50
100
AcDbCircle
 10
1373.640217
 20
2715.46
 30
0.0
 40
2.0
100
AcDbArc
 50
90.0
 51
174.0
  0
ARC
  5
19D
102
{ACAD_REACTORS
330
5F7
102
}
330
1F
100
AcDbEntity
  8
LC-002-002-----0
 62
     7
370
    50
100
AcDbCircle
 10
1362.463854
 20
2704.791733
 30
0.0
 40
7.999999999999944
100
AcDbArc
 50
305.523943
 51
354.0
  0
ARC
  5
19E
102
{ACAD_REACTORS
330
5F7
102
}
330
1F
100
AcDbEntity
  8
LC-002-002-----0
 62
     7
370
    50
100
AcDbCircle
 10
1361.301768
 20
2706.419478
 30
0.0
 40
10.0
100
AcDbArc
 50
300.771037
 51
305.523943
  0
ARC
  5
19F
102
{ACAD_REACTORS
330
5F7
102
}
330
1F
100
AcDbEntity
  8
LC-002-002-----0
 62
     7
370
    50
100
AcDbCircle
 10
1368.975896
 20
2693.531199
 30
0.0
 40
5.0
100
AcDbArc
 50
120.771037
 51
174.000302
  0
ARC
  5
1A0
102
{ACAD_REACTORS
330
5F7
102
}
330
1F
100
AcDbEntity
  8
LC-002-002-----0
 62
     7
370
    50
100
AcDbCircle
 10
1002.079856
 20
2708.46
 30
0.0
 40
4.99999999999994
100
AcDbArc
 50
5.998927
 51
89.999992
  0
ARC
  5
1A1
102
{ACAD_REACTORS
330
5F7
102
}
330
1F
100
AcDbEntity
  8
LC-002-002-----0
 62
     7
370
    50
100
AcDbCircle
 10
988.599267
 20
2708.46
 30
0.0
 40
5.0
100
AcDbArc
 50
90.0
 51
174.001073
  0
LINE
  5
1A2
102
{ACAD_REACTORS
330
5F7
102
}
330
1F
100
AcDbEntity
  8
LC-002-002-----0
 62
     7
370
    50
100
AcDbLine
 10
924.23681
 20
2525.70883
 30
0.0
 11
924.562899
 21
2526.925812
 31
0.0
  0
ARC
  5
1A3
102
{ACAD_REACTORS
330
5F7
102
}
330
1F
100
AcDbEntity
  8
LC-002-002-----0
 62
     7
370
    50
100
AcDbCircle
 10
922.304958
 20
2526.226468
 30
0.0
 40
2.0
100
AcDbArc
 50
270.0
 51
345.0
  0
ARC
  5
1A4
102
{ACAD_REACTORS
330
5F7
102
}
330
1F
100
AcDbEntity
  8
LC-002-002-----0
 62
     7
370
    50
100
AcDbCircle
 10
799.374266
 20
2526.226468
 30
0.0
 40
2.000000000000034
100
AcDbArc
 50
195.0
 51
270.0
  0
ARC
  5
1A5
102
{ACAD_REACTORS
330
5F7
102
}
330
1F
100
AcDbEntity
  8
LC-002-002-----0
 62
     7
370
    50
100
AcDbCircle
 10
621.703227
 20
2693.531199
 30
0.0
 40
5.000000000000043
100
AcDbArc
 50
5.999698
 51
59.228963
  0
ARC
  5
1A6
102
{ACAD_REACTORS
330
5F7
102
}
330
1F
100
AcDbEntity
  8
LC-002-002-----0
 62
     7
370
    50
100
AcDbCircle
 10
629.377356
 20
2706.419478
 30
0.0
 40
10.00000000000021
100
AcDbArc
 50
186.000052
 51
239.228963
  0
ARC
  5
1A7
102
{ACAD_REACTORS
330
5F7
102
}
330
1F
100
AcDbEntity
  8
LC-002-002-----0
 62
     7
370
    50
100
AcDbCircle
 10
276.286055
 20
2716.287548
 30
0.0
 40
4.999999999999813
100
AcDbArc
 50
88.920347
 51
150.681747
  0
ARC
  5
1A8
102
{ACAD_REACTORS
330
5F7
102
}
330
1F
100
AcDbEntity
  8
LC-002-002-----0
 62
     7
370
    50
100
AcDbCircle
 10
269.746705
 20
2719.96
 30
0.0
 40
2.5
100
AcDbArc
 50
270.0
 51
330.681747
  0
ARC
  5
1A9
102
{ACAD_REACTORS
330
5F7
102
}
330
1F
100
AcDbEntity
  8
LC-002-002-----0
 62
     7
370
    50
100
AcDbCircle
 10
256.713877
 20
2718.96
 30
0.0
 40
1.500000000000007
100
AcDbArc
 50
185.0
 51
270.0
  0
ARC
  5
1AA
102
{ACAD_REACTORS
330
5F7
102
}
330
1F
100
AcDbEntity
  8
LC-002-002-----0
 62
     7
370
    50
100
AcDbCircle
 10
252.763064
 20
2723.96
 30
0.0
 40
2.00000000000002
100
AcDbArc
 50
5.0
 51
90.0
  0
ARC
  5
1AB
102
{ACAD_REACTORS
330
5F7
102
}
330
1F
100
AcDbEntity
  8
LC-002-002-----0
 62
     7
370
    50
100
AcDbCircle
 10
252.049317
 20
2721.96
 30
0.0
 40
4.0
100
AcDbArc
 50
90.0
 51
93.008483
  0
LINE
  5
1AC
102
{ACAD_REACTORS
330
5F7
102
}
330
1F
100
AcDbEntity
  8
LC-002-002-----0
 62
     7
370
    50
100
AcDbLine
 10
268.038804
 20
2730.44546
 30
0.0
 11
618.352798
 21
2723.843537
 31
0.0
  0
ARC
  5
1AD
102
{ACAD_REACTORS
330
5F7
102
}
330
1F
100
AcDbEntity
  8
LC-002-002-----0
 62
     7
370
    50
100
AcDbCircle
 10
282.712884
 20
2677.793596
 30
0.0
 40
67.65747391159979
100
AcDbArc
 50
124.637152
 51
128.174847
  0
ARC
  5
1AE
102
{ACAD_REACTORS
330
5F7
102
}
330
1F
100
AcDbEntity
  8
LC-002-002-----0
 62
     7
370
    50
100
AcDbCircle
 10
209.072285
 20
2595.899898
 30
0.0
 40
146.6008650093003
100
AcDbArc
 50
66.918372
 51
69.773094
  0
ARC
  5
1AF
102
{ACAD_REACTORS
330
5F7
102
}
330
1F
100
AcDbEntity
  8
LC-002-002-----0
 62
     7
370
    50
100
AcDbCircle
 10
587.495027
 20
2577.51415
 30
0.0
 40
134.9551843278
100
AcDbArc
 50
70.543321
 51
72.264205
  0
LINE
  5
1B0
102
{ACAD_REACTORS
330
5F7
102
}
330
1F
100
AcDbEntity
  8
LC-002-002-----0
 62
     7
370
    50
100
AcDbLine
 10
803.416297
 20
2537.40482
 30
0.0
 11
803.447713
 21
2537.045744
 31
0.0
  0
ARC
  5
1B1
102
{ACAD_REACTORS
330
5F7
102
}
330
1F
100
AcDbEntity
  8
LC-002-002-----0
 62
     7
370
    50
100
AcDbCircle
 10
804.443907
 20
2537.1329
 30
0.0
 40
0.9999999999999082
100
AcDbArc
 50
185.0
 51
260.0
  0
LINE
  5
1B2
102
{ACAD_REACTORS
330
5F7
102
}
330
1F
100
AcDbEntity
  8
LC-002-002-----0
 62
     7
370
    50
100
AcDbLine
 10
804.270259
 20
2536.148092
 30
0.0
 11
820.408815
 21
2533.302429
 31
0.0
  0
ARC
  5
1B3
102
{ACAD_REACTORS
330
5F7
102
}
330
1F
100
AcDbEntity
  8
LC-002-002-----0
 62
     7
370
    50
100
AcDbCircle
 10
821.277055
 20
2538.226468
 30
0.0
 40
4.999999999999876
100
AcDbArc
 50
260.0
 51
270.0
  0
ARC
  5
1B4
102
{ACAD_REACTORS
330
5F7
102
}
330
1F
100
AcDbEntity
  8
LC-002-002-----0
 62
     7
370
    50
100
AcDbCircle
 10
900.402169
 20
2538.226468
 30
0.0
 40
5.000000000000455
100
AcDbArc
 50
270.0
 51
280.0
  0
LINE
  5
1B5
102
{ACAD_REACTORS
330
5F7
102
}
330
1F
100
AcDbEntity
  8
LC-002-002-----0
 62
     7
370
    50
100
AcDbLine
 10
917.408965
 20
2536.148092
 30
0.0
 11
901.27041
 21
2533.302429
 31
0.0
  0
ARC
  5
1B6
102
{ACAD_REACTORS
330
5F7
102
}
330
1F
100
AcDbEntity
  8
LC-002-002-----0
 62
     7
370
    50
100
AcDbCircle
 10
917.235317
 20
2537.1329
 30
0.0
 40
0.9999999999999928
100
AcDbArc
 50
280.0
 51
355.0
  0
LINE
  5
1B7
102
{ACAD_REACTORS
330
5F7
102
}
330
1F
100
AcDbEntity
  8
LC-002-002-----0
 62
     7
370
    50
100
AcDbLine
 10
918.271386
 20
2537.501507
 30
0.0
 11
918.231512
 21
2537.045744
 31
0.0
  0
ARC
  5
1B8
102
{ACAD_REACTORS
330
5F7
102
}
330
1F
100
AcDbEntity
  8
LC-002-002-----0
 62
     7
370
    50
100
AcDbCircle
 10
1015.193973
 20
2577.513073
 30
0.0
 40
134.9563096861994
100
AcDbArc
 50
107.739992
 51
109.45951
  0
ARC
  5
1B9
102
{ACAD_REACTORS
330
5F7
102
}
330
1F
100
AcDbEntity
  8
LC-002-002-----0
 62
     7
370
    50
100
AcDbCircle
 10
975.485151
 20
2577.513073
 30
0.0
 40
134.9563096861293
100
AcDbArc
 50
70.54049
 51
72.260008
  0
LINE
  5
1BA
102
{ACAD_REACTORS
330
5F7
102
}
330
1F
100
AcDbEntity
  8
LC-002-002-----0
 62
     7
370
    50
100
AcDbLine
 10
1387.839408
 20
2725.954487
 30
0.0
 11
1387.839408
 21
2726.46
 31
0.0
  0
LINE
  5
1BB
102
{ACAD_REACTORS
330
5F7
102
}
330
1F
100
AcDbEntity
  8
LC-002-002-----0
 62
     7
370
    50
100
AcDbLine
 10
251.839381
 20
2725.954487
 30
0.0
 11
251.839381
 21
2726.46
 31
0.0
  0
LINE
  5
1BC
102
{ACAD_REACTORS
330
5F7
102
}
330
1F
100
AcDbEntity
  8
LC-002-002-----0
 62
     7
370
    50
100
AcDbLine
 10
251.839381
 20
2726.46
 30
0.0
 11
239.839381
 21
2726.46
 31
0.0
  0
LINE
  5
1BD
102
{ACAD_REACTORS
330
5F7
102
}
330
1F
100
AcDbEntity
  8
LC-002-002-----0
 62
     7
370
    50
100
AcDbLine
 10
1399.839408
 20
2726.46
 30
0.0
 11
1387.839408
 21
2726.46
 31
0.0
  0
LINE
  5
1BE
102
{ACAD_REACTORS
330
5F7
102
}
330
1F
100
AcDbEntity
  8
LC-002-002-----0
 62
     7
370
    50
100
AcDbLine
 10
1002.079856
 20
2713.46
 30
0.0
 11
988.599267
 21
2713.46
 31
0.0
  0
ARC
  5
1BF
102
{ACAD_REACTORS
330
5F7
102
}
330
1F
100
AcDbEntity
  8
LC-005-002-RND-0
 62
     7
370
    50
100
AcDbCircle
 10
242.132406
 20
2729.408794
 30
0.0
 40
1.999999999999938
100
AcDbArc
 50
128.174847
 51
174.502927
  0
ARC
  5
1C0
102
{ACAD_REACTORS
330
5F7
102
}
330
1F
100
AcDbEntity
  8
LC-005-002-RND-0
 62
     7
370
    50
100
AcDbCircle
 10
1017.377279
 20
2706.415679
 30
0.0
 40
10.00000000000017
100
AcDbArc
 50
185.998927
 51
239.214106
  0
ARC
  5
1C1
102
{ACAD_REACTORS
330
5F7
102
}
330
1F
100
AcDbEntity
  8
LC-002-002-----0
 62
     7
370
    50
100
AcDbCircle
 10
1009.699808
 20
2693.52939
 30
0.0
 40
4.999999999999421
100
AcDbArc
 50
5.999217
 51
59.214106
  0
ARC
  5
1C2
102
{ACAD_REACTORS
330
5F7
102
}
330
1F
100
AcDbEntity
  8
LC-005-002-RND-0
 62
     7
370
    50
100
AcDbCircle
 10
1017.215455
 20
2707.956978
 30
0.0
 40
2.000000000000398
100
AcDbArc
 50
185.999626
 51
252.260008
  0
ARC
  5
1C3
102
{ACAD_REACTORS
330
5F7
102
}
330
1F
100
AcDbEntity
  8
LC-005-002-RND-0
 62
     7
370
    50
100
AcDbCircle
 10
1019.778298
 20
2702.87454
 30
0.0
 40
2.000000000000413
100
AcDbArc
 50
5.999217
 51
70.54049
  0
LINE
  5
1C4
102
{ACAD_REACTORS
330
5F7
102
}
330
1F
100
AcDbEntity
  8
LC-002-002-----0
 62
     7
370
    50
100
AcDbLine
 10
1188.401131
 20
2538.498872
 30
0.0
 11
1328.370818
 21
2545.17006
 31
0.0
  0
ARC
  5
1C5
102
{ACAD_REACTORS
330
5F7
102
}
330
1F
100
AcDbEntity
  8
LC-005-002-RND-0
 62
     7
370
    50
100
AcDbCircle
 10
1327.704312
 20
2559.154186
 30
0.0
 40
13.99999999999983
100
AcDbArc
 50
272.728747
 51
354.000302
  0
LINE
  5
1C6
102
{ACAD_REACTORS
330
5F7
102
}
330
1F
100
AcDbEntity
  8
LC-002-002-----0
 62
     7
370
    50
100
AcDbLine
 10
1328.661069
 20
2536.174725
 30
0.0
 11
1197.987336
 21
2529.85703
 31
0.0
  0
ARC
  5
1C7
102
{ACAD_REACTORS
330
5F7
102
}
330
1F
100
AcDbEntity
  8
LC-005-002-RND-0
 62
     7
370
    50
100
AcDbCircle
 10
1327.598674
 20
2558.149058
 30
0.0
 40
22.00000000000022
100
AcDbArc
 50
272.767929
 51
354.000302
  0
ARC
  5
1C8
102
{ACAD_REACTORS
330
5F7
102
}
330
1F
100
AcDbEntity
  8
LC-005-002-RND-0
 62
     7
370
    50
100
AcDbCircle
 10
1188.45826
 20
2537.300233
 30
0.0
 40
1.199999999999872
100
AcDbArc
 50
92.728747
 51
175.0
  0
LINE
  5
1C9
102
{ACAD_REACTORS
330
5F7
102
}
330
1F
100
AcDbEntity
  8
LC-002-002-----0
 62
     7
370
    25
100
AcDbLine
 10
1187.354178
 20
2538.448973
 30
0.0
 11
1072.324845
 21
2538.448973
 31
0.0
  0
ARC
  5
1CA
102
{ACAD_REACTORS
330
5F7
102
}
330
1F
100
AcDbEntity
  8
LC-005-002-RND-0
 62
     7
370
    50
100
AcDbCircle
 10
1051.341671
 20
2555.61787
 30
0.0
 40
14.00000000000014
100
AcDbArc
 50
185.999217
 51
261.798621
  0
ARC
  5
1CB
102
{ACAD_REACTORS
330
5F7
102
}
330
1F
100
AcDbEntity
  8
LC-005-002-RND-0
 62
     7
370
    50
100
AcDbCircle
 10
1071.212304
 20
2537.39692
 30
0.0
 40
1.199999999999954
100
AcDbArc
 50
5.0
 51
81.798621
  0
LINE
  5
1CC
102
{ACAD_REACTORS
330
5F7
102
}
330
1F
100
AcDbEntity
  8
LC-002-002-----0
 62
     7
370
    50
100
AcDbLine
 10
1048.339237
 20
2532.549441
 30
0.0
 11
1061.999861
 21
2530.58058
 31
0.0
  0
ARC
  5
1CD
102
{ACAD_REACTORS
330
5F7
102
}
330
1F
100
AcDbEntity
  8
LC-005-002-RND-0
 62
     7
370
    50
100
AcDbCircle
 10
1051.477598
 20
2554.324443
 30
0.0
 40
22.0
100
AcDbArc
 50
185.999217
 51
261.798621
  0
LINE
  5
1CE
102
{ACAD_REACTORS
330
5F7
102
}
330
1F
100
AcDbEntity
  8
LC-002-002-----0
 62
     7
370
    50
100
AcDbLine
 10
1049.344533
 20
2541.761051
 30
0.0
 11
1071.383487
 21
2538.584648
 31
0.0
  0
LINE
  5
1CF
102
{ACAD_REACTORS
330
5F7
102
}
330
1F
100
AcDbEntity
  8
LC-002-002-----0
 62
     7
370
    50
100
AcDbLine
 10
1090.276955
 20
2533.226468
 30
0.0
 11
1169.402068
 21
2533.226468
 31
0.0
  0
LINE
  5
1D0
102
{ACAD_REACTORS
330
5F7
102
}
330
1F
100
AcDbEntity
  8
LC-002-002-----0
 62
     7
370
    50
100
AcDbLine
 10
1068.374165
 20
2524.226468
 30
0.0
 11
1191.304858
 21
2524.226468
 31
0.0
  0
ARC
  5
1D1
102
{ACAD_REACTORS
330
5F7
102
}
330
1F
100
AcDbEntity
  8
LC-002-002-----0
 62
     7
370
    50
100
AcDbCircle
 10
1198.185906
 20
2524.860974
 30
0.0
 40
4.999999867100186
100
AcDbArc
 50
92.276039
 51
164.994138
  0
ARC
  5
1D2
102
{ACAD_REACTORS
330
5F7
102
}
330
1F
100
AcDbEntity
  8
LC-002-002-----0
 62
     7
370
    50
100
AcDbCircle
 10
1061.286598
 20
2525.631716
 30
0.0
 40
4.999999864299737
100
AcDbArc
 50
15.005777
 51
82.898996
  0
LINE
  5
1D3
102
{ACAD_REACTORS
330
5F7
102
}
330
1F
100
AcDbEntity
  8
LC-002-002-----0
 62
     7
370
    50
100
AcDbLine
 10
1193.236709
 20
2525.70883
 30
0.0
 11
1193.356279
 21
2526.15507
 31
0.0
  0
LINE
  5
1D4
102
{ACAD_REACTORS
330
5F7
102
}
330
1F
100
AcDbEntity
  8
LC-002-002-----0
 62
     7
370
    50
100
AcDbLine
 10
1066.442314
 20
2525.70883
 30
0.0
 11
1066.116224
 21
2526.925812
 31
0.0
  0
ARC
  5
1D5
102
{ACAD_REACTORS
330
5F7
102
}
330
1F
100
AcDbEntity
  8
LC-002-002-----0
 62
     7
370
    50
100
AcDbCircle
 10
1068.374165
 20
2526.226468
 30
0.0
 40
2.000000000000019
100
AcDbArc
 50
195.0
 51
270.0
  0
ARC
  5
1D6
102
{ACAD_REACTORS
330
5F7
102
}
330
1F
100
AcDbEntity
  8
LC-002-002-----0
 62
     7
370
    50
100
AcDbCircle
 10
1191.304858
 20
2526.226468
 30
0.0
 40
2.0
100
AcDbArc
 50
270.0
 51
345.0
  0
LINE
  5
1D7
102
{ACAD_REACTORS
330
5F7
102
}
330
1F
100
AcDbEntity
  8
LC-002-002-----0
 62
     7
370
    50
100
AcDbLine
 10
1187.262826
 20
2537.40482
 30
0.0
 11
1187.231411
 21
2537.045744
 31
0.0
  0
ARC
  5
1D8
102
{ACAD_REACTORS
330
5F7
102
}
330
1F
100
AcDbEntity
  8
LC-002-002-----0
 62
     7
370
    50
100
AcDbCircle
 10
1186.235216
 20
2537.1329
 30
0.0
 40
0.9999999999999139
100
AcDbArc
 50
280.0
 51
355.0
  0
LINE
  5
1D9
102
{ACAD_REACTORS
330
5F7
102
}
330
1F
100
AcDbEntity
  8
LC-002-002-----0
 62
     7
370
    50
100
AcDbLine
 10
1186.408865
 20
2536.148092
 30
0.0
 11
1170.270309
 21
2533.302429
 31
0.0
  0
ARC
  5
1DA
102
{ACAD_REACTORS
330
5F7
102
}
330
1F
100
AcDbEntity
  8
LC-002-002-----0
 62
     7
370
    50
100
AcDbCircle
 10
1169.402068
 20
2538.226468
 30
0.0
 40
5.0
100
AcDbArc
 50
270.0
 51
280.0
  0
ARC
  5
1DB
102
{ACAD_REACTORS
330
5F7
102
}
330
1F
100
AcDbEntity
  8
LC-002-002-----0
 62
     7
370
    50
100
AcDbCircle
 10
1090.276955
 20
2538.226468
 30
0.0
 40
5.000000000000389
100
AcDbArc
 50
260.0
 51
270.0
  0
LINE
  5
1DC
102
{ACAD_REACTORS
330
5F7
102
}
330
1F
100
AcDbEntity
  8
LC-002-002-----0
 62
     7
370
    50
100
AcDbLine
 10
1073.270158
 20
2536.148092
 30
0.0
 11
1089.408714
 21
2533.302429
 31
0.0
  0
ARC
  5
1DD
102
{ACAD_REACTORS
330
5F7
102
}
330
1F
100
AcDbEntity
  8
LC-002-002-----0
 62
     7
370
    50
100
AcDbCircle
 10
1073.443807
 20
2537.1329
 30
0.0
 40
1.000000000000095
100
AcDbArc
 50
185.0
 51
260.0
  0
LINE
  5
1DE
102
{ACAD_REACTORS
330
5F7
102
}
330
1F
100
AcDbEntity
  8
LC-002-002-----0
 62
     7
370
    50
100
AcDbLine
 10
1072.407738
 20
2537.501507
 30
0.0
 11
1072.447612
 21
2537.045744
 31
0.0
  0
LINE
  5
1DF
102
{ACAD_REACTORS
330
5FE
102
}
330
1F
100
AcDbEntity
  8
LC-002-002-----0
 62
     7
370
    50
100
AcDbLine
 10
239.839381
 20
2075.499433
 30
0.0
 11
239.839381
 21
1609.498679
 31
0.0
  0
LINE
  5
1E0
102
{ACAD_REACTORS
330
5FE
102
}
330
1F
100
AcDbEntity
  8
LC-002-002-----0
 62
     7
370
    50
100
AcDbLine
 10
1399.839408
 20
1609.498679
 30
0.0
 11
1399.839408
 21
2075.499433
 31
0.0
  0
LINE
  5
1E1
102
{ACAD_REACTORS
330
5FE
102
}
330
1F
100
AcDbEntity
  8
LC-002-002-----0
 62
     7
370
    50
100
AcDbLine
 10
256.839381
 20
1592.498679
 30
0.0
 11
1382.839408
 21
1592.498679
 31
0.0
  0
LINE
  5
1E2
102
{ACAD_REACTORS
330
5FE
102
}
330
1F
100
AcDbEntity
  8
LC-002-002-----0
 62
     7
370
    50
100
AcDbLine
 10
256.839381
 20
2092.499433
 30
0.0
 11
1382.839408
 21
2092.499433
 31
0.0
  0
LINE
  5
1E3
102
{ACAD_REACTORS
330
5FE
102
}
330
1F
100
AcDbEntity
  8
LC-002-002-----0
 62
     7
370
    50
100
AcDbLine
 10
1006.379556
 20
1998.701295
 30
0.0
 11
1006.379556
 21
1686.296818
 31
0.0
  0
LINE
  5
1E4
102
{ACAD_REACTORS
330
5FE
102
}
330
1F
100
AcDbEntity
  8
LC-002-002-----0
 62
     7
370
    25
100
AcDbLine
 10
1356.913838
 20
1842.499056
 30
0.0
 11
1356.913838
 21
1635.910611
 31
0.0
  0
LINE
  5
1E5
102
{ACAD_REACTORS
330
5FE
102
}
330
1F
100
AcDbEntity
  8
LC-002-002-----0
 62
     7
370
    25
100
AcDbLine
 10
1356.913838
 20
1842.499056
 30
0.0
 11
1356.913838
 21
2049.087502
 31
0.0
  0
LINE
  5
1E6
102
{ACAD_REACTORS
330
5FE
102
}
330
1F
100
AcDbEntity
  8
LC-002-002-----0
 62
     7
370
    25
100
AcDbLine
 10
1313.070308
 20
1656.993861
 30
0.0
 11
1217.948601
 21
1670.499294
 31
0.0
  0
LINE
  5
1E7
102
{ACAD_REACTORS
330
5FE
102
}
330
1F
100
AcDbEntity
  8
LC-002-002-----0
 62
     7
370
    25
100
AcDbLine
 10
1326.757169
 20
1842.499045
 30
0.0
 11
1326.757157
 21
1668.874708
 31
0.0
  0
LINE
  5
1E8
102
{ACAD_REACTORS
330
5FE
102
}
330
1F
100
AcDbEntity
  8
LC-002-002-----0
 62
     7
370
    25
100
AcDbLine
 10
1129.837081
 20
1683.008764
 30
0.0
 11
1062.231107
 21
1692.607565
 31
0.0
  0
LINE
  5
1E9
102
{ACAD_REACTORS
330
5FE
102
}
330
1F
100
AcDbEntity
  8
LC-002-002-----0
 62
     7
370
    25
100
AcDbLine
 10
1051.918196
 20
1842.499056
 30
0.0
 11
1051.917968
 21
1704.488431
 31
0.0
  0
LINE
  5
1EA
102
{ACAD_REACTORS
330
5FE
102
}
330
1F
100
AcDbEntity
  8
LC-002-002-----0
 62
     7
370
    50
100
AcDbLine
 10
1023.774689
 20
1659.772477
 30
0.0
 11
1352.958968
 21
1615.849916
 31
0.0
  0
LINE
  5
1EB
102
{ACAD_REACTORS
330
5FE
102
}
330
1F
100
AcDbEntity
  8
LC-002-002-----0
 62
     7
370
    50
100
AcDbLine
 10
1373.339583
 20
2051.306315
 30
0.0
 11
1373.339583
 21
1633.691796
 31
0.0
  0
LINE
  5
1EC
102
{ACAD_REACTORS
330
5FE
102
}
330
1F
100
AcDbEntity
  8
LC-002-002-----0
 62
     7
370
    25
100
AcDbLine
 10
1129.837081
 20
2001.98953
 30
0.0
 11
1062.231172
 21
1992.390721
 31
0.0
  0
LINE
  5
1ED
102
{ACAD_REACTORS
330
5FE
102
}
330
1F
100
AcDbEntity
  8
LC-002-002-----0
 62
     7
370
    25
100
AcDbLine
 10
1051.918036
 20
1980.509898
 30
0.0
 11
1051.917776
 21
1842.499056
 31
0.0
  0
LINE
  5
1EE
102
{ACAD_REACTORS
330
5FE
102
}
330
1F
100
AcDbEntity
  8
LC-002-002-----0
 62
     7
370
    25
100
AcDbLine
 10
938.761361
 20
1979.641072
 30
0.0
 11
938.761102
 21
1842.499056
 31
0.0
  0
LINE
  5
1EF
102
{ACAD_REACTORS
330
5FE
102
}
330
1F
100
AcDbEntity
  8
LC-002-002-----0
 62
     7
370
    25
100
AcDbLine
 10
968.917383
 20
1842.499036
 30
0.0
 11
968.910593
 21
2004.019507
 31
0.0
  0
LINE
  5
1F0
102
{ACAD_REACTORS
330
5FE
102
}
330
1F
100
AcDbEntity
  8
LC-002-002-----0
 62
     7
370
    25
100
AcDbLine
 10
633.765286
 20
2049.087096
 30
0.0
 11
633.765286
 21
1842.499056
 31
0.0
  0
LINE
  5
1F1
102
{ACAD_REACTORS
330
5FE
102
}
330
1F
100
AcDbEntity
  8
LC-005-002-RND-0
 62
     7
370
    25
100
AcDbLine
 10
975.48693
 20
2003.684404
 30
0.0
 11
975.487008
 21
1842.499056
 31
0.0
  0
LINE
  5
1F2
102
{ACAD_REACTORS
330
5FE
102
}
330
1F
100
AcDbEntity
  8
LC-005-002-RND-0
 62
     7
370
    25
100
AcDbLine
 10
1365.704351
 20
1842.499057
 30
0.0
 11
1365.704351
 21
2050.686824
 31
0.0
  0
LINE
  5
1F3
102
{ACAD_REACTORS
330
5FE
102
}
330
1F
100
AcDbEntity
  8
LC-002-002-----0
 62
     7
370
    50
100
AcDbLine
 10
259.757903
 20
2051.703816
 30
0.0
 11
259.757901
 21
1842.499056
 31
0.0
  0
LINE
  5
1F4
102
{ACAD_REACTORS
330
5FE
102
}
330
1F
100
AcDbEntity
  8
LC-002-002-----0
 62
     7
370
    50
100
AcDbLine
 10
617.57775
 20
1926.499055
 30
0.0
 11
312.402716
 21
1926.499055
 31
0.0
  0
LINE
  5
1F5
102
{ACAD_REACTORS
330
5FE
102
}
330
1F
100
AcDbEntity
  8
LC-002-002-----0
 62
     7
370
    25
100
AcDbLine
 10
618.352795
 20
1847.794632
 30
0.0
 11
618.352793
 21
1925.833142
 31
0.0
  0
LINE
  5
1F6
102
{ACAD_REACTORS
330
5FE
102
}
330
1F
100
AcDbEntity
  8
LC-002-002-----0
 62
     7
370
    50
100
AcDbLine
 10
617.577751
 20
1846.499059
 30
0.0
 11
312.402716
 21
1846.499056
 31
0.0
  0
LINE
  5
1F7
102
{ACAD_REACTORS
330
5FE
102
}
330
1F
100
AcDbEntity
  8
LC-002-002-----0
 62
     7
370
    25
100
AcDbLine
 10
618.352793
 20
1935.164971
 30
0.0
 11
618.352795
 21
2044.307755
 31
0.0
  0
LINE
  5
1F8
102
{ACAD_REACTORS
330
5FE
102
}
330
1F
100
AcDbEntity
  8
LC-002-002-----0
 62
     7
370
    50
100
AcDbLine
 10
617.577751
 20
1838.499055
 30
0.0
 11
312.402716
 21
1838.499055
 31
0.0
  0
LINE
  5
1F9
102
{ACAD_REACTORS
330
5FE
102
}
330
1F
100
AcDbEntity
  8
LC-002-002-----0
 62
     7
370
    50
100
AcDbLine
 10
312.402716
 20
1758.499057
 30
0.0
 11
617.577751
 21
1758.499059
 31
0.0
  0
LINE
  5
1FA
102
{ACAD_REACTORS
330
5FE
102
}
330
1F
100
AcDbEntity
  8
LC-002-002-----0
 62
     7
370
    50
100
AcDbLine
 10
312.402716
 20
1750.499054
 30
0.0
 11
617.577751
 21
1750.499056
 31
0.0
  0
LINE
  5
1FB
102
{ACAD_REACTORS
330
5FE
102
}
330
1F
100
AcDbEntity
  8
LC-002-002-----0
 62
     7
370
    25
100
AcDbLine
 10
624.693351
 20
2049.720192
 30
0.0
 11
624.693352
 21
1842.499079
 31
0.0
  0
LINE
  5
1FC
102
{ACAD_REACTORS
330
5FE
102
}
330
1F
100
AcDbEntity
  8
LC-002-002-----0
 62
     7
370
    50
100
AcDbLine
 10
634.408649
 20
2068.703815
 30
0.0
 11
276.757903
 21
2068.703815
 31
0.0
  0
LINE
  5
1FD
102
{ACAD_REACTORS
330
5FE
102
}
330
1F
100
AcDbEntity
  8
LC-002-002-----0
 62
     7
370
    50
100
AcDbLine
 10
966.904442
 20
2025.225636
 30
0.0
 11
647.634287
 21
2067.825369
 31
0.0
  0
LINE
  5
1FE
102
{ACAD_REACTORS
330
5FE
102
}
330
1F
100
AcDbEntity
  8
LC-002-002-----0
 62
     7
370
    50
100
AcDbLine
 10
1352.958968
 20
2069.148195
 30
0.0
 11
1023.774688
 21
2025.225636
 31
0.0
  0
LINE
  5
1FF
102
{ACAD_REACTORS
330
5FE
102
}
330
1F
100
AcDbEntity
  8
LC-002-002-----0
 62
     7
370
    25
100
AcDbLine
 10
1326.757248
 20
2016.12367
 30
0.0
 11
1326.757229
 21
1842.499045
 31
0.0
  0
LINE
  5
200
102
{ACAD_REACTORS
330
5FE
102
}
330
1F
100
AcDbEntity
  8
LC-002-002-----0
 62
     7
370
    25
100
AcDbLine
 10
1313.070407
 20
2028.00452
 30
0.0
 11
1217.9486
 21
2014.499146
 31
0.0
  0
LINE
  5
201
102
{ACAD_REACTORS
330
5FE
102
}
330
1F
100
AcDbEntity
  8
LC-002-002-----0
 62
     7
370
    25
100
AcDbLine
 10
1021.761746
 20
1842.49936
 30
0.0
 11
1021.768537
 21
2004.019508
 31
0.0
  0
LINE
  5
202
102
{ACAD_REACTORS
330
5FE
102
}
330
1F
100
AcDbEntity
  8
LC-002-002-----0
 62
     7
370
    50
100
AcDbLine
 10
617.57775
 20
1934.499058
 30
0.0
 11
312.402716
 21
1934.499058
 31
0.0
  0
ARC
  5
203
102
{ACAD_REACTORS
330
5FE
102
}
330
1F
100
AcDbEntity
  8
LC-002-002-----0
 62
     7
370
    50
100
AcDbCircle
 10
312.402716
 20
1930.499058
 30
0.0
 40
3.999999922648385
100
AcDbArc
 50
90.0
 51
270.0
  0
ARC
  5
204
102
{ACAD_REACTORS
330
5FE
102
}
330
1F
100
AcDbEntity
  8
LC-002-002-----0
 62
     7
370
    50
100
AcDbCircle
 10
312.402716
 20
1754.499056
 30
0.0
 40
3.999999922648385
100
AcDbArc
 50
90.0
 51
270.0
  0
LINE
  5
205
102
{ACAD_REACTORS
330
5FE
102
}
330
1F
100
AcDbEntity
  8
LC-002-002-----0
 62
     7
370
    50
100
AcDbLine
 10
1025.469916
 20
2020.508037
 30
0.0
 11
1038.112909
 21
2022.194972
 31
0.0
  0
ARC
  5
206
102
{ACAD_REACTORS
330
5FE
102
}
330
1F
100
AcDbEntity
  8
LC-005-002-RND-0
 62
     7
370
    50
100
AcDbCircle
 10
1028.379556
 20
1998.701295
 30
0.0
 40
21.99999999999989
100
AcDbArc
 50
97.6
 51
180.0
  0
ARC
  5
207
102
{ACAD_REACTORS
330
5FE
102
}
330
1F
100
AcDbEntity
  8
LC-005-002-RND-0
 62
     7
370
    25
100
AcDbCircle
 10
1037.76853
 20
2004.018835
 30
0.0
 40
15.99999999999995
100
AcDbArc
 50
119.247755
 51
179.997591
  0
ARC
  5
208
102
{ACAD_REACTORS
330
5FE
102
}
330
1F
100
AcDbEntity
  8
LC-002-002-----0
 62
     7
370
    50
100
AcDbCircle
 10
617.577751
 20
1842.499056
 30
0.0
 40
4.000001391050091
100
AcDbArc
 50
270.0
 51
90.0
  0
ARC
  5
209
102
{ACAD_REACTORS
330
5FE
102
}
330
1F
100
AcDbEntity
  8
LC-002-002-----0
 62
     7
370
    50
100
AcDbCircle
 10
617.577751
 20
1930.499055
 30
0.0
 40
4.000001391050319
100
AcDbArc
 50
270.0
 51
90.0
  0
LINE
  5
20A
102
{ACAD_REACTORS
330
5FE
102
}
330
1F
100
AcDbEntity
  8
LC-002-002-----0
 62
     7
370
    50
100
AcDbLine
 10
259.757903
 20
1633.294297
 30
0.0
 11
259.757901
 21
1842.499056
 31
0.0
  0
ARC
  5
20B
102
{ACAD_REACTORS
330
5FE
102
}
330
1F
100
AcDbEntity
  8
LC-005-002-RND-0
 62
     7
370
    50
100
AcDbCircle
 10
276.757903
 20
1633.294297
 30
0.0
 40
17.0
100
AcDbArc
 50
180.000001
 51
270.0
  0
LINE
  5
20C
102
{ACAD_REACTORS
330
5FE
102
}
330
1F
100
AcDbEntity
  8
LC-002-002-----0
 62
     7
370
    50
100
AcDbLine
 10
634.408649
 20
1616.294297
 30
0.0
 11
276.757903
 21
1616.294297
 31
0.0
  0
LINE
  5
20D
102
{ACAD_REACTORS
330
5FE
102
}
330
1F
100
AcDbEntity
  8
LC-002-002-----0
 62
     7
370
    50
100
AcDbLine
 10
966.904442
 20
1659.772476
 30
0.0
 11
647.634287
 21
1617.172743
 31
0.0
  0
ARC
  5
20E
102
{ACAD_REACTORS
330
5FE
102
}
330
1F
100
AcDbEntity
  8
LC-005-002-RND-0
 62
     7
370
    50
100
AcDbCircle
 10
995.339565
 20
1446.661135
 30
0.0
 40
214.9999999999999
100
AcDbArc
 50
82.4
 51
97.6
  0
ARC
  5
20F
102
{ACAD_REACTORS
330
5FE
102
}
330
1F
100
AcDbEntity
  8
LC-005-002-RND-0
 62
     7
370
    50
100
AcDbCircle
 10
634.408649
 20
1716.294297
 30
0.0
 40
100.0
100
AcDbArc
 50
270.0
 51
277.6
  0
ARC
  5
210
102
{ACAD_REACTORS
330
5FE
102
}
330
1F
100
AcDbEntity
  8
LC-005-002-RND-0
 62
     7
370
    25
100
AcDbCircle
 10
673.922822
 20
1666.570769
 30
0.0
 40
9.999999999999854
100
AcDbArc
 50
180.000144
 51
278.080873
  0
ARC
  5
211
102
{ACAD_REACTORS
330
5FE
102
}
330
1F
100
AcDbEntity
  8
LC-005-002-RND-0
 62
     7
370
    25
100
AcDbCircle
 10
645.765286
 20
1635.911017
 30
0.0
 40
11.99999999999977
100
AcDbArc
 50
180.0
 51
261.957915
  0
ARC
  5
212
102
{ACAD_REACTORS
330
5FE
102
}
330
1F
100
AcDbEntity
  8
LC-005-002-RND-0
 62
     7
370
    25
100
AcDbCircle
 10
638.693351
 20
1635.277921
 30
0.0
 40
14.0
100
AcDbArc
 50
180.0
 51
239.649579
  0
ARC
  5
213
102
{ACAD_REACTORS
330
5FE
102
}
330
1F
100
AcDbEntity
  8
LC-005-002-RND-0
 62
     7
370
    25
100
AcDbCircle
 10
638.352795
 20
1640.690358
 30
0.0
 40
19.99999999999989
100
AcDbArc
 50
180.000001
 51
239.301217
  0
LINE
  5
214
102
{ACAD_REACTORS
330
5FE
102
}
330
1F
100
AcDbEntity
  8
LC-002-002-----0
 62
     7
370
    25
100
AcDbLine
 10
663.922822
 20
1666.570743
 30
0.0
 11
663.922381
 21
1842.499056
 31
0.0
  0
LINE
  5
215
102
{ACAD_REACTORS
330
5FE
102
}
330
1F
100
AcDbEntity
  8
LC-002-002-----0
 62
     7
370
    25
100
AcDbLine
 10
633.765286
 20
1635.911017
 30
0.0
 11
633.765286
 21
1842.499056
 31
0.0
  0
LINE
  5
216
102
{ACAD_REACTORS
330
5FE
102
}
330
1F
100
AcDbEntity
  8
LC-002-002-----0
 62
     7
370
    25
100
AcDbLine
 10
618.352795
 20
1837.203481
 30
0.0
 11
618.352793
 21
1759.164971
 31
0.0
  0
LINE
  5
217
102
{ACAD_REACTORS
330
5FE
102
}
330
1F
100
AcDbEntity
  8
LC-002-002-----0
 62
     7
370
    25
100
AcDbLine
 10
624.693351
 20
1635.277921
 30
0.0
 11
624.693352
 21
1842.499034
 31
0.0
  0
LINE
  5
218
102
{ACAD_REACTORS
330
5FE
102
}
330
1F
100
AcDbEntity
  8
LC-002-002-----0
 62
     7
370
    25
100
AcDbLine
 10
618.352793
 20
1749.833142
 30
0.0
 11
618.352795
 21
1640.690357
 31
0.0
  0
LINE
  5
219
102
{ACAD_REACTORS
330
5FE
102
}
330
1F
100
AcDbEntity
  8
LC-002-002-----0
 62
     7
370
    25
100
AcDbLine
 10
675.328529
 20
1656.670062
 30
0.0
 11
927.58878
 21
1692.486097
 31
0.0
  0
ARC
  5
21A
102
{ACAD_REACTORS
330
5FE
102
}
330
1F
100
AcDbEntity
  8
LC-005-002-RND-0
 62
     7
370
    25
100
AcDbCircle
 10
925.761361
 20
1705.357016
 30
0.0
 40
13.00000000000008
100
AcDbArc
 50
278.080873
 51
0.000108
  0
LINE
  5
21B
102
{ACAD_REACTORS
330
5FE
102
}
330
1F
100
AcDbEntity
  8
LC-002-002-----0
 62
     7
370
    25
100
AcDbLine
 10
938.761361
 20
1705.35704
 30
0.0
 11
938.761102
 21
1842.499057
 31
0.0
  0
LINE
  5
21C
102
{ACAD_REACTORS
330
5FE
102
}
330
1F
100
AcDbEntity
  8
LC-002-002-----0
 62
     7
370
    25
100
AcDbLine
 10
968.917383
 20
1842.499077
 30
0.0
 11
968.910593
 21
1680.978605
 31
0.0
  0
LINE
  5
21D
102
{ACAD_REACTORS
330
5FE
102
}
330
1F
100
AcDbEntity
  8
LC-005-002-RND-0
 62
     7
370
    25
100
AcDbLine
 10
975.48693
 20
1681.313708
 30
0.0
 11
975.487008
 21
1842.499056
 31
0.0
  0
ARC
  5
21E
102
{ACAD_REACTORS
330
5FE
102
}
330
1F
100
AcDbEntity
  8
LC-005-002-RND-0
 62
     7
370
    25
100
AcDbCircle
 10
959.48693
 20
1681.313716
 30
0.0
 40
16.00000000000008
100
AcDbArc
 50
277.603986
 51
359.999972
  0
ARC
  5
21F
102
{ACAD_REACTORS
330
5FE
102
}
330
1F
100
AcDbEntity
  8
LC-005-002-RND-0
 62
     7
370
    50
100
AcDbCircle
 10
962.299567
 20
1686.296818
 30
0.0
 40
21.99999999999989
100
AcDbArc
 50
277.6
 51
0.0
  0
ARC
  5
220
102
{ACAD_REACTORS
330
5FE
102
}
330
1F
100
AcDbEntity
  8
LC-005-002-RND-0
 62
     7
370
    25
100
AcDbCircle
 10
952.910593
 20
1680.979278
 30
0.0
 40
15.99999999999995
100
AcDbArc
 50
299.247755
 51
359.997591
  0
LINE
  5
221
102
{ACAD_REACTORS
330
5FE
102
}
330
1F
100
AcDbEntity
  8
LC-002-002-----0
 62
     7
370
    50
100
AcDbLine
 10
965.209208
 20
1664.490076
 30
0.0
 11
952.566215
 21
1662.80314
 31
0.0
  0
ARC
  5
222
102
{ACAD_REACTORS
330
5FE
102
}
330
1F
100
AcDbEntity
  8
LC-005-002-RND-0
 62
     7
370
    50
100
AcDbCircle
 10
1028.379556
 20
1686.296818
 30
0.0
 40
22.0
100
AcDbArc
 50
180.0
 51
262.4
  0
LINE
  5
223
102
{ACAD_REACTORS
330
5FE
102
}
330
1F
100
AcDbEntity
  8
LC-002-002-----0
 62
     7
370
    25
100
AcDbLine
 10
1021.761746
 20
1842.498752
 30
0.0
 11
1021.768537
 21
1680.978605
 31
0.0
  0
ARC
  5
224
102
{ACAD_REACTORS
330
5FE
102
}
330
1F
100
AcDbEntity
  8
LC-005-002-RND-0
 62
     7
370
    25
100
AcDbCircle
 10
1037.76853
 20
1680.979278
 30
0.0
 40
15.99999999999955
100
AcDbArc
 50
180.002409
 51
240.752245
  0
LINE
  5
225
102
{ACAD_REACTORS
330
5FE
102
}
330
1F
100
AcDbEntity
  8
LC-005-002-RND-0
 62
     7
370
    25
100
AcDbLine
 10
1015.192194
 20
1681.313708
 30
0.0
 11
1015.192116
 21
1842.499056
 31
0.0
  0
ARC
  5
226
102
{ACAD_REACTORS
330
5FE
102
}
330
1F
100
AcDbEntity
  8
LC-005-002-RND-0
 62
     7
370
    25
100
AcDbCircle
 10
1031.192194
 20
1681.313716
 30
0.0
 40
16.00000000000006
100
AcDbArc
 50
180.000028
 51
262.396014
  0
LINE
  5
227
102
{ACAD_REACTORS
330
5FE
102
}
330
1F
100
AcDbEntity
  8
LC-005-002-RND-0
 62
     7
370
    25
100
AcDbLine
 10
1015.192194
 20
2003.684404
 30
0.0
 11
1015.192116
 21
1842.499056
 31
0.0
  0
ARC
  5
228
102
{ACAD_REACTORS
330
5FE
102
}
330
1F
100
AcDbEntity
  8
LC-005-002-RND-0
 62
     7
370
    25
100
AcDbCircle
 10
1031.192194
 20
2003.684396
 30
0.0
 40
16.00000000000008
100
AcDbArc
 50
97.603986
 51
179.999972
  0
LINE
  5
229
102
{ACAD_REACTORS
330
5FE
102
}
330
1F
100
AcDbEntity
  8
LC-005-002-RND-0
 62
     7
370
    25
100
AcDbLine
 10
1365.704351
 20
1842.499056
 30
0.0
 11
1365.704351
 21
1634.311288
 31
0.0
  0
ARC
  5
22A
102
{ACAD_REACTORS
330
5FE
102
}
330
1F
100
AcDbEntity
  8
LC-005-002-RND-0
 62
     7
370
    25
100
AcDbCircle
 10
1344.913838
 20
1635.910611
 30
0.0
 40
11.99999999999992
100
AcDbArc
 50
262.395927
 51
360.0
  0
ARC
  5
22B
102
{ACAD_REACTORS
330
5FE
102
}
330
1F
100
AcDbEntity
  8
LC-005-002-RND-0
 62
     7
370
    25
100
AcDbCircle
 10
1351.704351
 20
1634.311288
 30
0.0
 40
13.99999999999994
100
AcDbArc
 50
262.399945
 51
0.0
  0
CIRCLE
  5
22C
102
{ACAD_REACTORS
330
5FE
102
}
330
1F
100
AcDbEntity
  8
LC-002-002-----0
 62
     7
370
    50
100
AcDbCircle
 10
1129.775016
 20
1842.499056
 30
0.0
 40
57.5
  0
CIRCLE
  5
22D
102
{ACAD_REACTORS
330
5FE
102
}
330
1F
100
AcDbEntity
  8
LC-002-002-----0
 62
     7
370
    50
100
AcDbCircle
 10
1129.775016
 20
1842.499056
 30
0.0
 40
45.0
  0
LINE
  5
22E
102
{ACAD_REACTORS
330
5F5
102
}
330
1F
100
AcDbEntity
  8
LC-002-002-----0
 62
     7
370
    50
100
AcDbLine
 10
1905.513924
 20
2066.937361
 30
0.0
 11
1905.513924
 21
1596.917484
 31
0.0
  0
ARC
  5
22F
102
{ACAD_REACTORS
330
5F5
102
}
330
1F
100
AcDbEntity
  8
LC-005-002-RND-0
 62
     7
370
    50
100
AcDbCircle
 10
1902.513924
 20
2066.937361
 30
0.0
 40
2.999999999999966
100
AcDbArc
 50
276.75723
 51
0.0
  0
ARC
  5
230
102
{ACAD_REACTORS
330
5F5
102
}
330
1F
100
AcDbEntity
  8
LC-005-002-RND-0
 62
     7
370
    50
100
AcDbCircle
 10
1709.290792
 20
1783.885406
 30
0.0
 40
1.200000000000049
100
AcDbArc
 50
2.353414
 51
85.0
  0
LINE
  5
231
102
{ACAD_REACTORS
330
5F5
102
}
330
1F
100
AcDbEntity
  8
LC-002-002-----0
 62
     7
370
    50
100
AcDbLine
 10
1700.893864
 20
1773.897074
 30
0.0
 11
1705.949583
 21
1650.880693
 31
0.0
  0
ARC
  5
232
102
{ACAD_REACTORS
330
5F5
102
}
330
1F
100
AcDbEntity
  8
LC-005-002-RND-0
 62
     7
370
    50
100
AcDbCircle
 10
1695.898081
 20
1773.691758
 30
0.0
 40
5.000000000000365
100
AcDbArc
 50
2.353414
 51
65.0
  0
ARC
  5
233
102
{ACAD_REACTORS
330
5F5
102
}
330
1F
100
AcDbEntity
  8
LC-005-002-RND-0
 62
     7
370
    50
100
AcDbCircle
 10
1709.274301
 20
1901.111264
 30
0.0
 40
1.200000000000155
100
AcDbArc
 50
275.0
 51
357.446924
  0
ARC
  5
234
102
{ACAD_REACTORS
330
5F5
102
}
330
1F
100
AcDbEntity
  8
LC-005-002-RND-0
 62
     7
370
    50
100
AcDbCircle
 10
1891.586842
 20
2072.691622
 30
0.0
 40
2.999999999999966
100
AcDbArc
 50
276.75723
 51
338.198591
  0
LINE
  5
235
102
{ACAD_REACTORS
330
5F5
102
}
330
1F
100
AcDbEntity
  8
LC-002-002-----0
 62
     7
370
    50
100
AcDbLine
 10
1708.150481
 20
2034.689702
 30
0.0
 11
1702.272458
 21
1938.242297
 31
0.0
  0
LINE
  5
236
102
{ACAD_REACTORS
330
5F5
102
}
330
1F
100
AcDbEntity
  8
LC-002-002-----0
 62
     7
370
    50
100
AcDbLine
 10
1702.268359
 20
1938.170819
 30
0.0
 11
1701.389638
 21
1921.826217
 31
0.0
  0
LINE
  5
237
102
{ACAD_REACTORS
330
5F5
102
}
330
1F
100
AcDbEntity
  8
LC-002-002-----0
 62
     7
370
    50
100
AcDbLine
 10
1891.93983
 20
2069.712461
 30
0.0
 11
1722.238246
 21
2049.60524
 31
0.0
  0
LINE
  5
238
102
{ACAD_REACTORS
330
5F5
102
}
330
1F
100
AcDbEntity
  8
LC-002-002-----0
 62
     7
370
    50
100
AcDbLine
 10
1701.385143
 20
1921.734819
 30
0.0
 11
1700.91058
 21
1911.091774
 31
0.0
  0
ARC
  5
239
102
{ACAD_REACTORS
330
5F5
102
}
330
1F
100
AcDbEntity
  8
LC-005-002-RND-0
 62
     7
370
    50
100
AcDbCircle
 10
1695.915543
 20
1911.314498
 30
0.0
 40
4.999999999999937
100
AcDbArc
 50
295.0
 51
357.446924
  0
ARC
  5
23A
102
{ACAD_REACTORS
330
5F5
102
}
330
1F
100
AcDbEntity
  8
LC-005-002-RND-0
 62
     7
370
    50
100
AcDbCircle
 10
1724.120849
 20
2033.716382
 30
0.0
 40
15.99999999999948
100
AcDbArc
 50
96.75723
 51
176.512401
  0
ARC
  5
23B
102
{ACAD_REACTORS
330
5F5
102
}
330
1F
100
AcDbEntity
  8
LC-005-002-RND-0
 62
     7
370
    50
100
AcDbCircle
 10
1733.779549
 20
2027.811836
 30
0.0
 40
16.00000000000038
100
AcDbArc
 50
96.75723
 51
176.512401
  0
LINE
  5
23C
102
{ACAD_REACTORS
330
5F5
102
}
330
1F
100
AcDbEntity
  8
LC-002-002-----0
 62
     7
370
    50
100
AcDbLine
 10
1720.053932
 20
1635.648794
 30
0.0
 11
1891.940067
 21
1615.287651
 31
0.0
  0
ARC
  5
23D
102
{ACAD_REACTORS
330
5F5
102
}
330
1F
100
AcDbEntity
  8
LC-005-002-RND-0
 62
     7
370
    50
100
AcDbCircle
 10
1731.702378
 20
1657.429759
 30
0.0
 40
15.99999999999962
100
AcDbArc
 50
182.353414
 51
263.244386
  0
ARC
  5
23E
102
{ACAD_REACTORS
330
5F5
102
}
330
1F
100
AcDbEntity
  8
LC-005-002-RND-0
 62
     7
370
    50
100
AcDbCircle
 10
1721.936087
 20
1651.537705
 30
0.0
 40
15.99999999999961
100
AcDbArc
 50
182.353414
 51
263.244386
  0
LINE
  5
240
102
{ACAD_REACTORS
330
5F5
102
}
330
1F
100
AcDbEntity
  8
LC-006-100-D00-0
 62
     7
370
    13
100
AcDbLine
 10
1903.118125
 20
2091.335975
 30
0.0
 11
1903.117996
 21
2091.342203
 31
0.0
  0
LINE
  5
241
102
{ACAD_REACTORS
330
5F5
102
}
330
1F
100
AcDbEntity
  8
LC-006-100-D00-0
 62
     7
370
    13
100
AcDbLine
 10
1903.117995
 20
2091.342204
 30
0.0
 11
1903.117966
 21
2091.336117
 31
0.0
  0
LINE
  5
242
102
{ACAD_REACTORS
330
5F5
102
}
330
1F
100
AcDbEntity
  8
LC-006-100-D00-0
 62
     6
370
   100
100
AcDbLine
 10
1903.118125
 20
2091.335975
 30
0.0
 11
1903.117996
 21
2091.342203
 31
0.0
  0
LINE
  5
243
102
{ACAD_REACTORS
330
5F5
102
}
330
1F
100
AcDbEntity
  8
LC-006-100-D00-0
 62
     6
370
   100
100
AcDbLine
 10
1903.117995
 20
2091.342204
 30
0.0
 11
1903.117966
 21
2091.336117
 31
0.0
  0
LINE
  5
244
102
{ACAD_REACTORS
330
5F5
102
}
330
1F
100
AcDbEntity
  8
LC-004-006-MLN-0
 62
     7
370
    25
100
AcDbLine
 10
1713.330165
 20
1842.499056
 30
0.0
 11
1692.275296
 21
1842.499056
 31
0.0
  0
LINE
  5
245
102
{ACAD_REACTORS
330
5F5
102
}
330
1F
100
AcDbEntity
  8
LC-002-002-----0
 62
     7
370
    50
100
AcDbLine
 10
1706.156931
 20
1797.499056
 30
0.0
 11
1708.19692
 21
1785.929703
 31
0.0
  0
LINE
  5
246
102
{ACAD_REACTORS
330
5F5
102
}
330
1F
100
AcDbEntity
  8
LC-002-002-----0
 62
     7
370
    50
100
AcDbLine
 10
1695.275296
 20
1904.224916
 30
0.0
 11
1695.275296
 21
1780.773197
 31
0.0
  0
LINE
  5
247
102
{ACAD_REACTORS
330
5F5
102
}
330
1F
100
AcDbEntity
  8
LC-002-002-----0
 62
     7
370
    50
100
AcDbLine
 10
1696.43006
 20
1778.960581
 30
0.0
 11
1698.011172
 21
1778.223297
 31
0.0
  0
LINE
  5
248
102
{ACAD_REACTORS
330
5F5
102
}
330
1F
100
AcDbEntity
  8
LC-002-002-----0
 62
     7
370
    50
100
AcDbLine
 10
1709.395379
 20
1785.08084
 30
0.0
 11
1709.094572
 21
1785.107157
 31
0.0
  0
LINE
  5
249
102
{ACAD_REACTORS
330
5F5
102
}
330
1F
100
AcDbEntity
  8
LC-002-002-----0
 62
     7
370
    50
100
AcDbLine
 10
1706.156931
 20
1887.499056
 30
0.0
 11
1708.19692
 21
1899.068409
 31
0.0
  0
LINE
  5
24A
102
{ACAD_REACTORS
330
5F5
102
}
330
1F
100
AcDbEntity
  8
LC-002-002-----0
 62
     7
370
    50
100
AcDbLine
 10
1696.43006
 20
1906.037531
 30
0.0
 11
1698.028634
 21
1906.782959
 31
0.0
  0
LINE
  5
24B
102
{ACAD_REACTORS
330
5F5
102
}
330
1F
100
AcDbEntity
  8
LC-002-002-----0
 62
     7
370
    50
100
AcDbLine
 10
1709.378888
 20
1899.91583
 30
0.0
 11
1709.094572
 21
1899.890956
 31
0.0
  0
ARC
  5
24C
102
{ACAD_REACTORS
330
5F5
102
}
330
1F
100
AcDbEntity
  8
LC-005-002-RND-0
 62
     7
370
    50
100
AcDbCircle
 10
1697.275296
 20
1780.773197
 30
0.0
 40
2.0
100
AcDbArc
 50
180.0
 51
245.0
  0
ARC
  5
24D
102
{ACAD_REACTORS
330
5F5
102
}
330
1F
100
AcDbEntity
  8
LC-005-002-RND-0
 62
     7
370
    50
100
AcDbCircle
 10
1697.275296
 20
1904.224916
 30
0.0
 40
2.000000000000123
100
AcDbArc
 50
115.0
 51
180.0
  0
ARC
  5
24E
102
{ACAD_REACTORS
330
5F5
102
}
330
1F
100
AcDbEntity
  8
LC-005-002-RND-0
 62
     7
370
    50
100
AcDbCircle
 10
1709.181728
 20
1898.894761
 30
0.0
 40
1.000000000000333
100
AcDbArc
 50
95.0
 51
170.0
  0
ARC
  5
24F
102
{ACAD_REACTORS
330
5F5
102
}
330
1F
100
AcDbEntity
  8
LC-005-002-RND-0
 62
     7
370
    50
100
AcDbCircle
 10
1709.181728
 20
1786.103351
 30
0.0
 40
1.000000000000125
100
AcDbArc
 50
190.0
 51
265.0
  0
LINE
  5
250
102
{ACAD_REACTORS
330
5F5
102
}
330
1F
100
AcDbEntity
  8
LC-002-002-----0
 62
     7
370
    50
100
AcDbLine
 10
1706.156931
 20
1797.499056
 30
0.0
 11
1695.275296
 21
1797.499056
 31
0.0
  0
LINE
  5
251
102
{ACAD_REACTORS
330
5F5
102
}
330
1F
100
AcDbEntity
  8
LC-002-002-----0
 62
     7
370
    50
100
AcDbLine
 10
1706.156931
 20
1887.499056
 30
0.0
 11
1695.275296
 21
1887.499056
 31
0.0
  0
LINE
  5
252
102
{ACAD_REACTORS
330
5F5
102
}
330
1F
100
AcDbEntity
  8
LC-002-002-----0
 62
     7
370
    50
100
AcDbLine
 10
1706.156931
 20
1887.499056
 30
0.0
 11
1706.156931
 21
1797.499056
 31
0.0
  0
LINE
  5
253
102
{ACAD_REACTORS
330
5F5
102
}
330
1F
100
AcDbEntity
  8
LC-002-002-----0
 62
     7
370
    50
100
AcDbLine
 10
1710.48978
 20
1783.934682
 30
0.0
 11
1715.715873
 21
1656.772747
 31
0.0
  0
LINE
  5
254
102
{ACAD_REACTORS
330
5F5
102
}
330
1F
100
AcDbEntity
  8
LC-002-002-----0
 62
     7
370
    50
100
AcDbLine
 10
1717.809181
 20
2028.785156
 30
0.0
 11
1712.253938
 21
1937.633972
 31
0.0
  0
LINE
  5
255
102
{ACAD_REACTORS
330
5F5
102
}
330
1F
100
AcDbEntity
  8
LC-002-002-----0
 62
     7
370
    50
100
AcDbLine
 10
1712.253938
 20
1937.633972
 30
0.0
 11
1711.375217
 21
1921.289371
 31
0.0
  0
LINE
  5
256
102
{ACAD_REACTORS
330
5F5
102
}
330
1F
100
AcDbEntity
  8
LC-002-002-----0
 62
     7
370
    50
100
AcDbLine
 10
1711.375217
 20
1921.289371
 30
0.0
 11
1710.47311
 21
1901.05781
 31
0.0
  0
LINE
  5
257
102
{ACAD_REACTORS
330
5F5
102
}
330
1F
100
AcDbEntity
  8
LC-002-002-----0
 62
     7
370
    50
100
AcDbLine
 10
1902.866913
 20
2063.9582
 30
0.0
 11
1731.896946
 21
2043.700694
 31
0.0
  0
LINE
  5
258
102
{ACAD_REACTORS
330
5F5
102
}
330
1F
100
AcDbEntity
  8
LC-002-002-----0
 62
     7
370
    50
100
AcDbLine
 10
1729.820223
 20
1641.540848
 30
0.0
 11
1783.800623
 21
1635.146483
 31
0.0
  0
LINE
  5
259
102
{ACAD_REACTORS
330
5F5
102
}
330
1F
100
AcDbEntity
  8
LC-002-002-----0
 62
     7
370
    50
100
AcDbLine
 10
1783.800623
 20
1635.146483
 30
0.0
 11
1902.946587
 21
1621.029388
 31
0.0
  0
ARC
  5
25A
102
{ACAD_REACTORS
330
5F5
102
}
330
1F
100
AcDbEntity
  8
LC-005-002-RND-0
 62
     7
370
    50
100
AcDbCircle
 10
1893.513924
 20
2074.816746
 30
0.0
 40
1.99999999999992
100
AcDbArc
 50
338.198591
 51
0.0
  0
LINE
  5
25B
102
{ACAD_REACTORS
330
5F5
102
}
330
1F
100
AcDbEntity
  8
LC-002-002-----0
 62
     7
370
    50
100
AcDbLine
 10
1898.513913
 20
2092.505779
 30
0.0
 11
1898.513913
 21
2078.505757
 31
0.0
  0
LINE
  5
25C
102
{ACAD_REACTORS
330
5F5
102
}
330
1F
100
AcDbEntity
  8
LC-002-002-----0
 62
     7
370
    50
100
AcDbLine
 10
1895.370878
 20
2074.073965
 30
0.0
 11
1894.372272
 21
2071.57745
 31
0.0
  0
ARC
  5
25D
102
{ACAD_REACTORS
330
5F5
102
}
330
1F
100
AcDbEntity
  8
LC-005-002-RND-0
 62
     7
370
    50
100
AcDbCircle
 10
1901.457263
 20
2090.213068
 30
0.0
 40
1.999999999999952
100
AcDbArc
 50
38.182549
 51
84.499118
  0
LINE
  5
25E
102
{ACAD_REACTORS
330
5F5
102
}
330
1F
100
AcDbEntity
  8
LC-002-002-----0
 62
     7
370
    50
100
AcDbLine
 10
1898.513914
 20
2078.505757
 30
0.0
 11
1895.513924
 21
2078.505757
 31
0.0
  0
ARC
  5
25F
102
{ACAD_REACTORS
330
5F5
102
}
330
1F
100
AcDbEntity
  8
LC-002-002-----0
 62
     7
370
    50
100
AcDbCircle
 10
1849.84752
 20
2049.625652
 30
0.0
 40
67.65747392279968
100
AcDbArc
 50
34.637152
 51
38.182549
  0
LINE
  5
260
102
{ACAD_REACTORS
330
5F5
102
}
330
1F
100
AcDbEntity
  8
LC-002-002-----0
 62
     7
370
    50
100
AcDbLine
 10
1905.513924
 20
2066.937361
 30
0.0
 11
1905.513924
 21
2088.080629
 31
0.0
  0
LINE
  5
261
102
{ACAD_REACTORS
330
5F5
102
}
330
1F
100
AcDbEntity
  8
LC-002-002-----0
 62
     7
370
    50
100
AcDbLine
 10
1901.648985
 20
2092.203857
 30
0.0
 11
1898.513913
 21
2092.505779
 31
0.0
  0
LINE
  5
262
102
{ACAD_REACTORS
330
5F5
102
}
330
1F
100
AcDbEntity
  8
LC-002-002-----0
 62
     7
370
    50
100
AcDbLine
 10
1895.513924
 20
2074.816746
 30
0.0
 11
1895.513924
 21
2078.505757
 31
0.0
  0
ARC
  5
263
102
{ACAD_REACTORS
330
5F5
102
}
330
1F
100
AcDbEntity
  8
LC-005-002-RND-0
 62
     7
370
    50
100
AcDbCircle
 10
1902.513924
 20
1618.060752
 30
0.0
 40
3.0
100
AcDbArc
 50
0.0
 51
83.24277
  0
ARC
  5
264
102
{ACAD_REACTORS
330
5F5
102
}
330
1F
100
AcDbEntity
  8
LC-005-002-RND-0
 62
     7
370
    50
100
AcDbCircle
 10
1891.586842
 20
1612.306491
 30
0.0
 40
3.000000000000006
100
AcDbArc
 50
21.801409
 51
83.24277
  0
LINE
  5
265
102
{ACAD_REACTORS
330
5F5
102
}
330
1F
100
AcDbEntity
  8
LC-006-100-D00-0
 62
     7
370
    13
100
AcDbLine
 10
1903.118125
 20
1593.662137
 30
0.0
 11
1903.117996
 21
1593.65591
 31
0.0
  0
LINE
  5
266
102
{ACAD_REACTORS
330
5F5
102
}
330
1F
100
AcDbEntity
  8
LC-006-100-D00-0
 62
     7
370
    13
100
AcDbLine
 10
1903.117995
 20
1593.655909
 30
0.0
 11
1903.117966
 21
1593.661996
 31
0.0
  0
LINE
  5
267
102
{ACAD_REACTORS
330
5F5
102
}
330
1F
100
AcDbEntity
  8
LC-006-100-D00-0
 62
     6
370
   100
100
AcDbLine
 10
1903.118125
 20
1593.662137
 30
0.0
 11
1903.117996
 21
1593.65591
 31
0.0
  0
LINE
  5
268
102
{ACAD_REACTORS
330
5F5
102
}
330
1F
100
AcDbEntity
  8
LC-006-100-D00-0
 62
     6
370
   100
100
AcDbLine
 10
1903.117995
 20
1593.655909
 30
0.0
 11
1903.117966
 21
1593.661996
 31
0.0
  0
ARC
  5
269
102
{ACAD_REACTORS
330
5F5
102
}
330
1F
100
AcDbEntity
  8
LC-005-002-RND-0
 62
     7
370
    50
100
AcDbCircle
 10
1893.513924
 20
1610.181366
 30
0.0
 40
2.0
100
AcDbArc
 50
0.0
 51
21.801409
  0
LINE
  5
26A
102
{ACAD_REACTORS
330
5F5
102
}
330
1F
100
AcDbEntity
  8
LC-002-002-----0
 62
     7
370
    50
100
AcDbLine
 10
1898.513913
 20
1592.492334
 30
0.0
 11
1898.513913
 21
1606.492355
 31
0.0
  0
LINE
  5
26B
102
{ACAD_REACTORS
330
5F5
102
}
330
1F
100
AcDbEntity
  8
LC-002-002-----0
 62
     7
370
    50
100
AcDbLine
 10
1895.370878
 20
1610.924148
 30
0.0
 11
1894.372272
 21
1613.420663
 31
0.0
  0
ARC
  5
26C
102
{ACAD_REACTORS
330
5F5
102
}
330
1F
100
AcDbEntity
  8
LC-005-002-RND-0
 62
     7
370
    50
100
AcDbCircle
 10
1901.457263
 20
1594.785045
 30
0.0
 40
2.000000000000191
100
AcDbArc
 50
275.500882
 51
321.817451
  0
LINE
  5
26D
102
{ACAD_REACTORS
330
5F5
102
}
330
1F
100
AcDbEntity
  8
LC-002-002-----0
 62
     7
370
    50
100
AcDbLine
 10
1898.513914
 20
1606.492355
 30
0.0
 11
1895.513924
 21
1606.492355
 31
0.0
  0
ARC
  5
26E
102
{ACAD_REACTORS
330
5F5
102
}
330
1F
100
AcDbEntity
  8
LC-002-002-----0
 62
     7
370
    50
100
AcDbCircle
 10
1849.84752
 20
1635.372461
 30
0.0
 40
67.65747392279994
100
AcDbArc
 50
321.817451
 51
325.362848
  0
LINE
  5
26F
102
{ACAD_REACTORS
330
5F5
102
}
330
1F
100
AcDbEntity
  8
LC-002-002-----0
 62
     7
370
    50
100
AcDbLine
 10
1905.513924
 20
1618.060752
 30
0.0
 11
1905.513924
 21
1596.917484
 31
0.0
  0
LINE
  5
270
102
{ACAD_REACTORS
330
5F5
102
}
330
1F
100
AcDbEntity
  8
LC-002-002-----0
 62
     7
370
    50
100
AcDbLine
 10
1901.648985
 20
1592.794255
 30
0.0
 11
1898.513913
 21
1592.492334
 31
0.0
  0
LINE
  5
271
102
{ACAD_REACTORS
330
5F5
102
}
330
1F
100
AcDbEntity
  8
LC-002-002-----0
 62
     7
370
    50
100
AcDbLine
 10
1895.513924
 20
1610.181366
 30
0.0
 11
1895.513924
 21
1606.492355
 31
0.0
  0
LINE
  5
272
102
{ACAD_REACTORS
330
5F5
102
}
330
1F
100
AcDbEntity
  8
LC-002-002-----0
 62
     7
370
    25
100
AcDbLine
 10
1710.330165
 20
1899.999056
 30
0.0
 11
1710.330165
 21
1784.999056
 31
0.0
  0
LINE
  5
273
102
{ACAD_REACTORS
330
5F5
102
}
330
1F
100
AcDbEntity
  8
LC-002-002-----0
 62
     7
370
    25
100
AcDbLine
 10
1695.275296
 20
1897.499056
 30
0.0
 11
1695.275296
 21
1787.499056
 31
0.0
  0
DIMENSION
  5
276
102
{ACAD_REACTORS
330
5F5
102
}
330
1F
100
AcDbEntity
  8
LC-007-003-----0
 62
     7
370
    25
100
AcDbDimension
  2
*D2
 10
2000.0
 20
1621.039913
 30
0.0
 11
1970.0
 21
1867.196014
 31
0.0
 70
   160
 71
     5
 42
442.918287
 53
90.0
  3
LC-DIM-L-0025-00-02
100
AcDbAlignedDimension
 13
1902.866913
 23
2063.9582
 33
0.0
 14
1902.866913
 24
1621.039913
 34
0.0
 50
90.0
100
AcDbRotatedDimension
  0
DIMENSION
  5
284
102
{ACAD_REACTORS
330
5F5
102
}
330
1F
100
AcDbEntity
  8
LC-007-003-----0
 62
     7
370
    25
100
AcDbDimension
  2
*D3
 10
1898.513913
 20
1566.888566
 30
0.0
 11
1745.467619
 21
1596.888566
 31
0.0
 70
   160
 71
     5
 42
305.545639
  3
LC-DIM-L-0025-00-02
100
AcDbAlignedDimension
 13
1592.968275
 23
1892.499056
 33
0.0
 14
1898.513913
 24
1592.492334
 34
0.0
100
AcDbRotatedDimension
  0
LINE
  5
291
102
{ACAD_REACTORS
330
5F8
102
}
330
1F
100
AcDbEntity
  8
LC-002-002-----0
 62
     7
370
    25
100
AcDbLine
 10
1582.443614
 20
2044.229643
 30
0.0
 11
1583.214159
 21
2045.709846
 31
0.0
  0
LINE
  5
292
102
{ACAD_REACTORS
330
5F8
102
}
330
1F
100
AcDbEntity
  8
LC-002-002-----0
 62
     7
370
    25
100
AcDbLine
 10
1583.984434
 20
2044.229531
 30
0.0
 11
1584.755092
 21
2045.709951
 31
0.0
  0
LINE
  5
293
102
{ACAD_REACTORS
330
5F8
102
}
330
1F
100
AcDbEntity
  8
LC-002-002-----0
 62
     7
370
    25
100
AcDbLine
 10
1585.525371
 20
2044.229643
 30
0.0
 11
1586.295804
 21
2045.709631
 31
0.0
  0
LINE
  5
294
102
{ACAD_REACTORS
330
5F8
102
}
330
1F
100
AcDbEntity
  8
LC-002-002-----0
 62
     7
370
    25
100
AcDbLine
 10
1587.06625
 20
2044.229643
 30
0.0
 11
1587.836682
 21
2045.709631
 31
0.0
  0
LINE
  5
295
102
{ACAD_REACTORS
330
5F8
102
}
330
1F
100
AcDbEntity
  8
LC-002-002-----0
 62
     7
370
    25
100
AcDbLine
 10
1588.607128
 20
2044.229643
 30
0.0
 11
1589.377561
 21
2045.709631
 31
0.0
  0
LINE
  5
296
102
{ACAD_REACTORS
330
5F8
102
}
330
1F
100
AcDbEntity
  8
LC-002-002-----0
 62
     7
370
    25
100
AcDbLine
 10
1590.148007
 20
2044.229643
 30
0.0
 11
1590.918439
 21
2045.709631
 31
0.0
  0
LINE
  5
297
102
{ACAD_REACTORS
330
5F8
102
}
330
1F
100
AcDbEntity
  8
LC-002-002-----0
 62
     7
370
    25
100
AcDbLine
 10
1591.688885
 20
2044.229643
 30
0.0
 11
1592.459318
 21
2045.709631
 31
0.0
  0
LINE
  5
298
102
{ACAD_REACTORS
330
5F8
102
}
330
1F
100
AcDbEntity
  8
LC-002-002-----0
 62
     7
370
    25
100
AcDbLine
 10
1594.459344
 20
2044.995713
 30
0.0
 11
1597.573092
 21
2048.109462
 31
0.0
  0
LINE
  5
299
102
{ACAD_REACTORS
330
5F8
102
}
330
1F
100
AcDbEntity
  8
LC-002-002-----0
 62
     7
370
    25
100
AcDbLine
 10
1580.673068
 20
2045.709438
 30
0.0
 11
1580.673068
 21
2090.509438
 31
0.0
  0
LINE
  5
29A
102
{ACAD_REACTORS
330
5F8
102
}
330
1F
100
AcDbEntity
  8
LC-002-002-----0
 62
     7
370
    25
100
AcDbLine
 10
1598.673188
 20
2040.204345
 30
0.0
 11
1600.673092
 21
2042.204249
 31
0.0
  0
LINE
  5
29B
102
{ACAD_REACTORS
330
5F8
102
}
330
1F
100
AcDbEntity
  8
LC-002-002-----0
 62
     7
370
    25
100
AcDbLine
 10
1597.573068
 20
2088.109438
 30
0.0
 11
1600.673068
 21
2088.109438
 31
0.0
  0
LINE
  5
29C
102
{ACAD_REACTORS
330
5F8
102
}
330
1F
100
AcDbEntity
  8
LC-002-002-----0
 62
     7
370
    25
100
AcDbLine
 10
1592.968275
 20
2015.704224
 30
0.0
 11
1592.968275
 21
2018.204224
 31
0.0
  0
LINE
  5
29D
102
{ACAD_REACTORS
330
5F8
102
}
330
1F
100
AcDbEntity
  8
LC-002-002-----0
 62
     7
370
    25
100
AcDbLine
 10
1593.718275
 20
2014.704224
 30
0.0
 11
1593.718275
 21
2014.954224
 31
0.0
  0
LINE
  5
29E
102
{ACAD_REACTORS
330
5F8
102
}
330
1F
100
AcDbEntity
  8
LC-002-002-----0
 62
     7
370
    25
100
AcDbLine
 10
1594.459344
 20
2044.995713
 30
0.0
 11
1594.459344
 21
2091.223162
 31
0.0
  0
LINE
  5
29F
102
{ACAD_REACTORS
330
5F8
102
}
330
1F
100
AcDbEntity
  8
LC-002-002-----0
 62
     7
370
    25
100
AcDbLine
 10
1594.873068
 20
2014.704224
 30
0.0
 11
1594.873068
 21
2001.204224
 31
0.0
  0
LINE
  5
2A0
102
{ACAD_REACTORS
330
5F8
102
}
330
1F
100
AcDbEntity
  8
LC-002-002-----0
 62
     7
370
    25
100
AcDbLine
 10
1598.273068
 20
2020.204224
 30
0.0
 11
1598.273068
 21
2019.990373
 31
0.0
  0
LINE
  5
2A1
102
{ACAD_REACTORS
330
5F8
102
}
330
1F
100
AcDbEntity
  8
LC-002-002-----0
 62
     7
370
    25
100
AcDbLine
 10
1598.673068
 20
2020.204224
 30
0.0
 11
1598.673068
 21
2040.204224
 31
0.0
  0
LINE
  5
2A2
102
{ACAD_REACTORS
330
5F8
102
}
330
1F
100
AcDbEntity
  8
LC-002-002-----0
 62
     7
370
    25
100
AcDbLine
 10
1600.673068
 20
1986.670795
 30
0.0
 11
1600.673068
 21
1999.204224
 31
0.0
  0
LINE
  5
2A3
102
{ACAD_REACTORS
330
5F8
102
}
330
1F
100
AcDbEntity
  8
LC-002-002-----0
 62
     7
370
    25
100
AcDbLine
 10
1600.673068
 20
2047.604822
 30
0.0
 11
1600.673068
 21
2042.204224
 31
0.0
  0
LINE
  5
2A4
102
{ACAD_REACTORS
330
5F8
102
}
330
1F
100
AcDbEntity
  8
LC-002-002-----0
 62
     7
370
    25
100
AcDbLine
 10
1598.273156
 20
2019.990419
 30
0.0
 11
1596.793274
 21
2019.220041
 31
0.0
  0
LINE
  5
2A5
102
{ACAD_REACTORS
330
5F8
102
}
330
1F
100
AcDbEntity
  8
LC-002-002-----0
 62
     7
370
    25
100
AcDbLine
 10
1598.273156
 20
2018.449541
 30
0.0
 11
1597.801907
 21
2018.204224
 31
0.0
  0
LINE
  5
2A6
102
{ACAD_REACTORS
330
5F8
102
}
330
1F
100
AcDbEntity
  8
LC-002-002-----0
 62
     7
370
    25
100
AcDbLine
 10
1640.673068
 20
1986.670795
 30
0.0
 11
1640.673068
 21
1999.204224
 31
0.0
  0
LINE
  5
2A7
102
{ACAD_REACTORS
330
5F8
102
}
330
1F
100
AcDbEntity
  8
LC-002-002-----0
 62
     7
370
    25
100
AcDbLine
 10
1640.673068
 20
2048.109438
 30
0.0
 11
1640.673068
 21
2042.204224
 31
0.0
  0
LINE
  5
2A8
102
{ACAD_REACTORS
330
5F8
102
}
330
1F
100
AcDbEntity
  8
LC-002-002-----0
 62
     7
370
    25
100
AcDbLine
 10
1642.673068
 20
2020.204224
 30
0.0
 11
1642.673068
 21
2040.204224
 31
0.0
  0
LINE
  5
2A9
102
{ACAD_REACTORS
330
5F8
102
}
330
1F
100
AcDbEntity
  8
LC-002-002-----0
 62
     7
370
    25
100
AcDbLine
 10
1643.073068
 20
2020.204224
 30
0.0
 11
1643.073068
 21
2019.990373
 31
0.0
  0
LINE
  5
2AA
102
{ACAD_REACTORS
330
5F8
102
}
330
1F
100
AcDbEntity
  8
LC-002-002-----0
 62
     7
370
    25
100
AcDbLine
 10
1647.62786
 20
2014.954223
 30
0.0
 11
1648.37786
 21
2015.704223
 31
0.0
  0
LINE
  5
2AB
102
{ACAD_REACTORS
330
5F8
102
}
330
1F
100
AcDbEntity
  8
LC-002-002-----0
 62
     7
370
    25
100
AcDbLine
 10
1644.552974
 20
2019.219886
 30
0.0
 11
1643.072875
 21
2018.449395
 31
0.0
  0
LINE
  5
2AC
102
{ACAD_REACTORS
330
5F8
102
}
330
1F
100
AcDbEntity
  8
LC-002-002-----0
 62
     7
370
    25
100
AcDbLine
 10
1597.573068
 20
2048.109438
 30
0.0
 11
1600.168452
 21
2048.109438
 31
0.0
  0
LINE
  5
2AD
102
{ACAD_REACTORS
330
5F8
102
}
330
1F
100
AcDbEntity
  8
LC-002-002-----0
 62
     7
370
    25
100
AcDbLine
 10
1580.673068
 20
2045.709438
 30
0.0
 11
1581.673068
 21
2045.709438
 31
0.0
  0
LINE
  5
2AE
102
{ACAD_REACTORS
330
5F8
102
}
330
1F
100
AcDbEntity
  8
LC-002-002-----0
 62
     7
370
    25
100
AcDbLine
 10
1592.459217
 20
2045.709438
 30
0.0
 11
1594.459217
 21
2045.709438
 31
0.0
  0
LINE
  5
2AF
102
{ACAD_REACTORS
330
5F8
102
}
330
1F
100
AcDbEntity
  8
LC-002-002-----0
 62
     7
370
    25
100
AcDbLine
 10
1646.473068
 20
2014.704224
 30
0.0
 11
1646.473068
 21
2001.204224
 31
0.0
  0
LINE
  5
2B0
102
{ACAD_REACTORS
330
5F8
102
}
330
1F
100
AcDbEntity
  8
LC-002-002-----0
 62
     7
370
    25
100
AcDbLine
 10
1647.627861
 20
2014.704224
 30
0.0
 11
1647.627861
 21
2014.954224
 31
0.0
  0
LINE
  5
2B1
102
{ACAD_REACTORS
330
5F8
102
}
330
1F
100
AcDbEntity
  8
LC-002-002-----0
 62
     7
370
    25
100
AcDbLine
 10
1648.377861
 20
2015.704224
 30
0.0
 11
1648.377861
 21
2018.204224
 31
0.0
  0
LINE
  5
2B2
102
{ACAD_REACTORS
330
5F8
102
}
330
1F
100
AcDbEntity
  8
LC-002-002-----0
 62
     7
370
    25
100
AcDbLine
 10
1598.273068
 20
2020.204224
 30
0.0
 11
1598.673068
 21
2020.204224
 31
0.0
  0
LINE
  5
2B3
102
{ACAD_REACTORS
330
5F8
102
}
330
1F
100
AcDbEntity
  8
LC-002-002-----0
 62
     7
370
    25
100
AcDbLine
 10
1592.968275
 20
2018.204224
 30
0.0
 11
1648.377861
 21
2018.204224
 31
0.0
  0
LINE
  5
2B4
102
{ACAD_REACTORS
330
5F8
102
}
330
1F
100
AcDbEntity
  8
LC-002-002-----0
 62
     7
370
    25
100
AcDbLine
 10
1647.627861
 20
2014.704224
 30
0.0
 11
1593.718275
 21
2014.704224
 31
0.0
  0
LINE
  5
2B5
102
{ACAD_REACTORS
330
5F8
102
}
330
1F
100
AcDbEntity
  8
LC-002-002-----0
 62
     7
370
    25
100
AcDbLine
 10
1644.473187
 20
1999.204224
 30
0.0
 11
1596.873068
 21
1999.204224
 31
0.0
  0
LINE
  5
2B6
102
{ACAD_REACTORS
330
5F8
102
}
330
1F
100
AcDbEntity
  8
LC-002-002-----0
 62
     7
370
    25
100
AcDbLine
 10
1643.07298
 20
2019.990419
 30
0.0
 11
1644.552862
 21
2019.220041
 31
0.0
  0
LINE
  5
2B7
102
{ACAD_REACTORS
330
5F8
102
}
330
1F
100
AcDbEntity
  8
LC-002-002-----0
 62
     7
370
    25
100
AcDbLine
 10
1643.07298
 20
2018.449541
 30
0.0
 11
1643.544229
 21
2018.204224
 31
0.0
  0
LINE
  5
2B8
102
{ACAD_REACTORS
330
5F8
102
}
330
1F
100
AcDbEntity
  8
LC-002-002-----0
 62
     7
370
    25
100
AcDbLine
 10
1596.793161
 20
2019.219886
 30
0.0
 11
1598.273261
 21
2018.449395
 31
0.0
  0
LINE
  5
2B9
102
{ACAD_REACTORS
330
5F8
102
}
330
1F
100
AcDbEntity
  8
LC-002-002-----0
 62
     7
370
    25
100
AcDbLine
 10
1594.459344
 20
2091.223162
 30
0.0
 11
1597.573092
 21
2088.109413
 31
0.0
  0
LINE
  5
2BA
102
{ACAD_REACTORS
330
5F8
102
}
330
1F
100
AcDbEntity
  8
LC-002-002-----0
 62
     7
370
    25
100
AcDbLine
 10
1642.672947
 20
2040.204345
 30
0.0
 11
1640.67301
 21
2042.204282
 31
0.0
  0
LINE
  5
2BB
102
{ACAD_REACTORS
330
5F8
102
}
330
1F
100
AcDbEntity
  8
LC-002-002-----0
 62
     7
370
    25
100
AcDbLine
 10
1593.718276
 20
2014.954223
 30
0.0
 11
1592.968276
 21
2015.704223
 31
0.0
  0
LINE
  5
2BC
102
{ACAD_REACTORS
330
5F8
102
}
330
1F
100
AcDbEntity
  8
LC-002-002-----0
 62
     7
370
    25
100
AcDbLine
 10
1590.918293
 20
2045.709525
 30
0.0
 11
1591.688729
 21
2044.229531
 31
0.0
  0
LINE
  5
2BD
102
{ACAD_REACTORS
330
5F8
102
}
330
1F
100
AcDbEntity
  8
LC-002-002-----0
 62
     7
370
    25
100
AcDbLine
 10
1589.377414
 20
2045.709525
 30
0.0
 11
1590.147851
 21
2044.229531
 31
0.0
  0
LINE
  5
2BE
102
{ACAD_REACTORS
330
5F8
102
}
330
1F
100
AcDbEntity
  8
LC-002-002-----0
 62
     7
370
    25
100
AcDbLine
 10
1587.836536
 20
2045.709525
 30
0.0
 11
1588.606972
 21
2044.229531
 31
0.0
  0
LINE
  5
2BF
102
{ACAD_REACTORS
330
5F8
102
}
330
1F
100
AcDbEntity
  8
LC-002-002-----0
 62
     7
370
    25
100
AcDbLine
 10
1586.295658
 20
2045.709525
 30
0.0
 11
1587.066094
 21
2044.229531
 31
0.0
  0
LINE
  5
2C0
102
{ACAD_REACTORS
330
5F8
102
}
330
1F
100
AcDbEntity
  8
LC-002-002-----0
 62
     7
370
    25
100
AcDbLine
 10
1584.754612
 20
2045.709846
 30
0.0
 11
1585.525215
 21
2044.229531
 31
0.0
  0
LINE
  5
2C1
102
{ACAD_REACTORS
330
5F8
102
}
330
1F
100
AcDbEntity
  8
LC-002-002-----0
 62
     7
370
    25
100
AcDbLine
 10
1583.213679
 20
2045.709951
 30
0.0
 11
1583.984278
 21
2044.229643
 31
0.0
  0
LINE
  5
2C2
102
{ACAD_REACTORS
330
5F8
102
}
330
1F
100
AcDbEntity
  8
LC-002-002-----0
 62
     7
370
    25
100
AcDbLine
 10
1581.672855
 20
2045.709846
 30
0.0
 11
1582.443458
 21
2044.229531
 31
0.0
  0
ARC
  5
2C3
102
{ACAD_REACTORS
330
5F8
102
}
330
1F
100
AcDbEntity
  8
LC-002-002-----0
 62
     7
370
    25
100
AcDbCircle
 10
1600.673068
 20
2048.109438
 30
0.0
 40
39.99972357249999
100
AcDbArc
 50
0.0
 51
90.0
  0
ARC
  5
2C4
102
{ACAD_REACTORS
330
5F8
102
}
330
1F
100
AcDbEntity
  8
LC-002-002-----0
 62
     7
370
    25
100
AcDbCircle
 10
1596.873068
 20
2001.204224
 30
0.0
 40
2.0
100
AcDbArc
 50
180.0
 51
270.0
  0
ARC
  5
2C5
102
{ACAD_REACTORS
330
5F8
102
}
330
1F
100
AcDbEntity
  8
LC-002-002-----0
 62
     7
370
    25
100
AcDbCircle
 10
1644.473068
 20
2001.204224
 30
0.0
 40
2.0
100
AcDbArc
 50
270.0
 51
360.0
  0
LINE
  5
2C6
102
{ACAD_REACTORS
330
5F8
102
}
330
1F
100
AcDbEntity
  8
LC-002-002-----0
 62
     7
370
    25
100
AcDbLine
 10
1600.168452
 20
2048.109438
 30
0.0
 11
1600.526621
 21
2047.962991
 31
0.0
  0
LINE
  5
2C7
102
{ACAD_REACTORS
330
5F8
102
}
330
1F
100
AcDbEntity
  8
LC-002-002-----0
 62
     7
370
    25
100
AcDbLine
 10
1600.526621
 20
2047.962991
 30
0.0
 11
1600.673068
 21
2047.604822
 31
0.0
  0
LINE
  5
2C8
102
{ACAD_REACTORS
330
5F8
102
}
330
1F
100
AcDbEntity
  8
LC-002-002-----0
 62
     7
370
    25
100
AcDbLine
 10
1582.443614
 20
2091.989232
 30
0.0
 11
1583.214159
 21
2090.50903
 31
0.0
  0
LINE
  5
2C9
102
{ACAD_REACTORS
330
5F8
102
}
330
1F
100
AcDbEntity
  8
LC-002-002-----0
 62
     7
370
    25
100
AcDbLine
 10
1583.984434
 20
2091.989344
 30
0.0
 11
1584.755092
 21
2090.508924
 31
0.0
  0
LINE
  5
2CA
102
{ACAD_REACTORS
330
5F8
102
}
330
1F
100
AcDbEntity
  8
LC-002-002-----0
 62
     7
370
    25
100
AcDbLine
 10
1585.525371
 20
2091.989232
 30
0.0
 11
1586.295804
 21
2090.509245
 31
0.0
  0
LINE
  5
2CB
102
{ACAD_REACTORS
330
5F8
102
}
330
1F
100
AcDbEntity
  8
LC-002-002-----0
 62
     7
370
    25
100
AcDbLine
 10
1587.06625
 20
2091.989232
 30
0.0
 11
1587.836682
 21
2090.509245
 31
0.0
  0
LINE
  5
2CC
102
{ACAD_REACTORS
330
5F8
102
}
330
1F
100
AcDbEntity
  8
LC-002-002-----0
 62
     7
370
    25
100
AcDbLine
 10
1588.607128
 20
2091.989232
 30
0.0
 11
1589.377561
 21
2090.509245
 31
0.0
  0
LINE
  5
2CD
102
{ACAD_REACTORS
330
5F8
102
}
330
1F
100
AcDbEntity
  8
LC-002-002-----0
 62
     7
370
    25
100
AcDbLine
 10
1590.148007
 20
2091.989232
 30
0.0
 11
1590.918439
 21
2090.509245
 31
0.0
  0
LINE
  5
2CE
102
{ACAD_REACTORS
330
5F8
102
}
330
1F
100
AcDbEntity
  8
LC-002-002-----0
 62
     7
370
    25
100
AcDbLine
 10
1591.688885
 20
2091.989232
 30
0.0
 11
1592.459318
 21
2090.509245
 31
0.0
  0
LINE
  5
2CF
102
{ACAD_REACTORS
330
5F8
102
}
330
1F
100
AcDbEntity
  8
LC-002-002-----0
 62
     7
370
    25
100
AcDbLine
 10
1580.673068
 20
2090.509438
 30
0.0
 11
1581.673068
 21
2090.509438
 31
0.0
  0
LINE
  5
2D0
102
{ACAD_REACTORS
330
5F8
102
}
330
1F
100
AcDbEntity
  8
LC-002-002-----0
 62
     7
370
    25
100
AcDbLine
 10
1592.459217
 20
2090.509438
 30
0.0
 11
1594.459217
 21
2090.509438
 31
0.0
  0
LINE
  5
2D1
102
{ACAD_REACTORS
330
5F8
102
}
330
1F
100
AcDbEntity
  8
LC-002-002-----0
 62
     7
370
    25
100
AcDbLine
 10
1590.918293
 20
2090.50935
 30
0.0
 11
1591.688729
 21
2091.989344
 31
0.0
  0
LINE
  5
2D2
102
{ACAD_REACTORS
330
5F8
102
}
330
1F
100
AcDbEntity
  8
LC-002-002-----0
 62
     7
370
    25
100
AcDbLine
 10
1589.377414
 20
2090.50935
 30
0.0
 11
1590.147851
 21
2091.989344
 31
0.0
  0
LINE
  5
2D3
102
{ACAD_REACTORS
330
5F8
102
}
330
1F
100
AcDbEntity
  8
LC-002-002-----0
 62
     7
370
    25
100
AcDbLine
 10
1587.836536
 20
2090.50935
 30
0.0
 11
1588.606972
 21
2091.989344
 31
0.0
  0
LINE
  5
2D4
102
{ACAD_REACTORS
330
5F8
102
}
330
1F
100
AcDbEntity
  8
LC-002-002-----0
 62
     7
370
    25
100
AcDbLine
 10
1586.295658
 20
2090.50935
 30
0.0
 11
1587.066094
 21
2091.989344
 31
0.0
  0
LINE
  5
2D5
102
{ACAD_REACTORS
330
5F8
102
}
330
1F
100
AcDbEntity
  8
LC-002-002-----0
 62
     7
370
    25
100
AcDbLine
 10
1584.754612
 20
2090.50903
 30
0.0
 11
1585.525215
 21
2091.989344
 31
0.0
  0
LINE
  5
2D6
102
{ACAD_REACTORS
330
5F8
102
}
330
1F
100
AcDbEntity
  8
LC-002-002-----0
 62
     7
370
    25
100
AcDbLine
 10
1583.213679
 20
2090.508924
 30
0.0
 11
1583.984278
 21
2091.989232
 31
0.0
  0
LINE
  5
2D7
102
{ACAD_REACTORS
330
5F8
102
}
330
1F
100
AcDbEntity
  8
LC-002-002-----0
 62
     7
370
    25
100
AcDbLine
 10
1581.672855
 20
2090.50903
 30
0.0
 11
1582.443458
 21
2091.989344
 31
0.0
  0
LINE
  5
2D8
102
{ACAD_REACTORS
330
5F8
102
}
330
1F
100
AcDbEntity
  8
LC-002-002-----0
 62
     7
370
    25
100
AcDbLine
 10
1643.885455
 20
2014.704224
 30
0.0
 11
1643.885455
 21
2001.204224
 31
0.0
  0
INSERT
  5
2E8
102
{ACAD_REACTORS
330
5F8
102
}
330
1F
100
AcDbEntity
  8
LC-002-002-----0
 62
     7
370
    25
100
AcDbBlockReference
  2
POLY1
 10
0.0
 20
0.0
 30
0.0
  0
LINE
  5
2E9
102
{ACAD_REACTORS
330
5F8
102
}
330
1F
100
AcDbEntity
  8
LC-002-002-----0
 62
     7
370
    25
100
AcDbLine
 10
1620.671616
 20
2014.704224
 30
0.0
 11
1620.671616
 21
2001.204224
 31
0.0
  0
INSERT
  5
2F9
102
{ACAD_REACTORS
330
5F8
102
}
330
1F
100
AcDbEntity
  8
LC-002-002-----0
 62
     7
370
    25
100
AcDbBlockReference
  2
POLY2
 10
0.0
 20
0.0
 30
0.0
  0
LINE
  5
2FA
102
{ACAD_REACTORS
330
5F8
102
}
330
1F
100
AcDbEntity
  8
LC-002-002-----0
 62
     7
370
    25
100
AcDbLine
 10
1597.460573
 20
2001.204224
 30
0.0
 11
1597.460573
 21
2014.704224
 31
0.0
  0
INSERT
  5
30A
102
{ACAD_REACTORS
330
5F8
102
}
330
1F
100
AcDbEntity
  8
LC-002-002-----0
 62
     7
370
    25
100
AcDbBlockReference
  2
POLY3
 10
0.0
 20
0.0
 30
0.0
  0
LINE
  5
30B
102
{ACAD_REACTORS
330
5FA
102
}
330
1F
100
AcDbEntity
  8
LC-002-002-----0
 62
     7
370
    25
100
AcDbLine
 10
1598.273068
 20
1868.999056
 30
0.0
 11
1598.273068
 21
1892.499056
 31
0.0
  0
LINE
  5
30C
102
{ACAD_REACTORS
330
5F9
102
}
330
1F
100
AcDbEntity
  8
LC-002-002-----0
 62
     7
370
    25
100
AcDbLine
 10
1600.673068
 20
1911.499056
 30
0.0
 11
1600.673068
 21
1967.499056
 31
0.0
  0
LINE
  5
30D
102
{ACAD_REACTORS
330
5F9
102
}
330
1F
100
AcDbEntity
  8
LC-002-002-----0
 62
     7
370
    25
100
AcDbLine
 10
1640.673068
 20
1911.499056
 30
0.0
 11
1640.673068
 21
1967.499056
 31
0.0
  0
LINE
  5
30E
102
{ACAD_REACTORS
330
5FA
102
}
330
1F
100
AcDbEntity
  8
LC-002-002-----0
 62
     7
370
    25
100
AcDbLine
 10
1643.073068
 20
1870.952205
 30
0.0
 11
1643.073068
 21
1892.499056
 31
0.0
  0
ARC
  5
30F
102
{ACAD_REACTORS
330
5F9
102
}
330
1F
100
AcDbEntity
  8
LC-002-002-----0
 62
     7
370
    25
100
AcDbCircle
 10
1620.673068
 20
1967.499056
 30
0.0
 40
20.0
100
AcDbArc
 50
0.0
 51
180.0
  0
LINE
  5
310
102
{ACAD_REACTORS
330
5FA
102
}
330
1F
100
AcDbEntity
  8
LC-002-002-----0
 62
     7
370
    25
100
AcDbLine
 10
1592.968275
 20
1894.999056
 30
0.0
 11
1592.968275
 21
1892.499056
 31
0.0
  0
LINE
  5
311
102
{ACAD_REACTORS
330
5FA
102
}
330
1F
100
AcDbEntity
  8
LC-002-002-----0
 62
     7
370
    25
100
AcDbLine
 10
1593.718275
 20
1895.999056
 30
0.0
 11
1593.718275
 21
1895.749056
 31
0.0
  0
LINE
  5
312
102
{ACAD_REACTORS
330
5FA
102
}
330
1F
100
AcDbEntity
  8
LC-002-002-----0
 62
     7
370
    25
100
AcDbLine
 10
1594.873068
 20
1895.999056
 30
0.0
 11
1594.873068
 21
1909.499056
 31
0.0
  0
LINE
  5
313
102
{ACAD_REACTORS
330
5FA
102
}
330
1F
100
AcDbEntity
  8
LC-002-002-----0
 62
     7
370
    25
100
AcDbLine
 10
1646.473068
 20
1895.999056
 30
0.0
 11
1646.473068
 21
1909.499056
 31
0.0
  0
LINE
  5
314
102
{ACAD_REACTORS
330
5FA
102
}
330
1F
100
AcDbEntity
  8
LC-002-002-----0
 62
     7
370
    25
100
AcDbLine
 10
1647.627861
 20
1895.999056
 30
0.0
 11
1647.627861
 21
1895.749056
 31
0.0
  0
LINE
  5
315
102
{ACAD_REACTORS
330
5FA
102
}
330
1F
100
AcDbEntity
  8
LC-002-002-----0
 62
     7
370
    25
100
AcDbLine
 10
1648.377861
 20
1894.999056
 30
0.0
 11
1648.377861
 21
1892.499056
 31
0.0
  0
LINE
  5
316
102
{ACAD_REACTORS
330
5FA
102
}
330
1F
100
AcDbEntity
  8
LC-002-002-----0
 62
     7
370
    25
100
AcDbLine
 10
1593.718276
 20
1895.749057
 30
0.0
 11
1592.968276
 21
1894.999057
 31
0.0
  0
LINE
  5
317
102
{ACAD_REACTORS
330
5FA
102
}
330
1F
100
AcDbEntity
  8
LC-002-002-----0
 62
     7
370
    25
100
AcDbLine
 10
1644.473068
 20
1911.499056
 30
0.0
 11
1596.873068
 21
1911.499056
 31
0.0
  0
LINE
  5
318
102
{ACAD_REACTORS
330
5FA
102
}
330
1F
100
AcDbEntity
  8
LC-002-002-----0
 62
     7
370
    25
100
AcDbLine
 10
1647.627844
 20
1895.999056
 30
0.0
 11
1593.718292
 21
1895.999056
 31
0.0
  0
LINE
  5
319
102
{ACAD_REACTORS
330
5FA
102
}
330
1F
100
AcDbEntity
  8
LC-002-002-----0
 62
     7
370
    25
100
AcDbLine
 10
1648.377861
 20
1892.499056
 30
0.0
 11
1592.968275
 21
1892.499056
 31
0.0
  0
LINE
  5
31A
102
{ACAD_REACTORS
330
5FA
102
}
330
1F
100
AcDbEntity
  8
LC-002-002-----0
 62
     7
370
    25
100
AcDbLine
 10
1647.62786
 20
1895.749057
 30
0.0
 11
1648.37786
 21
1894.999057
 31
0.0
  0
ARC
  5
31B
102
{ACAD_REACTORS
330
5FA
102
}
330
1F
100
AcDbEntity
  8
LC-002-002-----0
 62
     7
370
    25
100
AcDbCircle
 10
1644.473068
 20
1909.499056
 30
0.0
 40
2.0
100
AcDbArc
 50
0.0
 51
90.0
  0
ARC
  5
31C
102
{ACAD_REACTORS
330
5FA
102
}
330
1F
100
AcDbEntity
  8
LC-002-002-----0
 62
     7
370
    25
100
AcDbCircle
 10
1596.873068
 20
1909.499056
 30
0.0
 40
2.0
100
AcDbArc
 50
90.0
 51
180.0
  0
LINE
  5
31D
102
{ACAD_REACTORS
330
5FA
102
}
330
1F
100
AcDbEntity
  8
LC-002-002-----0
 62
     7
370
    25
100
AcDbLine
 10
1643.885455
 20
1895.999056
 30
0.0
 11
1643.885455
 21
1909.499056
 31
0.0
  0
INSERT
  5
32D
102
{ACAD_REACTORS
330
5FA
102
}
330
1F
100
AcDbEntity
  8
LC-002-002-----0
 62
     7
370
    25
100
AcDbBlockReference
  2
POLY4
 10
0.0
 20
0.0
 30
0.0
  0
LINE
  5
32E
102
{ACAD_REACTORS
330
5FA
102
}
330
1F
100
AcDbEntity
  8
LC-002-002-----0
 62
     7
370
    25
100
AcDbLine
 10
1620.671616
 20
1895.999056
 30
0.0
 11
1620.671616
 21
1909.499056
 31
0.0
  0
INSERT
  5
33E
102
{ACAD_REACTORS
330
5FA
102
}
330
1F
100
AcDbEntity
  8
LC-002-002-----0
 62
     7
370
    25
100
AcDbBlockReference
  2
POLY5
 10
0.0
 20
0.0
 30
0.0
  0
LINE
  5
33F
102
{ACAD_REACTORS
330
5FA
102
}
330
1F
100
AcDbEntity
  8
LC-002-002-----0
 62
     7
370
    25
100
AcDbLine
 10
1597.460573
 20
1909.499056
 30
0.0
 11
1597.460573
 21
1895.999056
 31
0.0
  0
INSERT
  5
34F
102
{ACAD_REACTORS
330
5FA
102
}
330
1F
100
AcDbEntity
  8
LC-002-002-----0
 62
     7
370
    25
100
AcDbBlockReference
  2
POLY6
 10
0.0
 20
0.0
 30
0.0
  0
ARC
  5
350
102
{ACAD_REACTORS
330
5F9
102
}
330
1F
100
AcDbEntity
  8
LC-002-002-----0
 62
     7
370
    25
100
AcDbCircle
 10
1620.673068
 20
1967.499056
 30
0.0
 40
27.70479324130114
100
AcDbArc
 50
316.211302
 51
223.788698
  0
LINE
  5
351
102
{ACAD_REACTORS
330
5FA
102
}
330
1F
100
AcDbEntity
  8
LC-002-002-----0
 62
     7
370
    25
100
AcDbLine
 10
1598.673068
 20
1842.499056
 30
0.0
 11
1598.673068
 21
1868.599056
 31
0.0
  0
ARC
  5
352
102
{ACAD_REACTORS
330
5FA
102
}
330
1F
100
AcDbEntity
  8
LC-005-002-RND-0
 62
     7
370
    25
100
AcDbCircle
 10
1620.673068
 20
1842.499056
 30
0.0
 40
22.0
100
AcDbArc
 50
180.0
 51
270.0
  0
LINE
  5
353
102
{ACAD_REACTORS
330
5FA
102
}
330
1F
100
AcDbEntity
  8
LC-002-002-----0
 62
     7
370
    25
100
AcDbLine
 10
1652.632615
 20
1804.999056
 30
0.0
 11
1652.632615
 21
1879.999056
 31
0.0
  0
LINE
  5
354
102
{ACAD_REACTORS
330
5FA
102
}
330
1F
100
AcDbEntity
  8
LC-002-002-----0
 62
     7
370
    25
100
AcDbLine
 10
1643.073068
 20
1870.952205
 30
0.0
 11
1644.793098
 21
1871.266442
 31
0.0
  0
LINE
  5
355
102
{ACAD_REACTORS
330
5FA
102
}
330
1F
100
AcDbEntity
  8
LC-002-002-----0
 62
     7
370
    25
100
AcDbLine
 10
1655.132615
 20
1879.999056
 30
0.0
 11
1652.632615
 21
1879.999056
 31
0.0
  0
LINE
  5
356
102
{ACAD_REACTORS
330
5FA
102
}
330
1F
100
AcDbEntity
  8
LC-002-002-----0
 62
     7
370
    25
100
AcDbLine
 10
1651.92937
 20
1877.997194
 30
0.0
 11
1652.632615
 21
1877.997194
 31
0.0
  0
LINE
  5
357
102
{ACAD_REACTORS
330
5FA
102
}
330
1F
100
AcDbEntity
  8
LC-002-002-----0
 62
     7
370
    25
100
AcDbLine
 10
1620.673068
 20
1820.499056
 30
0.0
 11
1634.364253
 21
1820.499056
 31
0.0
  0
LINE
  5
358
102
{ACAD_REACTORS
330
5FA
102
}
330
1F
100
AcDbEntity
  8
LC-002-002-----0
 62
     7
370
    25
100
AcDbLine
 10
1651.92937
 20
1807.000919
 30
0.0
 11
1652.632615
 21
1807.000919
 31
0.0
  0
LINE
  5
359
102
{ACAD_REACTORS
330
5FA
102
}
330
1F
100
AcDbEntity
  8
LC-002-002-----0
 62
     7
370
    25
100
AcDbLine
 10
1655.132615
 20
1804.999056
 30
0.0
 11
1652.632615
 21
1804.999056
 31
0.0
  0
LINE
  5
35A
102
{ACAD_REACTORS
330
5FA
102
}
330
1F
100
AcDbEntity
  8
LC-002-002-----0
 62
     7
370
    25
100
AcDbLine
 10
1642.174235
 20
1814.210117
 30
0.0
 11
1644.793098
 21
1813.731671
 31
0.0
  0
LINE
  5
35B
102
{ACAD_REACTORS
330
5FA
102
}
330
1F
100
AcDbEntity
  8
LC-002-002-----0
 62
     7
370
    25
100
AcDbLine
 10
1598.273095
 20
1868.999029
 30
0.0
 11
1598.673176
 21
1868.598949
 31
0.0
  0
ARC
  5
35C
102
{ACAD_REACTORS
330
5FA
102
}
330
1F
100
AcDbEntity
  8
LC-002-002-----0
 62
     7
370
    25
100
AcDbCircle
 10
1643.342425
 20
1820.604281
 30
0.0
 40
6.500000000000005
100
AcDbArc
 50
199.07704
 51
259.645823
  0
ARC
  5
35D
102
{ACAD_REACTORS
330
5FA
102
}
330
1F
100
AcDbEntity
  8
LC-002-002-----0
 62
     7
370
    25
100
AcDbCircle
 10
1634.364253
 20
1817.499056
 30
0.0
 40
3.000000000000295
100
AcDbArc
 50
19.055448
 51
90.0
  0
ARC
  5
35E
102
{ACAD_REACTORS
330
5FA
102
}
330
1F
100
AcDbEntity
  8
LC-002-002-----0
 62
     7
370
    25
100
AcDbCircle
 10
1651.92937
 20
1809.000919
 30
0.0
 40
2.000000000000175
100
AcDbArc
 50
244.152631
 51
270.0
  0
ARC
  5
35F
102
{ACAD_REACTORS
330
5FA
102
}
330
1F
100
AcDbEntity
  8
LC-002-002-----0
 62
     7
370
    25
100
AcDbCircle
 10
1651.92937
 20
1875.997194
 30
0.0
 40
2.0
100
AcDbArc
 50
90.0
 51
115.847369
  0
ARC
  5
360
102
{ACAD_REACTORS
330
5FA
102
}
330
1F
100
AcDbEntity
  8
LC-002-002-----0
 62
     7
370
    25
100
AcDbCircle
 10
1653.673068
 20
1812.600852
 30
0.0
 40
5.999999999999973
100
AcDbArc
 50
196.283517
 51
244.155028
  0
ARC
  5
361
102
{ACAD_REACTORS
330
5FA
102
}
330
1F
100
AcDbEntity
  8
LC-002-002-----0
 62
     7
370
    25
100
AcDbCircle
 10
1653.673068
 20
1872.39726
 30
0.0
 40
6.00000000000041
100
AcDbArc
 50
115.844972
 51
163.716483
  0
ARC
  5
362
102
{ACAD_REACTORS
330
5FA
102
}
330
1F
100
AcDbEntity
  8
LC-002-002-----0
 62
     7
370
    25
100
AcDbCircle
 10
1644.074253
 20
1809.796794
 30
0.0
 40
3.999999999999933
100
AcDbArc
 50
16.281751
 51
79.647048
  0
ARC
  5
363
102
{ACAD_REACTORS
330
5FA
102
}
330
1F
100
AcDbEntity
  8
LC-002-002-----0
 62
     7
370
    25
100
AcDbCircle
 10
1644.074253
 20
1875.201319
 30
0.0
 40
3.999999999999573
100
AcDbArc
 50
280.352952
 51
343.718249
  0
LINE
  5
364
102
{ACAD_REACTORS
330
5FA
102
}
330
1F
100
AcDbEntity
  8
LC-002-002-----0
 62
     7
370
    25
100
AcDbLine
 10
1691.275296
 20
1787.499056
 30
0.0
 11
1695.275296
 21
1787.499056
 31
0.0
  0
LINE
  5
365
102
{ACAD_REACTORS
330
5FA
102
}
330
1F
100
AcDbEntity
  8
LC-002-002-----0
 62
     7
370
    25
100
AcDbLine
 10
1655.132615
 20
1802.994093
 30
0.0
 11
1655.132615
 21
1804.999056
 31
0.0
  0
LINE
  5
366
102
{ACAD_REACTORS
330
5FA
102
}
330
1F
100
AcDbEntity
  8
LC-002-002-----0
 62
     7
370
    25
100
AcDbLine
 10
1659.46239
 20
1799.749666
 30
0.0
 11
1660.472738
 21
1797.999691
 31
0.0
  0
LINE
  5
367
102
{ACAD_REACTORS
330
5FA
102
}
330
1F
100
AcDbEntity
  8
LC-002-002-----0
 62
     7
370
    25
100
AcDbLine
 10
1665.669257
 20
1794.999056
 30
0.0
 11
1681.132615
 21
1794.999056
 31
0.0
  0
LINE
  5
368
102
{ACAD_REACTORS
330
5FA
102
}
330
1F
100
AcDbEntity
  8
LC-002-002-----0
 62
     7
370
    25
100
AcDbLine
 10
1690.815073
 20
1787.499056
 30
0.0
 11
1691.275296
 21
1787.499056
 31
0.0
  0
ARC
  5
369
102
{ACAD_REACTORS
330
5FA
102
}
330
1F
100
AcDbEntity
  8
LC-002-002-----0
 62
     7
370
    25
100
AcDbCircle
 10
1681.132615
 20
1790.999056
 30
0.0
 40
3.999999999999755
100
AcDbArc
 50
14.492147
 51
90.0
  0
ARC
  5
36A
102
{ACAD_REACTORS
330
5FA
102
}
330
1F
100
AcDbEntity
  8
LC-002-002-----0
 62
     7
370
    25
100
AcDbCircle
 10
1690.815073
 20
1793.499056
 30
0.0
 40
6.000000000000098
100
AcDbArc
 50
194.469452
 51
270.0
  0
ARC
  5
36B
102
{ACAD_REACTORS
330
5FA
102
}
330
1F
100
AcDbEntity
  8
LC-002-002-----0
 62
     7
370
    25
100
AcDbCircle
 10
1665.669257
 20
1800.999056
 30
0.0
 40
6.000000000000091
100
AcDbArc
 50
209.988476
 51
270.0
  0
ARC
  5
36C
102
{ACAD_REACTORS
330
5FA
102
}
330
1F
100
AcDbEntity
  8
LC-002-002-----0
 62
     7
370
    25
100
AcDbCircle
 10
1655.132615
 20
1797.249056
 30
0.0
 40
4.999999999999792
100
AcDbArc
 50
30.016153
 51
82.072225
  0
ARC
  5
36D
102
{ACAD_REACTORS
330
5FA
102
}
330
1F
100
AcDbEntity
  8
LC-002-002-----0
 62
     7
370
    25
100
AcDbCircle
 10
1655.932615
 20
1802.993619
 30
0.0
 40
0.7999999999997272
100
AcDbArc
 50
180.0
 51
262.062606
  0
LINE
  5
36E
102
{ACAD_REACTORS
330
5FA
102
}
330
1F
100
AcDbEntity
  8
LC-002-002-----0
 62
     7
370
    25
100
AcDbLine
 10
1691.275296
 20
1897.499056
 30
0.0
 11
1695.275296
 21
1897.499056
 31
0.0
  0
LINE
  5
36F
102
{ACAD_REACTORS
330
5FA
102
}
330
1F
100
AcDbEntity
  8
LC-002-002-----0
 62
     7
370
    25
100
AcDbLine
 10
1659.46239
 20
1885.248446
 30
0.0
 11
1660.472738
 21
1886.998421
 31
0.0
  0
LINE
  5
370
102
{ACAD_REACTORS
330
5FA
102
}
330
1F
100
AcDbEntity
  8
LC-002-002-----0
 62
     7
370
    25
100
AcDbLine
 10
1665.669257
 20
1889.999056
 30
0.0
 11
1681.132615
 21
1889.999056
 31
0.0
  0
LINE
  5
371
102
{ACAD_REACTORS
330
5FA
102
}
330
1F
100
AcDbEntity
  8
LC-002-002-----0
 62
     7
370
    25
100
AcDbLine
 10
1690.815073
 20
1897.499056
 30
0.0
 11
1691.275296
 21
1897.499056
 31
0.0
  0
ARC
  5
372
102
{ACAD_REACTORS
330
5FA
102
}
330
1F
100
AcDbEntity
  8
LC-002-002-----0
 62
     7
370
    25
100
AcDbCircle
 10
1681.132615
 20
1893.999056
 30
0.0
 40
4.0
100
AcDbArc
 50
270.0
 51
345.507853
  0
ARC
  5
373
102
{ACAD_REACTORS
330
5FA
102
}
330
1F
100
AcDbEntity
  8
LC-002-002-----0
 62
     7
370
    25
100
AcDbCircle
 10
1690.815073
 20
1891.499056
 30
0.0
 40
6.0
100
AcDbArc
 50
90.0
 51
165.530548
  0
ARC
  5
374
102
{ACAD_REACTORS
330
5FA
102
}
330
1F
100
AcDbEntity
  8
LC-002-002-----0
 62
     7
370
    25
100
AcDbCircle
 10
1665.669257
 20
1883.999056
 30
0.0
 40
6.0
100
AcDbArc
 50
90.0
 51
150.011524
  0
ARC
  5
375
102
{ACAD_REACTORS
330
5FA
102
}
330
1F
100
AcDbEntity
  8
LC-002-002-----0
 62
     7
370
    25
100
AcDbCircle
 10
1655.132615
 20
1887.749056
 30
0.0
 40
5.000000000000419
100
AcDbArc
 50
277.927775
 51
329.983847
  0
ARC
  5
376
102
{ACAD_REACTORS
330
5FA
102
}
330
1F
100
AcDbEntity
  8
LC-002-002-----0
 62
     7
370
    25
100
AcDbCircle
 10
1655.932615
 20
1882.004494
 30
0.0
 40
0.7999999999996561
100
AcDbArc
 50
97.937394
 51
180.0
  0
LINE
  5
377
102
{ACAD_REACTORS
330
5FA
102
}
330
1F
100
AcDbEntity
  8
LC-002-002-----0
 62
     7
370
    25
100
AcDbLine
 10
1655.132615
 20
1879.999056
 30
0.0
 11
1655.132615
 21
1882.004494
 31
0.0
  0
LINE
  5
378
102
{ACAD_REACTORS
330
5F8
102
}
330
1F
100
AcDbEntity
  8
LC-002-002-----0
 62
     7
370
    25
100
AcDbLine
 10
1642.673068
 20
2020.204224
 30
0.0
 11
1643.073068
 21
2020.204224
 31
0.0
  0
LINE
  5
379
102
{ACAD_REACTORS
330
5F0
102
}
330
1F
100
AcDbEntity
  8
LC-002-002-----0
 62
     7
370
    25
100
AcDbLine
 10
1079.93579
 20
2427.833099
 30
0.0
 11
1105.63579
 21
2427.833099
 31
0.0
  0
LINE
  5
37A
102
{ACAD_REACTORS
330
5F0
102
}
330
1F
100
AcDbEntity
  8
LC-002-002-----0
 62
     7
370
    25
100
AcDbLine
 10
1108.03579
 20
2430.233099
 30
0.0
 11
1110.052161
 21
2430.233099
 31
0.0
  0
LINE
  5
37B
102
{ACAD_REACTORS
330
5F0
102
}
330
1F
100
AcDbEntity
  8
LC-002-002-----0
 62
     7
370
    25
100
AcDbLine
 10
1105.63579
 20
2436.143311
 30
0.0
 11
1105.63579
 21
2427.833099
 31
0.0
  0
LINE
  5
37C
102
{ACAD_REACTORS
330
5F0
102
}
330
1F
100
AcDbEntity
  8
LC-002-002-----0
 62
     7
370
    25
100
AcDbLine
 10
1108.035876
 20
2432.531637
 30
0.0
 11
1108.035876
 21
2430.233185
 31
0.0
  0
LINE
  5
37D
102
{ACAD_REACTORS
330
5F0
102
}
330
1F
100
AcDbEntity
  8
LC-002-002-----0
 62
     7
370
    25
100
AcDbLine
 10
1105.635901
 20
2427.833209
 30
0.0
 11
1108.035836
 21
2430.233144
 31
0.0
  0
LINE
  5
37E
102
{ACAD_REACTORS
330
5F0
102
}
330
1F
100
AcDbEntity
  8
LC-002-002-----0
 62
     7
370
    25
100
AcDbLine
 10
1077.43579
 20
2421.919446
 30
0.0
 11
1079.93579
 21
2421.919446
 31
0.0
  0
LINE
  5
37F
102
{ACAD_REACTORS
330
5F0
102
}
330
1F
100
AcDbEntity
  8
LC-002-002-----0
 62
     7
370
    25
100
AcDbLine
 10
1076.43579
 20
2422.669446
 30
0.0
 11
1076.68579
 21
2422.669446
 31
0.0
  0
LINE
  5
380
102
{ACAD_REACTORS
330
5F0
102
}
330
1F
100
AcDbEntity
  8
LC-002-002-----0
 62
     7
370
    25
100
AcDbLine
 10
1076.43579
 20
2423.824239
 30
0.0
 11
1062.93579
 21
2423.824239
 31
0.0
  0
LINE
  5
381
102
{ACAD_REACTORS
330
5F0
102
}
330
1F
100
AcDbEntity
  8
LC-002-002-----0
 62
     7
370
    25
100
AcDbLine
 10
1076.685789
 20
2422.669447
 30
0.0
 11
1077.435789
 21
2421.919447
 31
0.0
  0
LINE
  5
382
102
{ACAD_REACTORS
330
5F0
102
}
330
1F
100
AcDbEntity
  8
LC-002-002-----0
 62
     7
370
    25
100
AcDbLine
 10
1060.93579
 20
2473.424239
 30
0.0
 11
1060.93579
 21
2425.824239
 31
0.0
  0
LINE
  5
383
102
{ACAD_REACTORS
330
5F0
102
}
330
1F
100
AcDbEntity
  8
LC-002-002-----0
 62
     7
370
    25
100
AcDbLine
 10
1076.43579
 20
2476.579033
 30
0.0
 11
1076.43579
 21
2422.669464
 31
0.0
  0
LINE
  5
384
102
{ACAD_REACTORS
330
5F0
102
}
330
1F
100
AcDbEntity
  8
LC-002-002-----0
 62
     7
370
    25
100
AcDbLine
 10
1079.93579
 20
2477.329033
 30
0.0
 11
1079.93579
 21
2421.919446
 31
0.0
  0
ARC
  5
385
102
{ACAD_REACTORS
330
5F0
102
}
330
1F
100
AcDbEntity
  8
LC-002-002-----0
 62
     7
370
    25
100
AcDbCircle
 10
1062.93579
 20
2425.824239
 30
0.0
 40
1.999999999999545
100
AcDbArc
 50
180.0
 51
270.0
  0
INSERT
  5
395
102
{ACAD_REACTORS
330
5F0
102
}
330
1F
100
AcDbEntity
  8
LC-002-002-----0
 62
     7
370
    25
100
AcDbBlockReference
  2
POLY7
 10
0.0
 20
0.0
 30
0.0
  0
LINE
  5
396
102
{ACAD_REACTORS
330
5F0
102
}
330
1F
100
AcDbEntity
  8
LC-002-002-----0
 62
     7
370
    25
100
AcDbLine
 10
1062.93579
 20
2426.411745
 30
0.0
 11
1076.43579
 21
2426.411745
 31
0.0
  0
INSERT
  5
3A6
102
{ACAD_REACTORS
330
5F0
102
}
330
1F
100
AcDbEntity
  8
LC-002-002-----0
 62
     7
370
    25
100
AcDbBlockReference
  2
POLY8
 10
0.0
 20
0.0
 30
0.0
  0
LINE
  5
3A7
102
{ACAD_REACTORS
330
5F0
102
}
330
1F
100
AcDbEntity
  8
LC-002-002-----0
 62
     7
370
    25
100
AcDbLine
 10
1076.43579
 20
2449.622787
 30
0.0
 11
1062.93579
 21
2449.622787
 31
0.0
  0
ARC
  5
3A8
102
{ACAD_REACTORS
330
5F0
102
}
330
1F
100
AcDbEntity
  8
LC-002-002-----0
 62
     7
370
    25
100
AcDbCircle
 10
1129.839511
 20
2449.624239
 30
0.0
 40
22.0
100
AcDbArc
 50
180.0
 51
0.0
  0
LINE
  5
3A9
102
{ACAD_REACTORS
330
5F0
102
}
330
1F
100
AcDbEntity
  8
LC-002-002-----0
 62
     7
370
    25
100
AcDbLine
 10
1107.839511
 20
2449.624239
 30
0.0
 11
1107.839511
 21
2463.315424
 31
0.0
  0
LINE
  5
3AA
102
{ACAD_REACTORS
330
5F0
102
}
330
1F
100
AcDbEntity
  8
LC-002-002-----0
 62
     7
370
    25
100
AcDbLine
 10
1151.839511
 20
2449.624239
 30
0.0
 11
1151.839511
 21
2463.315424
 31
0.0
  0
LINE
  5
3AB
102
{ACAD_REACTORS
330
5F0
102
}
330
1F
100
AcDbEntity
  8
LC-002-002-----0
 62
     7
370
    25
100
AcDbLine
 10
1167.339511
 20
2481.583786
 30
0.0
 11
1092.339511
 21
2481.583786
 31
0.0
  0
LINE
  5
3AC
102
{ACAD_REACTORS
330
5F0
102
}
330
1F
100
AcDbEntity
  8
LC-002-002-----0
 62
     7
370
    25
100
AcDbLine
 10
1165.337649
 20
2480.880542
 30
0.0
 11
1165.337649
 21
2481.583786
 31
0.0
  0
LINE
  5
3AD
102
{ACAD_REACTORS
330
5F0
102
}
330
1F
100
AcDbEntity
  8
LC-002-002-----0
 62
     7
370
    25
100
AcDbLine
 10
1167.339511
 20
2484.083787
 30
0.0
 11
1167.339511
 21
2481.583786
 31
0.0
  0
LINE
  5
3AE
102
{ACAD_REACTORS
330
5F0
102
}
330
1F
100
AcDbEntity
  8
LC-002-002-----0
 62
     7
370
    25
100
AcDbLine
 10
1158.128451
 20
2471.125406
 30
0.0
 11
1158.606897
 21
2473.74427
 31
0.0
  0
ARC
  5
3AF
102
{ACAD_REACTORS
330
5F0
102
}
330
1F
100
AcDbEntity
  8
LC-002-002-----0
 62
     7
370
    25
100
AcDbCircle
 10
1151.734287
 20
2472.293596
 30
0.0
 40
6.500000000000005
100
AcDbArc
 50
289.07704
 51
349.645823
  0
ARC
  5
3B0
102
{ACAD_REACTORS
330
5F0
102
}
330
1F
100
AcDbEntity
  8
LC-002-002-----0
 62
     7
370
    25
100
AcDbCircle
 10
1154.839511
 20
2463.315424
 30
0.0
 40
3.000000000000295
100
AcDbArc
 50
109.055448
 51
180.0
  0
ARC
  5
3B1
102
{ACAD_REACTORS
330
5F0
102
}
330
1F
100
AcDbEntity
  8
LC-002-002-----0
 62
     7
370
    25
100
AcDbCircle
 10
1163.337649
 20
2480.880542
 30
0.0
 40
1.999999999999772
100
AcDbArc
 50
334.152631
 51
0.0
  0
ARC
  5
3B2
102
{ACAD_REACTORS
330
5F0
102
}
330
1F
100
AcDbEntity
  8
LC-002-002-----0
 62
     7
370
    25
100
AcDbCircle
 10
1159.737716
 20
2482.624239
 30
0.0
 40
5.999999999999909
100
AcDbArc
 50
286.283517
 51
334.155028
  0
ARC
  5
3B3
102
{ACAD_REACTORS
330
5F0
102
}
330
1F
100
AcDbEntity
  8
LC-002-002-----0
 62
     7
370
    25
100
AcDbCircle
 10
1162.541774
 20
2473.025424
 30
0.0
 40
4.000000000000306
100
AcDbArc
 50
106.281751
 51
169.647048
  0
LINE
  5
3B4
102
{ACAD_REACTORS
330
5F0
102
}
330
1F
100
AcDbEntity
  8
LC-002-002-----0
 62
     7
370
    25
100
AcDbLine
 10
1094.341374
 20
2480.880542
 30
0.0
 11
1094.341374
 21
2481.583786
 31
0.0
  0
LINE
  5
3B5
102
{ACAD_REACTORS
330
5F0
102
}
330
1F
100
AcDbEntity
  8
LC-002-002-----0
 62
     7
370
    25
100
AcDbLine
 10
1092.339511
 20
2484.083787
 30
0.0
 11
1092.339511
 21
2481.583786
 31
0.0
  0
LINE
  5
3B6
102
{ACAD_REACTORS
330
5F0
102
}
330
1F
100
AcDbEntity
  8
LC-002-002-----0
 62
     7
370
    25
100
AcDbLine
 10
1101.550572
 20
2471.125406
 30
0.0
 11
1101.072126
 21
2473.74427
 31
0.0
  0
ARC
  5
3B7
102
{ACAD_REACTORS
330
5F0
102
}
330
1F
100
AcDbEntity
  8
LC-002-002-----0
 62
     7
370
    25
100
AcDbCircle
 10
1107.944736
 20
2472.293596
 30
0.0
 40
6.499999999999891
100
AcDbArc
 50
190.354177
 51
250.92296
  0
ARC
  5
3B8
102
{ACAD_REACTORS
330
5F0
102
}
330
1F
100
AcDbEntity
  8
LC-002-002-----0
 62
     7
370
    25
100
AcDbCircle
 10
1104.839511
 20
2463.315424
 30
0.0
 40
2.999999995699682
100
AcDbArc
 50
0.0
 51
70.944552
  0
ARC
  5
3B9
102
{ACAD_REACTORS
330
5F0
102
}
330
1F
100
AcDbEntity
  8
LC-002-002-----0
 62
     7
370
    25
100
AcDbCircle
 10
1096.341374
 20
2480.880542
 30
0.0
 40
1.999999999999773
100
AcDbArc
 50
180.0
 51
205.847369
  0
ARC
  5
3BA
102
{ACAD_REACTORS
330
5F0
102
}
330
1F
100
AcDbEntity
  8
LC-002-002-----0
 62
     7
370
    25
100
AcDbCircle
 10
1099.941307
 20
2482.624239
 30
0.0
 40
5.999999999999802
100
AcDbArc
 50
205.844972
 51
253.716483
  0
ARC
  5
3BB
102
{ACAD_REACTORS
330
5F0
102
}
330
1F
100
AcDbEntity
  8
LC-002-002-----0
 62
     7
370
    25
100
AcDbCircle
 10
1097.137249
 20
2473.025424
 30
0.0
 40
3.999999999999939
100
AcDbArc
 50
10.352952
 51
73.718249
  0
ARC
  5
3BC
102
{ACAD_REACTORS
330
5F0
102
}
330
1F
100
AcDbEntity
  8
LC-002-002-----0
 62
     7
370
    25
100
AcDbCircle
 10
1129.839511
 20
2449.624239
 30
0.0
 40
27.70479324130034
100
AcDbArc
 50
145.394244
 51
34.605756
  0
LINE
  5
3BD
102
{ACAD_REACTORS
330
5F0
102
}
330
1F
100
AcDbEntity
  8
LC-002-002-----0
 62
     7
370
    25
100
AcDbLine
 10
1074.839511
 20
2524.226468
 30
0.0
 11
1184.839511
 21
2524.226468
 31
0.0
  0
LINE
  5
3BE
102
{ACAD_REACTORS
330
5F0
102
}
330
1F
100
AcDbEntity
  8
LC-002-002-----0
 62
     7
370
    25
100
AcDbLine
 10
1184.839511
 20
2520.226468
 30
0.0
 11
1184.839511
 21
2524.226468
 31
0.0
  0
LINE
  5
3BF
102
{ACAD_REACTORS
330
5F0
102
}
330
1F
100
AcDbEntity
  8
LC-002-002-----0
 62
     7
370
    25
100
AcDbLine
 10
1169.344475
 20
2484.083787
 30
0.0
 11
1167.339511
 21
2484.083787
 31
0.0
  0
LINE
  5
3C0
102
{ACAD_REACTORS
330
5F0
102
}
330
1F
100
AcDbEntity
  8
LC-002-002-----0
 62
     7
370
    25
100
AcDbLine
 10
1074.839511
 20
2519.766245
 30
0.0
 11
1074.839511
 21
2520.226468
 31
0.0
  0
LINE
  5
3C1
102
{ACAD_REACTORS
330
5F0
102
}
330
1F
100
AcDbEntity
  8
LC-002-002-----0
 62
     7
370
    25
100
AcDbLine
 10
1172.588901
 20
2488.413561
 30
0.0
 11
1174.338876
 21
2489.42391
 31
0.0
  0
LINE
  5
3C2
102
{ACAD_REACTORS
330
5F0
102
}
330
1F
100
AcDbEntity
  8
LC-002-002-----0
 62
     7
370
    25
100
AcDbLine
 10
1177.339511
 20
2494.620429
 30
0.0
 11
1177.339511
 21
2510.083786
 31
0.0
  0
LINE
  5
3C3
102
{ACAD_REACTORS
330
5F0
102
}
330
1F
100
AcDbEntity
  8
LC-002-002-----0
 62
     7
370
    25
100
AcDbLine
 10
1184.839511
 20
2519.766245
 30
0.0
 11
1184.839511
 21
2520.226468
 31
0.0
  0
ARC
  5
3C4
102
{ACAD_REACTORS
330
5F0
102
}
330
1F
100
AcDbEntity
  8
LC-002-002-----0
 62
     7
370
    25
100
AcDbCircle
 10
1181.339511
 20
2510.083786
 30
0.0
 40
3.999999999999812
100
AcDbArc
 50
104.492147
 51
180.0
  0
ARC
  5
3C5
102
{ACAD_REACTORS
330
5F0
102
}
330
1F
100
AcDbEntity
  8
LC-002-002-----0
 62
     7
370
    25
100
AcDbCircle
 10
1178.839511
 20
2519.766245
 30
0.0
 40
5.999999999999658
100
AcDbArc
 50
284.469452
 51
0.0
  0
ARC
  5
3C6
102
{ACAD_REACTORS
330
5F0
102
}
330
1F
100
AcDbEntity
  8
LC-002-002-----0
 62
     7
370
    25
100
AcDbCircle
 10
1171.339511
 20
2494.620429
 30
0.0
 40
5.999999999999977
100
AcDbArc
 50
299.988476
 51
0.0
  0
ARC
  5
3C7
102
{ACAD_REACTORS
330
5F0
102
}
330
1F
100
AcDbEntity
  8
LC-002-002-----0
 62
     7
370
    25
100
AcDbCircle
 10
1175.089511
 20
2484.083786
 30
0.0
 40
4.999999999999906
100
AcDbArc
 50
120.016153
 51
172.072225
  0
ARC
  5
3C8
102
{ACAD_REACTORS
330
5F0
102
}
330
1F
100
AcDbEntity
  8
LC-002-002-----0
 62
     7
370
    25
100
AcDbCircle
 10
1169.344949
 20
2484.883786
 30
0.0
 40
0.7999999999997272
100
AcDbArc
 50
270.0
 51
352.062606
  0
LINE
  5
3C9
102
{ACAD_REACTORS
330
5F0
102
}
330
1F
100
AcDbEntity
  8
LC-002-002-----0
 62
     7
370
    25
100
AcDbLine
 10
1074.839511
 20
2520.226468
 30
0.0
 11
1074.839511
 21
2524.226468
 31
0.0
  0
LINE
  5
3CA
102
{ACAD_REACTORS
330
5F0
102
}
330
1F
100
AcDbEntity
  8
LC-002-002-----0
 62
     7
370
    25
100
AcDbLine
 10
1092.339511
 20
2484.083787
 30
0.0
 11
1090.334548
 21
2484.083787
 31
0.0
  0
LINE
  5
3CB
102
{ACAD_REACTORS
330
5F0
102
}
330
1F
100
AcDbEntity
  8
LC-002-002-----0
 62
     7
370
    25
100
AcDbLine
 10
1077.43579
 20
2477.329033
 30
0.0
 11
1079.93579
 21
2477.329033
 31
0.0
  0
LINE
  5
3CC
102
{ACAD_REACTORS
330
5F0
102
}
330
1F
100
AcDbEntity
  8
LC-002-002-----0
 62
     7
370
    25
100
AcDbLine
 10
1076.43579
 20
2476.579033
 30
0.0
 11
1076.68579
 21
2476.579033
 31
0.0
  0
LINE
  5
3CD
102
{ACAD_REACTORS
330
5F0
102
}
330
1F
100
AcDbEntity
  8
LC-002-002-----0
 62
     7
370
    25
100
AcDbLine
 10
1076.43579
 20
2475.424239
 30
0.0
 11
1062.93579
 21
2475.424239
 31
0.0
  0
LINE
  5
3CE
102
{ACAD_REACTORS
330
5F0
102
}
330
1F
100
AcDbEntity
  8
LC-002-002-----0
 62
     7
370
    25
100
AcDbLine
 10
1076.685789
 20
2476.579031
 30
0.0
 11
1077.435789
 21
2477.329031
 31
0.0
  0
ARC
  5
3CF
102
{ACAD_REACTORS
330
5F0
102
}
330
1F
100
AcDbEntity
  8
LC-002-002-----0
 62
     7
370
    25
100
AcDbCircle
 10
1062.93579
 20
2473.424239
 30
0.0
 40
2.0
100
AcDbArc
 50
90.0
 51
180.0
  0
INSERT
  5
3DF
102
{ACAD_REACTORS
330
5F0
102
}
330
1F
100
AcDbEntity
  8
LC-002-002-----0
 62
     7
370
    25
100
AcDbBlockReference
  2
POLY9
 10
0.0
 20
0.0
 30
0.0
  0
LINE
  5
3E0
102
{ACAD_REACTORS
330
5F0
102
}
330
1F
100
AcDbEntity
  8
LC-002-002-----0
 62
     7
370
    25
100
AcDbLine
 10
1062.93579
 20
2472.836734
 30
0.0
 11
1076.43579
 21
2472.836734
 31
0.0
  0
LINE
  5
3E1
102
{ACAD_REACTORS
330
5F0
102
}
330
1F
100
AcDbEntity
  8
LC-002-002-----0
 62
     7
370
    25
100
AcDbLine
 10
1079.93579
 20
2471.41538
 30
0.0
 11
1101.504338
 21
2471.41538
 31
0.0
  0
LINE
  5
3E2
102
{ACAD_REACTORS
330
5FB
102
}
330
1F
100
AcDbEntity
  8
LC-002-002-----0
 62
     7
370
    25
100
AcDbLine
 10
910.743934
 20
2427.833099
 30
0.0
 11
885.043934
 21
2427.833099
 31
0.0
  0
LINE
  5
3E3
102
{ACAD_REACTORS
330
5FB
102
}
330
1F
100
AcDbEntity
  8
LC-002-002-----0
 62
     7
370
    25
100
AcDbLine
 10
882.643934
 20
2430.233099
 30
0.0
 11
880.627562
 21
2430.233099
 31
0.0
  0
LINE
  5
3E4
102
{ACAD_REACTORS
330
5FB
102
}
330
1F
100
AcDbEntity
  8
LC-002-002-----0
 62
     7
370
    25
100
AcDbLine
 10
885.043934
 20
2436.143311
 30
0.0
 11
885.043934
 21
2427.833099
 31
0.0
  0
LINE
  5
3E5
102
{ACAD_REACTORS
330
5FB
102
}
330
1F
100
AcDbEntity
  8
LC-002-002-----0
 62
     7
370
    25
100
AcDbLine
 10
882.643848
 20
2432.531637
 30
0.0
 11
882.643848
 21
2430.233185
 31
0.0
  0
LINE
  5
3E6
102
{ACAD_REACTORS
330
5FB
102
}
330
1F
100
AcDbEntity
  8
LC-002-002-----0
 62
     7
370
    25
100
AcDbLine
 10
885.043823
 20
2427.833209
 30
0.0
 11
882.643888
 21
2430.233144
 31
0.0
  0
LINE
  5
3E7
102
{ACAD_REACTORS
330
5FB
102
}
330
1F
100
AcDbEntity
  8
LC-002-002-----0
 62
     7
370
    25
100
AcDbLine
 10
913.243934
 20
2421.919446
 30
0.0
 11
910.743934
 21
2421.919446
 31
0.0
  0
LINE
  5
3E8
102
{ACAD_REACTORS
330
5FB
102
}
330
1F
100
AcDbEntity
  8
LC-002-002-----0
 62
     7
370
    25
100
AcDbLine
 10
914.243934
 20
2422.669446
 30
0.0
 11
913.993934
 21
2422.669446
 31
0.0
  0
LINE
  5
3E9
102
{ACAD_REACTORS
330
5FB
102
}
330
1F
100
AcDbEntity
  8
LC-002-002-----0
 62
     7
370
    25
100
AcDbLine
 10
914.243934
 20
2423.824239
 30
0.0
 11
927.743934
 21
2423.824239
 31
0.0
  0
LINE
  5
3EA
102
{ACAD_REACTORS
330
5FB
102
}
330
1F
100
AcDbEntity
  8
LC-002-002-----0
 62
     7
370
    25
100
AcDbLine
 10
913.993935
 20
2422.669447
 30
0.0
 11
913.243935
 21
2421.919447
 31
0.0
  0
LINE
  5
3EB
102
{ACAD_REACTORS
330
5FB
102
}
330
1F
100
AcDbEntity
  8
LC-002-002-----0
 62
     7
370
    25
100
AcDbLine
 10
929.743934
 20
2473.424239
 30
0.0
 11
929.743934
 21
2425.824239
 31
0.0
  0
LINE
  5
3EC
102
{ACAD_REACTORS
330
5FB
102
}
330
1F
100
AcDbEntity
  8
LC-002-002-----0
 62
     7
370
    25
100
AcDbLine
 10
914.243934
 20
2476.579033
 30
0.0
 11
914.243934
 21
2422.669464
 31
0.0
  0
LINE
  5
3ED
102
{ACAD_REACTORS
330
5FB
102
}
330
1F
100
AcDbEntity
  8
LC-002-002-----0
 62
     7
370
    25
100
AcDbLine
 10
910.743934
 20
2477.329033
 30
0.0
 11
910.743934
 21
2421.919446
 31
0.0
  0
ARC
  5
3EE
102
{ACAD_REACTORS
330
5FB
102
}
330
1F
100
AcDbEntity
  8
LC-002-002-----0
 62
     7
370
    25
100
AcDbCircle
 10
927.743934
 20
2425.824239
 30
0.0
 40
1.999999999999545
100
AcDbArc
 50
270.0
 51
360.0
  0
INSERT
  5
3FE
102
{ACAD_REACTORS
330
5FB
102
}
330
1F
100
AcDbEntity
  8
LC-002-002-----0
 62
     7
370
    25
100
AcDbBlockReference
  2
POLY10
 10
0.0
 20
0.0
 30
0.0
  0
LINE
  5
3FF
102
{ACAD_REACTORS
330
5FB
102
}
330
1F
100
AcDbEntity
  8
LC-002-002-----0
 62
     7
370
    25
100
AcDbLine
 10
927.743934
 20
2426.411745
 30
0.0
 11
914.243934
 21
2426.411745
 31
0.0
  0
INSERT
  5
40F
102
{ACAD_REACTORS
330
5FB
102
}
330
1F
100
AcDbEntity
  8
LC-002-002-----0
 62
     7
370
    25
100
AcDbBlockReference
  2
POLY11
 10
0.0
 20
0.0
 30
0.0
  0
LINE
  5
410
102
{ACAD_REACTORS
330
5FB
102
}
330
1F
100
AcDbEntity
  8
LC-002-002-----0
 62
     7
370
    25
100
AcDbLine
 10
914.243934
 20
2449.622787
 30
0.0
 11
927.743934
 21
2449.622787
 31
0.0
  0
ARC
  5
411
102
{ACAD_REACTORS
330
5FB
102
}
330
1F
100
AcDbEntity
  8
LC-002-002-----0
 62
     7
370
    25
100
AcDbCircle
 10
860.840212
 20
2449.624239
 30
0.0
 40
22.0
100
AcDbArc
 50
180.0
 51
0.0
  0
LINE
  5
412
102
{ACAD_REACTORS
330
5FB
102
}
330
1F
100
AcDbEntity
  8
LC-002-002-----0
 62
     7
370
    25
100
AcDbLine
 10
838.840212
 20
2449.624239
 30
0.0
 11
838.840212
 21
2463.315424
 31
0.0
  0
LINE
  5
413
102
{ACAD_REACTORS
330
5FB
102
}
330
1F
100
AcDbEntity
  8
LC-002-002-----0
 62
     7
370
    25
100
AcDbLine
 10
882.840212
 20
2449.624239
 30
0.0
 11
882.840212
 21
2463.315424
 31
0.0
  0
LINE
  5
414
102
{ACAD_REACTORS
330
5FB
102
}
330
1F
100
AcDbEntity
  8
LC-002-002-----0
 62
     7
370
    25
100
AcDbLine
 10
898.340212
 20
2481.583786
 30
0.0
 11
823.340212
 21
2481.583786
 31
0.0
  0
LINE
  5
415
102
{ACAD_REACTORS
330
5FB
102
}
330
1F
100
AcDbEntity
  8
LC-002-002-----0
 62
     7
370
    25
100
AcDbLine
 10
896.33835
 20
2480.880542
 30
0.0
 11
896.33835
 21
2481.583786
 31
0.0
  0
LINE
  5
416
102
{ACAD_REACTORS
330
5FB
102
}
330
1F
100
AcDbEntity
  8
LC-002-002-----0
 62
     7
370
    25
100
AcDbLine
 10
898.340212
 20
2484.083787
 30
0.0
 11
898.340212
 21
2481.583786
 31
0.0
  0
LINE
  5
417
102
{ACAD_REACTORS
330
5FB
102
}
330
1F
100
AcDbEntity
  8
LC-002-002-----0
 62
     7
370
    25
100
AcDbLine
 10
889.129151
 20
2471.125406
 30
0.0
 11
889.607597
 21
2473.74427
 31
0.0
  0
ARC
  5
418
102
{ACAD_REACTORS
330
5FB
102
}
330
1F
100
AcDbEntity
  8
LC-002-002-----0
 62
     7
370
    25
100
AcDbCircle
 10
882.734987
 20
2472.293596
 30
0.0
 40
6.500000000000005
100
AcDbArc
 50
289.07704
 51
349.645823
  0
ARC
  5
419
102
{ACAD_REACTORS
330
5FB
102
}
330
1F
100
AcDbEntity
  8
LC-002-002-----0
 62
     7
370
    25
100
AcDbCircle
 10
885.840212
 20
2463.315424
 30
0.0
 40
3.000000000000295
100
AcDbArc
 50
109.055448
 51
180.0
  0
ARC
  5
41A
102
{ACAD_REACTORS
330
5FB
102
}
330
1F
100
AcDbEntity
  8
LC-002-002-----0
 62
     7
370
    25
100
AcDbCircle
 10
894.33835
 20
2480.880542
 30
0.0
 40
1.999999999999772
100
AcDbArc
 50
334.152631
 51
0.0
  0
ARC
  5
41B
102
{ACAD_REACTORS
330
5FB
102
}
330
1F
100
AcDbEntity
  8
LC-002-002-----0
 62
     7
370
    25
100
AcDbCircle
 10
890.738416
 20
2482.624239
 30
0.0
 40
5.999999999999909
100
AcDbArc
 50
286.283517
 51
334.155028
  0
ARC
  5
41C
102
{ACAD_REACTORS
330
5FB
102
}
330
1F
100
AcDbEntity
  8
LC-002-002-----0
 62
     7
370
    25
100
AcDbCircle
 10
893.542475
 20
2473.025424
 30
0.0
 40
4.000000000000306
100
AcDbArc
 50
106.281751
 51
169.647048
  0
LINE
  5
41D
102
{ACAD_REACTORS
330
5FB
102
}
330
1F
100
AcDbEntity
  8
LC-002-002-----0
 62
     7
370
    25
100
AcDbLine
 10
825.342075
 20
2480.880542
 30
0.0
 11
825.342075
 21
2481.583786
 31
0.0
  0
LINE
  5
41E
102
{ACAD_REACTORS
330
5FB
102
}
330
1F
100
AcDbEntity
  8
LC-002-002-----0
 62
     7
370
    25
100
AcDbLine
 10
832.551273
 20
2471.125406
 30
0.0
 11
832.072827
 21
2473.74427
 31
0.0
  0
ARC
  5
41F
102
{ACAD_REACTORS
330
5FB
102
}
330
1F
100
AcDbEntity
  8
LC-002-002-----0
 62
     7
370
    25
100
AcDbCircle
 10
838.945437
 20
2472.293596
 30
0.0
 40
6.499999999999891
100
AcDbArc
 50
190.354177
 51
250.92296
  0
ARC
  5
420
102
{ACAD_REACTORS
330
5FB
102
}
330
1F
100
AcDbEntity
  8
LC-002-002-----0
 62
     7
370
    25
100
AcDbCircle
 10
835.840212
 20
2463.315424
 30
0.0
 40
2.999999995699682
100
AcDbArc
 50
0.0
 51
70.944552
  0
ARC
  5
421
102
{ACAD_REACTORS
330
5FB
102
}
330
1F
100
AcDbEntity
  8
LC-002-002-----0
 62
     7
370
    25
100
AcDbCircle
 10
827.342075
 20
2480.880542
 30
0.0
 40
1.999999999999773
100
AcDbArc
 50
180.0
 51
205.847369
  0
ARC
  5
422
102
{ACAD_REACTORS
330
5FB
102
}
330
1F
100
AcDbEntity
  8
LC-002-002-----0
 62
     7
370
    25
100
AcDbCircle
 10
830.942008
 20
2482.624239
 30
0.0
 40
5.999999999999802
100
AcDbArc
 50
205.844972
 51
253.716483
  0
ARC
  5
423
102
{ACAD_REACTORS
330
5FB
102
}
330
1F
100
AcDbEntity
  8
LC-002-002-----0
 62
     7
370
    25
100
AcDbCircle
 10
828.137949
 20
2473.025424
 30
0.0
 40
3.999999999999939
100
AcDbArc
 50
10.352952
 51
73.718249
  0
ARC
  5
424
102
{ACAD_REACTORS
330
5FB
102
}
330
1F
100
AcDbEntity
  8
LC-002-002-----0
 62
     7
370
    25
100
AcDbCircle
 10
860.840212
 20
2449.624239
 30
0.0
 40
27.70479324130034
100
AcDbArc
 50
145.394244
 51
34.605756
  0
LINE
  5
425
102
{ACAD_REACTORS
330
5FB
102
}
330
1F
100
AcDbEntity
  8
LC-002-002-----0
 62
     7
370
    25
100
AcDbLine
 10
805.840212
 20
2524.226468
 30
0.0
 11
915.840212
 21
2524.226468
 31
0.0
  0
LINE
  5
426
102
{ACAD_REACTORS
330
5FB
102
}
330
1F
100
AcDbEntity
  8
LC-002-002-----0
 62
     7
370
    25
100
AcDbLine
 10
915.840212
 20
2520.226468
 30
0.0
 11
915.840212
 21
2524.226468
 31
0.0
  0
LINE
  5
427
102
{ACAD_REACTORS
330
5FB
102
}
330
1F
100
AcDbEntity
  8
LC-002-002-----0
 62
     7
370
    25
100
AcDbLine
 10
900.345176
 20
2484.083787
 30
0.0
 11
898.340212
 21
2484.083787
 31
0.0
  0
LINE
  5
428
102
{ACAD_REACTORS
330
5FB
102
}
330
1F
100
AcDbEntity
  8
LC-002-002-----0
 62
     7
370
    25
100
AcDbLine
 10
903.589602
 20
2488.413561
 30
0.0
 11
905.339577
 21
2489.42391
 31
0.0
  0
LINE
  5
429
102
{ACAD_REACTORS
330
5FB
102
}
330
1F
100
AcDbEntity
  8
LC-002-002-----0
 62
     7
370
    25
100
AcDbLine
 10
908.340212
 20
2494.620429
 30
0.0
 11
908.340212
 21
2510.083786
 31
0.0
  0
LINE
  5
42A
102
{ACAD_REACTORS
330
5FB
102
}
330
1F
100
AcDbEntity
  8
LC-002-002-----0
 62
     7
370
    25
100
AcDbLine
 10
915.840212
 20
2519.766245
 30
0.0
 11
915.840212
 21
2520.226468
 31
0.0
  0
ARC
  5
42B
102
{ACAD_REACTORS
330
5FB
102
}
330
1F
100
AcDbEntity
  8
LC-002-002-----0
 62
     7
370
    25
100
AcDbCircle
 10
912.340212
 20
2510.083786
 30
0.0
 40
3.999999999999812
100
AcDbArc
 50
104.492147
 51
180.0
  0
ARC
  5
42C
102
{ACAD_REACTORS
330
5FB
102
}
330
1F
100
AcDbEntity
  8
LC-002-002-----0
 62
     7
370
    25
100
AcDbCircle
 10
909.840212
 20
2519.766245
 30
0.0
 40
5.999999999999658
100
AcDbArc
 50
284.469452
 51
0.0
  0
ARC
  5
42D
102
{ACAD_REACTORS
330
5FB
102
}
330
1F
100
AcDbEntity
  8
LC-002-002-----0
 62
     7
370
    25
100
AcDbCircle
 10
902.340212
 20
2494.620429
 30
0.0
 40
5.999999999999977
100
AcDbArc
 50
299.988476
 51
0.0
  0
ARC
  5
42E
102
{ACAD_REACTORS
330
5FB
102
}
330
1F
100
AcDbEntity
  8
LC-002-002-----0
 62
     7
370
    25
100
AcDbCircle
 10
906.090212
 20
2484.083786
 30
0.0
 40
4.999999999999906
100
AcDbArc
 50
120.016153
 51
172.072225
  0
ARC
  5
42F
102
{ACAD_REACTORS
330
5FB
102
}
330
1F
100
AcDbEntity
  8
LC-002-002-----0
 62
     7
370
    25
100
AcDbCircle
 10
900.34565
 20
2484.883786
 30
0.0
 40
0.7999999999997272
100
AcDbArc
 50
270.0
 51
352.062606
  0
LINE
  5
430
102
{ACAD_REACTORS
330
5FB
102
}
330
1F
100
AcDbEntity
  8
LC-002-002-----0
 62
     7
370
    25
100
AcDbLine
 10
805.840212
 20
2519.766245
 30
0.0
 11
805.840212
 21
2524.226468
 31
0.0
  0
LINE
  5
431
102
{ACAD_REACTORS
330
5FB
102
}
330
1F
100
AcDbEntity
  8
LC-002-002-----0
 62
     7
370
    25
100
AcDbLine
 10
913.243934
 20
2477.329033
 30
0.0
 11
910.743934
 21
2477.329033
 31
0.0
  0
LINE
  5
432
102
{ACAD_REACTORS
330
5FB
102
}
330
1F
100
AcDbEntity
  8
LC-002-002-----0
 62
     7
370
    25
100
AcDbLine
 10
914.243934
 20
2476.579033
 30
0.0
 11
913.993934
 21
2476.579033
 31
0.0
  0
LINE
  5
433
102
{ACAD_REACTORS
330
5FB
102
}
330
1F
100
AcDbEntity
  8
LC-002-002-----0
 62
     7
370
    25
100
AcDbLine
 10
914.243934
 20
2475.424239
 30
0.0
 11
927.743934
 21
2475.424239
 31
0.0
  0
LINE
  5
434
102
{ACAD_REACTORS
330
5FB
102
}
330
1F
100
AcDbEntity
  8
LC-002-002-----0
 62
     7
370
    25
100
AcDbLine
 10
913.993935
 20
2476.579031
 30
0.0
 11
913.243935
 21
2477.329031
 31
0.0
  0
ARC
  5
435
102
{ACAD_REACTORS
330
5FB
102
}
330
1F
100
AcDbEntity
  8
LC-002-002-----0
 62
     7
370
    25
100
AcDbCircle
 10
927.743934
 20
2473.424239
 30
0.0
 40
2.0
100
AcDbArc
 50
0.0
 51
90.0
  0
INSERT
  5
445
102
{ACAD_REACTORS
330
5FB
102
}
330
1F
100
AcDbEntity
  8
LC-002-002-----0
 62
     7
370
    25
100
AcDbBlockReference
  2
POLY12
 10
0.0
 20
0.0
 30
0.0
  0
LINE
  5
446
102
{ACAD_REACTORS
330
5FB
102
}
330
1F
100
AcDbEntity
  8
LC-002-002-----0
 62
     7
370
    25
100
AcDbLine
 10
927.743934
 20
2472.836734
 30
0.0
 11
914.243934
 21
2472.836734
 31
0.0
  0
LINE
  5
447
102
{ACAD_REACTORS
330
5FB
102
}
330
1F
100
AcDbEntity
  8
LC-002-002-----0
 62
     7
370
    25
100
AcDbLine
 10
910.743934
 20
2471.41538
 30
0.0
 11
889.175386
 21
2471.41538
 31
0.0
  0
LINE
  5
448
330
1F
100
AcDbEntity
  8
LC-002-002-----0
 62
     7
370
    25
100
AcDbLine
 10
929.743934
 20
2471.41538
 30
0.0
 11
1060.93579
 21
2471.41538
 31
0.0
  0
LINE
  5
449
330
1F
100
AcDbEntity
  8
LC-002-002-----0
 62
     7
370
    25
100
AcDbLine
 10
929.743934
 20
2427.833099
 30
0.0
 11
1060.93579
 21
2427.833099
 31
0.0
  0
LINE
  5
44A
102
{ACAD_REACTORS
330
5FC
102
}
330
1F
100
AcDbEntity
  8
LC-002-002-----0
 62
     7
370
    50
100
AcDbLine
 10
329.791814
 20
1068.949133
 30
0.0
 11
329.791814
 21
838.949133
 31
0.0
  0
LINE
  5
44B
102
{ACAD_REACTORS
330
5FC
102
}
330
1F
100
AcDbEntity
  8
LC-002-002-----0
 62
     7
370
    50
100
AcDbLine
 10
334.791814
 20
833.949133
 30
0.0
 11
894.791814
 21
833.949133
 31
0.0
  0
LINE
  5
44C
102
{ACAD_REACTORS
330
5FC
102
}
330
1F
100
AcDbEntity
  8
LC-002-002-----0
 62
     7
370
    50
100
AcDbLine
 10
899.791814
 20
838.949133
 30
0.0
 11
899.791814
 21
1068.949133
 31
0.0
  0
LINE
  5
44D
102
{ACAD_REACTORS
330
5FC
102
}
330
1F
100
AcDbEntity
  8
LC-002-002-----0
 62
     7
370
    50
100
AcDbLine
 10
894.791814
 20
1073.949133
 30
0.0
 11
334.791814
 21
1073.949133
 31
0.0
  0
ARC
  5
44E
102
{ACAD_REACTORS
330
5FC
102
}
330
1F
100
AcDbEntity
  8
LC-005-002-RND-0
 62
     7
370
    50
100
AcDbCircle
 10
334.791814
 20
1068.949133
 30
0.0
 40
5.0
100
AcDbArc
 50
90.0
 51
180.0
  0
ARC
  5
44F
102
{ACAD_REACTORS
330
5FC
102
}
330
1F
100
AcDbEntity
  8
LC-005-002-RND-0
 62
     7
370
    50
100
AcDbCircle
 10
334.791814
 20
838.949133
 30
0.0
 40
5.0
100
AcDbArc
 50
180.0
 51
270.0
  0
ARC
  5
450
102
{ACAD_REACTORS
330
5FC
102
}
330
1F
100
AcDbEntity
  8
LC-005-002-RND-0
 62
     7
370
    50
100
AcDbCircle
 10
894.791814
 20
1068.949133
 30
0.0
 40
5.0
100
AcDbArc
 50
0.0
 51
90.0
  0
ARC
  5
451
102
{ACAD_REACTORS
330
5FC
102
}
330
1F
100
AcDbEntity
  8
LC-005-002-RND-0
 62
     7
370
    50
100
AcDbCircle
 10
894.791814
 20
838.949133
 30
0.0
 40
5.0
100
AcDbArc
 50
270.0
 51
0.0
  0
LINE
  5
452
102
{ACAD_REACTORS
330
5FC
102
}
330
1F
100
AcDbEntity
  8
LC-002-002-----0
  6
DASHDOT
 62
     7
370
    25
100
AcDbLine
 10
899.791814
 20
806.817594
 30
0.0
 11
899.791814
 21
1115.30985
 31
0.0
  0
DIMENSION
  5
454
102
{ACAD_REACTORS
330
5FC
102
}
330
1F
100
AcDbEntity
  8
LC-007-003-----0
 62
     7
370
    25
100
AcDbDimension
  2
*D16
 10
950.0
 20
833.949133
 30
0.0
 11
920.0
 21
947.813104
 31
0.0
 70
   160
 71
     5
 42
480.0
 53
90.0
  3
LC-DIM-L-0025-02-02
100
AcDbAlignedDimension
 13
894.791814
 23
1073.949133
 33
0.0
 14
894.791814
 24
833.949133
 34
0.0
 50
90.0
100
AcDbRotatedDimension
1001
ACAD
1000
DSTYLE
1002
{
1070
   144
1040
2.0
1002
}
  0
LINE
  5
461
102
{ACAD_REACTORS
330
5FC
102
}
330
1F
100
AcDbEntity
  8
LC-002-002-----0
  6
DASHDOT
 62
     7
370
    25
100
AcDbLine
 10
890.291814
 20
806.817594
 30
0.0
 11
890.291814
 21
1115.30985
 31
0.0
  0
LINE
  5
462
102
{ACAD_REACTORS
330
5FC
102
}
330
1F
100
AcDbEntity
  8
LC-002-002-----0
  6
DASHDOT
 62
     7
370
    25
100
AcDbLine
 10
499.791814
 20
806.817594
 30
0.0
 11
499.791814
 21
1115.30985
 31
0.0
  0
LINE
  5
463
102
{ACAD_REACTORS
330
5FC
102
}
330
1F
100
AcDbEntity
  8
LC-002-002-----0
  6
DASHDOT
 62
     7
370
    25
100
AcDbLine
 10
509.291814
 20
806.817594
 30
0.0
 11
509.291814
 21
1115.30985
 31
0.0
  0
TEXT
  5
465
102
{ACAD_REACTORS
330
5FC
102
}
330
1F
100
AcDbEntity
  8
LC-008-004-----0
 62
     7
370
    35
100
AcDbText
 10
344.926218
 20
1192.523995
 30
0.0
 40
35.0
  1
Ausschnitt übergreifend 1:20
 41
0.8
  7
LCTX0-400-0-0pDIN-Schrift
100
AcDbText
  0
LINE
  5
466
102
{ACAD_REACTORS
330
5FD
102
}
330
1F
100
AcDbEntity
  8
LC-002-002-----0
 62
     7
370
    50
100
AcDbLine
 10
1520.522288
 20
827.035045
 30
0.0
 11
1762.022288
 21
827.035045
 31
0.0
  0
ARC
  5
467
102
{ACAD_REACTORS
330
5FD
102
}
330
1F
100
AcDbEntity
  8
LC-002-002-----0
 62
     7
370
    50
100
AcDbCircle
 10
1762.022288
 20
832.035045
 30
0.0
 40
5.0
100
AcDbArc
 50
270.0
 51
0.0
  0
LINE
  5
468
102
{ACAD_REACTORS
330
5FD
102
}
330
1F
100
AcDbEntity
  8
LC-002-002-----0
 62
     7
370
    50
100
AcDbLine
 10
1767.022288
 20
832.035045
 30
0.0
 11
1767.022288
 21
1065.035045
 31
0.0
  0
ARC
  5
469
102
{ACAD_REACTORS
330
5FD
102
}
330
1F
100
AcDbEntity
  8
LC-002-002-----0
 62
     7
370
    50
100
AcDbCircle
 10
1762.022288
 20
1065.035045
 30
0.0
 40
5.0
100
AcDbArc
 50
0.0
 51
90.0
  0
LINE
  5
46A
102
{ACAD_REACTORS
330
5FD
102
}
330
1F
100
AcDbEntity
  8
LC-002-002-----0
 62
     7
370
    50
100
AcDbLine
 10
1762.022288
 20
1070.035045
 30
0.0
 11
1199.022288
 21
1070.035045
 31
0.0
  0
ARC
  5
46B
102
{ACAD_REACTORS
330
5FD
102
}
330
1F
100
AcDbEntity
  8
LC-002-002-----0
 62
     7
370
    50
100
AcDbCircle
 10
1199.022288
 20
1065.035045
 30
0.0
 40
5.0
100
AcDbArc
 50
90.0
 51
180.0
  0
LINE
  5
46C
102
{ACAD_REACTORS
330
5FD
102
}
330
1F
100
AcDbEntity
  8
LC-002-002-----0
 62
     7
370
    50
100
AcDbLine
 10
1194.022288
 20
1065.035045
 30
0.0
 11
1194.022288
 21
832.035045
 31
0.0
  0
ARC
  5
46D
102
{ACAD_REACTORS
330
5FD
102
}
330
1F
100
AcDbEntity
  8
LC-002-002-----0
 62
     7
370
    50
100
AcDbCircle
 10
1199.022288
 20
832.035045
 30
0.0
 40
5.0
100
AcDbArc
 50
180.0
 51
270.0
  0
LINE
  5
46E
102
{ACAD_REACTORS
330
5FD
102
}
330
1F
100
AcDbEntity
  8
LC-002-002-----0
 62
     7
370
    50
100
AcDbLine
 10
1199.022288
 20
827.035045
 30
0.0
 11
1520.522288
 21
827.035045
 31
0.0
  0
LINE
  5
46F
102
{ACAD_REACTORS
330
5FD
102
}
330
1F
100
AcDbEntity
  8
LC-004-006-MLN-0
 62
     7
370
    25
100
AcDbLine
 10
1191.022288
 20
948.535045
 30
0.0
 11
1770.022288
 21
948.535045
 31
0.0
  0
LINE
  5
470
102
{ACAD_REACTORS
330
5FD
102
}
330
1F
100
AcDbEntity
  8
LC-004-006-MLN-0
 62
     7
370
    25
100
AcDbLine
 10
1480.522288
 20
824.035045
 30
0.0
 11
1480.522288
 21
1073.035045
 31
0.0
  0
DIMENSION
  5
471
102
{ACAD_REACTORS
330
5FD
102
}
330
1F
100
AcDbEntity
  8
LC-007-003-----0
 62
     7
370
    25
100
AcDbDimension
  2
*D17
 10
1850.0
 20
1070.035045
 30
0.0
 11
1820.0
 21
948.026009
 31
0.0
 70
   160
 71
     5
 42
486.0
 53
90.0
  3
LC-DIM-L-0025-02-02
100
AcDbAlignedDimension
 13
1762.022288
 23
827.035045
 33
0.0
 14
1762.022288
 24
1070.035045
 34
0.0
 50
90.0
100
AcDbRotatedDimension
1001
ACAD
1000
DSTYLE
1002
{
1070
   144
1040
2.0
1002
}
  0
DIMENSION
  5
47F
102
{ACAD_REACTORS
330
5FD
102
}
330
1F
100
AcDbEntity
  8
LC-007-003-----0
 62
     7
370
    25
100
AcDbDimension
  2
*D18
 10
1199.022288
 20
1065.035045
 30
0.0
 11
1232.969807
 21
1050.109532
 31
0.0
 70
   164
 71
     5
 42
10.0
  3
LC-DIM-R-0025-02-02
100
AcDbRadialDimension
 15
1202.268286
 25
1061.231954
 35
0.0
 40
1.0
1001
ACAD
1000
DSTYLE
1002
{
1070
   144
1040
2.0
1002
}
  0
TEXT
  5
488
102
{ACAD_REACTORS
330
5FD
102
}
330
1F
100
AcDbEntity
  8
LC-008-004-----0
 62
     7
370
    35
100
AcDbText
 10
1206.350252
 20
1127.889002
 30
0.0
 40
35.0
  1
Ausschnitt Unterbau  1:20
 41
0.8
  7
LCTX0-400-0-0pDIN-Schrift
100
AcDbText
  0
DIMENSION
  5
489
102
{ACAD_REACTORS
330
5FC
102
}
330
1F
100
AcDbEntity
  8
LC-007-003-----0
 62
     7
370
    25
100
AcDbDimension
  2
*D19
 10
334.791814
 20
1068.949133
 30
0.0
 11
380.114235
 21
1036.043251
 31
0.0
 70
   164
 71
     5
 42
10.0
  3
LC-DIM-R-0025-02-02
100
AcDbRadialDimension
 15
337.747283
 25
1064.91612
 35
0.0
 40
1.0
1001
ACAD
1000
DSTYLE
1002
{
1070
   144
1040
2.0
1002
}
  0
DIMENSION
  5
492
102
{ACAD_REACTORS
330
5FC
102
}
330
1F
100
AcDbEntity
  8
LC-007-003-----0
 62
     7
370
    25
100
AcDbDimension
  2
*D20
 10
899.791814
 20
750.0
 30
0.0
 11
622.675113
 21
780.0
 31
0.0
 70
   160
 71
     5
 42
1140.0
  3
LC-DIM-L-0025-02-02
100
AcDbAlignedDimension
 13
329.791814
 23
838.949133
 33
0.0
 14
899.791814
 24
838.949133
 34
0.0
100
AcDbRotatedDimension
1001
ACAD
1000
DSTYLE
1002
{
1070
   144
1040
2.0
1002
}
  0
DIMENSION
  5
49F
102
{ACAD_REACTORS
330
5FC
102
}
330
1F
100
AcDbEntity
  8
LC-007-003-----0
 62
     7
370
    25
100
AcDbDimension
  2
*D21
 10
899.791814
 20
1100.0
 30
0.0
 11
704.791605
 21
1130.0
 31
0.0
 70
   160
 71
     5
 42
800.0
  3
LC-DIM-L-0025-02-02
100
AcDbAlignedDimension
 13
499.791814
 23
1115.30985
 33
0.0
 14
899.791814
 24
1115.30985
 34
0.0
100
AcDbRotatedDimension
1001
ACAD
1000
DSTYLE
1002
{
1070
   144
1040
2.0
1002
}
  0
DIMENSION
  5
4AC
102
{ACAD_REACTORS
330
5FD
102
}
330
1F
100
AcDbEntity
  8
LC-007-003-----0
 62
     7
370
    25
100
AcDbDimension
  2
*D22
 10
1767.022288
 20
750.0
 30
0.0
 11
1491.869504
 21
780.0
 31
0.0
 70
   160
 71
     5
 42
1146.0
  3
LC-DIM-L-0025-02-02
100
AcDbAlignedDimension
 13
1194.022288
 23
832.035045
 33
0.0
 14
1767.022288
 24
832.035045
 34
0.0
100
AcDbRotatedDimension
1001
ACAD
1000
DSTYLE
1002
{
1070
   144
1040
2.0
1002
}
  0
ARC
  5
4B9
102
{ACAD_REACTORS
330
5F5
102
}
330
1F
100
AcDbEntity
  8
LC-002-002-----0
 62
     7
370
    25
100
AcDbCircle
 10
1901.444526
 20
2021.00728
 30
0.0
 40
1.999999999999659
100
AcDbArc
 50
276.939209
 51
324.166736
  0
LINE
  5
4BA
102
{ACAD_REACTORS
330
5F5
102
}
330
1F
100
AcDbEntity
  8
LC-002-002-----0
 62
     7
370
    25
100
AcDbLine
 10
1905.513924
 20
2023.226441
 30
0.0
 11
1903.065974
 21
2019.836424
 31
0.0
  0
ARC
  5
4BB
102
{ACAD_REACTORS
330
5F5
102
}
330
1F
100
AcDbEntity
  8
LC-002-002-----0
 62
     7
370
    25
100
AcDbCircle
 10
1901.444507
 20
1663.990797
 30
0.0
 40
2.0000000000009
100
AcDbArc
 50
35.832782
 51
83.059948
  0
LINE
  5
4BC
102
{ACAD_REACTORS
330
5F5
102
}
330
1F
100
AcDbEntity
  8
LC-002-002-----0
 62
     7
370
    25
100
AcDbLine
 10
1905.513924
 20
1661.77155
 30
0.0
 11
1903.065965
 21
1665.16164
 31
0.0
  0
LINE
  5
4BD
102
{ACAD_REACTORS
330
5F5
102
}
330
1F
100
AcDbEntity
  8
LC-002-002-----0
 62
     7
370
    25
100
AcDbLine
 10
1901.686168
 20
1665.976143
 30
0.0
 11
1896.272264
 21
1666.635138
 31
0.0
  0
ARC
  5
4BE
102
{ACAD_REACTORS
330
5F5
102
}
330
1F
100
AcDbEntity
  8
LC-002-002-----0
 62
     7
370
    25
100
AcDbCircle
 10
1890.513926
 20
1664.31342
 30
0.0
 40
4.999888746399859
100
AcDbArc
 50
199.211498
 51
263.059947
  0
LINE
  5
4BF
102
{ACAD_REACTORS
330
5F5
102
}
330
1F
100
AcDbEntity
  8
LC-002-002-----0
 62
     7
370
    25
100
AcDbLine
 10
1896.272293
 20
2018.363022
 30
0.0
 11
1901.686158
 21
2019.021931
 31
0.0
  0
LINE
  5
4C0
102
{ACAD_REACTORS
330
5F5
102
}
330
1F
100
AcDbEntity
  8
LC-002-002-----0
 62
     7
370
    25
100
AcDbLine
 10
1894.513926
 20
1668.620484
 30
0.0
 11
1894.513926
 21
2016.377672
 31
0.0
  0
ARC
  5
4C1
102
{ACAD_REACTORS
330
5F5
102
}
330
1F
100
AcDbEntity
  8
LC-002-002-----0
 62
     7
370
    25
100
AcDbCircle
 10
1896.513926
 20
2016.377672
 30
0.0
 40
1.999999996500468
100
AcDbArc
 50
96.939209
 51
180.0
  0
ARC
  5
4C2
102
{ACAD_REACTORS
330
5F5
102
}
330
1F
100
AcDbEntity
  8
LC-002-002-----0
 62
     7
370
    25
100
AcDbCircle
 10
1896.513926
 20
1668.620484
 30
0.0
 40
1.999999996300176
100
AcDbArc
 50
180.0
 51
263.059947
  0
ARC
  5
4C3
102
{ACAD_REACTORS
330
5F5
102
}
330
1F
100
AcDbEntity
  8
LC-002-002-----0
 62
     7
370
    25
100
AcDbCircle
 10
1890.513926
 20
1664.31342
 30
0.0
 40
4.999888746399987
100
AcDbArc
 50
180.000322
 51
199.211498
  0
ARC
  5
4C4
102
{ACAD_REACTORS
330
5F5
102
}
330
1F
100
AcDbEntity
  8
LC-002-002-----0
 62
     7
370
    25
100
AcDbCircle
 10
1890.513926
 20
2020.684818
 30
0.0
 40
4.999888484700204
100
AcDbArc
 50
96.939209
 51
179.999678
  0
ARC
  5
4C5
102
{ACAD_REACTORS
330
5F5
102
}
330
1F
100
AcDbEntity
  8
LC-002-002-----0
 62
     7
370
    25
100
AcDbCircle
 10
1891.613926
 20
1654.206563
 30
0.0
 40
4.900000000000091
100
AcDbArc
 50
360.0
 51
83.059647
  0
ARC
  5
4C6
102
{ACAD_REACTORS
330
5F5
102
}
330
1F
100
AcDbEntity
  8
LC-002-002-----0
 62
     7
370
    25
100
AcDbCircle
 10
1891.613926
 20
2030.79164
 30
0.0
 40
4.899999999999502
100
AcDbArc
 50
276.939508
 51
0.0
  0
LINE
  5
4C7
102
{ACAD_REACTORS
330
5F5
102
}
330
1F
100
AcDbEntity
  8
LC-002-002-----0
 62
     7
370
    25
100
AcDbLine
 10
1885.513926
 20
1664.313392
 30
0.0
 11
1885.513926
 21
2020.684846
 31
0.0
  0
LINE
  5
4C8
102
{ACAD_REACTORS
330
5F5
102
}
330
1F
100
AcDbEntity
  8
LC-002-002-----0
 62
     7
370
    25
100
AcDbLine
 10
1892.205997
 20
2025.927155
 30
0.0
 11
1889.909905
 21
2025.647703
 31
0.0
  0
LINE
  5
4C9
102
{ACAD_REACTORS
330
5F5
102
}
330
1F
100
AcDbEntity
  8
LC-002-002-----0
 62
     7
370
    25
100
AcDbLine
 10
1889.909831
 20
1659.350542
 30
0.0
 11
1892.206068
 21
1659.071038
 31
0.0
  0
LINE
  5
4CA
102
{ACAD_REACTORS
330
5F5
102
}
330
1F
100
AcDbEntity
  8
LC-002-002-----0
 62
     7
370
    25
100
AcDbLine
 10
1896.513926
 20
2030.79164
 30
0.0
 11
1896.513926
 21
2050.196225
 31
0.0
  0
LINE
  5
4CB
102
{ACAD_REACTORS
330
5F5
102
}
330
1F
100
AcDbEntity
  8
LC-002-002-----0
 62
     7
370
    25
100
AcDbLine
 10
1896.513926
 20
1631.72482
 30
0.0
 11
1896.513926
 21
1654.206563
 31
0.0
  0
LINE
  5
4CC
102
{ACAD_REACTORS
330
5FB
102
}
330
1F
100
AcDbEntity
  8
LC-002-002-----0
 62
     7
370
    25
100
AcDbLine
 10
821.335249
 20
2484.083787
 30
0.0
 11
823.340212
 21
2484.083787
 31
0.0
  0
LINE
  5
4CD
102
{ACAD_REACTORS
330
5FB
102
}
330
1F
100
AcDbEntity
  8
LC-002-002-----0
 62
     7
370
    25
100
AcDbLine
 10
818.090822
 20
2488.413561
 30
0.0
 11
816.340847
 21
2489.42391
 31
0.0
  0
LINE
  5
4CE
102
{ACAD_REACTORS
330
5FB
102
}
330
1F
100
AcDbEntity
  8
LC-002-002-----0
 62
     7
370
    25
100
AcDbLine
 10
813.340212
 20
2494.620429
 30
0.0
 11
813.340212
 21
2510.083786
 31
0.0
  0
LINE
  5
4CF
102
{ACAD_REACTORS
330
5FB
102
}
330
1F
100
AcDbEntity
  8
LC-002-002-----0
 62
     7
370
    25
100
AcDbLine
 10
805.840212
 20
2519.766245
 30
0.0
 11
805.840212
 21
2520.226468
 31
0.0
  0
ARC
  5
4D0
102
{ACAD_REACTORS
330
5FB
102
}
330
1F
100
AcDbEntity
  8
LC-002-002-----0
 62
     7
370
    25
100
AcDbCircle
 10
809.340212
 20
2510.083786
 30
0.0
 40
3.999999999999773
100
AcDbArc
 50
0.0
 51
75.507853
  0
ARC
  5
4D1
102
{ACAD_REACTORS
330
5FB
102
}
330
1F
100
AcDbEntity
  8
LC-002-002-----0
 62
     7
370
    25
100
AcDbCircle
 10
811.840212
 20
2519.766245
 30
0.0
 40
5.999999999999545
100
AcDbArc
 50
180.0
 51
255.530548
  0
ARC
  5
4D2
102
{ACAD_REACTORS
330
5FB
102
}
330
1F
100
AcDbEntity
  8
LC-002-002-----0
 62
     7
370
    25
100
AcDbCircle
 10
819.340212
 20
2494.620429
 30
0.0
 40
6.0
100
AcDbArc
 50
180.0
 51
240.011524
  0
ARC
  5
4D3
102
{ACAD_REACTORS
330
5FB
102
}
330
1F
100
AcDbEntity
  8
LC-002-002-----0
 62
     7
370
    25
100
AcDbCircle
 10
815.590212
 20
2484.083786
 30
0.0
 40
4.999999999999969
100
AcDbArc
 50
7.927775
 51
59.983847
  0
ARC
  5
4D4
102
{ACAD_REACTORS
330
5FB
102
}
330
1F
100
AcDbEntity
  8
LC-002-002-----0
 62
     7
370
    25
100
AcDbCircle
 10
821.334775
 20
2484.883786
 30
0.0
 40
0.7999999999996561
100
AcDbArc
 50
187.937394
 51
270.0
  0
LINE
  5
4D5
102
{ACAD_REACTORS
330
5FB
102
}
330
1F
100
AcDbEntity
  8
LC-002-002-----0
 62
     7
370
    25
100
AcDbLine
 10
823.340212
 20
2484.083787
 30
0.0
 11
823.340212
 21
2481.583786
 31
0.0
  0
ELLIPSE
  5
4D6
102
{ACAD_REACTORS
330
5FE
102
}
330
1F
100
AcDbEntity
  8
LC-002-002-----0
 62
     7
370
    25
100
AcDbEllipse
 10
1095.274899
 20
2028.394621
 30
0.0
 11
15.36384090762466
 21
2.049974053287548
 31
0.0
210
0.0
220
0.0
230
0.9999999999999999
 40
0.104528
 41
0.0
 42
6.283185307179586
  0
TEXT
  5
4D7
330
1F
100
AcDbEntity
  8
LC-008-004-----0
 62
     7
370
    18
100
AcDbText
 10
1184.050808
 20
482.615108
 30
0.0
 40
17.5
  1
Art.Nr. 
 41
0.8
  7
LCTX0-400-0-0pDIN-Schrift
100
AcDbText
  0
TEXT
  5
4D8
330
1F
100
AcDbEntity
  8
LC-008-004-----0
 62
     7
370
    25
100
AcDbText
 10
1262.517798
 20
478.865109
 30
0.0
 40
25.0
  1
585
 41
0.8
  7
LCTX0-400-0-0pDIN-Schrift
100
AcDbText
  0
TEXT
  5
4D9
330
1F
100
AcDbEntity
  8
LC-008-004-----0
 62
     7
370
    18
100
AcDbText
 10
1703.518293
 20
562.726323
 30
0.0
 40
17.5
  1
Material: 
 41
0.8
  7
LCTX0-400-0-0pDIN-Schrift
100
AcDbText
  0
TEXT
  5
4DA
330
1F
100
AcDbEntity
  8
LC-008-004-----0
 62
     7
370
    25
100
AcDbText
 10
1799.733315
 20
558.976324
 30
0.0
 40
25.0
  1
Cristalite
 41
0.8
  7
LCTX0-400-0-0pDIN-Schrift
100
AcDbText
  0
DIMENSION
  5
4DB
102
{ACAD_REACTORS
330
5FE
102
}
330
1F
100
AcDbEntity
  8
LC-007-003-----0
 62
     7
370
    25
100
AcDbDimension
  2
*D23
 10
1399.839408
 20
1516.888566
 30
0.0
 11
835.129965
 21
1546.888566
 31
0.0
 70
   160
 71
     5
 42
1160.000026
  3
LC-DIM-L-0025-02-02
100
AcDbAlignedDimension
 13
239.839381
 23
1609.498679
 33
0.0
 14
1399.839408
 24
1609.498679
 34
0.0
100
AcDbRotatedDimension
  0
DIMENSION
  5
4E8
102
{ACAD_REACTORS
330
5FE
102
}
330
1F
100
AcDbEntity
  8
LC-007-003-----0
 62
     7
370
    25
100
AcDbDimension
  2
*D24
 10
1450.0
 20
1592.498679
 30
0.0
 11
1420.0
 21
1857.045547
 31
0.0
 70
   160
 71
     5
 42
500.000754
 53
90.0
  3
LC-DIM-L-0025-02-02
100
AcDbAlignedDimension
 13
1382.839408
 23
2092.499433
 33
0.0
 14
1382.839408
 24
1592.498679
 34
0.0
 50
90.0
100
AcDbRotatedDimension
  0
DIMENSION
  5
4F5
102
{ACAD_REACTORS
330
5FE
102
}
330
1F
100
AcDbEntity
  8
LC-007-003-----0
 62
     7
370
    25
100
AcDbDimension
  2
*D25
 10
995.339562
 20
2166.888566
 30
0.0
 11
1189.507396
 21
2196.888566
 31
0.0
 70
   160
 71
     5
 42
404.499846
  3
LC-DIM-L-0025-02-02
100
AcDbAlignedDimension
 13
1399.839408
 23
2075.499433
 33
0.0
 14
995.339562
 24
2088.613977
 34
0.0
100
AcDbRotatedDimension
  0
DIMENSION
  5
502
102
{ACAD_REACTORS
330
5FE
102
}
330
1F
100
AcDbEntity
  8
LC-007-003-----0
 62
     7
370
    25
100
AcDbDimension
  2
*D26
 10
900.0
 20
2092.499433
 30
0.0
 11
870.0
 21
2151.937822
 31
0.0
 70
   160
 71
     5
 42
38.0
 53
90.0
  3
LC-DIM-L-0025-02-02
100
AcDbAlignedDimension
 13
977.839562
 23
2054.499433
 33
0.0
 14
995.339562
 24
2092.499433
 34
0.0
 50
90.0
100
AcDbRotatedDimension
  0
LINE
  5
511
102
{ACAD_REACTORS
330
5F1
102
}
330
1F
100
AcDbEntity
  8
LC-002-002-----0
 62
     7
370
    50
100
AcDbLine
 10
1389.839408
 20
2726.46
 30
0.0
 11
1457.870107
 21
2726.46
 31
0.0
  0
LINE
  5
512
102
{ACAD_REACTORS
330
5F1
102
}
330
1F
100
AcDbEntity
  8
LC-002-002-----0
 62
     7
370
    25
100
AcDbLine
 10
1457.870107
 20
2726.46
 30
0.0
 11
1465.430503
 21
2704.40229
 31
0.0
  0
LINE
  5
513
102
{ACAD_REACTORS
330
5F1
102
}
330
1F
100
AcDbEntity
  8
LC-002-002-----0
 62
     7
370
    25
100
AcDbLine
 10
1465.430503
 20
2704.40229
 30
0.0
 11
1457.870107
 21
2688.46
 31
0.0
  0
LINE
  5
514
102
{ACAD_REACTORS
330
5F1
102
}
330
1F
100
AcDbEntity
  8
LC-002-002-----0
 62
     7
370
    50
100
AcDbLine
 10
1389.839408
 20
2688.46
 30
0.0
 11
1457.870107
 21
2688.46
 31
0.0
  0
INSERT
  5
51D
102
{ACAD_REACTORS
330
5F1
102
}
330
1F
100
AcDbEntity
  8
LC-009-005-----0
 62
     7
370
    25
100
AcDbBlockReference
  2
*X127
 10
0.0
 20
0.0
 30
0.0
  0
LINE
  5
51E
102
{ACAD_REACTORS
330
5F1
102
}
330
1F
100
AcDbEntity
  8
LC-002-002-----0
 62
     7
370
    50
100
AcDbLine
 10
1389.839408
 20
2726.46
 30
0.0
 11
1389.839408
 21
2688.46
 31
0.0
  0
LINE
  5
51F
102
{ACAD_REACTORS
330
5F1
102
}
330
1F
100
AcDbEntity
  8
LC-002-002-----0
 62
     7
370
    50
100
AcDbLine
 10
249.839408
 20
2726.46
 30
0.0
 11
203.59075
 21
2726.46
 31
0.0
  0
LINE
  5
520
102
{ACAD_REACTORS
330
5F1
102
}
330
1F
100
AcDbEntity
  8
LC-002-002-----0
 62
     7
370
    50
100
AcDbLine
 10
249.839408
 20
2726.46
 30
0.0
 11
249.839408
 21
2688.46
 31
0.0
  0
LINE
  5
521
102
{ACAD_REACTORS
330
5F1
102
}
330
1F
100
AcDbEntity
  8
LC-002-002-----0
 62
     7
370
    50
100
AcDbLine
 10
249.839408
 20
2688.46
 30
0.0
 11
203.59075
 21
2688.46
 31
0.0
  0
LINE
  5
522
102
{ACAD_REACTORS
330
5F1
102
}
330
1F
100
AcDbEntity
  8
LC-002-002-----0
 62
     7
370
    25
100
AcDbLine
 10
196.030355
 20
2704.40229
 30
0.0
 11
203.59075
 21
2688.46
 31
0.0
  0
LINE
  5
523
102
{ACAD_REACTORS
330
5F1
102
}
330
1F
100
AcDbEntity
  8
LC-002-002-----0
 62
     7
370
    25
100
AcDbLine
 10
203.59075
 20
2726.46
 30
0.0
 11
196.030355
 21
2704.40229
 31
0.0
  0
LINE
  5
524
102
{ACAD_REACTORS
330
5F2
102
}
330
1F
100
AcDbEntity
  8
LC-002-002-----0
 62
     7
370
    50
100
AcDbLine
 10
589.839408
 20
2688.46
 30
0.0
 11
608.839408
 21
2688.46
 31
0.0
  0
LINE
  5
525
102
{ACAD_REACTORS
330
5F2
102
}
330
1F
100
AcDbEntity
  8
LC-002-002-----0
 62
     7
370
    50
100
AcDbLine
 10
589.839408
 20
2688.46
 30
0.0
 11
589.839408
 21
2606.900245
 31
0.0
  0
LINE
  5
526
102
{ACAD_REACTORS
330
5F2
102
}
330
1F
100
AcDbEntity
  8
LC-002-002-----0
 62
     7
370
    50
100
AcDbLine
 10
608.839408
 20
2688.46
 30
0.0
 11
608.839408
 21
2606.900245
 31
0.0
  0
INSERT
  5
531
102
{ACAD_REACTORS
330
5F2
102
}
330
1F
100
AcDbEntity
  8
LC-009-005-----0
 62
     7
370
    25
100
AcDbBlockReference
  2
*X228
 10
0.0
 20
0.0
 30
0.0
  0
DIMENSION
  5
532
102
{ACAD_REACTORS
330
5F1
102
}
330
1F
100
AcDbEntity
  8
LC-007-003-----0
 62
     7
370
    25
100
AcDbDimension
  2
*D29
 10
1389.839408
 20
2359.242556
 30
0.0
 11
1005.855008
 21
2389.242556
 31
0.0
 70
   160
 71
     5
 42
800.0
  3
LC-DIM-L-0025-02-02
100
AcDbAlignedDimension
 13
589.839408
 23
2606.900245
 33
0.0
 14
1389.839408
 24
2606.900245
 34
0.0
100
AcDbRotatedDimension
  0
ARC
  5
53F
102
{ACAD_REACTORS
330
5F0
102
}
330
1F
100
AcDbEntity
  8
LC-002-002-----0
 62
     7
370
    25
100
AcDbCircle
 10
1080.839511
 20
2519.766245
 30
0.0
 40
5.999999999999773
100
AcDbArc
 50
180.0
 51
255.530548
  0
LINE
  5
540
102
{ACAD_REACTORS
330
5F0
102
}
330
1F
100
AcDbEntity
  8
LC-002-002-----0
 62
     7
370
    25
100
AcDbLine
 10
1087.090122
 20
2488.413561
 30
0.0
 11
1085.340147
 21
2489.42391
 31
0.0
  0
LINE
  5
541
102
{ACAD_REACTORS
330
5F0
102
}
330
1F
100
AcDbEntity
  8
LC-002-002-----0
 62
     7
370
    25
100
AcDbLine
 10
1082.339511
 20
2494.620429
 30
0.0
 11
1082.339511
 21
2510.083786
 31
0.0
  0
ARC
  5
542
102
{ACAD_REACTORS
330
5F0
102
}
330
1F
100
AcDbEntity
  8
LC-002-002-----0
 62
     7
370
    25
100
AcDbCircle
 10
1078.339511
 20
2510.083786
 30
0.0
 40
4.0
100
AcDbArc
 50
360.0
 51
75.507853
  0
ARC
  5
543
102
{ACAD_REACTORS
330
5F0
102
}
330
1F
100
AcDbEntity
  8
LC-002-002-----0
 62
     7
370
    25
100
AcDbCircle
 10
1088.339511
 20
2494.620429
 30
0.0
 40
6.0
100
AcDbArc
 50
180.0
 51
240.011524
  0
ARC
  5
544
102
{ACAD_REACTORS
330
5F0
102
}
330
1F
100
AcDbEntity
  8
LC-002-002-----0
 62
     7
370
    25
100
AcDbCircle
 10
1090.334074
 20
2484.883786
 30
0.0
 40
0.7999999999997556
100
AcDbArc
 50
187.937394
 51
270.0
  0
ARC
  5
545
102
{ACAD_REACTORS
330
5F0
102
}
330
1F
100
AcDbEntity
  8
LC-002-002-----0
 62
     7
370
    25
100
AcDbCircle
 10
1084.589511
 20
2484.083786
 30
0.0
 40
4.999999999999892
100
AcDbArc
 50
7.927775
 51
59.983847
  0
ARC
  5
546
102
{ACAD_REACTORS
330
5F3
102
}
330
1F
100
AcDbEntity
  8
LC-005-002-RND-0
 62
     7
370
    25
100
AcDbCircle
 10
1776.37947
 20
2084.920323
 30
0.0
 40
0.9999999999997478
100
AcDbArc
 50
6.0
 51
96.0
  0
ARC
  5
547
102
{ACAD_REACTORS
330
5F3
102
}
330
1F
100
AcDbEntity
  8
LC-005-002-RND-0
 62
     7
370
    25
100
AcDbCircle
 10
1778.783624
 20
2062.046319
 30
0.0
 40
0.9999999999997478
100
AcDbArc
 50
276.0
 51
6.0
  0
LINE
  5
548
102
{ACAD_REACTORS
330
5F4
102
}
330
1F
100
AcDbEntity
  8
LC-002-002-----0
 62
     7
370
    25
100
AcDbLine
 10
1661.453956
 20
2032.15644
 30
0.0
 11
1661.453956
 21
2066.375843
 31
0.0
  0
LINE
  5
549
102
{ACAD_REACTORS
330
5F4
102
}
330
1F
100
AcDbEntity
  8
LC-002-002-----0
 62
     7
370
    25
100
AcDbLine
 10
1693.926396
 20
2079.572828
 30
0.0
 11
1673.953946
 21
2078.875374
 31
0.0
  0
LINE
  5
54A
102
{ACAD_REACTORS
330
5F4
102
}
330
1F
100
AcDbEntity
  8
LC-002-002-----0
 62
     7
370
    25
100
AcDbLine
 10
1708.953956
 20
2086.375375
 30
0.0
 11
1714.953956
 21
2086.375375
 31
0.0
  0
LINE
  5
54B
102
{ACAD_REACTORS
330
5F4
102
}
330
1F
100
AcDbEntity
  8
LC-002-002-----0
 62
     7
370
    25
100
AcDbLine
 10
1686.453956
 20
2032.15644
 30
0.0
 11
1686.453956
 21
2053.438865
 31
0.0
  0
LINE
  5
54C
102
{ACAD_REACTORS
330
5F4
102
}
330
1F
100
AcDbEntity
  8
LC-002-002-----0
 62
     7
370
    25
100
AcDbLine
 10
1714.953955
 20
2086.375375
 30
0.0
 11
1714.953956
 21
2046.375375
 31
0.0
  0
LINE
  5
54D
102
{ACAD_REACTORS
330
5F4
102
}
330
1F
100
AcDbEntity
  8
LC-002-002-----0
 62
     7
370
    25
100
AcDbLine
 10
1708.953956
 20
2046.375375
 30
0.0
 11
1709.34572
 21
2046.375375
 31
0.0
  0
LINE
  5
54E
102
{ACAD_REACTORS
330
5F4
102
}
330
1F
100
AcDbEntity
  8
LC-002-002-----0
 62
     7
370
    25
100
AcDbLine
 10
1693.926396
 20
2053.177922
 30
0.0
 11
1686.451327
 21
2053.438957
 31
0.0
  0
LINE
  5
54F
102
{ACAD_REACTORS
330
5F3
102
}
330
1F
100
AcDbEntity
  8
LC-002-002-----0
 62
     7
370
    25
100
AcDbLine
 10
1723.840379
 20
2055.266043
 30
0.0
 11
1721.227167
 21
2080.12909
 31
0.0
  0
ARC
  5
550
102
{ACAD_REACTORS
330
5F3
102
}
330
1F
100
AcDbEntity
  8
LC-002-002-----0
 62
     7
370
    25
100
AcDbCircle
 10
1723.944907
 20
2054.271521
 30
0.0
 40
1.0000000000007
100
AcDbArc
 50
96.0
 51
139.137678
  0
ARC
  5
551
102
{ACAD_REACTORS
330
5F3
102
}
330
1F
100
AcDbEntity
  8
LC-002-002-----0
 62
     7
370
    25
100
AcDbCircle
 10
1721.122639
 20
2081.123612
 30
0.0
 40
0.9999999999999968
100
AcDbArc
 50
232.862322
 51
276.0
  0
ARC
  5
552
102
{ACAD_REACTORS
330
5F3
102
}
330
1F
100
AcDbEntity
  8
LC-002-002-----0
 62
     7
370
    25
100
AcDbCircle
 10
1709.953956
 20
2066.375375
 30
0.0
 40
17.49999999999941
100
AcDbArc
 50
52.85835
 51
73.398452
  0
ARC
  5
553
102
{ACAD_REACTORS
330
5F3
102
}
330
1F
100
AcDbEntity
  8
LC-002-002-----0
 62
     7
370
    25
100
AcDbCircle
 10
1709.953956
 20
2066.375375
 30
0.0
 40
17.50000000003369
100
AcDbArc
 50
286.601549
 51
319.141806
  0
ARC
  5
554
102
{ACAD_REACTORS
330
5F4
102
}
330
1F
100
AcDbEntity
  8
LC-002-002-----0
 62
     7
370
    25
100
AcDbCircle
 10
1708.953956
 20
2066.375375
 30
0.0
 40
20.00000000000009
100
AcDbArc
 50
221.290426
 51
270.0
  0
ARC
  5
555
102
{ACAD_REACTORS
330
5F4
102
}
330
1F
100
AcDbEntity
  8
LC-002-002-----0
 62
     7
370
    25
100
AcDbCircle
 10
1708.953956
 20
2066.375375
 30
0.0
 40
20.0
100
AcDbArc
 50
90.0
 51
138.709438
  0
ARC
  5
556
102
{ACAD_REACTORS
330
5F4
102
}
330
1F
100
AcDbEntity
  8
LC-002-002-----0
 62
     7
370
    25
100
AcDbCircle
 10
1673.953956
 20
2066.375375
 30
0.0
 40
12.5
100
AcDbArc
 50
90.0
 51
180.0
  0
INSERT
  5
580
102
{ACAD_REACTORS
330
5F4
102
}
330
1F
100
AcDbEntity
  8
LC-002-002-----0
 62
     7
370
    25
100
AcDbBlockReference
  2
POLY13
 10
0.0
 20
0.0
 30
0.0
  0
LINE
  5
581
102
{ACAD_REACTORS
330
5F3
102
}
330
1F
100
AcDbEntity
  8
LC-002-002-----0
 62
     7
370
    25
100
AcDbLine
 10
1776.274941
 20
2085.914845
 30
0.0
 11
1721.227167
 21
2080.12909
 31
0.0
  0
LINE
  5
582
102
{ACAD_REACTORS
330
5F3
102
}
330
1F
100
AcDbEntity
  8
LC-002-002-----0
 62
     7
370
    25
100
AcDbLine
 10
1779.778146
 20
2062.150848
 30
0.0
 11
1777.373992
 21
2085.024851
 31
0.0
  0
LINE
  5
583
102
{ACAD_REACTORS
330
5F3
102
}
330
1F
100
AcDbEntity
  8
LC-002-002-----0
 62
     7
370
    25
100
AcDbLine
 10
1778.888153
 20
2061.051797
 30
0.0
 11
1723.840379
 21
2055.266043
 31
0.0
  0
LINE
  5
584
102
{ACAD_REACTORS
330
5F6
102
}
330
1F
100
AcDbEntity
  8
LC-002-002-----0
 62
     7
370
    25
100
AcDbLine
 10
1889.868927
 20
2071.208084
 30
0.0
 11
1849.09353
 21
2066.922417
 31
0.0
  0
LINE
  5
585
102
{ACAD_REACTORS
330
5F6
102
}
330
1F
100
AcDbEntity
  8
LC-002-002-----0
 62
     7
370
    25
100
AcDbLine
 10
1889.868927
 20
2071.208084
 30
0.0
 11
1889.346285
 21
2076.180694
 31
0.0
  0
LINE
  5
586
102
{ACAD_REACTORS
330
5F6
102
}
330
1F
100
AcDbEntity
  8
LC-002-002-----0
 62
     7
370
    25
100
AcDbLine
 10
1849.09353
 20
2066.922417
 30
0.0
 11
1848.570887
 21
2071.895027
 31
0.0
  0
LINE
  5
587
102
{ACAD_REACTORS
330
5F6
102
}
330
1F
100
AcDbEntity
  8
LC-002-002-----0
 62
     7
370
    25
100
AcDbLine
 10
1848.570887
 20
2071.895027
 30
0.0
 11
1889.346285
 21
2076.180694
 31
0.0
  0
LINE
  5
588
102
{ACAD_REACTORS
330
5F6
102
}
330
1F
100
AcDbEntity
  8
LC-002-002-----0
 62
     7
370
    25
100
AcDbLine
 10
1779.725882
 20
2062.648109
 30
0.0
 11
1848.779944
 21
2069.905983
 31
0.0
  0
LINE
  5
589
102
{ACAD_REACTORS
330
5F6
102
}
330
1F
100
AcDbEntity
  8
LC-002-002-----0
 62
     7
370
    25
100
AcDbLine
 10
1777.426256
 20
2084.52759
 30
0.0
 11
1857.420059
 21
2092.935278
 31
0.0
  0
ARC
  5
58A
102
{ACAD_REACTORS
330
5F6
102
}
330
1F
100
AcDbEntity
  8
LC-002-002-----0
 62
     7
370
    25
100
AcDbCircle
 10
1858.04723
 20
2086.968146
 30
0.0
 40
6.000000000034613
100
AcDbArc
 50
15.594068
 51
96.0
  0
LINE
  5
58B
102
{ACAD_REACTORS
330
5F6
102
}
330
1F
100
AcDbEntity
  8
LC-002-002-----0
 62
     7
370
    25
100
AcDbLine
 10
1886.61135
 20
2075.89324
 30
0.0
 11
1886.454557
 21
2077.385023
 31
0.0
  0
LINE
  5
58C
102
{ACAD_REACTORS
330
5F6
102
}
330
1F
100
AcDbEntity
  8
LC-002-002-----0
 62
     7
370
    25
100
AcDbLine
 10
1888.586202
 20
2069.062248
 30
0.0
 11
1850.794369
 21
2065.090166
 31
0.0
  0
LINE
  5
58D
102
{ACAD_REACTORS
330
5F6
102
}
330
1F
100
AcDbEntity
  8
LC-002-002-----0
 62
     7
370
    25
100
AcDbLine
 10
1856.948179
 20
2087.85814
 30
0.0
 11
1877.291892
 21
2089.99635
 31
0.0
  0
LINE
  5
58E
102
{ACAD_REACTORS
330
5F6
102
}
330
1F
100
AcDbEntity
  8
LC-002-002-----0
 62
     7
370
    25
100
AcDbLine
 10
1886.454557
 20
2077.385023
 30
0.0
 11
1877.291892
 21
2089.99635
 31
0.0
  0
LINE
  5
58F
102
{ACAD_REACTORS
330
5F6
102
}
330
1F
100
AcDbEntity
  8
LC-002-002-----0
 62
     7
370
    25
100
AcDbLine
 10
1854.538019
 20
2072.522198
 30
0.0
 11
1853.388206
 21
2083.461938
 31
0.0
  0
ARC
  5
590
102
{ACAD_REACTORS
330
5F6
102
}
330
1F
100
AcDbEntity
  8
LC-005-002-RND-0
 62
     7
370
    25
100
AcDbCircle
 10
1857.366293
 20
2083.880052
 30
0.0
 40
3.999999999999991
100
AcDbArc
 50
96.0
 51
186.0
  0
LINE
  5
591
102
{ACAD_REACTORS
330
5F6
102
}
330
1F
100
AcDbEntity
  8
LC-002-002-----0
 62
     7
370
    25
100
AcDbLine
 10
1888.586202
 20
2069.062248
 30
0.0
 11
1888.377145
 21
2071.051292
 31
0.0
  0
LINE
  5
592
102
{ACAD_REACTORS
330
5F6
102
}
330
1F
100
AcDbEntity
  8
LC-002-002-----0
 62
     7
370
    25
100
AcDbLine
 10
1850.794369
 20
2065.090166
 30
0.0
 11
1850.585313
 21
2067.07921
 31
0.0
  0
LINE
  5
593
102
{ACAD_REACTORS
330
5F4
102
}
330
1F
100
AcDbEntity
  8
LC-002-002-----0
 62
     7
370
    25
100
AcDbLine
 10
1673.953956
 20
2032.15644
 30
0.0
 11
1673.953956
 21
2020.406427
 31
0.0
  0
LINE
  5
594
102
{ACAD_REACTORS
330
5F4
102
}
330
1F
100
AcDbEntity
  8
LC-002-002-----0
 62
     7
370
    25
100
AcDbLine
 10
1658.808956
 20
2012.911169
 30
0.0
 11
1658.808956
 21
2012.65644
 31
0.0
  0
LINE
  5
595
102
{ACAD_REACTORS
330
5F4
102
}
330
1F
100
AcDbEntity
  8
LC-002-002-----0
 62
     7
370
    25
100
AcDbLine
 10
1689.098956
 20
2012.911169
 30
0.0
 11
1689.098956
 21
2012.65644
 31
0.0
  0
LINE
  5
596
102
{ACAD_REACTORS
330
5F4
102
}
330
1F
100
AcDbEntity
  8
LC-002-002-----0
 62
     7
370
    25
100
AcDbLine
 10
1658.808956
 20
2017.533805
 30
0.0
 11
1657.329007
 21
2016.763392
 31
0.0
  0
LINE
  5
597
102
{ACAD_REACTORS
330
5F4
102
}
330
1F
100
AcDbEntity
  8
LC-002-002-----0
 62
     7
370
    25
100
AcDbLine
 10
1658.808956
 20
2015.992926
 30
0.0
 11
1657.329007
 21
2015.222514
 31
0.0
  0
LINE
  5
598
102
{ACAD_REACTORS
330
5F4
102
}
330
1F
100
AcDbEntity
  8
LC-002-002-----0
 62
     7
370
    25
100
AcDbLine
 10
1658.808956
 20
2014.452048
 30
0.0
 11
1657.329007
 21
2013.681635
 31
0.0
  0
LINE
  5
599
102
{ACAD_REACTORS
330
5F4
102
}
330
1F
100
AcDbEntity
  8
LC-002-002-----0
 62
     7
370
    25
100
AcDbLine
 10
1690.578904
 20
2016.763338
 30
0.0
 11
1689.098956
 21
2015.992926
 31
0.0
  0
LINE
  5
59A
102
{ACAD_REACTORS
330
5F4
102
}
330
1F
100
AcDbEntity
  8
LC-002-002-----0
 62
     7
370
    25
100
AcDbLine
 10
1690.578904
 20
2015.22246
 30
0.0
 11
1689.098956
 21
2014.452048
 31
0.0
  0
LINE
  5
59B
102
{ACAD_REACTORS
330
5F4
102
}
330
1F
100
AcDbEntity
  8
LC-002-002-----0
 62
     7
370
    25
100
AcDbLine
 10
1690.578904
 20
2013.681581
 30
0.0
 11
1689.098956
 21
2012.911169
 31
0.0
  0
LINE
  5
59C
102
{ACAD_REACTORS
330
5F4
102
}
330
1F
100
AcDbEntity
  8
LC-002-002-----0
 62
     7
370
    25
100
AcDbLine
 10
1689.098956
 20
2017.533805
 30
0.0
 11
1690.578904
 21
2016.763392
 31
0.0
  0
LINE
  5
59D
102
{ACAD_REACTORS
330
5F4
102
}
330
1F
100
AcDbEntity
  8
LC-002-002-----0
 62
     7
370
    25
100
AcDbLine
 10
1689.098956
 20
2015.992926
 30
0.0
 11
1690.578904
 21
2015.222514
 31
0.0
  0
LINE
  5
59E
102
{ACAD_REACTORS
330
5F4
102
}
330
1F
100
AcDbEntity
  8
LC-002-002-----0
 62
     7
370
    25
100
AcDbLine
 10
1689.098956
 20
2014.452048
 30
0.0
 11
1690.578904
 21
2013.681635
 31
0.0
  0
LINE
  5
59F
102
{ACAD_REACTORS
330
5F4
102
}
330
1F
100
AcDbEntity
  8
LC-002-002-----0
 62
     7
370
    25
100
AcDbLine
 10
1657.329007
 20
2016.763338
 30
0.0
 11
1658.808956
 21
2015.992926
 31
0.0
  0
LINE
  5
5A0
102
{ACAD_REACTORS
330
5F4
102
}
330
1F
100
AcDbEntity
  8
LC-002-002-----0
 62
     7
370
    25
100
AcDbLine
 10
1657.329007
 20
2015.22246
 30
0.0
 11
1658.808956
 21
2014.452048
 31
0.0
  0
LINE
  5
5A1
102
{ACAD_REACTORS
330
5F4
102
}
330
1F
100
AcDbEntity
  8
LC-002-002-----0
 62
     7
370
    25
100
AcDbLine
 10
1657.329007
 20
2013.681581
 30
0.0
 11
1658.808956
 21
2012.911169
 31
0.0
  0
LINE
  5
5A2
102
{ACAD_REACTORS
330
5F4
102
}
330
1F
100
AcDbEntity
  8
LC-002-002-----0
 62
     7
370
    25
100
AcDbLine
 10
1653.953956
 20
2017.65644
 30
0.0
 11
1653.953956
 21
2019.65644
 31
0.0
  0
LINE
  5
5A3
102
{ACAD_REACTORS
330
5F4
102
}
330
1F
100
AcDbEntity
  8
LC-002-002-----0
 62
     7
370
    25
100
AcDbLine
 10
1655.996717
 20
2020.406441
 30
0.0
 11
1655.996717
 21
2032.145674
 31
0.0
  0
LINE
  5
5A4
102
{ACAD_REACTORS
330
5F4
102
}
330
1F
100
AcDbEntity
  8
LC-002-002-----0
 62
     7
370
    25
100
AcDbLine
 10
1691.911194
 20
2020.406441
 30
0.0
 11
1691.911194
 21
2032.145674
 31
0.0
  0
LINE
  5
5A5
102
{ACAD_REACTORS
330
5F4
102
}
330
1F
100
AcDbEntity
  8
LC-002-002-----0
 62
     7
370
    25
100
AcDbLine
 10
1693.953956
 20
2017.65644
 30
0.0
 11
1693.953956
 21
2019.65644
 31
0.0
  0
LINE
  5
5A6
102
{ACAD_REACTORS
330
5F4
102
}
330
1F
100
AcDbEntity
  8
LC-002-002-----0
 62
     7
370
    25
100
AcDbLine
 10
1653.954052
 20
2019.656537
 30
0.0
 11
1654.703943
 21
2020.406427
 31
0.0
  0
LINE
  5
5A7
102
{ACAD_REACTORS
330
5F4
102
}
330
1F
100
AcDbEntity
  8
LC-002-002-----0
 62
     7
370
    25
100
AcDbLine
 10
1656.204146
 20
2032.15644
 30
0.0
 11
1691.703765
 21
2032.15644
 31
0.0
  0
LINE
  5
5A8
102
{ACAD_REACTORS
330
5F4
102
}
330
1F
100
AcDbEntity
  8
LC-002-002-----0
 62
     7
370
    25
100
AcDbLine
 10
1654.703943
 20
2020.406427
 30
0.0
 11
1655.996717
 21
2020.406427
 31
0.0
  0
LINE
  5
5A9
102
{ACAD_REACTORS
330
5F4
102
}
330
1F
100
AcDbEntity
  8
LC-002-002-----0
 62
     7
370
    25
100
AcDbLine
 10
1691.911194
 20
2020.406437
 30
0.0
 11
1693.203968
 21
2020.406427
 31
0.0
  0
LINE
  5
5AA
102
{ACAD_REACTORS
330
5F4
102
}
330
1F
100
AcDbEntity
  8
LC-002-002-----0
 62
     7
370
    25
100
AcDbLine
 10
1653.953956
 20
2017.65644
 30
0.0
 11
1693.953956
 21
2017.65644
 31
0.0
  0
LINE
  5
5AB
102
{ACAD_REACTORS
330
5F4
102
}
330
1F
100
AcDbEntity
  8
LC-002-002-----0
 62
     7
370
    25
100
AcDbLine
 10
1693.953859
 20
2019.656537
 30
0.0
 11
1693.203968
 21
2020.406427
 31
0.0
  0
ARC
  5
5AC
102
{ACAD_REACTORS
330
5F4
102
}
330
1F
100
AcDbEntity
  8
LC-002-002-----0
 62
     7
370
    25
100
AcDbCircle
 10
1691.703956
 20
2030.15644
 30
0.0
 40
1.999999999999995
100
AcDbArc
 50
84.05239
 51
90.0
  0
ARC
  5
5AD
102
{ACAD_REACTORS
330
5F4
102
}
330
1F
100
AcDbEntity
  8
LC-002-002-----0
 62
     7
370
    25
100
AcDbCircle
 10
1656.203956
 20
2030.15644
 30
0.0
 40
2.0
100
AcDbArc
 50
90.0
 51
95.94761
  0
LINE
  5
5AE
102
{ACAD_REACTORS
330
5F4
102
}
330
1F
100
AcDbEntity
  8
LC-002-002-----0
 62
     7
370
    25
100
AcDbLine
 10
1658.573375
 20
2017.65644
 30
0.0
 11
1658.808956
 21
2017.533805
 31
0.0
  0
LINE
  5
5AF
102
{ACAD_REACTORS
330
5F4
102
}
330
1F
100
AcDbEntity
  8
LC-002-002-----0
 62
     7
370
    25
100
AcDbLine
 10
1689.334536
 20
2017.65644
 30
0.0
 11
1689.098956
 21
2017.533805
 31
0.0
  0
LINE
  5
5B0
102
{ACAD_REACTORS
330
5F4
102
}
330
1F
100
AcDbEntity
  8
LC-002-002-----0
 62
     7
370
    25
100
AcDbLine
 10
1658.853956
 20
2012.65644
 30
0.0
 11
1658.853956
 21
1884.409652
 31
0.0
  0
LINE
  5
5B1
102
{ACAD_REACTORS
330
5F4
102
}
330
1F
100
AcDbEntity
  8
LC-002-002-----0
 62
     7
370
    25
100
AcDbLine
 10
1689.053956
 20
2012.65644
 30
0.0
 11
1689.053956
 21
1897.234775
 31
0.0
  0
LINE
  5
5B2
102
{ACAD_REACTORS
330
5F4
102
}
330
1F
100
AcDbEntity
  8
LC-002-002-----0
 62
     7
370
    25
100
AcDbLine
 10
1708.953956
 20
2046.375375
 30
0.0
 11
1714.953956
 21
2046.375375
 31
0.0
  0
INSERT
  5
5B9
102
{ACAD_REACTORS
330
5F1
102
}
330
1F
100
AcDbEntity
  8
LC-009-005-----0
 62
     7
370
    25
100
AcDbBlockReference
  2
*X331
 10
0.0
 20
0.0
 30
0.0
  0
CIRCLE
  5
5BA
330
1F
100
AcDbEntity
  8
LC-004-006-MLN-0
  6
DASHDOT
 62
     7
370
    25
100
AcDbCircle
 10
995.339562
 20
1630.498679
 30
0.0
 40
17.5
  0
DIMENSION
  5
5BB
330
1F
100
AcDbEntity
  8
LC-007-003-----0
 62
     7
370
    25
100
AcDbDimension
  2
*D32
 10
1357.040483
 20
2800.0
 30
0.0
 11
1179.530312
 21
2830.0
 31
0.0
 70
   160
 71
     5
 42
335.405132
  3
LC-DIM-L-0025-00-02
100
AcDbAlignedDimension
 13
1021.635351
 23
2704.339566
 33
0.0
 14
1357.040483
 24
2704.341843
 34
0.0
100
AcDbRotatedDimension
  0
DIMENSION
  5
5C8
330
1F
100
AcDbEntity
  8
LC-007-003-----0
 62
     7
370
    25
100
AcDbDimension
  2
*D33
 10
633.638641
 20
2800.0
 30
0.0
 11
788.015871
 21
2830.0
 31
0.0
 70
   160
 71
     5
 42
335.405132
  3
LC-DIM-L-0025-00-02
100
AcDbAlignedDimension
 13
969.043772
 23
2704.339566
 33
0.0
 14
633.638641
 24
2704.341843
 34
0.0
100
AcDbRotatedDimension
  0
DIMENSION
  5
5D6
330
1F
100
AcDbEntity
  8
LC-007-003-----0
 62
     7
370
    25
100
AcDbDimension
  2
*D34
 10
1150.0
 20
2733.460001
 30
0.0
 11
1120.0
 21
2646.935357
 31
0.0
 70
   160
 71
     5
 42
195.011028
 53
90.0
  3
LC-DIM-L-0025-01-02
100
AcDbAlignedDimension
 13
1129.839511
 23
2538.448973
 33
0.0
 14
1129.839511
 24
2733.460001
 34
0.0
 50
90.0
100
AcDbRotatedDimension
  0
DIMENSION
  5
5E3
330
1F
100
AcDbEntity
  8
LC-007-003-----0
 62
     7
370
    25
100
AcDbDimension
  2
*D35
 10
850.0
 20
2733.460001
 30
0.0
 11
820.0
 21
2640.881693
 31
0.0
 70
   160
 71
     5
 42
195.011028
 53
90.0
  3
LC-DIM-L-0025-01-02
100
AcDbAlignedDimension
 13
860.839612
 23
2538.448973
 33
0.0
 14
860.839612
 24
2733.460001
 34
0.0
 50
90.0
100
AcDbRotatedDimension
  0
ENDSEC
  0
SECTION
  2
OBJECTS
  0
DICTIONARY
  5
C
330
0
100
AcDbDictionary
281
     1
  3
ACAD_GROUP
350
D
  3
ACAD_LAYOUT
350
1A
  3
ACAD_MLINESTYLE
350
17
  3
ACAD_PLOTSETTINGS
350
19
  3
ACAD_PLOTSTYLENAME
350
E
  0
DICTIONARY
  5
D
102
{ACAD_REACTORS
330
C
102
}
330
C
100
AcDbDictionary
281
     1
  3
LCGROUP141
350
5F7
  3
LCGROUP17
350
5F2
  3
LCGROUP18
350
5F1
  3
LCGROUP2256
350
5F5
  3
LCGROUP2328
350
5FA
  3
LCGROUP2329
350
5F9
  3
LCGROUP2330
350
5F8
  3
LCGROUP2473
350
5F0
  3
LCGROUP2610
350
5FB
  3
LCGROUP2671
350
5FC
  3
LCGROUP2686
350
5FD
  3
LCGROUP3081
350
5F4
  3
LCGROUP3082
350
5F3
  3
LCGROUP3104
350
5F6
  3
LCGROUP799
350
5FE
  0
DICTIONARY
  5
1A
102
{ACAD_REACTORS
330
C
102
}
330
C
100
AcDbDictionary
281
     1
  3
Layout1
350
1E
  3
Layout2
350
26
  3
Model
350
22
  0
DICTIONARY
  5
17
102
{ACAD_REACTORS
330
C
102
}
330
C
100
AcDbDictionary
281
     1
  3
Standard
350
18
  0
DICTIONARY
  5
19
102
{ACAD_REACTORS
330
C
102
}
330
C
100
AcDbDictionary
281
     1
  0
ACDBDICTIONARYWDFLT
  5
E
102
{ACAD_REACTORS
330
C
102
}
330
C
100
AcDbDictionary
281
     1
  3
Normal
350
F
100
AcDbDictionaryWithDefault
340
F
  0
GROUP
  5
5F7
102
{ACAD_REACTORS
330
D
102
}
330
D
100
AcDbGroup
300
GRP141
 70
     1
 71
     1
340
10F
340
110
340
111
340
112
340
113
340
115
340
116
340
117
340
118
340
119
340
11A
340
11B
340
11C
340
11D
340
11E
340
11F
340
120
340
121
340
122
340
123
340
124
340
125
340
126
340
127
340
129
340
12A
340
12D
340
12E
340
131
340
132
340
133
340
134
340
135
340
136
340
137
340
138
340
139
340
13A
340
13B
340
13C
340
13D
340
13E
340
13F
340
140
340
141
340
142
340
143
340
146
340
148
340
149
340
14A
340
151
340
152
340
153
340
155
340
15A
340
15B
340
15C
340
15D
340
15E
340
15F
340
160
340
163
340
164
340
165
340
166
340
167
340
168
340
169
340
16A
340
16B
340
16C
340
16D
340
16E
340
16F
340
170
340
171
340
172
340
173
340
174
340
175
340
176
340
177
340
178
340
179
340
17A
340
17B
340
17C
340
17D
340
17E
340
17F
340
180
340
181
340
182
340
183
340
184
340
185
340
186
340
188
340
18A
340
196
340
197
340
198
340
199
340
19A
340
19B
340
19C
340
19D
340
19E
340
19F
340
1A0
340
1A1
340
1A2
340
1A3
340
1A4
340
1A5
340
1A6
340
1A7
340
1A8
340
1A9
340
1AA
340
1AB
340
1AC
340
1AD
340
1AE
340
1AF
340
1B0
340
1B1
340
1B2
340
1B3
340
1B4
340
1B5
340
1B6
340
1B7
340
1B8
340
1B9
340
1BA
340
1BB
340
1BC
340
1BD
340
1BE
340
1BF
340
1C0
340
1C1
340
1C2
340
1C3
340
1C4
340
1C5
340
1C6
340
1C7
340
1C8
340
1C9
340
1CA
340
1CB
340
1CC
340
1CD
340
1CE
340
1CF
340
1D0
340
1D1
340
1D2
340
1D3
340
1D4
340
1D5
340
1D6
340
1D7
340
1D8
340
1D9
340
1DA
340
1DB
340
1DC
340
1DD
340
1DE
  0
GROUP
  5
5F2
102
{ACAD_REACTORS
330
D
102
}
330
D
100
AcDbGroup
300
GRP17-LCMaster-LCGROUP18
 70
     1
 71
     1
340
106
340
10A
340
10B
340
524
340
525
340
526
340
531
  0
GROUP
  5
5F1
102
{ACAD_REACTORS
330
D
102
}
330
D
100
AcDbGroup
300
GRP18
 70
     1
 71
     1
340
511
340
512
340
513
340
514
340
51D
340
51E
340
51F
340
520
340
521
340
522
340
523
340
532
340
5B9
  0
GROUP
  5
5F5
102
{ACAD_REACTORS
330
D
102
}
330
D
100
AcDbGroup
300
GRP2256
 70
     1
 71
     1
340
10E
340
22E
340
22F
340
230
340
231
340
232
340
233
340
234
340
235
340
236
340
237
340
238
340
239
340
23A
340
23B
340
23C
340
23D
340
23E
340
240
340
241
340
242
340
243
340
244
340
245
340
246
340
247
340
248
340
249
340
24A
340
24B
340
24C
340
24D
340
24E
340
24F
340
250
340
251
340
252
340
253
340
254
340
255
340
256
340
257
340
258
340
259
340
25A
340
25B
340
25C
340
25D
340
25E
340
25F
340
260
340
261
340
262
340
263
340
264
340
265
340
266
340
267
340
268
340
269
340
26A
340
26B
340
26C
340
26D
340
26E
340
26F
340
270
340
271
340
272
340
273
340
276
340
284
340
4B9
340
4BA
340
4BB
340
4BC
340
4BD
340
4BE
340
4BF
340
4C0
340
4C1
340
4C2
340
4C3
340
4C4
340
4C5
340
4C6
340
4C7
340
4C8
340
4C9
340
4CA
340
4CB
  0
GROUP
  5
5FA
102
{ACAD_REACTORS
330
D
102
}
330
D
100
AcDbGroup
300
GRP2328-LCMaster-LCGROUP2256
 70
     1
 71
     1
340
12F
340
30B
340
30E
340
310
340
311
340
312
340
313
340
314
340
315
340
316
340
317
340
318
340
319
340
31A
340
31B
340
31C
340
31D
340
32D
340
32E
340
33E
340
33F
340
34F
340
351
340
352
340
353
340
354
340
355
340
356
340
357
340
358
340
359
340
35A
340
35B
340
35C
340
35D
340
35E
340
35F
340
360
340
361
340
362
340
363
340
364
340
365
340
366
340
367
340
368
340
369
340
36A
340
36B
340
36C
340
36D
340
36E
340
36F
340
370
340
371
340
372
340
373
340
374
340
375
340
376
340
377
  0
GROUP
  5
5F9
102
{ACAD_REACTORS
330
D
102
}
330
D
100
AcDbGroup
300
GRP2329-LCMaster-LCGROUP2328
 70
     1
 71
     1
340
30C
340
30D
340
30F
340
350
  0
GROUP
  5
5F8
102
{ACAD_REACTORS
330
D
102
}
330
D
100
AcDbGroup
300
GRP2961-LCMaster-LCGROUP2329
 70
     1
 71
     1
340
291
340
292
340
293
340
294
340
295
340
296
340
297
340
298
340
299
340
29A
340
29B
340
29C
340
29D
340
29E
340
29F
340
2A0
340
2A1
340
2A2
340
2A3
340
2A4
340
2A5
340
2A6
340
2A7
340
2A8
340
2A9
340
2AA
340
2AB
340
2AC
340
2AD
340
2AE
340
2AF
340
2B0
340
2B1
340
2B2
340
2B3
340
2B4
340
2B5
340
2B6
340
2B7
340
2B8
340
2B9
340
2BA
340
2BB
340
2BC
340
2BD
340
2BE
340
2BF
340
2C0
340
2C1
340
2C2
340
2C3
340
2C4
340
2C5
340
2C6
340
2C7
340
2C8
340
2C9
340
2CA
340
2CB
340
2CC
340
2CD
340
2CE
340
2CF
340
2D0
340
2D1
340
2D2
340
2D3
340
2D4
340
2D5
340
2D6
340
2D7
340
2D8
340
2E8
340
2E9
340
2F9
340
2FA
340
30A
340
378
  0
GROUP
  5
5F0
102
{ACAD_REACTORS
330
D
102
}
330
D
100
AcDbGroup
300
GRP2473
 70
     1
 71
     1
340
379
340
37A
340
37B
340
37C
340
37D
340
37E
340
37F
340
380
340
381
340
382
340
383
340
384
340
385
340
395
340
396
340
3A6
340
3A7
340
3A8
340
3A9
340
3AA
340
3AB
340
3AC
340
3AD
340
3AE
340
3AF
340
3B0
340
3B1
340
3B2
340
3B3
340
3B4
340
3B5
340
3B6
340
3B7
340
3B8
340
3B9
340
3BA
340
3BB
340
3BC
340
3BD
340
3BE
340
3BF
340
3C0
340
3C1
340
3C2
340
3C3
340
3C4
340
3C5
340
3C6
340
3C7
340
3C8
340
3C9
340
3CA
340
3CB
340
3CC
340
3CD
340
3CE
340
3CF
340
3DF
340
3E0
340
3E1
340
53F
340
540
340
541
340
542
340
543
340
544
340
545
  0
GROUP
  5
5FB
102
{ACAD_REACTORS
330
D
102
}
330
D
100
AcDbGroup
300
GRP2610
 70
     1
 71
     1
340
3E2
340
3E3
340
3E4
340
3E5
340
3E6
340
3E7
340
3E8
340
3E9
340
3EA
340
3EB
340
3EC
340
3ED
340
3EE
340
3FE
340
3FF
340
40F
340
410
340
411
340
412
340
413
340
414
340
415
340
416
340
417
340
418
340
419
340
41A
340
41B
340
41C
340
41D
340
41E
340
41F
340
420
340
421
340
422
340
423
340
424
340
425
340
426
340
427
340
428
340
429
340
42A
340
42B
340
42C
340
42D
340
42E
340
42F
340
430
340
431
340
432
340
433
340
434
340
435
340
445
340
446
340
447
340
4CC
340
4CD
340
4CE
340
4CF
340
4D0
340
4D1
340
4D2
340
4D3
340
4D4
340
4D5
  0
GROUP
  5
5FC
102
{ACAD_REACTORS
330
D
102
}
330
D
100
AcDbGroup
300
GRP2671
 70
     1
 71
     1
340
44A
340
44B
340
44C
340
44D
340
44E
340
44F
340
450
340
451
340
452
340
454
340
461
340
462
340
463
340
465
340
489
340
492
340
49F
  0
GROUP
  5
5FD
102
{ACAD_REACTORS
330
D
102
}
330
D
100
AcDbGroup
300
GRP2686
 70
     1
 71
     1
340
466
340
467
340
468
340
469
340
46A
340
46B
340
46C
340
46D
340
46E
340
46F
340
470
340
471
340
47F
340
488
340
4AC
  0
GROUP
  5
5F4
102
{ACAD_REACTORS
330
D
102
}
330
D
100
AcDbGroup
300
GRP3081-LCMaster-LCGROUP2328
 70
     1
 71
     1
340
548
340
549
340
54A
340
54B
340
54C
340
54D
340
54E
340
554
340
555
340
556
340
580
340
593
340
594
340
595
340
596
340
597
340
598
340
599
340
59A
340
59B
340
59C
340
59D
340
59E
340
59F
340
5A0
340
5A1
340
5A2
340
5A3
340
5A4
340
5A5
340
5A6
340
5A7
340
5A8
340
5A9
340
5AA
340
5AB
340
5AC
340
5AD
340
5AE
340
5AF
340
5B0
340
5B1
340
5B2
  0
GROUP
  5
5F3
102
{ACAD_REACTORS
330
D
102
}
330
D
100
AcDbGroup
300
GRP3082-LCMaster-LCGROUP3081
 70
     1
 71
     1
340
546
340
547
340
54F
340
550
340
551
340
552
340
553
340
581
340
582
340
583
  0
GROUP
  5
5F6
102
{ACAD_REACTORS
330
D
102
}
330
D
100
AcDbGroup
300
GRP3104-LCMaster-LCGROUP3082
 70
     1
 71
     1
340
584
340
585
340
586
340
587
340
588
340
589
340
58A
340
58B
340
58C
340
58D
340
58E
340
58F
340
590
340
591
340
592
  0
GROUP
  5
5FE
102
{ACAD_REACTORS
330
D
102
}
330
D
100
AcDbGroup
300
GRP799
 70
     1
 71
     1
340
108
340
10D
340
128
340
12C
340
130
340
144
340
145
340
147
340
14B
340
14C
340
14D
340
14E
340
14F
340
150
340
154
340
156
340
157
340
158
340
159
340
161
340
162
340
187
340
189
340
18B
340
18C
340
18D
340
18E
340
18F
340
190
340
191
340
192
340
193
340
194
340
195
340
1DF
340
1E0
340
1E1
340
1E2
340
1E3
340
1E4
340
1E5
340
1E6
340
1E7
340
1E8
340
1E9
340
1EA
340
1EB
340
1EC
340
1ED
340
1EE
340
1EF
340
1F0
340
1F1
340
1F2
340
1F3
340
1F4
340
1F5
340
1F6
340
1F7
340
1F8
340
1F9
340
1FA
340
1FB
340
1FC
340
1FD
340
1FE
340
1FF
340
200
340
201
340
202
340
203
340
204
340
205
340
206
340
207
340
208
340
209
340
20A
340
20B
340
20C
340
20D
340
20E
340
20F
340
210
340
211
340
212
340
213
340
214
340
215
340
216
340
217
340
218
340
219
340
21A
340
21B
340
21C
340
21D
340
21E
340
21F
340
220
340
221
340
222
340
223
340
224
340
225
340
226
340
227
340
228
340
229
340
22A
340
22B
340
22C
340
22D
340
4D6
340
4DB
340
4E8
340
4F5
340
502
  0
LAYOUT
  5
1E
102
{ACAD_REACTORS
330
1A
102
}
330
1A
100
AcDbPlotSettings
  1

  2

  4

  6

 40
0.0
 41
0.0
 42
0.0
 43
0.0
 44
0.0
 45
0.0
 46
0.0
 47
0.0
 48
0.0
 49
0.0
140
0.0
141
0.0
142
1.0
143
1.0
 70
   688
 72
     0
 73
     0
 74
     5
  7

 75
    16
 76
     0
 77
     2
 78
   300
147
1.0
148
0.0
149
0.0
100
AcDbLayout
  1
Layout1
 70
     1
 71
     1
 10
0.0
 20
0.0
 11
2100.0
 21
2970.0
 12
0.0
 22
0.0
 32
0.0
 14
0.0
 24
0.0
 34
0.0
 15
2100.0
 25
2970.0
 35
0.0
146
0.0
 13
0.0
 23
0.0
 33
0.0
 16
1.0
 26
0.0
 36
0.0
 17
0.0
 27
1.0
 37
0.0
 76
     0
330
1B
  0
LAYOUT
  5
26
102
{ACAD_REACTORS
330
1A
102
}
330
1A
100
AcDbPlotSettings
  1

  2

  4

  6

 40
0.0
 41
0.0
 42
0.0
 43
0.0
 44
0.0
 45
0.0
 46
0.0
 47
0.0
 48
0.0
 49
0.0
140
0.0
141
0.0
142
1.0
143
1.0
 70
   688
 72
     0
 73
     0
 74
     5
  7

 75
    16
 76
     0
 77
     2
 78
   300
147
1.0
148
0.0
149
0.0
100
AcDbLayout
  1
Layout2
 70
     1
 71
     2
 10
0.0
 20
0.0
 11
0.0
 21
0.0
 12
0.0
 22
0.0
 32
0.0
 14
0.0
 24
0.0
 34
0.0
 15
0.0
 25
0.0
 35
0.0
146
0.0
 13
0.0
 23
0.0
 33
0.0
 16
1.0
 26
0.0
 36
0.0
 17
0.0
 27
1.0
 37
0.0
 76
     0
330
23
  0
LAYOUT
  5
22
102
{ACAD_REACTORS
330
1A
102
}
330
1A
100
AcDbPlotSettings
  1

  2

  4

  6

 40
0.0
 41
0.0
 42
0.0
 43
0.0
 44
0.0
 45
0.0
 46
0.0
 47
0.0
 48
0.0
 49
0.0
140
0.0
141
0.0
142
1.0
143
1.0
 70
  1776
 72
     0
 73
     0
 74
     0
  7

 75
     0
 76
     0
 77
     2
 78
   300
147
1.0
148
0.0
149
0.0
100
AcDbLayout
  1
Model
 70
     1
 71
     0
 10
0.0
 20
0.0
 11
2100.0
 21
2970.0
 12
0.0
 22
0.0
 32
0.0
 14
0.0
 24
0.0
 34
0.0
 15
2100.0
 25
2970.0
 35
0.0
146
0.0
 13
0.0
 23
0.0
 33
0.0
 16
1.0
 26
0.0
 36
0.0
 17
0.0
 27
1.0
 37
0.0
 76
     0
330
1F
  0
MLINESTYLE
  5
18
102
{ACAD_REACTORS
330
17
102
}
330
17
100
AcDbMlineStyle
  2
Standard
 70
     0
  3

 62
   256
 51
90.0
 52
90.0
 71
     2
 49
0.5
 62
   256
  6
BYLAYER
 49
-0.5
 62
   256
  6
BYLAYER
  0
ACDBPLACEHOLDER
  5
F
102
{ACAD_REACTORS
330
E
102
}
330
E
  0
ENDSEC
  0
EOF
