  0
SECTION
  2
HEADER
  9
$ACADVER
  1
AC1018
  9
$ACADMAINTVER
 70
     0
  9
$DWGCODEPAGE
  3
ANSI_1252
  9
$INSBASE
 10
0.0
 20
0.0
 30
0.0
  9
$EXTMIN
 10
0.0
 20
0.0
 30
0.0
  9
$EXTMAX
 10
2100.0
 20
2970.0
 30
0.0
  9
$LIMMIN
 10
0.0
 20
0.0
  9
$LIMMAX
 10
2100.0
 20
2970.0
  9
$ORTHOMODE
 70
     0
  9
$REGENMODE
 70
     1
  9
$FILLMODE
 70
     1
  9
$QTEXTMODE
 70
     0
  9
$MIRRTEXT
 70
     1
  9
$LTSCALE
 40
10.0
  9
$ATTMODE
 70
     1
  9
$TEXTSIZE
 40
2.5
  9
$TRACEWID
 40
1.0
  9
$TEXTSTYLE
  7
Standard
  9
$CLAYER
  8
0
  9
$CELTYPE
  6
ByLayer
  9
$CECOLOR
 62
     7
  9
$CELTSCALE
 40
1.0
  9
$DISPSILH
 70
     0
  9
$DIMSCALE
 40
10.0
  9
$DIMASZ
 40
3.5
  9
$DIMEXO
 40
0.625
  9
$DIMDLI
 40
3.75
  9
$DIMRND
 40
0.0
  9
$DIMDLE
 40
0.0
  9
$DIMEXE
 40
1.25
  9
$DIMTP
 40
0.0
  9
$DIMTM
 40
0.0
  9
$DIMTXT
 40
3.5
  9
$DIMCEN
 40
2.5
  9
$DIMTSZ
 40
0.0
  9
$DIMTOL
 70
     0
  9
$DIMLIM
 70
     0
  9
$DIMTIH
 70
     0
  9
$DIMTOH
 70
     0
  9
$DIMSE1
 70
     0
  9
$DIMSE2
 70
     0
  9
$DIMTAD
 70
     1
  9
$DIMZIN
 70
     8
  9
$DIMBLK
  1

  9
$DIMASO
 70
     1
  9
$DIMSHO
 70
     1
  9
$DIMPOST
  1

  9
$DIMAPOST
  1

  9
$DIMALT
 70
     0
  9
$DIMALTD
 70
     3
  9
$DIMALTF
 40
0.03937
  9
$DIMLFAC
 40
1.0
  9
$DIMTOFL
 70
     1
  9
$DIMTVP
 40
0.0
  9
$DIMTIX
 70
     0
  9
$DIMSOXD
 70
     0
  9
$DIMSAH
 70
     0
  9
$DIMBLK1
  1

  9
$DIMBLK2
  1

  9
$DIMSTYLE
  2
ISO-25
  9
$DIMCLRD
 70
     0
  9
$DIMCLRE
 70
     0
  9
$DIMCLRT
 70
     0
  9
$DIMTFAC
 40
1.0
  9
$DIMGAP
 40
0.625
  9
$DIMJUST
 70
     0
  9
$DIMSD1
 70
     0
  9
$DIMSD2
 70
     0
  9
$DIMTOLJ
 70
     0
  9
$DIMTZIN
 70
     8
  9
$DIMALTZ
 70
     0
  9
$DIMALTTZ
 70
     0
  9
$DIMUPT
 70
     0
  9
$DIMDEC
 70
     2
  9
$DIMTDEC
 70
     2
  9
$DIMALTU
 70
     2
  9
$DIMALTTD
 70
     3
  9
$DIMTXSTY
  7
Standard
  9
$DIMAUNIT
 70
     0
  9
$DIMADEC
 70
     0
  9
$DIMALTRND
 40
0.0
  9
$DIMAZIN
 70
     0
  9
$DIMDSEP
 70
    44
  9
$DIMATFIT
 70
     3
  9
$DIMFRAC
 70
     0
  9
$DIMLDRBLK
  1

  9
$DIMLUNIT
 70
     2
  9
$DIMLWD
 70
    -2
  9
$DIMLWE
 70
    -2
  9
$DIMTMOVE
 70
     0
  9
$LUNITS
 70
     2
  9
$LUPREC
 70
     4
  9
$SKETCHINC
 40
1.0
  9
$FILLETRAD
 40
10.0
  9
$AUNITS
 70
     0
  9
$AUPREC
 70
     0
  9
$MENU
  1
.
  9
$ELEVATION
 40
0.0
  9
$PELEVATION
 40
0.0
  9
$THICKNESS
 40
0.0
  9
$LIMCHECK
 70
     0
  9
$CHAMFERA
 40
10.0
  9
$CHAMFERB
 40
10.0
  9
$CHAMFERC
 40
20.0
  9
$CHAMFERD
 40
0.0
  9
$SKPOLY
 70
     0
  9
$TDCREATE
 40
2456177.670886192
  9
$TDUCREATE
 40
2456177.587552859
  9
$TDUPDATE
 40
2456177.670886204
  9
$TDUUPDATE
 40
2456177.58755287
  9
$TDINDWG
 40
0.0000000116
  9
$TDUSRTIMER
 40
0.0000000116
  9
$USRTIMER
 70
     1
  9
$ANGBASE
 50
0.0
  9
$ANGDIR
 70
     0
  9
$PDMODE
 70
     0
  9
$PDSIZE
 40
0.0
  9
$PLINEWID
 40
0.0
  9
$SPLFRAME
 70
     0
  9
$SPLINETYPE
 70
     6
  9
$SPLINESEGS
 70
     8
  9
$HANDSEED
  5
687
  9
$SURFTAB1
 70
     6
  9
$SURFTAB2
 70
     6
  9
$SURFTYPE
 70
     6
  9
$SURFU
 70
     6
  9
$SURFV
 70
     6
  9
$UCSBASE
  2

  9
$UCSNAME
  2

  9
$UCSORG
 10
0.0
 20
0.0
 30
0.0
  9
$UCSXDIR
 10
1.0
 20
0.0
 30
0.0
  9
$UCSYDIR
 10
0.0
 20
1.0
 30
0.0
  9
$UCSORTHOREF
  2

  9
$UCSORTHOVIEW
 70
     0
  9
$UCSORGTOP
 10
0.0
 20
0.0
 30
0.0
  9
$UCSORGBOTTOM
 10
0.0
 20
0.0
 30
0.0
  9
$UCSORGLEFT
 10
0.0
 20
0.0
 30
0.0
  9
$UCSORGRIGHT
 10
0.0
 20
0.0
 30
0.0
  9
$UCSORGFRONT
 10
0.0
 20
0.0
 30
0.0
  9
$UCSORGBACK
 10
0.0
 20
0.0
 30
0.0
  9
$PUCSBASE
  2

  9
$PUCSNAME
  2

  9
$PUCSORG
 10
0.0
 20
0.0
 30
0.0
  9
$PUCSXDIR
 10
1.0
 20
0.0
 30
0.0
  9
$PUCSYDIR
 10
0.0
 20
1.0
 30
0.0
  9
$PUCSORTHOREF
  2

  9
$PUCSORTHOVIEW
 70
     0
  9
$PUCSORGTOP
 10
0.0
 20
0.0
 30
0.0
  9
$PUCSORGBOTTOM
 10
0.0
 20
0.0
 30
0.0
  9
$PUCSORGLEFT
 10
0.0
 20
0.0
 30
0.0
  9
$PUCSORGRIGHT
 10
0.0
 20
0.0
 30
0.0
  9
$PUCSORGFRONT
 10
0.0
 20
0.0
 30
0.0
  9
$PUCSORGBACK
 10
0.0
 20
0.0
 30
0.0
  9
$USERI1
 70
     0
  9
$USERI2
 70
     0
  9
$USERI3
 70
     0
  9
$USERI4
 70
     0
  9
$USERI5
 70
     0
  9
$USERR1
 40
0.0
  9
$USERR2
 40
0.0
  9
$USERR3
 40
0.0
  9
$USERR4
 40
0.0
  9
$USERR5
 40
0.0
  9
$WORLDVIEW
 70
     1
  9
$SHADEDGE
 70
     3
  9
$SHADEDIF
 70
    70
  9
$TILEMODE
 70
     1
  9
$MAXACTVP
 70
    64
  9
$PINSBASE
 10
0.0
 20
0.0
 30
0.0
  9
$PLIMCHECK
 70
     0
  9
$PEXTMIN
 10
0.0
 20
0.0
 30
0.0
  9
$PEXTMAX
 10
2100.0
 20
2970.0
 30
0.0
  9
$PLIMMIN
 10
0.0
 20
0.0
  9
$PLIMMAX
 10
2100.0
 20
2970.0
  9
$UNITMODE
 70
     0
  9
$VISRETAIN
 70
     1
  9
$PLINEGEN
 70
     0
  9
$PSLTSCALE
 70
     1
  9
$TREEDEPTH
 70
  3020
  9
$CMLSTYLE
  2
Standard
  9
$CMLJUST
 70
     0
  9
$CMLSCALE
 40
20.0
  9
$PROXYGRAPHICS
 70
     1
  9
$MEASUREMENT
 70
     1
  9
$CELWEIGHT
370
    -1
  9
$ENDCAPS
280
     0
  9
$JOINSTYLE
280
     0
  9
$LWDISPLAY
290
     0
  9
$INSUNITS
 70
     4
  9
$HYPERLINKBASE
  1

  9
$STYLESHEET
  1

  9
$XEDIT
290
     1
  9
$CEPSNTYPE
380
     0
  9
$PSTYLEMODE
290
     1
  9
$FINGERPRINTGUID
  2
{FAEB1C30-E019-11D5-929B-00C0DF256EC4}
  9
$VERSIONGUID
  2
{FAEB1C32-E019-11D5-929B-00C0DF256EC4}
  9
$EXTNAMES
290
     1
  9
$PSVPSCALE
 40
0.0
  9
$OLESTARTUP
290
     0
  9
$SORTENTS
280
   127
  9
$INDEXCTL
280
     0
  9
$HIDETEXT
280
     1
  9
$XCLIPFRAME
290
     0
  9
$HALOGAP
280
     0
  9
$OBSCOLOR
 70
   257
  9
$OBSLTYPE
280
     0
  9
$INTERSECTIONDISPLAY
280
     0
  9
$INTERSECTIONCOLOR
 70
   257
  9
$DIMASSOC
280
     2
  9
$PROJECTNAME
  1

  0
ENDSEC
  0
SECTION
  2
CLASSES
  0
CLASS
  1
ACDBDICTIONARYWDFLT
  2
AcDbDictionaryWithDefault
  3
ObjectDBX Classes
 90
        0
 91
        1
280
     0
281
     0
  0
ENDSEC
  0
SECTION
  2
TABLES
  0
TABLE
  2
VPORT
  5
8
330
0
100
AcDbSymbolTable
 70
     2
  0
VPORT
  5
29
330
8
100
AcDbSymbolTableRecord
100
AcDbViewportTableRecord
  2
*ACTIVE
 70
     0
 10
0.0
 20
0.0
 11
1.0
 21
1.0
 12
1050.0
 22
1485.0
 13
0.0
 23
0.0
 14
1.0
 24
1.0
 15
0.0
 25
0.0
 16
0.0
 26
0.0
 36
1.0
 17
0.0
 27
0.0
 37
0.0
 40
2970.0
 41
0.707071
 42
50.0
 43
0.0
 44
0.0
 50
0.0
 51
0.0
 71
    16
 72
   100
 73
     1
 74
     0
 75
     0
 76
     0
 77
     0
 78
     0
281
     0
 65
     0
110
0.0
120
0.0
130
0.0
111
1.0
121
0.0
131
0.0
112
0.0
122
1.0
132
0.0
 79
     0
146
0.0
  0
ENDTAB
  0
TABLE
  2
LTYPE
  5
5
330
0
100
AcDbSymbolTable
 70
     4
  0
LTYPE
  5
14
330
5
100
AcDbSymbolTableRecord
100
AcDbLinetypeTableRecord
  2
ByBlock
 70
     0
  3

 72
    65
 73
     0
 40
0.0
  0
LTYPE
  5
15
330
5
100
AcDbSymbolTableRecord
100
AcDbLinetypeTableRecord
  2
ByLayer
 70
     0
  3

 72
    65
 73
     0
 40
0.0
  0
LTYPE
  5
16
330
5
100
AcDbSymbolTableRecord
100
AcDbLinetypeTableRecord
  2
Continuous
 70
     0
  3
Solid line
 72
    65
 73
     0
 40
0.0
  0
LTYPE
  5
2A
330
5
100
AcDbSymbolTableRecord
100
AcDbLinetypeTableRecord
  2
DASHED
 70
     0
  3
__ __ __ __ __
 72
    65
 73
     2
 40
6.25
 49
5.0
 74
     4
 75
     0
340
0
 46
1.0
 50
0.0
 44
0.0
 45
0.0
 49
-1.25
 74
     4
 75
     0
340
0
 46
1.0
 50
0.0
 44
0.0
 45
0.0
  0
LTYPE
  5
105
330
5
100
AcDbSymbolTableRecord
100
AcDbLinetypeTableRecord
  2
CENTER
 70
     0
  3
__ . __ . __ . __ . __
 72
    65
 73
     4
 40
7.5
 49
5.0
 74
     4
 75
     0
340
0
 46
1.0
 50
0.0
 44
0.0
 45
0.0
 49
-1.25
 74
     4
 75
     0
340
0
 46
1.0
 50
0.0
 44
0.0
 45
0.0
 49
0.0
 74
     4
 75
     0
340
0
 46
1.0
 50
0.0
 44
0.0
 45
0.0
 49
-1.25
 74
     4
 75
     0
340
0
 46
1.0
 50
0.0
 44
0.0
 45
0.0
  0
LTYPE
  5
2C1
330
5
100
AcDbSymbolTableRecord
100
AcDbLinetypeTableRecord
  2
DASHDOT
 70
     0
  3
__ . __ . __ . __ . __
 72
    65
 73
     4
 40
7.5
 49
5.0
 74
     4
 75
     0
340
0
 46
1.0
 50
0.0
 44
0.0
 45
0.0
 49
-1.25
 74
     4
 75
     0
340
0
 46
1.0
 50
0.0
 44
0.0
 45
0.0
 49
0.0
 74
     4
 75
     0
340
0
 46
1.0
 50
0.0
 44
0.0
 45
0.0
 49
-1.25
 74
     4
 75
     0
340
0
 46
1.0
 50
0.0
 44
0.0
 45
0.0
  0
ENDTAB
  0
TABLE
  2
LAYER
  5
2
330
0
100
AcDbSymbolTable
 70
    14
  0
LAYER
  5
10
330
2
100
AcDbSymbolTableRecord
100
AcDbLayerTableRecord
  2
0
 70
     0
 62
     7
  6
Continuous
370
    -3
390
F
  0
LAYER
  5
2B
330
2
100
AcDbSymbolTableRecord
100
AcDbLayerTableRecord
  2
LC-INFO-1-10-mm-A4H-0
 70
     1
 62
     7
  6
ByBlock
370
    -3
390
F
  0
LAYER
  5
2C
330
2
100
AcDbSymbolTableRecord
100
AcDbLayerTableRecord
  2
LC-CUT-HIDDEN
 70
     0
 62
     7
  6
DASHED
370
    -3
390
F
  0
LAYER
  5
2D
330
2
100
AcDbSymbolTableRecord
100
AcDbLayerTableRecord
  2
LC-VIEWPORT
 70
     0
 62
     7
  6
ByBlock
370
    -3
390
F
  0
LAYER
  5
2E
330
2
100
AcDbSymbolTableRecord
100
AcDbLayerTableRecord
  2
LC-3D-HIDDEN
 70
     0
 62
     9
  6
DASHED
370
    -3
390
F
  0
LAYER
  5
33
330
2
100
AcDbSymbolTableRecord
100
AcDbLayerTableRecord
  2
LC-001-111-----0
 70
     0
 62
   253
  6
ByBlock
370
    -3
390
F
  0
LAYER
  5
A1
330
2
100
AcDbSymbolTableRecord
100
AcDbLayerTableRecord
  2
LC-002-002-----0
 70
     0
 62
     1
  6
ByBlock
370
    -3
390
F
  0
LAYER
  5
103
330
2
100
AcDbSymbolTableRecord
100
AcDbLayerTableRecord
  2
LC-003-230-ZVN-0
 70
     0
 62
     2
  6
ByBlock
370
    -3
390
F
  0
LAYER
  5
106
330
2
100
AcDbSymbolTableRecord
100
AcDbLayerTableRecord
  2
LC-004-006-MLN-0
 70
     0
 62
     2
  6
CENTER
370
    -3
390
F
  0
LAYER
  5
10C
330
2
100
AcDbSymbolTableRecord
100
AcDbLayerTableRecord
  2
LC-005-002-RND-0
 70
     0
 62
     1
  6
ByBlock
370
    -3
390
F
  0
LAYER
  5
1E4
330
2
100
AcDbSymbolTableRecord
100
AcDbLayerTableRecord
  2
LC-006-005-----0
 70
     0
 62
     2
  6
ByBlock
370
    -3
390
F
  0
LAYER
  5
21F
330
2
100
AcDbSymbolTableRecord
100
AcDbLayerTableRecord
  2
LC-007-003-----0
 70
     0
 62
     2
  6
ByBlock
370
    -3
390
F
  0
LAYER
  5
221
330
2
100
AcDbSymbolTableRecord
100
AcDbLayerTableRecord
  2
Defpoints
 70
     0
 62
     7
  6
Continuous
290
     0
370
    -3
390
F
  0
LAYER
  5
635
330
2
100
AcDbSymbolTableRecord
100
AcDbLayerTableRecord
  2
LC-008-004-----0
 70
     0
 62
     7
  6
ByBlock
370
    -3
390
F
  0
ENDTAB
  0
TABLE
  2
STYLE
  5
3
330
0
100
AcDbSymbolTable
 70
     2
  0
STYLE
  5
11
330
3
100
AcDbSymbolTableRecord
100
AcDbTextStyleTableRecord
  2
Standard
 70
     0
 40
0.0
 41
1.0
 50
0.0
 71
     0
 42
2.5
  3
txt
  4

  0
STYLE
  5
2F
330
3
100
AcDbSymbolTableRecord
100
AcDbTextStyleTableRecord
  2
LCTX0-400-0-0pDIN-Schrift
 70
     0
 40
0.0
 41
0.8
 50
0.0
 71
     0
 42
3.5
  3
TXT
  4

  0
ENDTAB
  0
TABLE
  2
VIEW
  5
6
330
0
100
AcDbSymbolTable
 70
     0
  0
ENDTAB
  0
TABLE
  2
UCS
  5
7
330
0
100
AcDbSymbolTable
 70
     0
  0
ENDTAB
  0
TABLE
  2
APPID
  5
9
330
0
100
AcDbSymbolTable
 70
     1
  0
APPID
  5
12
330
9
100
AcDbSymbolTableRecord
100
AcDbRegAppTableRecord
  2
ACAD
 70
     0
  0
ENDTAB
  0
TABLE
  2
DIMSTYLE
  5
A
330
0
100
AcDbSymbolTable
 70
     4
100
AcDbDimStyleTable
  0
DIMSTYLE
105
27
330
A
100
AcDbSymbolTableRecord
100
AcDbDimStyleTableRecord
  2
ISO-25
 70
     0
 41
2.5
 42
0.625
 43
3.75
 44
1.25
 73
     0
 74
     0
 77
     1
 78
     8
140
2.5
141
2.5
143
0.03937
147
0.625
171
     3
172
     1
271
     2
272
     2
274
     3
278
    44
283
     0
284
     8
340
11
  0
DIMSTYLE
105
21E
102
{ACAD_REACTORS
330
220
330
259
330
266
330
273
330
2A3
330
2CA
330
2D7
330
2E4
330
2F1
330
5E2
330
5EF
330
606
330
619
330
626
330
641
330
64E
102
}
330
A
100
AcDbSymbolTableRecord
100
AcDbDimStyleTableRecord
  2
LC-DIM-L-0025-02-02
 70
     0
 40
10.0
 41
2.5
 42
0.0
 43
7.5
 44
1.8
 73
     0
 74
     0
 77
     1
 78
     8
 79
     2
140
2.5
141
0.0
146
0.71
147
1.5
172
     1
176
     2
177
     2
178
     2
179
     2
271
     2
278
    44
289
     1
340
2F
  0
DIMSTYLE
105
230
102
{ACAD_REACTORS
330
231
330
23E
330
24B
330
5D5
330
66A
102
}
330
A
100
AcDbSymbolTableRecord
100
AcDbDimStyleTableRecord
  2
LC-DIM-L-0025-00-02
 70
     0
 40
10.0
 41
2.5
 42
0.0
 43
7.5
 44
1.8
 73
     0
 74
     0
 77
     1
 78
     8
140
2.5
141
0.0
146
0.71
147
1.5
172
     1
176
     2
177
     2
178
     2
271
     0
278
    44
289
     1
340
2F
  0
DIMSTYLE
105
5FC
102
{ACAD_REACTORS
330
5FD
330
65B
102
}
330
A
100
AcDbSymbolTableRecord
100
AcDbDimStyleTableRecord
  2
LC-DIM-R-0025-02-02
 70
     0
 40
10.0
 41
2.5
 42
0.0
 43
7.5
 44
1.8
 73
     0
 74
     0
 77
     1
 78
     8
 79
     2
140
2.5
141
0.0
146
0.71
147
1.5
176
     2
177
     2
178
     2
179
     2
271
     2
278
    44
289
     1
340
2F
  0
ENDTAB
  0
TABLE
  2
BLOCK_RECORD
  5
1
330
0
100
AcDbSymbolTable
 70
    44
  0
BLOCK_RECORD
  5
1F
330
1
100
AcDbSymbolTableRecord
100
AcDbBlockTableRecord
  2
*Model_Space
340
22
  0
BLOCK_RECORD
  5
1B
330
1
100
AcDbSymbolTableRecord
100
AcDbBlockTableRecord
  2
*Paper_Space
340
1E
  0
BLOCK_RECORD
  5
23
330
1
100
AcDbSymbolTableRecord
100
AcDbBlockTableRecord
  2
*Paper_Space0
340
26
  0
BLOCK_RECORD
  5
30
330
1
100
AcDbSymbolTableRecord
100
AcDbBlockTableRecord
  2
SYM1
340
0
102
{BLKREFS
331
104
102
}
  0
BLOCK_RECORD
  5
1E1
330
1
100
AcDbSymbolTableRecord
100
AcDbBlockTableRecord
  2
*X12
340
0
102
{BLKREFS
331
202
102
}
  0
BLOCK_RECORD
  5
203
330
1
100
AcDbSymbolTableRecord
100
AcDbBlockTableRecord
  2
*X23
340
0
102
{BLKREFS
331
21D
102
}
  0
BLOCK_RECORD
  5
222
330
1
100
AcDbSymbolTableRecord
100
AcDbBlockTableRecord
  2
*D4
340
0
  0
BLOCK_RECORD
  5
232
330
1
100
AcDbSymbolTableRecord
100
AcDbBlockTableRecord
  2
*D5
340
0
  0
BLOCK_RECORD
  5
23F
330
1
100
AcDbSymbolTableRecord
100
AcDbBlockTableRecord
  2
*D6
340
0
  0
BLOCK_RECORD
  5
24C
330
1
100
AcDbSymbolTableRecord
100
AcDbBlockTableRecord
  2
*D7
340
0
  0
BLOCK_RECORD
  5
25A
330
1
100
AcDbSymbolTableRecord
100
AcDbBlockTableRecord
  2
*D8
340
0
  0
BLOCK_RECORD
  5
267
330
1
100
AcDbSymbolTableRecord
100
AcDbBlockTableRecord
  2
*D9
340
0
  0
BLOCK_RECORD
  5
274
330
1
100
AcDbSymbolTableRecord
100
AcDbBlockTableRecord
  2
*D10
340
0
  0
BLOCK_RECORD
  5
292
330
1
100
AcDbSymbolTableRecord
100
AcDbBlockTableRecord
  2
*X311
340
0
102
{BLKREFS
331
299
102
}
  0
BLOCK_RECORD
  5
29A
330
1
100
AcDbSymbolTableRecord
100
AcDbBlockTableRecord
  2
*X412
340
0
102
{BLKREFS
331
2A1
102
}
  0
BLOCK_RECORD
  5
2A4
330
1
100
AcDbSymbolTableRecord
100
AcDbBlockTableRecord
  2
*D13
340
0
  0
BLOCK_RECORD
  5
2B0
330
1
100
AcDbSymbolTableRecord
100
AcDbBlockTableRecord
  2
*X514
340
0
102
{BLKREFS
331
2BF
102
}
  0
BLOCK_RECORD
  5
2CB
330
1
100
AcDbSymbolTableRecord
100
AcDbBlockTableRecord
  2
*D15
340
0
  0
BLOCK_RECORD
  5
2D8
330
1
100
AcDbSymbolTableRecord
100
AcDbBlockTableRecord
  2
*D16
340
0
  0
BLOCK_RECORD
  5
2E5
330
1
100
AcDbSymbolTableRecord
100
AcDbBlockTableRecord
  2
*D17
340
0
  0
BLOCK_RECORD
  5
2F2
330
1
100
AcDbSymbolTableRecord
100
AcDbBlockTableRecord
  2
*D18
340
0
  0
BLOCK_RECORD
  5
33D
330
1
100
AcDbSymbolTableRecord
100
AcDbBlockTableRecord
  2
POLY1
340
0
102
{BLKREFS
331
34C
102
}
  0
BLOCK_RECORD
  5
34D
330
1
100
AcDbSymbolTableRecord
100
AcDbBlockTableRecord
  2
POLY2
340
0
102
{BLKREFS
331
35C
102
}
  0
BLOCK_RECORD
  5
35E
330
1
100
AcDbSymbolTableRecord
100
AcDbBlockTableRecord
  2
POLY3
340
0
102
{BLKREFS
331
36D
102
}
  0
BLOCK_RECORD
  5
3CA
330
1
100
AcDbSymbolTableRecord
100
AcDbBlockTableRecord
  2
POLY4
340
0
102
{BLKREFS
331
3F3
102
}
  0
BLOCK_RECORD
  5
3F4
330
1
100
AcDbSymbolTableRecord
100
AcDbBlockTableRecord
  2
POLY5
340
0
102
{BLKREFS
331
415
102
}
  0
BLOCK_RECORD
  5
438
330
1
100
AcDbSymbolTableRecord
100
AcDbBlockTableRecord
  2
POLY6
340
0
102
{BLKREFS
331
445
102
}
  0
BLOCK_RECORD
  5
446
330
1
100
AcDbSymbolTableRecord
100
AcDbBlockTableRecord
  2
POLY7
340
0
102
{BLKREFS
331
453
102
}
  0
BLOCK_RECORD
  5
4E0
330
1
100
AcDbSymbolTableRecord
100
AcDbBlockTableRecord
  2
POLY8
340
0
102
{BLKREFS
331
4EF
102
}
  0
BLOCK_RECORD
  5
4FF
330
1
100
AcDbSymbolTableRecord
100
AcDbBlockTableRecord
  2
POLY9
340
0
102
{BLKREFS
331
50E
102
}
  0
BLOCK_RECORD
  5
510
330
1
100
AcDbSymbolTableRecord
100
AcDbBlockTableRecord
  2
POLY10
340
0
102
{BLKREFS
331
51F
102
}
  0
BLOCK_RECORD
  5
521
330
1
100
AcDbSymbolTableRecord
100
AcDbBlockTableRecord
  2
POLY11
340
0
102
{BLKREFS
331
530
102
}
  0
BLOCK_RECORD
  5
56D
330
1
100
AcDbSymbolTableRecord
100
AcDbBlockTableRecord
  2
POLY12
340
0
102
{BLKREFS
331
58E
102
}
  0
BLOCK_RECORD
  5
5B1
330
1
100
AcDbSymbolTableRecord
100
AcDbBlockTableRecord
  2
POLY13
340
0
102
{BLKREFS
331
5BE
102
}
  0
BLOCK_RECORD
  5
5BF
330
1
100
AcDbSymbolTableRecord
100
AcDbBlockTableRecord
  2
POLY14
340
0
102
{BLKREFS
331
5CC
102
}
  0
BLOCK_RECORD
  5
5D6
330
1
100
AcDbSymbolTableRecord
100
AcDbBlockTableRecord
  2
*D33
340
0
  0
BLOCK_RECORD
  5
5E3
330
1
100
AcDbSymbolTableRecord
100
AcDbBlockTableRecord
  2
*D34
340
0
  0
BLOCK_RECORD
  5
5F0
330
1
100
AcDbSymbolTableRecord
100
AcDbBlockTableRecord
  2
*D35
340
0
  0
BLOCK_RECORD
  5
5FE
330
1
100
AcDbSymbolTableRecord
100
AcDbBlockTableRecord
  2
*D36
340
0
  0
BLOCK_RECORD
  5
607
330
1
100
AcDbSymbolTableRecord
100
AcDbBlockTableRecord
  2
*D37
340
0
  0
BLOCK_RECORD
  5
61A
330
1
100
AcDbSymbolTableRecord
100
AcDbBlockTableRecord
  2
*D38
340
0
  0
BLOCK_RECORD
  5
627
330
1
100
AcDbSymbolTableRecord
100
AcDbBlockTableRecord
  2
*D39
340
0
  0
BLOCK_RECORD
  5
642
330
1
100
AcDbSymbolTableRecord
100
AcDbBlockTableRecord
  2
*D40
340
0
  0
BLOCK_RECORD
  5
64F
330
1
100
AcDbSymbolTableRecord
100
AcDbBlockTableRecord
  2
*D41
340
0
  0
BLOCK_RECORD
  5
65C
330
1
100
AcDbSymbolTableRecord
100
AcDbBlockTableRecord
  2
*D42
340
0
  0
BLOCK_RECORD
  5
66B
330
1
100
AcDbSymbolTableRecord
100
AcDbBlockTableRecord
  2
*D43
340
0
  0
ENDTAB
  0
ENDSEC
  0
SECTION
  2
BLOCKS
  0
BLOCK
  5
20
330
1F
100
AcDbEntity
  8
0
100
AcDbBlockBegin
  2
*Model_Space
 70
     0
 71
     0
 10
0.0
 20
0.0
 30
0.0
  3
*Model_Space
  1

  0
ENDBLK
  5
21
330
1F
100
AcDbEntity
  8
0
100
AcDbBlockEnd
  0
BLOCK
  5
1C
330
1B
100
AcDbEntity
 67
     1
  8
0
100
AcDbBlockBegin
  2
*Paper_Space
 70
     0
 71
     0
 10
0.0
 20
0.0
 30
0.0
  3
*Paper_Space
  1

  0
ENDBLK
  5
1D
330
1B
100
AcDbEntity
 67
     1
  8
0
100
AcDbBlockEnd
  0
BLOCK
  5
24
330
23
100
AcDbEntity
  8
0
100
AcDbBlockBegin
  2
*Paper_Space0
 70
     0
 71
     0
 10
0.0
 20
0.0
 30
0.0
  3
*Paper_Space0
  1

  0
ENDBLK
  5
25
330
23
100
AcDbEntity
  8
0
100
AcDbBlockEnd
  0
BLOCK
  5
31
330
30
100
AcDbEntity
  8
0
100
AcDbBlockBegin
  2
SYM1
 70
     0
 71
     0
 10
0.0
 20
0.0
 30
0.0
  3
SYM1
  1

  4
SYM1
  0
LINE
  5
34
330
30
100
AcDbEntity
  8
LC-001-111-----0
 62
   253
370
    50
100
AcDbLine
 10
2050.0
 20
50.0
 30
0.0
 11
2050.0
 21
2920.0
 31
0.0
  0
LINE
  5
35
330
30
100
AcDbEntity
  8
LC-001-111-----0
 62
   253
370
    25
100
AcDbLine
 10
178.0
 20
220.0
 30
0.0
 11
724.0
 21
220.0
 31
0.0
  0
LINE
  5
36
330
30
100
AcDbEntity
  8
LC-001-111-----0
 62
   253
370
    35
100
AcDbLine
 10
724.0
 20
220.0
 30
0.0
 11
2050.0
 21
220.0
 31
0.0
  0
LINE
  5
37
330
30
100
AcDbEntity
  8
LC-001-111-----0
 62
   253
370
    50
100
AcDbLine
 10
178.0
 20
602.5
 30
0.0
 11
2050.0
 21
602.5
 31
0.0
  0
LINE
  5
38
330
30
100
AcDbEntity
  8
LC-001-111-----0
 62
   253
370
    25
100
AcDbLine
 10
178.0
 20
92.5
 30
0.0
 11
2050.0
 21
92.5
 31
0.0
  0
LINE
  5
39
330
30
100
AcDbEntity
  8
LC-001-111-----0
 62
   253
370
    25
100
AcDbLine
 10
178.0
 20
135.0
 30
0.0
 11
724.0
 21
135.0
 31
0.0
  0
LINE
  5
3A
330
30
100
AcDbEntity
  8
LC-001-111-----0
 62
   253
370
    25
100
AcDbLine
 10
178.0
 20
177.5
 30
0.0
 11
724.0
 21
177.5
 31
0.0
  0
LINE
  5
3B
330
30
100
AcDbEntity
  8
LC-001-111-----0
 62
   253
370
    25
100
AcDbLine
 10
178.0
 20
262.5
 30
0.0
 11
1166.0
 21
262.5
 31
0.0
  0
LINE
  5
3C
330
30
100
AcDbEntity
  8
LC-001-111-----0
 62
   253
370
    25
100
AcDbLine
 10
178.0
 20
305.0
 30
0.0
 11
1166.0
 21
305.0
 31
0.0
  0
LINE
  5
3D
330
30
100
AcDbEntity
  8
LC-001-111-----0
 62
   253
370
    25
100
AcDbLine
 10
178.0
 20
347.5
 30
0.0
 11
1166.0
 21
347.5
 31
0.0
  0
LINE
  5
3E
330
30
100
AcDbEntity
  8
LC-001-111-----0
 62
   253
370
    25
100
AcDbLine
 10
178.0
 20
390.0
 30
0.0
 11
1166.0
 21
390.0
 31
0.0
  0
LINE
  5
3F
330
30
100
AcDbEntity
  8
LC-001-111-----0
 62
   253
370
    35
100
AcDbLine
 10
178.0
 20
432.5
 30
0.0
 11
2050.0
 21
432.5
 31
0.0
  0
LINE
  5
40
330
30
100
AcDbEntity
  8
LC-001-111-----0
 62
   253
370
    25
100
AcDbLine
 10
828.0
 20
262.5
 30
0.0
 11
828.0
 21
432.5
 31
0.0
  0
LINE
  5
41
330
30
100
AcDbEntity
  8
LC-001-111-----0
 62
   253
370
    35
100
AcDbLine
 10
1920.0
 20
92.5
 30
0.0
 11
1920.0
 21
220.0
 31
0.0
  0
LINE
  5
42
330
30
100
AcDbEntity
  8
LC-001-111-----0
 62
   253
370
    25
100
AcDbLine
 10
1166.0
 20
538.75
 30
0.0
 11
2050.0
 21
538.75
 31
0.0
  0
LINE
  5
43
330
30
100
AcDbEntity
  8
LC-001-111-----0
 62
   253
370
    25
100
AcDbLine
 10
256.0
 20
50.0
 30
0.0
 11
256.0
 21
432.5
 31
0.0
  0
LINE
  5
44
330
30
100
AcDbEntity
  8
LC-001-111-----0
 62
   253
370
    25
100
AcDbLine
 10
516.0
 20
50.0
 30
0.0
 11
516.0
 21
432.5
 31
0.0
  0
LINE
  5
45
330
30
100
AcDbEntity
  8
LC-001-111-----0
 62
   253
370
    25
100
AcDbLine
 10
646.0
 20
50.0
 30
0.0
 11
646.0
 21
432.5
 31
0.0
  0
LINE
  5
46
330
30
100
AcDbEntity
  8
LC-001-111-----0
 62
   253
370
    35
100
AcDbLine
 10
724.0
 20
50.0
 30
0.0
 11
724.0
 21
602.5
 31
0.0
  0
LINE
  5
47
330
30
100
AcDbEntity
  8
LC-001-111-----0
 62
   253
370
    35
100
AcDbLine
 10
1166.0
 20
50.0
 30
0.0
 11
1166.0
 21
602.5
 31
0.0
  0
LINE
  5
48
330
30
100
AcDbEntity
  8
LC-001-111-----0
 62
   253
370
    25
100
AcDbLine
 10
1920.0
 20
135.0
 30
0.0
 11
2050.0
 21
135.0
 31
0.0
  0
LINE
  5
49
330
30
100
AcDbEntity
  8
LC-001-111-----0
 62
   253
370
    25
100
AcDbLine
 10
984.0
 20
220.0
 30
0.0
 11
984.0
 21
602.5
 31
0.0
  0
LINE
  5
4A
330
30
100
AcDbEntity
  8
LC-001-111-----0
 62
   253
370
    25
100
AcDbLine
 10
1686.0
 20
538.75
 30
0.0
 11
1686.0
 21
602.5
 31
0.0
  0
LINE
  5
4B
330
30
100
AcDbEntity
  8
LC-001-111-----0
 62
   253
370
    25
100
AcDbLine
 10
1608.0
 20
50.0
 30
0.0
 11
1608.0
 21
92.5
 31
0.0
  0
LINE
  5
4C
330
30
100
AcDbEntity
  8
LC-001-111-----0
 62
   253
370
    50
100
AcDbLine
 10
178.0
 20
50.0
 30
0.0
 11
178.0
 21
2920.0
 31
0.0
  0
LINE
  5
4D
330
30
100
AcDbEntity
  8
LC-001-111-----0
 62
   253
370
    50
100
AcDbLine
 10
178.0
 20
2920.0
 30
0.0
 11
2050.0
 21
2920.0
 31
0.0
  0
TEXT
  5
4E
330
30
100
AcDbEntity
  8
LC-001-111-----0
 62
     7
370
    25
100
AcDbText
 10
1471.410714
 20
558.125
 30
0.0
 40
25.0
  1
1:10
 41
0.75
  7
LCTX0-400-0-0pDIN-Schrift
 72
     1
 11
1504.0
 21
558.125
 31
0.0
100
AcDbText
  0
TEXT
  5
4F
330
30
100
AcDbEntity
  8
LC-001-111-----0
 62
     7
370
    25
100
AcDbText
 10
1947.410714
 20
101.25
 30
0.0
 40
25.0
  1
1
 41
0.75
  7
LCTX0-400-0-0pDIN-Schrift
 72
     1
 11
1955.0
 21
101.25
 31
0.0
100
AcDbText
  0
TEXT
  5
50
330
30
100
AcDbEntity
  8
LC-001-111-----0
 62
     7
370
    25
100
AcDbText
 10
740.285714
 20
398.75
 30
0.0
 40
25.0
  1
2007
 41
0.75
  7
LCTX0-400-0-0pDIN-Schrift
 72
     1
 11
776.0
 21
398.75
 31
0.0
100
AcDbText
  0
TEXT
  5
51
330
30
100
AcDbEntity
  8
LC-001-111-----0
 62
     7
370
    25
100
AcDbText
 10
861.803571
 20
356.25
 30
0.0
 40
25.0
  1
04.06.
 41
0.75
  7
LCTX0-400-0-0pDIN-Schrift
 72
     1
 11
906.0
 21
356.25
 31
0.0
100
AcDbText
  0
TEXT
  5
52
330
30
100
AcDbEntity
  8
LC-001-111-----0
 62
     7
370
    25
100
AcDbText
 10
1056.696429
 20
356.25
 30
0.0
 40
25.0
  1
HÄ
 41
0.75
  7
LCTX0-400-0-0pDIN-Schrift
 72
     1
 11
1075.0
 21
356.25
 31
0.0
100
AcDbText
  0
TEXT
  5
53
330
30
100
AcDbEntity
  8
LC-001-111-----0
 62
   253
370
    20
100
AcDbText
 10
1183.923077
 20
560.625
 30
0.0
 40
20.0
  1
Maßstab
 41
0.75
  7
LCTX0-400-0-0pDIN-Schrift
100
AcDbText
  0
TEXT
  5
54
330
30
100
AcDbEntity
  8
LC-001-111-----0
 62
   253
370
    20
100
AcDbText
 10
869.928571
 20
401.25
 30
0.0
 40
20.0
  1
Datum
 41
0.75
  7
LCTX0-400-0-0pDIN-Schrift
 72
     1
 11
906.0
 21
401.25
 31
0.0
100
AcDbText
  0
TEXT
  5
55
330
30
100
AcDbEntity
  8
LC-001-111-----0
 62
   253
370
    20
100
AcDbText
 10
1042.857143
 20
401.25
 30
0.0
 40
20.0
  1
Name
 41
0.75
  7
LCTX0-400-0-0pDIN-Schrift
 72
     1
 11
1075.0
 21
401.25
 31
0.0
100
AcDbText
  0
TEXT
  5
56
330
30
100
AcDbEntity
  8
LC-001-111-----0
 62
   253
370
    20
100
AcDbText
 10
741.923077
 20
358.75
 30
0.0
 40
20.0
  1
Bearb.
 41
0.75
  7
LCTX0-400-0-0pDIN-Schrift
100
AcDbText
  0
TEXT
  5
57
330
30
100
AcDbEntity
  8
LC-001-111-----0
 62
   253
370
    20
100
AcDbText
 10
741.923077
 20
316.25
 30
0.0
 40
20.0
  1
Gepr.
 41
0.75
  7
LCTX0-400-0-0pDIN-Schrift
100
AcDbText
  0
TEXT
  5
58
330
30
100
AcDbEntity
  8
LC-001-111-----0
 62
   253
370
    20
100
AcDbText
 10
741.923077
 20
273.75
 30
0.0
 40
20.0
  1
Norm
 41
0.75
  7
LCTX0-400-0-0pDIN-Schrift
100
AcDbText
  0
TEXT
  5
59
330
30
100
AcDbEntity
  8
LC-001-111-----0
 62
   253
370
    20
100
AcDbText
 10
1937.923077
 20
188.75
 30
0.0
 40
20.0
  1
Blatt
 41
0.75
  7
LCTX0-400-0-0pDIN-Schrift
100
AcDbText
  0
TEXT
  5
5A
330
30
100
AcDbEntity
  8
LC-001-111-----0
 62
   253
370
    20
100
AcDbText
 10
2012.076923
 20
103.75
 30
0.0
 40
20.0
  1
Bl.
 41
0.75
  7
LCTX0-400-0-0pDIN-Schrift
 72
     2
 11
2037.076923
 21
103.75
 31
0.0
100
AcDbText
  0
TEXT
  5
5B
330
30
100
AcDbEntity
  8
LC-001-111-----0
 62
   253
370
    20
100
AcDbText
 10
200.0
 20
61.25
 30
0.0
 40
20.0
  1
Zust.
 41
0.6
  7
LCTX0-400-0-0pDIN-Schrift
 72
     1
 11
222.0
 21
61.25
 31
0.0
100
AcDbText
  0
TEXT
  5
5C
330
30
100
AcDbEntity
  8
LC-001-111-----0
 62
   253
370
    20
100
AcDbText
 10
334.928571
 20
61.25
 30
0.0
 40
20.0
  1
Änderung
 41
0.75
  7
LCTX0-400-0-0pDIN-Schrift
 72
     1
 11
386.0
 21
61.25
 31
0.0
100
AcDbText
  0
TEXT
  5
5D
330
30
100
AcDbEntity
  8
LC-001-111-----0
 62
   253
370
    20
100
AcDbText
 10
544.928571
 20
61.25
 30
0.0
 40
20.0
  1
Datum
 41
0.75
  7
LCTX0-400-0-0pDIN-Schrift
 72
     1
 11
581.0
 21
61.25
 31
0.0
100
AcDbText
  0
TEXT
  5
5E
330
30
100
AcDbEntity
  8
LC-001-111-----0
 62
   253
370
    20
100
AcDbText
 10
652.857143
 20
61.25
 30
0.0
 40
20.0
  1
Name
 41
0.75
  7
LCTX0-400-0-0pDIN-Schrift
 72
     1
 11
685.0
 21
61.25
 31
0.0
100
AcDbText
  0
TEXT
  5
5F
330
30
100
AcDbEntity
  8
LC-001-111-----0
 62
     7
370
    50
100
AcDbText
 10
1417.821429
 20
343.75
 30
0.0
 40
50.0
  1
Typos D-200
 41
0.75
  7
LCTX0-400-0-0pDIN-Schrift
 72
     1
 11
1608.0
 21
343.75
 31
0.0
100
AcDbText
  0
TEXT
  5
60
330
30
100
AcDbEntity
  8
LC-001-111-----0
 62
     7
370
    50
100
AcDbText
 10
1328.714286
 20
131.25
 30
0.0
 40
50.0
  1
4.07.711.04.00
 41
0.75
  7
LCTX0-400-0-0pDIN-Schrift
 72
     1
 11
1543.0
 21
131.25
 31
0.0
100
AcDbText
  0
ARC
  5
61
330
30
100
AcDbEntity
  8
LC-001-111-----0
 62
   253
370
    25
100
AcDbCircle
 10
758.903191
 20
174.567744
 30
0.0
 40
20.81533311668208
100
AcDbArc
 50
62.408264
 51
94.48185
  0
LINE
  5
62
330
30
100
AcDbEntity
  8
LC-001-111-----0
 62
   253
370
    50
100
AcDbLine
 10
178.0
 20
50.0
 30
0.0
 11
2050.0
 21
50.0
 31
0.0
  0
LINE
  5
63
330
30
100
AcDbEntity
  8
LC-001-111-----0
 62
   253
370
    25
100
AcDbLine
 10
50.0
 20
1485.0
 30
0.0
 11
0.0
 21
1485.0
 31
0.0
  0
LINE
  5
64
330
30
100
AcDbEntity
  8
LC-001-111-----0
 62
   253
370
    25
100
AcDbLine
 10
1063.835603
 20
195.169147
 30
0.0
 11
1063.835603
 21
157.149147
 31
0.0
  0
LINE
  5
65
330
30
100
AcDbEntity
  8
LC-001-111-----0
 62
   253
370
    25
100
AcDbLine
 10
2100.0
 20
2970.0
 30
0.0
 11
2100.0
 21
0.0
 31
0.0
  0
LINE
  5
66
330
30
100
AcDbEntity
  8
LC-001-111-----0
 62
   253
370
    25
100
AcDbLine
 10
2100.0
 20
0.0
 30
0.0
 11
0.0
 21
0.0
 31
0.0
  0
LINE
  5
67
330
30
100
AcDbEntity
  8
LC-001-111-----0
 62
   253
370
    25
100
AcDbLine
 10
0.0
 20
0.0
 30
0.0
 11
0.0
 21
2970.0
 31
0.0
  0
LINE
  5
68
330
30
100
AcDbEntity
  8
LC-001-111-----0
 62
   253
370
    25
100
AcDbLine
 10
2100.0
 20
2970.0
 30
0.0
 11
0.0
 21
2970.0
 31
0.0
  0
TEXT
  5
69
330
30
100
AcDbEntity
  8
LC-001-111-----0
 62
   253
370
    20
100
AcDbText
 10
743.5
 20
111.159147
 30
0.0
 40
20.0
  1
Hofbauerstraße 1  ·  D-94209 REGEN
 41
0.65
  7
LCTX0-400-0-0pDIN-Schrift
 72
     1
 11
945.0
 21
111.159147
 31
0.0
100
AcDbText
  0
ARC
  5
6A
330
30
100
AcDbEntity
  8
LC-001-111-----0
 62
   253
370
    25
100
AcDbCircle
 10
758.032826
 20
185.671748
 30
0.0
 40
9.677270814709853
100
AcDbArc
 50
94.48185
 51
252.731329
  0
ARC
  5
6B
330
30
100
AcDbEntity
  8
LC-001-111-----0
 62
   253
370
    25
100
AcDbCircle
 10
823.845603
 20
176.159147
 30
0.0
 40
19.01000000000008
100
AcDbArc
 50
74.719456
 51
285.280544
  0
LINE
  5
6C
330
30
100
AcDbEntity
  8
LC-001-111-----0
 62
   253
370
    25
100
AcDbLine
 10
828.855603
 20
157.821208
 30
0.0
 11
828.855603
 21
163.204148
 31
0.0
  0
ARC
  5
6D
330
30
100
AcDbEntity
  8
LC-001-111-----0
 62
   253
370
    25
100
AcDbCircle
 10
823.845603
 20
176.159147
 30
0.0
 40
13.88999999999995
100
AcDbArc
 50
68.857352
 51
291.142648
  0
ARC
  5
6E
330
30
100
AcDbEntity
  8
LC-001-111-----0
 62
   253
370
    25
100
AcDbCircle
 10
823.845603
 20
176.159147
 30
0.0
 40
12.39000000000002
100
AcDbArc
 50
58.303227
 51
301.696773
  0
ARC
  5
6F
330
30
100
AcDbEntity
  8
LC-001-111-----0
 62
   253
370
    25
100
AcDbCircle
 10
1019.845603
 20
176.159147
 30
0.0
 40
19.01000000000008
100
AcDbArc
 50
74.719456
 51
285.280544
  0
LINE
  5
70
330
30
100
AcDbEntity
  8
LC-001-111-----0
 62
   253
370
    25
100
AcDbLine
 10
830.355603
 20
165.617231
 30
0.0
 11
830.355603
 21
156.709726
 31
0.0
  0
LINE
  5
71
330
30
100
AcDbEntity
  8
LC-001-111-----0
 62
   253
370
    25
100
AcDbLine
 10
755.160101
 20
176.430697
 30
0.0
 11
762.683613
 21
174.091896
 31
0.0
  0
ARC
  5
72
330
30
100
AcDbEntity
  8
LC-001-111-----0
 62
   253
370
    25
100
AcDbCircle
 10
823.845603
 20
176.159147
 30
0.0
 40
20.51000000000012
100
AcDbArc
 50
71.493868
 51
288.506132
  0
LINE
  5
73
330
30
100
AcDbEntity
  8
LC-001-111-----0
 62
   253
370
    25
100
AcDbLine
 10
1024.855603
 20
157.821208
 30
0.0
 11
1024.855603
 21
163.204148
 31
0.0
  0
LINE
  5
74
330
30
100
AcDbEntity
  8
LC-001-111-----0
 62
   253
370
    25
100
AcDbLine
 10
830.355603
 20
195.608569
 30
0.0
 11
830.355603
 21
186.701063
 31
0.0
  0
ARC
  5
75
330
30
100
AcDbEntity
  8
LC-001-111-----0
 62
   253
370
    25
100
AcDbCircle
 10
1019.845603
 20
176.159147
 30
0.0
 40
13.88999999999995
100
AcDbArc
 50
68.857352
 51
291.142648
  0
LINE
  5
76
330
30
100
AcDbEntity
  8
LC-001-111-----0
 62
   253
370
    25
100
AcDbLine
 10
862.835603
 20
155.649147
 30
0.0
 11
862.835603
 21
196.669147
 31
0.0
  0
LINE
  5
77
330
30
100
AcDbEntity
  8
LC-001-111-----0
 62
   253
370
    25
100
AcDbLine
 10
862.835603
 20
196.669147
 30
0.0
 11
872.355603
 21
196.669147
 31
0.0
  0
LINE
  5
78
330
30
100
AcDbEntity
  8
LC-001-111-----0
 62
   253
370
    25
100
AcDbLine
 10
872.355603
 20
196.669147
 30
0.0
 11
872.355603
 21
179.519147
 31
0.0
  0
LINE
  5
79
330
30
100
AcDbEntity
  8
LC-001-111-----0
 62
   253
370
    25
100
AcDbLine
 10
872.355603
 20
179.519147
 30
0.0
 11
887.335603
 21
179.519147
 31
0.0
  0
LINE
  5
7A
330
30
100
AcDbEntity
  8
LC-001-111-----0
 62
   253
370
    25
100
AcDbLine
 10
887.335603
 20
179.519147
 30
0.0
 11
887.335603
 21
196.669147
 31
0.0
  0
LINE
  5
7B
330
30
100
AcDbEntity
  8
LC-001-111-----0
 62
   253
370
    25
100
AcDbLine
 10
887.335603
 20
196.669147
 30
0.0
 11
896.855603
 21
196.669147
 31
0.0
  0
LINE
  5
7C
330
30
100
AcDbEntity
  8
LC-001-111-----0
 62
   253
370
    25
100
AcDbLine
 10
896.855603
 20
196.669147
 30
0.0
 11
896.855603
 21
155.649147
 31
0.0
  0
LINE
  5
7D
330
30
100
AcDbEntity
  8
LC-001-111-----0
 62
   253
370
    25
100
AcDbLine
 10
896.855603
 20
155.649147
 30
0.0
 11
887.335603
 21
155.649147
 31
0.0
  0
LINE
  5
7E
330
30
100
AcDbEntity
  8
LC-001-111-----0
 62
   253
370
    25
100
AcDbLine
 10
887.335603
 20
155.649147
 30
0.0
 11
887.335603
 21
172.799147
 31
0.0
  0
LINE
  5
7F
330
30
100
AcDbEntity
  8
LC-001-111-----0
 62
   253
370
    25
100
AcDbLine
 10
887.335603
 20
172.799147
 30
0.0
 11
872.355603
 21
172.799147
 31
0.0
  0
LINE
  5
80
330
30
100
AcDbEntity
  8
LC-001-111-----0
 62
   253
370
    25
100
AcDbLine
 10
872.355603
 20
172.799147
 30
0.0
 11
872.355603
 21
155.649147
 31
0.0
  0
LINE
  5
81
330
30
100
AcDbEntity
  8
LC-001-111-----0
 62
   253
370
    25
100
AcDbLine
 10
872.355603
 20
155.649147
 30
0.0
 11
862.835603
 21
155.649147
 31
0.0
  0
CIRCLE
  5
82
330
30
100
AcDbEntity
  8
LC-001-111-----0
 62
   253
370
    25
100
AcDbCircle
 10
946.345603
 20
176.159147
 30
0.0
 40
12.39000000000044
  0
CIRCLE
  5
83
330
30
100
AcDbEntity
  8
LC-001-111-----0
 62
   253
370
    25
100
AcDbCircle
 10
946.345603
 20
176.159147
 30
0.0
 40
20.51000000000049
  0
ARC
  5
84
330
30
100
AcDbEntity
  8
LC-001-111-----0
 62
   253
370
    25
100
AcDbCircle
 10
1019.845603
 20
176.159147
 30
0.0
 40
12.39000000000002
100
AcDbArc
 50
58.303227
 51
301.696773
  0
LINE
  5
85
330
30
100
AcDbEntity
  8
LC-001-111-----0
 62
   253
370
    25
100
AcDbLine
 10
864.335603
 20
195.169147
 30
0.0
 11
864.335603
 21
157.149147
 31
0.0
  0
LINE
  5
86
330
30
100
AcDbEntity
  8
LC-001-111-----0
 62
   253
370
    25
100
AcDbLine
 10
1026.355603
 20
165.617231
 30
0.0
 11
1026.355603
 21
156.709726
 31
0.0
  0
LINE
  5
87
330
30
100
AcDbEntity
  8
LC-001-111-----0
 62
   253
370
    25
100
AcDbLine
 10
864.335603
 20
157.149147
 30
0.0
 11
870.855603
 21
157.149147
 31
0.0
  0
LINE
  5
88
330
30
100
AcDbEntity
  8
LC-001-111-----0
 62
   253
370
    25
100
AcDbLine
 10
870.855603
 20
157.149147
 30
0.0
 11
870.855603
 21
174.299147
 31
0.0
  0
LINE
  5
89
330
30
100
AcDbEntity
  8
LC-001-111-----0
 62
   253
370
    25
100
AcDbLine
 10
870.855603
 20
174.299147
 30
0.0
 11
888.835603
 21
174.299147
 31
0.0
  0
LINE
  5
8A
330
30
100
AcDbEntity
  8
LC-001-111-----0
 62
   253
370
    25
100
AcDbLine
 10
888.835603
 20
174.299147
 30
0.0
 11
888.835603
 21
157.149147
 31
0.0
  0
LINE
  5
8B
330
30
100
AcDbEntity
  8
LC-001-111-----0
 62
   253
370
    25
100
AcDbLine
 10
888.835603
 20
157.149147
 30
0.0
 11
895.355603
 21
157.149147
 31
0.0
  0
LINE
  5
8C
330
30
100
AcDbEntity
  8
LC-001-111-----0
 62
   253
370
    25
100
AcDbLine
 10
895.355603
 20
157.149147
 30
0.0
 11
895.355603
 21
195.169147
 31
0.0
  0
LINE
  5
8D
330
30
100
AcDbEntity
  8
LC-001-111-----0
 62
   253
370
    25
100
AcDbLine
 10
895.355603
 20
195.169147
 30
0.0
 11
888.835603
 21
195.169147
 31
0.0
  0
LINE
  5
8E
330
30
100
AcDbEntity
  8
LC-001-111-----0
 62
   253
370
    25
100
AcDbLine
 10
888.835603
 20
195.169147
 30
0.0
 11
888.835603
 21
178.019147
 31
0.0
  0
LINE
  5
8F
330
30
100
AcDbEntity
  8
LC-001-111-----0
 62
   253
370
    25
100
AcDbLine
 10
888.835603
 20
178.019147
 30
0.0
 11
870.855603
 21
178.019147
 31
0.0
  0
LINE
  5
90
330
30
100
AcDbEntity
  8
LC-001-111-----0
 62
   253
370
    25
100
AcDbLine
 10
870.855603
 20
178.019147
 30
0.0
 11
870.855603
 21
195.169147
 31
0.0
  0
CIRCLE
  5
91
330
30
100
AcDbEntity
  8
LC-001-111-----0
 62
   253
370
    25
100
AcDbCircle
 10
946.345603
 20
176.159147
 30
0.0
 40
19.01000000000055
  0
ARC
  5
92
330
30
100
AcDbEntity
  8
LC-001-111-----0
 62
   253
370
    25
100
AcDbCircle
 10
760.836588
 20
168.15034
 30
0.0
 40
6.222024781007809
100
AcDbArc
 50
268.246912
 51
72.731329
  0
ARC
  5
93
330
30
100
AcDbEntity
  8
LC-001-111-----0
 62
   253
370
    25
100
AcDbCircle
 10
761.412387
 20
186.963179
 30
0.0
 40
25.04367341134793
100
AcDbArc
 50
239.19233
 51
268.246912
  0
LINE
  5
94
330
30
100
AcDbEntity
  8
LC-001-111-----0
 62
   253
370
    25
100
AcDbLine
 10
748.586073
 20
165.453385
 30
0.0
 11
748.586073
 21
160.350534
 31
0.0
  0
ARC
  5
95
330
30
100
AcDbEntity
  8
LC-001-111-----0
 62
   253
370
    25
100
AcDbCircle
 10
760.81067
 20
180.45076
 30
0.0
 40
23.52572762426598
100
AcDbArc
 50
238.692783
 51
274.343327
  0
ARC
  5
96
330
30
100
AcDbEntity
  8
LC-001-111-----0
 62
   253
370
    25
100
AcDbCircle
 10
1019.845603
 20
176.159147
 30
0.0
 40
20.51000000000012
100
AcDbArc
 50
71.493868
 51
288.506132
  0
ARC
  5
97
330
30
100
AcDbEntity
  8
LC-001-111-----0
 62
   253
370
    25
100
AcDbCircle
 10
761.779647
 20
167.692822
 30
0.0
 40
10.73104525444839
100
AcDbArc
 50
274.343327
 51
74.255463
  0
LINE
  5
98
330
30
100
AcDbEntity
  8
LC-001-111-----0
 62
   253
370
    25
100
AcDbLine
 10
1026.355603
 20
195.608569
 30
0.0
 11
1026.355603
 21
186.701063
 31
0.0
  0
LINE
  5
99
330
30
100
AcDbEntity
  8
LC-001-111-----0
 62
   253
370
    25
100
AcDbLine
 10
764.691502
 20
178.02125
 30
0.0
 11
757.135251
 21
180.151556
 31
0.0
  0
LINE
  5
9A
330
30
100
AcDbEntity
  8
LC-001-111-----0
 62
   253
370
    25
100
AcDbLine
 10
1024.855603
 20
189.114146
 30
0.0
 11
1024.855603
 21
194.497086
 31
0.0
  0
ARC
  5
9B
330
30
100
AcDbEntity
  8
LC-001-111-----0
 62
   253
370
    25
100
AcDbCircle
 10
758.632108
 20
185.460948
 30
0.0
 40
5.51636013010035
100
AcDbArc
 50
90.951212
 51
254.255463
  0
ARC
  5
9C
330
30
100
AcDbEntity
  8
LC-001-111-----0
 62
   253
370
    25
100
AcDbCircle
 10
758.906662
 20
168.924866
 30
0.0
 40
22.05472179307849
100
AcDbArc
 50
64.088485
 51
90.951212
  0
LINE
  5
9D
330
30
100
AcDbEntity
  8
LC-001-111-----0
 62
   253
370
    25
100
AcDbLine
 10
768.544191
 20
188.762426
 30
0.0
 11
768.544191
 21
193.015758
 31
0.0
  0
LINE
  5
9E
330
30
100
AcDbEntity
  8
LC-001-111-----0
 62
   253
370
    25
100
AcDbLine
 10
1071.855603
 20
177.513832
 30
0.0
 11
1087.818366
 21
196.669147
 31
0.0
  0
LINE
  5
9F
330
30
100
AcDbEntity
  8
LC-001-111-----0
 62
   253
370
    25
100
AcDbLine
 10
1087.818366
 20
196.669147
 30
0.0
 11
1099.299433
 21
196.669147
 31
0.0
  0
LINE
  5
A0
330
30
100
AcDbEntity
  8
LC-001-111-----0
 62
   253
370
    25
100
AcDbLine
 10
1099.299433
 20
196.669147
 30
0.0
 11
1082.207766
 21
176.159147
 31
0.0
  0
LINE
  5
A2
330
30
100
AcDbEntity
  8
LC-002-002-----0
 62
     1
370
    25
100
AcDbLine
 10
1143.855603
 20
159.963432
 30
0.0
 11
1143.855603
 21
192.354862
 31
0.0
  0
LINE
  5
A3
330
30
100
AcDbEntity
  8
LC-002-002-----0
 62
     1
370
    25
100
AcDbLine
 10
1143.855603
 20
192.354862
 30
0.0
 11
1127.659888
 21
176.159147
 31
0.0
  0
LINE
  5
A4
330
30
100
AcDbEntity
  8
LC-002-002-----0
 62
     1
370
    25
100
AcDbLine
 10
1127.659888
 20
176.159147
 30
0.0
 11
1143.855603
 21
159.963432
 31
0.0
  0
LINE
  5
A5
330
30
100
AcDbEntity
  8
LC-002-002-----0
 62
     1
370
    25
100
AcDbLine
 10
1142.355603
 20
163.584752
 30
0.0
 11
1142.355603
 21
188.733542
 31
0.0
  0
LINE
  5
A6
330
30
100
AcDbEntity
  8
LC-001-111-----0
 62
   253
370
    25
100
AcDbLine
 10
1082.207766
 20
176.159147
 30
0.0
 11
1099.299433
 21
155.649147
 31
0.0
  0
LINE
  5
A7
330
30
100
AcDbEntity
  8
LC-001-111-----0
 62
   253
370
    25
100
AcDbLine
 10
1099.299433
 20
155.649147
 30
0.0
 11
1087.818366
 21
155.649147
 31
0.0
  0
LINE
  5
A8
330
30
100
AcDbEntity
  8
LC-001-111-----0
 62
   253
370
    25
100
AcDbLine
 10
1087.818366
 20
155.649147
 30
0.0
 11
1071.855603
 21
174.804462
 31
0.0
  0
LINE
  5
A9
330
30
100
AcDbEntity
  8
LC-001-111-----0
 62
   253
370
    25
100
AcDbLine
 10
1062.335603
 20
155.649147
 30
0.0
 11
1062.335603
 21
196.669147
 31
0.0
  0
LINE
  5
AA
330
30
100
AcDbEntity
  8
LC-001-111-----0
 62
   253
370
    25
100
AcDbLine
 10
828.855603
 20
189.114146
 30
0.0
 11
828.855603
 21
194.497086
 31
0.0
  0
ARC
  5
AB
330
30
100
AcDbEntity
  8
LC-001-111-----0
 62
   253
370
    25
100
AcDbCircle
 10
758.903191
 20
174.567744
 30
0.0
 40
19.31533311668209
100
AcDbArc
 50
65.072024
 51
94.48185
  0
LINE
  5
AC
330
30
100
AcDbEntity
  8
LC-001-111-----0
 62
   253
370
    25
100
AcDbLine
 10
1063.835603
 20
157.149147
 30
0.0
 11
1070.355603
 21
157.149147
 31
0.0
  0
LINE
  5
AD
330
30
100
AcDbEntity
  8
LC-001-111-----0
 62
   253
370
    25
100
AcDbLine
 10
1070.355603
 20
157.149147
 30
0.0
 11
1070.355603
 21
195.169147
 31
0.0
  0
LINE
  5
AE
330
30
100
AcDbEntity
  8
LC-001-111-----0
 62
   253
370
    25
100
AcDbLine
 10
1070.355603
 20
195.169147
 30
0.0
 11
1063.835603
 21
195.169147
 31
0.0
  0
LINE
  5
AF
330
30
100
AcDbEntity
  8
LC-001-111-----0
 62
   253
370
    25
100
AcDbLine
 10
1065.335603
 20
193.669147
 30
0.0
 11
1065.335603
 21
158.649147
 31
0.0
  0
LINE
  5
B0
330
30
100
AcDbEntity
  8
LC-002-002-----0
 62
     1
370
    25
100
AcDbLine
 10
1142.355603
 20
188.733542
 30
0.0
 11
1129.781208
 21
176.159147
 31
0.0
  0
LINE
  5
B1
330
30
100
AcDbEntity
  8
LC-002-002-----0
 62
     1
370
    25
100
AcDbLine
 10
1129.781208
 20
176.159147
 30
0.0
 11
1142.355603
 21
163.584752
 31
0.0
  0
LINE
  5
B2
330
30
100
AcDbEntity
  8
LC-001-111-----0
 62
   253
370
    25
100
AcDbLine
 10
1062.335603
 20
196.669147
 30
0.0
 11
1071.855603
 21
196.669147
 31
0.0
  0
LINE
  5
B3
330
30
100
AcDbEntity
  8
LC-001-111-----0
 62
   253
370
    25
100
AcDbLine
 10
1071.855603
 20
196.669147
 30
0.0
 11
1071.855603
 21
155.649147
 31
0.0
  0
LINE
  5
B4
330
30
100
AcDbEntity
  8
LC-001-111-----0
 62
   253
370
    25
100
AcDbLine
 10
1071.855603
 20
155.649147
 30
0.0
 11
1062.335603
 21
155.649147
 31
0.0
  0
ARC
  5
B5
330
30
100
AcDbEntity
  8
LC-001-111-----0
 62
   253
370
    25
100
AcDbCircle
 10
758.032826
 20
185.671748
 30
0.0
 40
8.177270814709827
100
AcDbArc
 50
94.48185
 51
252.731329
  0
LINE
  5
B6
330
30
100
AcDbEntity
  8
LC-001-111-----0
 62
   253
370
    25
100
AcDbLine
 10
755.60538
 20
177.863082
 30
0.0
 11
763.128892
 21
175.524281
 31
0.0
  0
ARC
  5
B7
330
30
100
AcDbEntity
  8
LC-001-111-----0
 62
   253
370
    25
100
AcDbCircle
 10
760.836588
 20
168.15034
 30
0.0
 40
7.72202478100773
100
AcDbArc
 50
268.246912
 51
72.731329
  0
LINE
  5
B8
330
30
100
AcDbEntity
  8
LC-001-111-----0
 62
   253
370
    25
100
AcDbLine
 10
827.355603
 20
191.143539
 30
0.0
 11
827.355603
 21
193.313738
 31
0.0
  0
ARC
  5
B9
330
30
100
AcDbEntity
  8
LC-001-111-----0
 62
   253
370
    25
100
AcDbCircle
 10
823.845603
 20
176.159147
 30
0.0
 40
17.50999999999996
100
AcDbArc
 50
78.436322
 51
281.563678
  0
LINE
  5
BA
330
30
100
AcDbEntity
  8
LC-001-111-----0
 62
   253
370
    25
100
AcDbLine
 10
827.355603
 20
159.004556
 30
0.0
 11
827.355603
 21
161.174755
 31
0.0
  0
LINE
  5
BB
330
30
100
AcDbEntity
  8
LC-002-002-----0
 62
     1
370
    25
100
AcDbLine
 10
1145.355603
 20
195.976182
 30
0.0
 11
1145.355603
 21
156.342112
 31
0.0
  0
LINE
  5
BC
330
30
100
AcDbEntity
  8
LC-002-002-----0
 62
     1
370
    25
100
AcDbLine
 10
1145.355603
 20
156.342112
 30
0.0
 11
1125.538568
 21
176.159147
 31
0.0
  0
LINE
  5
BD
330
30
100
AcDbEntity
  8
LC-002-002-----0
 62
     1
370
    25
100
AcDbLine
 10
1125.538568
 20
176.159147
 30
0.0
 11
1145.355603
 21
195.976182
 31
0.0
  0
LINE
  5
BE
330
30
100
AcDbEntity
  8
LC-001-111-----0
 62
   253
370
    25
100
AcDbLine
 10
1065.335603
 20
158.649147
 30
0.0
 11
1068.855603
 21
158.649147
 31
0.0
  0
LINE
  5
BF
330
30
100
AcDbEntity
  8
LC-001-111-----0
 62
   253
370
    25
100
AcDbLine
 10
1068.855603
 20
158.649147
 30
0.0
 11
1068.855603
 21
193.669147
 31
0.0
  0
LINE
  5
C0
330
30
100
AcDbEntity
  8
LC-001-111-----0
 62
   253
370
    25
100
AcDbLine
 10
1068.855603
 20
193.669147
 30
0.0
 11
1065.335603
 21
193.669147
 31
0.0
  0
LINE
  5
C1
330
30
100
AcDbEntity
  8
LC-001-111-----0
 62
   253
370
    25
100
AcDbLine
 10
1067.095603
 20
192.169147
 30
0.0
 11
1067.095603
 21
160.149147
 31
0.0
  0
ARC
  5
C2
330
30
100
AcDbEntity
  8
LC-001-111-----0
 62
   253
370
    25
100
AcDbCircle
 10
823.845603
 20
176.159147
 30
0.0
 40
15.38999999999992
100
AcDbArc
 50
76.816519
 51
283.183481
  0
LINE
  5
C3
330
30
100
AcDbEntity
  8
LC-001-111-----0
 62
   253
370
    25
100
AcDbLine
 10
870.855603
 20
195.169147
 30
0.0
 11
864.335603
 21
195.169147
 31
0.0
  0
LINE
  5
C4
330
30
100
AcDbEntity
  8
LC-001-111-----0
 62
   253
370
    25
100
AcDbLine
 10
1096.09687
 20
195.169147
 30
0.0
 11
1088.520928
 21
195.169147
 31
0.0
  0
LINE
  5
C5
330
30
100
AcDbEntity
  8
LC-001-111-----0
 62
   253
370
    25
100
AcDbLine
 10
865.835603
 20
158.649147
 30
0.0
 11
869.355603
 21
158.649147
 31
0.0
  0
LINE
  5
C6
330
30
100
AcDbEntity
  8
LC-001-111-----0
 62
   253
370
    25
100
AcDbLine
 10
1023.355603
 20
191.143539
 30
0.0
 11
1023.355603
 21
193.313738
 31
0.0
  0
LINE
  5
C7
330
30
100
AcDbEntity
  8
LC-001-111-----0
 62
   253
370
    25
100
AcDbLine
 10
892.095603
 20
192.169147
 30
0.0
 11
892.095603
 21
160.149147
 31
0.0
  0
TEXT
  5
C8
330
30
100
AcDbEntity
  8
LC-001-111-----0
 62
     1
370
    15
100
AcDbText
 10
1114.571429
 20
21.25
 30
0.0
 40
15.0
  1
Typos-D200
 41
0.75
  7
LCTX0-400-0-0pDIN-Schrift
 72
     1
 11
1166.0
 21
21.25
 31
0.0
100
AcDbText
  0
CIRCLE
  5
C9
330
30
100
AcDbEntity
  8
LC-001-111-----0
 62
   253
370
    25
100
AcDbCircle
 10
946.345603
 20
176.159147
 30
0.0
 40
17.51000000000047
  0
LINE
  5
CA
330
30
100
AcDbEntity
  8
LC-001-111-----0
 62
   253
370
    25
100
AcDbLine
 10
1088.520928
 20
195.169147
 30
0.0
 11
1072.679261
 21
176.159147
 31
0.0
  0
ARC
  5
CB
330
30
100
AcDbEntity
  8
LC-001-111-----0
 62
   253
370
    25
100
AcDbCircle
 10
1019.845603
 20
176.159147
 30
0.0
 40
17.50999999999996
100
AcDbArc
 50
78.436322
 51
281.563678
  0
ARC
  5
CC
330
30
100
AcDbEntity
  8
LC-001-111-----0
 62
   253
370
    25
100
AcDbCircle
 10
761.412387
 20
186.963179
 30
0.0
 40
26.54367341134783
100
AcDbArc
 50
244.741378
 51
268.246912
  0
LINE
  5
CD
330
30
100
AcDbEntity
  8
LC-001-111-----0
 62
   253
370
    25
100
AcDbLine
 10
1023.355603
 20
159.004556
 30
0.0
 11
1023.355603
 21
161.174755
 31
0.0
  0
LINE
  5
CE
330
30
100
AcDbEntity
  8
LC-002-002-----0
 62
     1
370
    25
100
AcDbLine
 10
1140.855603
 20
167.206073
 30
0.0
 11
1140.855603
 21
185.112221
 31
0.0
  0
LINE
  5
CF
330
30
100
AcDbEntity
  8
LC-002-002-----0
 62
     1
370
    25
100
AcDbLine
 10
1140.855603
 20
185.112221
 30
0.0
 11
1131.902529
 21
176.159147
 31
0.0
  0
LINE
  5
D0
330
30
100
AcDbEntity
  8
LC-002-002-----0
 62
     1
370
    25
100
AcDbLine
 10
1131.902529
 20
176.159147
 30
0.0
 11
1140.855603
 21
167.206073
 31
0.0
  0
CIRCLE
  5
D1
330
30
100
AcDbEntity
  8
LC-001-111-----0
 62
   253
370
    25
100
AcDbCircle
 10
946.345603
 20
176.159147
 30
0.0
 40
13.89000000000002
  0
LINE
  5
D2
330
30
100
AcDbEntity
  8
LC-001-111-----0
 62
   253
370
    25
100
AcDbLine
 10
890.335603
 20
158.649147
 30
0.0
 11
893.855603
 21
158.649147
 31
0.0
  0
LINE
  5
D3
330
30
100
AcDbEntity
  8
LC-001-111-----0
 62
   253
370
    25
100
AcDbLine
 10
893.855603
 20
158.649147
 30
0.0
 11
893.855603
 21
193.669147
 31
0.0
  0
ARC
  5
D4
330
30
100
AcDbEntity
  8
LC-001-111-----0
 62
   253
370
    25
100
AcDbCircle
 10
758.906662
 20
168.924866
 30
0.0
 40
20.55472179307891
100
AcDbArc
 50
57.190491
 51
90.951212
  0
ARC
  5
D5
330
30
100
AcDbEntity
  8
LC-001-111-----0
 62
   253
370
    25
100
AcDbCircle
 10
761.779647
 20
167.692822
 30
0.0
 40
12.23104525444841
100
AcDbArc
 50
274.343327
 51
74.255463
  0
LINE
  5
D6
330
30
100
AcDbEntity
  8
LC-001-111-----0
 62
   253
370
    25
100
AcDbLine
 10
893.855603
 20
193.669147
 30
0.0
 11
890.335603
 21
193.669147
 31
0.0
  0
LINE
  5
D7
330
30
100
AcDbEntity
  8
LC-001-111-----0
 62
   253
370
    25
100
AcDbLine
 10
890.335603
 20
193.669147
 30
0.0
 11
890.335603
 21
158.649147
 31
0.0
  0
LINE
  5
D8
330
30
100
AcDbEntity
  8
LC-001-111-----0
 62
   253
370
    25
100
AcDbLine
 10
890.335603
 20
176.159147
 30
0.0
 11
869.355603
 21
176.159147
 31
0.0
  0
TEXT
  5
D9
330
30
100
AcDbEntity
  8
LC-001-111-----0
 62
     7
370
    25
100
AcDbText
 10
1977.410714
 20
143.75
 30
0.0
 40
25.0
  1
1
 41
0.75
  7
LCTX0-400-0-0pDIN-Schrift
 72
     1
 11
1985.0
 21
143.75
 31
0.0
100
AcDbText
  0
LINE
  5
DA
330
30
100
AcDbEntity
  8
LC-001-111-----0
 62
   253
370
    25
100
AcDbLine
 10
869.355603
 20
158.649147
 30
0.0
 11
869.355603
 21
193.669147
 31
0.0
  0
LINE
  5
DB
330
30
100
AcDbEntity
  8
LC-001-111-----0
 62
   253
370
    25
100
AcDbLine
 10
869.355603
 20
193.669147
 30
0.0
 11
865.835603
 21
193.669147
 31
0.0
  0
LINE
  5
DC
330
30
100
AcDbEntity
  8
LC-001-111-----0
 62
   253
370
    25
100
AcDbLine
 10
865.835603
 20
193.669147
 30
0.0
 11
865.835603
 21
158.649147
 31
0.0
  0
LINE
  5
DD
330
30
100
AcDbEntity
  8
LC-001-111-----0
 62
   253
370
    25
100
AcDbLine
 10
867.595603
 20
192.169147
 30
0.0
 11
867.595603
 21
160.149147
 31
0.0
  0
CIRCLE
  5
DE
330
30
100
AcDbEntity
  8
LC-001-111-----0
 62
   253
370
    25
100
AcDbCircle
 10
946.345603
 20
176.159147
 30
0.0
 40
15.38999999999984
  0
LINE
  5
DF
330
30
100
AcDbEntity
  8
LC-001-111-----0
 62
   253
370
    25
100
AcDbLine
 10
1072.679261
 20
176.159147
 30
0.0
 11
1088.520928
 21
157.149147
 31
0.0
  0
LINE
  5
E0
330
30
100
AcDbEntity
  8
LC-001-111-----0
 62
   253
370
    25
100
AcDbLine
 10
1088.520928
 20
157.149147
 30
0.0
 11
1096.09687
 21
157.149147
 31
0.0
  0
LINE
  5
E1
330
30
100
AcDbEntity
  8
LC-001-111-----0
 62
   253
370
    25
100
AcDbLine
 10
1096.09687
 20
157.149147
 30
0.0
 11
1080.255204
 21
176.159147
 31
0.0
  0
LINE
  5
E2
330
30
100
AcDbEntity
  8
LC-001-111-----0
 62
   253
370
    25
100
AcDbLine
 10
770.044191
 20
186.20063
 30
0.0
 11
770.044191
 21
193.903002
 31
0.0
  0
ARC
  5
E3
330
30
100
AcDbEntity
  8
LC-001-111-----0
 62
   253
370
    25
100
AcDbCircle
 10
761.412387
 20
186.963179
 30
0.0
 40
23.54367341134796
100
AcDbArc
 50
232.518913
 51
268.246912
  0
ARC
  5
E4
330
30
100
AcDbEntity
  8
LC-001-111-----0
 62
   253
370
    25
100
AcDbCircle
 10
760.836588
 20
168.15034
 30
0.0
 40
4.722024781007908
100
AcDbArc
 50
268.246912
 51
72.731329
  0
LINE
  5
E5
330
30
100
AcDbEntity
  8
LC-001-111-----0
 62
   253
370
    25
100
AcDbLine
 10
757.542274
 20
181.595277
 30
0.0
 11
765.098525
 21
179.464972
 31
0.0
  0
ARC
  5
E6
330
30
100
AcDbEntity
  8
LC-001-111-----0
 62
   253
370
    25
100
AcDbCircle
 10
758.632108
 20
185.460948
 30
0.0
 40
4.016360130100384
100
AcDbArc
 50
90.951212
 51
254.255463
  0
ARC
  5
E7
330
30
100
AcDbEntity
  8
LC-001-111-----0
 62
   253
370
    25
100
AcDbCircle
 10
758.032826
 20
185.671748
 30
0.0
 40
11.17727081470983
100
AcDbArc
 50
94.48185
 51
252.731329
  0
LINE
  5
E8
330
30
100
AcDbEntity
  8
LC-001-111-----0
 62
   253
370
    25
100
AcDbLine
 10
762.238334
 20
172.659511
 30
0.0
 11
754.714822
 21
174.998312
 31
0.0
  0
LINE
  5
E9
330
30
100
AcDbEntity
  8
LC-001-111-----0
 62
   253
370
    25
100
AcDbLine
 10
747.086073
 20
168.279997
 30
0.0
 11
747.086073
 21
159.524163
 31
0.0
  0
ARC
  5
EA
330
30
100
AcDbEntity
  8
LC-001-111-----0
 62
   253
370
    25
100
AcDbCircle
 10
758.903191
 20
174.567744
 30
0.0
 40
22.31533311668187
100
AcDbArc
 50
60.049399
 51
94.48185
  0
ARC
  5
EB
330
30
100
AcDbEntity
  8
LC-001-111-----0
 62
   253
370
    25
100
AcDbCircle
 10
760.81067
 20
180.45076
 30
0.0
 40
25.02572762426604
100
AcDbArc
 50
236.741348
 51
274.343327
  0
LINE
  5
EC
330
30
100
AcDbEntity
  8
LC-001-111-----0
 62
   253
370
    25
100
AcDbLine
 10
1080.255204
 20
176.159147
 30
0.0
 11
1096.09687
 21
195.169147
 31
0.0
  0
LINE
  5
ED
330
30
100
AcDbEntity
  8
LC-001-111-----0
 62
   253
370
    25
100
AcDbLine
 10
750.086073
 20
162.957321
 30
0.0
 11
750.086073
 21
161.212369
 31
0.0
  0
LINE
  5
EE
330
30
100
AcDbEntity
  8
LC-001-111-----0
 62
   253
370
    25
100
AcDbLine
 10
1078.302641
 20
176.159147
 30
0.0
 11
1092.894308
 21
193.669147
 31
0.0
  0
LINE
  5
EF
330
30
100
AcDbEntity
  8
LC-002-002-----0
 62
     1
370
    25
100
AcDbLine
 10
1139.355603
 20
170.827393
 30
0.0
 11
1139.355603
 21
181.490901
 31
0.0
  0
LINE
  5
F0
330
30
100
AcDbEntity
  8
LC-002-002-----0
 62
     1
370
    25
100
AcDbLine
 10
1139.355603
 20
181.490901
 30
0.0
 11
1134.023849
 21
176.159147
 31
0.0
  0
LINE
  5
F1
330
30
100
AcDbEntity
  8
LC-002-002-----0
 62
     1
370
    25
100
AcDbLine
 10
1134.023849
 20
176.159147
 30
0.0
 11
1139.355603
 21
170.827393
 31
0.0
  0
LINE
  5
F2
330
30
100
AcDbEntity
  8
LC-002-002-----0
 62
     1
370
    25
100
AcDbLine
 10
1137.855603
 20
174.448713
 30
0.0
 11
1137.855603
 21
177.869581
 31
0.0
  0
LINE
  5
F3
330
30
100
AcDbEntity
  8
LC-002-002-----0
 62
     1
370
    25
100
AcDbLine
 10
1137.855603
 20
177.869581
 30
0.0
 11
1136.145169
 21
176.159147
 31
0.0
  0
LINE
  5
F4
330
30
100
AcDbEntity
  8
LC-002-002-----0
 62
     1
370
    25
100
AcDbLine
 10
1136.145169
 20
176.159147
 30
0.0
 11
1137.855603
 21
174.448713
 31
0.0
  0
LINE
  5
F5
330
30
100
AcDbEntity
  8
LC-001-111-----0
 62
   253
370
    25
100
AcDbLine
 10
1092.894308
 20
193.669147
 30
0.0
 11
1089.22349
 21
193.669147
 31
0.0
  0
LINE
  5
F6
330
30
100
AcDbEntity
  8
LC-001-111-----0
 62
   253
370
    25
100
AcDbLine
 10
1089.22349
 20
193.669147
 30
0.0
 11
1074.631824
 21
176.159147
 31
0.0
  0
ARC
  5
F7
330
30
100
AcDbEntity
  8
LC-001-111-----0
 62
   253
370
    25
100
AcDbCircle
 10
1019.845603
 20
176.159147
 30
0.0
 40
15.38999999999992
100
AcDbArc
 50
76.816519
 51
283.183481
  0
LINE
  5
F8
330
30
100
AcDbEntity
  8
LC-001-111-----0
 62
   253
370
    25
100
AcDbLine
 10
1074.631824
 20
176.159147
 30
0.0
 11
1089.22349
 21
158.649147
 31
0.0
  0
LINE
  5
F9
330
30
100
AcDbEntity
  8
LC-001-111-----0
 62
   253
370
    25
100
AcDbLine
 10
1089.22349
 20
158.649147
 30
0.0
 11
1092.894308
 21
158.649147
 31
0.0
  0
LINE
  5
FA
330
30
100
AcDbEntity
  8
LC-001-111-----0
 62
   253
370
    25
100
AcDbLine
 10
1092.894308
 20
158.649147
 30
0.0
 11
1078.302641
 21
176.159147
 31
0.0
  0
LINE
  5
FB
330
30
100
AcDbEntity
  8
LC-001-111-----0
 62
   253
370
    25
100
AcDbLine
 10
1076.467232
 20
176.159147
 30
0.0
 11
1090.098623
 21
192.516815
 31
0.0
  0
LINE
  5
FC
330
30
100
AcDbEntity
  8
LC-001-111-----0
 62
   253
370
    25
100
AcDbLine
 10
1076.467232
 20
176.159147
 30
0.0
 11
1090.098623
 21
159.801479
 31
0.0
  0
ARC
  5
FD
330
30
100
AcDbEntity
  8
LC-001-111-----0
 62
   253
370
    25
100
AcDbCircle
 10
760.81067
 20
180.45076
 30
0.0
 40
22.02572762426587
100
AcDbArc
 50
240.862164
 51
274.343327
  0
ARC
  5
FE
330
30
100
AcDbEntity
  8
LC-001-111-----0
 62
   253
370
    25
100
AcDbCircle
 10
761.779647
 20
167.692822
 30
0.0
 40
9.231045254448425
100
AcDbArc
 50
274.343327
 51
74.255463
  0
LINE
  5
FF
330
30
100
AcDbEntity
  8
LC-001-111-----0
 62
   253
370
    25
100
AcDbLine
 10
764.284479
 20
176.577529
 30
0.0
 11
756.728228
 21
178.707834
 31
0.0
  0
ARC
  5
100
330
30
100
AcDbEntity
  8
LC-001-111-----0
 62
   253
370
    25
100
AcDbCircle
 10
758.632108
 20
185.460948
 30
0.0
 40
7.016360130100396
100
AcDbArc
 50
90.951212
 51
254.255463
  0
ARC
  5
101
330
30
100
AcDbEntity
  8
LC-001-111-----0
 62
   253
370
    25
100
AcDbCircle
 10
758.906662
 20
168.924866
 30
0.0
 40
23.55472179307856
100
AcDbArc
 50
69.789306
 51
90.951212
  0
LINE
  5
102
330
30
100
AcDbEntity
  8
LC-001-111-----0
 62
   253
370
    25
100
AcDbLine
 10
767.044191
 20
191.029289
 30
0.0
 11
767.044191
 21
192.083629
 31
0.0
  0
ENDBLK
  5
32
330
30
100
AcDbEntity
  8
0
100
AcDbBlockEnd
  0
BLOCK
  5
1E2
330
1E1
100
AcDbEntity
  8
0
100
AcDbBlockBegin
  2
*X12
 70
     1
 71
     0
 10
0.0
 20
0.0
 30
0.0
  3
*X12
  1

  4
*X1
  0
LINE
  5
1E5
330
1E1
100
AcDbEntity
  8
LC-006-005-----0
 62
     7
370
    25
100
AcDbLine
 10
1671.774271
 20
1750.62255
 30
0.0
 11
1681.006821
 21
1741.39
 31
0.0
  0
LINE
  5
1E6
330
1E1
100
AcDbEntity
  8
LC-006-005-----0
 62
     7
370
    25
100
AcDbLine
 10
1675.287161
 20
1761.251795
 30
0.0
 11
1683.678463
 21
1752.860493
 31
0.0
  0
LINE
  5
1E7
330
1E1
100
AcDbEntity
  8
LC-006-005-----0
 62
     7
370
    25
100
AcDbLine
 10
1677.811469
 20
1772.869624
 30
0.0
 11
1686.375023
 21
1764.306069
 31
0.0
  0
LINE
  5
1E8
330
1E1
100
AcDbEntity
  8
LC-006-005-----0
 62
     7
370
    25
100
AcDbLine
 10
1678.515718
 20
1786.307509
 30
0.0
 11
1687.079273
 21
1777.743955
 31
0.0
  0
LINE
  5
1E9
330
1E1
100
AcDbEntity
  8
LC-006-005-----0
 62
     7
370
    25
100
AcDbLine
 10
1679.219968
 20
1799.745395
 30
0.0
 11
1687.783522
 21
1791.181841
 31
0.0
  0
LINE
  5
1EA
330
1E1
100
AcDbEntity
  8
LC-006-005-----0
 62
     7
370
    25
100
AcDbLine
 10
1679.924218
 20
1813.183281
 30
0.0
 11
1688.487772
 21
1804.619727
 31
0.0
  0
LINE
  5
1EB
330
1E1
100
AcDbEntity
  8
LC-006-005-----0
 62
     7
370
    25
100
AcDbLine
 10
1680.628468
 20
1826.621167
 30
0.0
 11
1689.192022
 21
1818.057613
 31
0.0
  0
LINE
  5
1EC
330
1E1
100
AcDbEntity
  8
LC-006-005-----0
 62
     7
370
    25
100
AcDbLine
 10
1681.332718
 20
1840.059053
 30
0.0
 11
1689.896272
 21
1831.495499
 31
0.0
  0
LINE
  5
1ED
330
1E1
100
AcDbEntity
  8
LC-006-005-----0
 62
     7
370
    25
100
AcDbLine
 10
1682.036967
 20
1853.496939
 30
0.0
 11
1690.600521
 21
1844.933385
 31
0.0
  0
LINE
  5
1EE
330
1E1
100
AcDbEntity
  8
LC-006-005-----0
 62
     7
370
    25
100
AcDbLine
 10
1682.741217
 20
1866.934825
 30
0.0
 11
1691.304771
 21
1858.37127
 31
0.0
  0
LINE
  5
1EF
330
1E1
100
AcDbEntity
  8
LC-006-005-----0
 62
     7
370
    25
100
AcDbLine
 10
1684.824425
 20
1878.993753
 30
0.0
 11
1692.146164
 21
1871.672013
 31
0.0
  0
LINE
  5
1F0
330
1E1
100
AcDbEntity
  8
LC-006-005-----0
 62
     7
370
    25
100
AcDbLine
 10
1689.815248
 20
1888.145065
 30
0.0
 11
1696.094314
 21
1881.865999
 31
0.0
  0
LINE
  5
1F1
330
1E1
100
AcDbEntity
  8
LC-006-005-----0
 62
     7
370
    25
100
AcDbLine
 10
1696.995149
 20
1895.1073
 30
0.0
 11
1703.090751
 21
1889.011698
 31
0.0
  0
LINE
  5
1F2
330
1E1
100
AcDbEntity
  8
LC-006-005-----0
 62
     7
370
    25
100
AcDbLine
 10
1706.397514
 20
1899.84707
 30
0.0
 11
1713.090355
 21
1893.154229
 31
0.0
  0
LINE
  5
1F3
330
1E1
100
AcDbEntity
  8
LC-006-005-----0
 62
     7
370
    25
100
AcDbLine
 10
1718.535883
 20
1901.850836
 30
0.0
 11
1725.814895
 21
1894.571825
 31
0.0
  0
LINE
  5
1F4
330
1E1
100
AcDbEntity
  8
LC-006-005-----0
 62
     7
370
    25
100
AcDbLine
 10
1731.332989
 20
1903.195866
 30
0.0
 11
1738.612
 21
1895.916855
 31
0.0
  0
LINE
  5
1F5
330
1E1
100
AcDbEntity
  8
LC-006-005-----0
 62
     7
370
    25
100
AcDbLine
 10
1744.130094
 20
1904.540896
 30
0.0
 11
1751.409106
 21
1897.261885
 31
0.0
  0
LINE
  5
1F6
330
1E1
100
AcDbEntity
  8
LC-006-005-----0
 62
     7
370
    25
100
AcDbLine
 10
1756.9272
 20
1905.885926
 30
0.0
 11
1764.206211
 21
1898.606915
 31
0.0
  0
LINE
  5
1F7
330
1E1
100
AcDbEntity
  8
LC-006-005-----0
 62
     7
370
    25
100
AcDbLine
 10
1769.724306
 20
1907.230956
 30
0.0
 11
1777.003317
 21
1899.951945
 31
0.0
  0
LINE
  5
1F8
330
1E1
100
AcDbEntity
  8
LC-006-005-----0
 62
     7
370
    25
100
AcDbLine
 10
1782.521411
 20
1908.575986
 30
0.0
 11
1789.800423
 21
1901.296975
 31
0.0
  0
LINE
  5
1F9
330
1E1
100
AcDbEntity
  8
LC-006-005-----0
 62
     7
370
    25
100
AcDbLine
 10
1795.318517
 20
1909.921016
 30
0.0
 11
1802.597528
 21
1902.642005
 31
0.0
  0
LINE
  5
1FA
330
1E1
100
AcDbEntity
  8
LC-006-005-----0
 62
     7
370
    25
100
AcDbLine
 10
1808.115623
 20
1911.266046
 30
0.0
 11
1815.394634
 21
1903.987035
 31
0.0
  0
LINE
  5
1FB
330
1E1
100
AcDbEntity
  8
LC-006-005-----0
 62
     7
370
    25
100
AcDbLine
 10
1820.912728
 20
1912.611076
 30
0.0
 11
1828.19174
 21
1905.332065
 31
0.0
  0
LINE
  5
1FC
330
1E1
100
AcDbEntity
  8
LC-006-005-----0
 62
     7
370
    25
100
AcDbLine
 10
1833.709834
 20
1913.956106
 30
0.0
 11
1840.988845
 21
1906.677095
 31
0.0
  0
LINE
  5
1FD
330
1E1
100
AcDbEntity
  8
LC-006-005-----0
 62
     7
370
    25
100
AcDbLine
 10
1846.506939
 20
1915.301136
 30
0.0
 11
1853.785951
 21
1908.022125
 31
0.0
  0
LINE
  5
1FE
330
1E1
100
AcDbEntity
  8
LC-006-005-----0
 62
     7
370
    25
100
AcDbLine
 10
1859.304045
 20
1916.646166
 30
0.0
 11
1866.583056
 21
1909.367155
 31
0.0
  0
LINE
  5
1FF
330
1E1
100
AcDbEntity
  8
LC-006-005-----0
 62
     7
370
    25
100
AcDbLine
 10
1872.101151
 20
1917.991196
 30
0.0
 11
1879.380162
 21
1910.712185
 31
0.0
  0
LINE
  5
200
330
1E1
100
AcDbEntity
  8
LC-006-005-----0
 62
     7
370
    25
100
AcDbLine
 10
1876.82914
 20
1927.405343
 30
0.0
 11
1885.82914
 21
1918.405343
 31
0.0
  0
LINE
  5
201
330
1E1
100
AcDbEntity
  8
LC-006-005-----0
 62
     7
370
    25
100
AcDbLine
 10
1877.82914
 20
1940.547479
 30
0.0
 11
1885.82914
 21
1932.547479
 31
0.0
  0
ENDBLK
  5
1E3
330
1E1
100
AcDbEntity
  8
0
100
AcDbBlockEnd
  0
BLOCK
  5
204
330
203
100
AcDbEntity
  8
0
100
AcDbBlockBegin
  2
*X23
 70
     1
 71
     0
 10
0.0
 20
0.0
 30
0.0
  3
*X23
  1

  4
*X2
  0
LINE
  5
206
330
203
100
AcDbEntity
  8
LC-006-005-----0
 62
     7
370
    25
100
AcDbLine
 10
1686.806438
 20
1509.316213
 30
0.0
 11
1700.835661
 21
1495.28699
 31
0.0
  0
LINE
  5
207
330
203
100
AcDbEntity
  8
LC-006-005-----0
 62
     7
370
    25
100
AcDbLine
 10
1682.648391
 20
1527.616395
 30
0.0
 11
1693.090347
 21
1517.174439
 31
0.0
  0
LINE
  5
208
330
203
100
AcDbEntity
  8
LC-006-005-----0
 62
     7
370
    25
100
AcDbLine
 10
1709.806638
 20
1500.458149
 30
0.0
 11
1719.429551
 21
1490.835235
 31
0.0
  0
LINE
  5
209
330
203
100
AcDbEntity
  8
LC-006-005-----0
 62
     7
370
    25
100
AcDbLine
 10
1681.866243
 20
1542.540679
 30
0.0
 11
1691.377033
 21
1533.029889
 31
0.0
  0
LINE
  5
20A
330
203
100
AcDbEntity
  8
LC-006-005-----0
 62
     7
370
    25
100
AcDbLine
 10
1726.24383
 20
1498.163092
 30
0.0
 11
1735.232661
 21
1489.174262
 31
0.0
  0
LINE
  5
20B
330
203
100
AcDbEntity
  8
LC-006-005-----0
 62
     7
370
    25
100
AcDbLine
 10
1681.084094
 20
1557.464964
 30
0.0
 11
1690.594885
 21
1547.954173
 31
0.0
  0
LINE
  5
20C
330
203
100
AcDbEntity
  8
LC-006-005-----0
 62
     7
370
    25
100
AcDbLine
 10
1742.04694
 20
1496.502118
 30
0.0
 11
1751.03577
 21
1487.513288
 31
0.0
  0
LINE
  5
20D
330
203
100
AcDbEntity
  8
LC-006-005-----0
 62
     7
370
    25
100
AcDbLine
 10
1680.301946
 20
1572.389248
 30
0.0
 11
1689.812736
 21
1562.878457
 31
0.0
  0
LINE
  5
20E
330
203
100
AcDbEntity
  8
LC-006-005-----0
 62
     7
370
    25
100
AcDbLine
 10
1757.850049
 20
1494.841144
 30
0.0
 11
1766.838879
 21
1485.852314
 31
0.0
  0
LINE
  5
20F
330
203
100
AcDbEntity
  8
LC-006-005-----0
 62
     7
370
    25
100
AcDbLine
 10
1679.519797
 20
1587.313532
 30
0.0
 11
1689.030587
 21
1577.802742
 31
0.0
  0
LINE
  5
210
330
203
100
AcDbEntity
  8
LC-006-005-----0
 62
     7
370
    25
100
AcDbLine
 10
1773.653158
 20
1493.180171
 30
0.0
 11
1782.641989
 21
1484.19134
 31
0.0
  0
LINE
  5
211
330
203
100
AcDbEntity
  8
LC-006-005-----0
 62
     7
370
    25
100
AcDbLine
 10
1678.737648
 20
1602.237816
 30
0.0
 11
1688.248439
 21
1592.727026
 31
0.0
  0
LINE
  5
212
330
203
100
AcDbEntity
  8
LC-006-005-----0
 62
     7
370
    25
100
AcDbLine
 10
1789.456268
 20
1491.519197
 30
0.0
 11
1798.445098
 21
1482.530367
 31
0.0
  0
LINE
  5
213
330
203
100
AcDbEntity
  8
LC-006-005-----0
 62
     7
370
    25
100
AcDbLine
 10
1677.9555
 20
1617.162101
 30
0.0
 11
1687.46629
 21
1607.65131
 31
0.0
  0
LINE
  5
214
330
203
100
AcDbEntity
  8
LC-006-005-----0
 62
     7
370
    25
100
AcDbLine
 10
1805.259377
 20
1489.858223
 30
0.0
 11
1814.248207
 21
1480.869393
 31
0.0
  0
LINE
  5
215
330
203
100
AcDbEntity
  8
LC-006-005-----0
 62
     7
370
    25
100
AcDbLine
 10
1671.774271
 20
1637.485465
 30
0.0
 11
1686.684142
 21
1622.575594
 31
0.0
  0
LINE
  5
216
330
203
100
AcDbEntity
  8
LC-006-005-----0
 62
     7
370
    25
100
AcDbLine
 10
1821.062486
 20
1488.19725
 30
0.0
 11
1830.051317
 21
1479.208419
 31
0.0
  0
LINE
  5
217
330
203
100
AcDbEntity
  8
LC-006-005-----0
 62
     7
370
    25
100
AcDbLine
 10
1672.011872
 20
1651.39
 30
0.0
 11
1683.736264
 21
1639.665608
 31
0.0
  0
LINE
  5
218
330
203
100
AcDbEntity
  8
LC-006-005-----0
 62
     7
370
    25
100
AcDbLine
 10
1684.352015
 20
1639.049856
 30
0.0
 11
1685.901993
 21
1637.499879
 31
0.0
  0
LINE
  5
219
330
203
100
AcDbEntity
  8
LC-006-005-----0
 62
     7
370
    25
100
AcDbLine
 10
1836.865596
 20
1486.536276
 30
0.0
 11
1845.854426
 21
1477.547445
 31
0.0
  0
LINE
  5
21A
330
203
100
AcDbEntity
  8
LC-006-005-----0
 62
     7
370
    25
100
AcDbLine
 10
1852.668705
 20
1484.875302
 30
0.0
 11
1861.657535
 21
1475.886472
 31
0.0
  0
LINE
  5
21B
330
203
100
AcDbEntity
  8
LC-006-005-----0
 62
     7
370
    25
100
AcDbLine
 10
1876.82914
 20
1460.714867
 30
0.0
 11
1885.82914
 21
1451.714867
 31
0.0
  0
LINE
  5
21C
330
203
100
AcDbEntity
  8
LC-006-005-----0
 62
     7
370
    25
100
AcDbLine
 10
1868.471814
 20
1483.214328
 30
0.0
 11
1885.82914
 21
1465.857003
 31
0.0
  0
ENDBLK
  5
205
330
203
100
AcDbEntity
  8
0
100
AcDbBlockEnd
  0
BLOCK
  5
22C
330
222
100
AcDbEntity
  8
0
100
AcDbBlockBegin
  2
*D4
 70
     1
 71
     0
 10
0.0
 20
0.0
 30
0.0
  3
*D4
  1

  0
LINE
  5
223
330
222
100
AcDbEntity
  8
LC-007-003-----0
 62
     2
370
    -2
100
AcDbLine
 10
1430.348093
 20
1466.39
 30
0.0
 11
1430.348093
 21
1332.0
 31
0.0
  0
LINE
  5
224
330
222
100
AcDbEntity
  8
LC-007-003-----0
 62
     2
370
    -2
100
AcDbLine
 10
270.348093
 20
1466.39
 30
0.0
 11
270.348093
 21
1332.0
 31
0.0
  0
LINE
  5
225
330
222
100
AcDbEntity
  8
LC-007-003-----0
 62
     2
370
    -2
100
AcDbLine
 10
1405.348093
 20
1350.0
 30
0.0
 11
295.348093
 21
1350.0
 31
0.0
  0
SOLID
  5
226
330
222
100
AcDbEntity
  8
LC-007-003-----0
 62
     2
100
AcDbTrace
 10
1405.348093
 20
1345.833333
 30
0.0
 11
1405.348093
 21
1354.166667
 31
0.0
 12
1430.348093
 22
1350.0
 32
0.0
 13
1430.348093
 23
1350.0
 33
0.0
  0
SOLID
  5
227
330
222
100
AcDbEntity
  8
LC-007-003-----0
 62
     2
100
AcDbTrace
 10
295.348093
 20
1354.166667
 30
0.0
 11
295.348093
 21
1345.833333
 31
0.0
 12
270.348093
 22
1350.0
 32
0.0
 13
270.348093
 23
1350.0
 33
0.0
  0
MTEXT
  5
228
330
222
100
AcDbEntity
  8
LC-007-003-----0
 62
     2
100
AcDbMText
 10
854.635834
 20
1380.0
 30
0.0
 40
25.0
 41
0.0
 71
     5
 72
     1
  1
\A1;1160
  7
LCTX0-400-0-0pDIN-Schrift
 73
     1
 44
1.0
  0
POINT
  5
229
330
222
100
AcDbEntity
  8
Defpoints
 62
     0
100
AcDbPoint
 10
1430.348093
 20
1466.39
 30
0.0
  0
POINT
  5
22A
330
222
100
AcDbEntity
  8
Defpoints
 62
     0
100
AcDbPoint
 10
270.348093
 20
1466.39
 30
0.0
  0
POINT
  5
22B
330
222
100
AcDbEntity
  8
Defpoints
 62
     0
100
AcDbPoint
 10
270.348093
 20
1350.0
 30
0.0
  0
ENDBLK
  5
22D
330
222
100
AcDbEntity
  8
0
100
AcDbBlockEnd
  0
BLOCK
  5
23C
330
232
100
AcDbEntity
  8
0
100
AcDbBlockBegin
  2
*D5
 70
     1
 71
     0
 10
0.0
 20
0.0
 30
0.0
  3
*D5
  1

  0
LINE
  5
233
330
232
100
AcDbEntity
  8
LC-007-003-----0
 62
     2
370
    -2
100
AcDbLine
 10
1394.877504
 20
2621.002642
 30
0.0
 11
1394.877504
 21
2706.231357
 31
0.0
  0
LINE
  5
234
330
232
100
AcDbEntity
  8
LC-007-003-----0
 62
     2
370
    -2
100
AcDbLine
 10
1017.658007
 20
2603.502642
 30
0.0
 11
1017.658007
 21
2706.231357
 31
0.0
  0
LINE
  5
235
330
232
100
AcDbEntity
  8
LC-007-003-----0
 62
     2
370
    -2
100
AcDbLine
 10
1369.877504
 20
2688.231357
 30
0.0
 11
1042.658007
 21
2688.231357
 31
0.0
  0
SOLID
  5
236
330
232
100
AcDbEntity
  8
LC-007-003-----0
 62
     2
100
AcDbTrace
 10
1369.877504
 20
2684.06469
 30
0.0
 11
1369.877504
 21
2692.398024
 31
0.0
 12
1394.877504
 22
2688.231357
 32
0.0
 13
1394.877504
 23
2688.231357
 33
0.0
  0
SOLID
  5
237
330
232
100
AcDbEntity
  8
LC-007-003-----0
 62
     2
100
AcDbTrace
 10
1042.658007
 20
2692.398024
 30
0.0
 11
1042.658007
 21
2684.06469
 31
0.0
 12
1017.658007
 22
2688.231357
 32
0.0
 13
1017.658007
 23
2688.231357
 33
0.0
  0
MTEXT
  5
238
330
232
100
AcDbEntity
  8
LC-007-003-----0
 62
     2
100
AcDbMText
 10
1207.297243
 20
2718.231357
 30
0.0
 40
25.0
 41
0.0
 71
     5
 72
     1
  1
\A1;377
  7
LCTX0-400-0-0pDIN-Schrift
 73
     1
 44
1.0
  0
POINT
  5
239
330
232
100
AcDbEntity
  8
Defpoints
 62
     0
100
AcDbPoint
 10
1394.877504
 20
2621.002642
 30
0.0
  0
POINT
  5
23A
330
232
100
AcDbEntity
  8
Defpoints
 62
     0
100
AcDbPoint
 10
1017.658007
 20
2603.502642
 30
0.0
  0
POINT
  5
23B
330
232
100
AcDbEntity
  8
Defpoints
 62
     0
100
AcDbPoint
 10
1017.658007
 20
2688.231357
 30
0.0
  0
ENDBLK
  5
23D
330
232
100
AcDbEntity
  8
0
100
AcDbBlockEnd
  0
BLOCK
  5
249
330
23F
100
AcDbEntity
  8
0
100
AcDbBlockBegin
  2
*D6
 70
     1
 71
     0
 10
0.0
 20
0.0
 30
0.0
  3
*D6
  1

  0
LINE
  5
240
330
23F
100
AcDbEntity
  8
LC-007-003-----0
 62
     2
370
    -2
100
AcDbLine
 10
951.03818
 20
2603.502642
 30
0.0
 11
951.03818
 21
2706.231357
 31
0.0
  0
LINE
  5
241
330
23F
100
AcDbEntity
  8
LC-007-003-----0
 62
     2
370
    -2
100
AcDbLine
 10
655.531824
 20
2604.703192
 30
0.0
 11
655.531824
 21
2706.231357
 31
0.0
  0
LINE
  5
242
330
23F
100
AcDbEntity
  8
LC-007-003-----0
 62
     2
370
    -2
100
AcDbLine
 10
926.03818
 20
2688.231357
 30
0.0
 11
680.531824
 21
2688.231357
 31
0.0
  0
SOLID
  5
243
330
23F
100
AcDbEntity
  8
LC-007-003-----0
 62
     2
100
AcDbTrace
 10
926.03818
 20
2684.06469
 30
0.0
 11
926.03818
 21
2692.398024
 31
0.0
 12
951.03818
 22
2688.231357
 32
0.0
 13
951.03818
 23
2688.231357
 33
0.0
  0
SOLID
  5
244
330
23F
100
AcDbEntity
  8
LC-007-003-----0
 62
     2
100
AcDbTrace
 10
680.531824
 20
2692.398024
 30
0.0
 11
680.531824
 21
2684.06469
 31
0.0
 12
655.531824
 22
2688.231357
 32
0.0
 13
655.531824
 23
2688.231357
 33
0.0
  0
MTEXT
  5
245
330
23F
100
AcDbEntity
  8
LC-007-003-----0
 62
     2
100
AcDbMText
 10
805.880798
 20
2718.231357
 30
0.0
 40
25.0
 41
0.0
 71
     5
 72
     1
  1
\A1;296
  7
LCTX0-400-0-0pDIN-Schrift
 73
     1
 44
1.0
  0
POINT
  5
246
330
23F
100
AcDbEntity
  8
Defpoints
 62
     0
100
AcDbPoint
 10
951.03818
 20
2603.502642
 30
0.0
  0
POINT
  5
247
330
23F
100
AcDbEntity
  8
Defpoints
 62
     0
100
AcDbPoint
 10
655.531824
 20
2604.703192
 30
0.0
  0
POINT
  5
248
330
23F
100
AcDbEntity
  8
Defpoints
 62
     0
100
AcDbPoint
 10
655.531824
 20
2688.231357
 30
0.0
  0
ENDBLK
  5
24A
330
23F
100
AcDbEntity
  8
0
100
AcDbBlockEnd
  0
BLOCK
  5
256
330
24C
100
AcDbEntity
  8
0
100
AcDbBlockBegin
  2
*D7
 70
     1
 71
     0
 10
0.0
 20
0.0
 30
0.0
  3
*D7
  1

  0
LINE
  5
24D
330
24C
100
AcDbEntity
  8
LC-007-003-----0
 62
     2
370
    -2
100
AcDbLine
 10
1881.351782
 20
1910.919411
 30
0.0
 11
2018.0
 21
1910.919411
 31
0.0
  0
LINE
  5
24E
330
24C
100
AcDbEntity
  8
LC-007-003-----0
 62
     2
370
    -2
100
AcDbLine
 10
1881.351782
 20
1481.860589
 30
0.0
 11
2018.0
 21
1481.860589
 31
0.0
  0
LINE
  5
24F
330
24C
100
AcDbEntity
  8
LC-007-003-----0
 62
     2
370
    -2
100
AcDbLine
 10
2000.0
 20
1885.919411
 30
0.0
 11
2000.0
 21
1506.860589
 31
0.0
  0
SOLID
  5
250
330
24C
100
AcDbEntity
  8
LC-007-003-----0
 62
     2
100
AcDbTrace
 10
2004.166667
 20
1885.919411
 30
0.0
 11
1995.833333
 21
1885.919411
 31
0.0
 12
2000.0
 22
1910.919411
 32
0.0
 13
2000.0
 23
1910.919411
 33
0.0
  0
SOLID
  5
251
330
24C
100
AcDbEntity
  8
LC-007-003-----0
 62
     2
100
AcDbTrace
 10
1995.833333
 20
1506.860589
 30
0.0
 11
2004.166667
 21
1506.860589
 31
0.0
 12
2000.0
 22
1481.860589
 32
0.0
 13
2000.0
 23
1481.860589
 33
0.0
  0
MTEXT
  5
252
330
24C
100
AcDbEntity
  8
LC-007-003-----0
 62
     2
100
AcDbMText
 10
1970.0
 20
1703.75731
 30
0.0
 40
25.0
 41
0.0
 71
     5
 72
     1
  1
\A1;429
  7
LCTX0-400-0-0pDIN-Schrift
 11
6.123031769111886E-17
 21
1.0
 31
0.0
 73
     1
 44
1.0
  0
POINT
  5
253
330
24C
100
AcDbEntity
  8
Defpoints
 62
     0
100
AcDbPoint
 10
1881.351782
 20
1910.919411
 30
0.0
  0
POINT
  5
254
330
24C
100
AcDbEntity
  8
Defpoints
 62
     0
100
AcDbPoint
 10
1881.351782
 20
1481.860589
 30
0.0
  0
POINT
  5
255
330
24C
100
AcDbEntity
  8
Defpoints
 62
     0
100
AcDbPoint
 10
2000.0
 20
1481.860589
 30
0.0
  0
ENDBLK
  5
257
330
24C
100
AcDbEntity
  8
0
100
AcDbBlockEnd
  0
BLOCK
  5
264
330
25A
100
AcDbEntity
  8
0
100
AcDbBlockBegin
  2
*D8
 70
     1
 71
     0
 10
0.0
 20
0.0
 30
0.0
  3
*D8
  1

  0
LINE
  5
25B
330
25A
100
AcDbEntity
  8
LC-007-003-----0
 62
     2
370
    -2
100
AcDbLine
 10
1120.348093
 20
2625.48
 30
0.0
 11
1185.877439
 21
2625.48
 31
0.0
  0
LINE
  5
25C
330
25A
100
AcDbEntity
  8
LC-007-003-----0
 62
     2
370
    -2
100
AcDbLine
 10
1120.348093
 20
2425.48
 30
0.0
 11
1185.877439
 21
2425.48
 31
0.0
  0
LINE
  5
25D
330
25A
100
AcDbEntity
  8
LC-007-003-----0
 62
     2
370
    -2
100
AcDbLine
 10
1167.877439
 20
2600.48
 30
0.0
 11
1167.877439
 21
2450.48
 31
0.0
  0
SOLID
  5
25E
330
25A
100
AcDbEntity
  8
LC-007-003-----0
 62
     2
100
AcDbTrace
 10
1172.044106
 20
2600.48
 30
0.0
 11
1163.710773
 21
2600.48
 31
0.0
 12
1167.877439
 22
2625.48
 32
0.0
 13
1167.877439
 23
2625.48
 33
0.0
  0
SOLID
  5
25F
330
25A
100
AcDbEntity
  8
LC-007-003-----0
 62
     2
100
AcDbTrace
 10
1163.710773
 20
2450.48
 30
0.0
 11
1172.044106
 21
2450.48
 31
0.0
 12
1167.877439
 22
2425.48
 32
0.0
 13
1167.877439
 23
2425.48
 33
0.0
  0
MTEXT
  5
260
330
25A
100
AcDbEntity
  8
LC-007-003-----0
 62
     2
100
AcDbMText
 10
1137.877439
 20
2526.661285
 30
0.0
 40
25.0
 41
0.0
 71
     5
 72
     1
  1
\A1;200
  7
LCTX0-400-0-0pDIN-Schrift
 11
6.123031769111886E-17
 21
1.0
 31
0.0
 73
     1
 44
1.0
  0
POINT
  5
261
330
25A
100
AcDbEntity
  8
Defpoints
 62
     0
100
AcDbPoint
 10
1120.348093
 20
2625.48
 30
0.0
  0
POINT
  5
262
330
25A
100
AcDbEntity
  8
Defpoints
 62
     0
100
AcDbPoint
 10
1120.348093
 20
2425.48
 30
0.0
  0
POINT
  5
263
330
25A
100
AcDbEntity
  8
Defpoints
 62
     0
100
AcDbPoint
 10
1167.877439
 20
2425.48
 30
0.0
  0
ENDBLK
  5
265
330
25A
100
AcDbEntity
  8
0
100
AcDbBlockEnd
  0
BLOCK
  5
271
330
267
100
AcDbEntity
  8
0
100
AcDbBlockBegin
  2
*D9
 70
     1
 71
     0
 10
0.0
 20
0.0
 30
0.0
  3
*D9
  1

  0
LINE
  5
268
330
267
100
AcDbEntity
  8
LC-007-003-----0
 62
     2
370
    -2
100
AcDbLine
 10
848.348093
 20
2625.48
 30
0.0
 11
885.877439
 21
2625.48
 31
0.0
  0
LINE
  5
269
330
267
100
AcDbEntity
  8
LC-007-003-----0
 62
     2
370
    -2
100
AcDbLine
 10
848.348093
 20
2425.48
 30
0.0
 11
885.877439
 21
2425.48
 31
0.0
  0
LINE
  5
26A
330
267
100
AcDbEntity
  8
LC-007-003-----0
 62
     2
370
    -2
100
AcDbLine
 10
867.877439
 20
2600.48
 30
0.0
 11
867.877439
 21
2450.48
 31
0.0
  0
SOLID
  5
26B
330
267
100
AcDbEntity
  8
LC-007-003-----0
 62
     2
100
AcDbTrace
 10
872.044106
 20
2600.48
 30
0.0
 11
863.710773
 21
2600.48
 31
0.0
 12
867.877439
 22
2625.48
 32
0.0
 13
867.877439
 23
2625.48
 33
0.0
  0
SOLID
  5
26C
330
267
100
AcDbEntity
  8
LC-007-003-----0
 62
     2
100
AcDbTrace
 10
863.710773
 20
2450.48
 30
0.0
 11
872.044106
 21
2450.48
 31
0.0
 12
867.877439
 22
2425.48
 32
0.0
 13
867.877439
 23
2425.48
 33
0.0
  0
MTEXT
  5
26D
330
267
100
AcDbEntity
  8
LC-007-003-----0
 62
     2
100
AcDbMText
 10
837.877439
 20
2524.75463
 30
0.0
 40
25.0
 41
0.0
 71
     5
 72
     1
  1
\A1;200
  7
LCTX0-400-0-0pDIN-Schrift
 11
6.123031769111886E-17
 21
1.0
 31
0.0
 73
     1
 44
1.0
  0
POINT
  5
26E
330
267
100
AcDbEntity
  8
Defpoints
 62
     0
100
AcDbPoint
 10
848.348093
 20
2625.48
 30
0.0
  0
POINT
  5
26F
330
267
100
AcDbEntity
  8
Defpoints
 62
     0
100
AcDbPoint
 10
848.348093
 20
2425.48
 30
0.0
  0
POINT
  5
270
330
267
100
AcDbEntity
  8
Defpoints
 62
     0
100
AcDbPoint
 10
867.877439
 20
2425.48
 30
0.0
  0
ENDBLK
  5
272
330
267
100
AcDbEntity
  8
0
100
AcDbBlockEnd
  0
BLOCK
  5
27E
330
274
100
AcDbEntity
  8
0
100
AcDbBlockBegin
  2
*D10
 70
     1
 71
     0
 10
0.0
 20
0.0
 30
0.0
  3
*D10
  1

  0
LINE
  5
275
330
274
100
AcDbEntity
  8
LC-007-003-----0
 62
     2
370
    -2
100
AcDbLine
 10
1410.348093
 20
1946.39
 30
0.0
 11
1535.877439
 21
1946.39
 31
0.0
  0
LINE
  5
276
330
274
100
AcDbEntity
  8
LC-007-003-----0
 62
     2
370
    -2
100
AcDbLine
 10
1410.348093
 20
1446.39
 30
0.0
 11
1535.877439
 21
1446.39
 31
0.0
  0
LINE
  5
277
330
274
100
AcDbEntity
  8
LC-007-003-----0
 62
     2
370
    -2
100
AcDbLine
 10
1517.877439
 20
1921.39
 30
0.0
 11
1517.877439
 21
1471.39
 31
0.0
  0
SOLID
  5
278
330
274
100
AcDbEntity
  8
LC-007-003-----0
 62
     2
100
AcDbTrace
 10
1522.044106
 20
1921.39
 30
0.0
 11
1513.710773
 21
1921.39
 31
0.0
 12
1517.877439
 22
1946.39
 32
0.0
 13
1517.877439
 23
1946.39
 33
0.0
  0
SOLID
  5
279
330
274
100
AcDbEntity
  8
LC-007-003-----0
 62
     2
100
AcDbTrace
 10
1513.710773
 20
1471.39
 30
0.0
 11
1522.044106
 21
1471.39
 31
0.0
 12
1517.877439
 22
1446.39
 32
0.0
 13
1517.877439
 23
1446.39
 33
0.0
  0
MTEXT
  5
27A
330
274
100
AcDbEntity
  8
LC-007-003-----0
 62
     2
100
AcDbMText
 10
1487.877439
 20
1692.906676
 30
0.0
 40
25.0
 41
0.0
 71
     5
 72
     1
  1
\A1;500
  7
LCTX0-400-0-0pDIN-Schrift
 11
6.123031769111886E-17
 21
1.0
 31
0.0
 73
     1
 44
1.0
  0
POINT
  5
27B
330
274
100
AcDbEntity
  8
Defpoints
 62
     0
100
AcDbPoint
 10
1410.348093
 20
1946.39
 30
0.0
  0
POINT
  5
27C
330
274
100
AcDbEntity
  8
Defpoints
 62
     0
100
AcDbPoint
 10
1410.348093
 20
1446.39
 30
0.0
  0
POINT
  5
27D
330
274
100
AcDbEntity
  8
Defpoints
 62
     0
100
AcDbPoint
 10
1517.877439
 20
1446.39
 30
0.0
  0
ENDBLK
  5
27F
330
274
100
AcDbEntity
  8
0
100
AcDbBlockEnd
  0
BLOCK
  5
293
330
292
100
AcDbEntity
  8
0
100
AcDbBlockBegin
  2
*X311
 70
     1
 71
     0
 10
0.0
 20
0.0
 30
0.0
  3
*X311
  1

  4
*X3
  0
LINE
  5
295
330
292
100
AcDbEntity
  8
LC-006-005-----0
 62
     7
370
    25
100
AcDbLine
 10
260.169758
 20
2579.48
 30
0.0
 11
280.348093
 21
2599.658336
 31
0.0
  0
LINE
  5
296
330
292
100
AcDbEntity
  8
LC-006-005-----0
 62
     7
370
    25
100
AcDbLine
 10
231.885486
 20
2579.48
 30
0.0
 11
269.885486
 21
2617.48
 31
0.0
  0
LINE
  5
297
330
292
100
AcDbEntity
  8
LC-006-005-----0
 62
     7
370
    25
100
AcDbLine
 10
203.67368
 20
2579.552465
 30
0.0
 11
241.601215
 21
2617.48
 31
0.0
  0
LINE
  5
298
330
292
100
AcDbEntity
  8
LC-006-005-----0
 62
     7
370
    25
100
AcDbLine
 10
202.305004
 20
2606.46806
 30
0.0
 11
213.316944
 21
2617.48
 31
0.0
  0
ENDBLK
  5
294
330
292
100
AcDbEntity
  8
0
100
AcDbBlockEnd
  0
BLOCK
  5
29B
330
29A
100
AcDbEntity
  8
0
100
AcDbBlockBegin
  2
*X412
 70
     1
 71
     0
 10
0.0
 20
0.0
 30
0.0
  3
*X412
  1

  4
*X4
  0
LINE
  5
29D
330
29A
100
AcDbEntity
  8
LC-006-005-----0
 62
     7
370
    25
100
AcDbLine
 10
1476.393421
 20
2579.48
 30
0.0
 11
1482.063603
 21
2585.150182
 31
0.0
  0
LINE
  5
29E
330
29A
100
AcDbEntity
  8
LC-006-005-----0
 62
     7
370
    25
100
AcDbLine
 10
1448.10915
 20
2579.48
 30
0.0
 11
1481.626981
 21
2612.997831
 31
0.0
  0
LINE
  5
29F
330
29A
100
AcDbEntity
  8
LC-006-005-----0
 62
     7
370
    25
100
AcDbLine
 10
1420.348093
 20
2580.003214
 30
0.0
 11
1457.824879
 21
2617.48
 31
0.0
  0
LINE
  5
2A0
330
29A
100
AcDbEntity
  8
LC-006-005-----0
 62
     7
370
    25
100
AcDbLine
 10
1420.348093
 20
2608.287486
 30
0.0
 11
1429.540608
 21
2617.48
 31
0.0
  0
ENDBLK
  5
29C
330
29A
100
AcDbEntity
  8
0
100
AcDbBlockEnd
  0
BLOCK
  5
2AE
330
2A4
100
AcDbEntity
  8
0
100
AcDbBlockBegin
  2
*D13
 70
     1
 71
     0
 10
0.0
 20
0.0
 30
0.0
  3
*D13
  1

  0
LINE
  5
2A5
330
2A4
100
AcDbEntity
  8
LC-007-003-----0
 62
     2
370
    -2
100
AcDbLine
 10
625.348093
 20
2429.48
 30
0.0
 11
625.348093
 21
2239.732139
 31
0.0
  0
LINE
  5
2A6
330
2A4
100
AcDbEntity
  8
LC-007-003-----0
 62
     2
370
    -2
100
AcDbLine
 10
1425.348093
 20
2429.48
 30
0.0
 11
1425.348093
 21
2239.732139
 31
0.0
  0
LINE
  5
2A7
330
2A4
100
AcDbEntity
  8
LC-007-003-----0
 62
     2
370
    -2
100
AcDbLine
 10
650.348093
 20
2257.732139
 30
0.0
 11
1400.348093
 21
2257.732139
 31
0.0
  0
SOLID
  5
2A8
330
2A4
100
AcDbEntity
  8
LC-007-003-----0
 62
     2
100
AcDbTrace
 10
650.348093
 20
2261.898806
 30
0.0
 11
650.348093
 21
2253.565473
 31
0.0
 12
625.348093
 22
2257.732139
 32
0.0
 13
625.348093
 23
2257.732139
 33
0.0
  0
SOLID
  5
2A9
330
2A4
100
AcDbEntity
  8
LC-007-003-----0
 62
     2
100
AcDbTrace
 10
1400.348093
 20
2253.565473
 30
0.0
 11
1400.348093
 21
2261.898806
 31
0.0
 12
1425.348093
 22
2257.732139
 32
0.0
 13
1425.348093
 23
2257.732139
 33
0.0
  0
MTEXT
  5
2AA
330
2A4
100
AcDbEntity
  8
LC-007-003-----0
 62
     2
100
AcDbMText
 10
1219.884895
 20
2287.732139
 30
0.0
 40
25.0
 41
0.0
 71
     5
 72
     1
  1
\A1;800
  7
LCTX0-400-0-0pDIN-Schrift
 73
     1
 44
1.0
  0
POINT
  5
2AB
330
2A4
100
AcDbEntity
  8
Defpoints
 62
     0
100
AcDbPoint
 10
625.348093
 20
2429.48
 30
0.0
  0
POINT
  5
2AC
330
2A4
100
AcDbEntity
  8
Defpoints
 62
     0
100
AcDbPoint
 10
1425.348093
 20
2429.48
 30
0.0
  0
POINT
  5
2AD
330
2A4
100
AcDbEntity
  8
Defpoints
 62
     0
100
AcDbPoint
 10
1425.348093
 20
2257.732139
 30
0.0
  0
ENDBLK
  5
2AF
330
2A4
100
AcDbEntity
  8
0
100
AcDbBlockEnd
  0
BLOCK
  5
2B1
330
2B0
100
AcDbEntity
  8
0
100
AcDbBlockBegin
  2
*X514
 70
     1
 71
     0
 10
0.0
 20
0.0
 30
0.0
  3
*X514
  1

  4
*X5
  0
LINE
  5
2B3
330
2B0
100
AcDbEntity
  8
LC-006-005-----0
 62
     7
370
    25
100
AcDbLine
 10
1411.246235
 20
2429.48
 30
0.0
 11
1425.348093
 21
2443.581858
 31
0.0
  0
LINE
  5
2B4
330
2B0
100
AcDbEntity
  8
LC-006-005-----0
 62
     7
370
    25
100
AcDbLine
 10
1406.348093
 20
2452.86613
 30
0.0
 11
1425.348093
 21
2471.86613
 31
0.0
  0
LINE
  5
2B5
330
2B0
100
AcDbEntity
  8
LC-006-005-----0
 62
     7
370
    25
100
AcDbLine
 10
1406.348093
 20
2481.150401
 30
0.0
 11
1425.348093
 21
2500.150401
 31
0.0
  0
LINE
  5
2B6
330
2B0
100
AcDbEntity
  8
LC-006-005-----0
 62
     7
370
    25
100
AcDbLine
 10
1406.348093
 20
2509.434672
 30
0.0
 11
1425.348093
 21
2528.434672
 31
0.0
  0
LINE
  5
2B7
330
2B0
100
AcDbEntity
  8
LC-006-005-----0
 62
     7
370
    25
100
AcDbLine
 10
1406.348093
 20
2537.718943
 30
0.0
 11
1425.348093
 21
2556.718943
 31
0.0
  0
LINE
  5
2B8
330
2B0
100
AcDbEntity
  8
LC-006-005-----0
 62
     7
370
    25
100
AcDbLine
 10
1406.348093
 20
2566.003214
 30
0.0
 11
1419.824879
 21
2579.48
 31
0.0
  0
LINE
  5
2B9
330
2B0
100
AcDbEntity
  8
LC-006-005-----0
 62
     7
370
    25
100
AcDbLine
 10
625.348093
 20
2435.541453
 30
0.0
 11
644.348093
 21
2454.541453
 31
0.0
  0
LINE
  5
2BA
330
2B0
100
AcDbEntity
  8
LC-006-005-----0
 62
     7
370
    25
100
AcDbLine
 10
625.348093
 20
2463.825724
 30
0.0
 11
644.348093
 21
2482.825724
 31
0.0
  0
LINE
  5
2BB
330
2B0
100
AcDbEntity
  8
LC-006-005-----0
 62
     7
370
    25
100
AcDbLine
 10
625.348093
 20
2492.109996
 30
0.0
 11
644.348093
 21
2511.109996
 31
0.0
  0
LINE
  5
2BC
330
2B0
100
AcDbEntity
  8
LC-006-005-----0
 62
     7
370
    25
100
AcDbLine
 10
625.348093
 20
2520.394267
 30
0.0
 11
644.348093
 21
2539.394267
 31
0.0
  0
LINE
  5
2BD
330
2B0
100
AcDbEntity
  8
LC-006-005-----0
 62
     7
370
    25
100
AcDbLine
 10
625.348093
 20
2548.678538
 30
0.0
 11
644.348093
 21
2567.678538
 31
0.0
  0
LINE
  5
2BE
330
2B0
100
AcDbEntity
  8
LC-006-005-----0
 62
     7
370
    25
100
AcDbLine
 10
625.348093
 20
2576.962809
 30
0.0
 11
627.865284
 21
2579.48
 31
0.0
  0
ENDBLK
  5
2B2
330
2B0
100
AcDbEntity
  8
0
100
AcDbBlockEnd
  0
BLOCK
  5
2D5
330
2CB
100
AcDbEntity
  8
0
100
AcDbBlockBegin
  2
*D15
 70
     1
 71
     0
 10
0.0
 20
0.0
 30
0.0
  3
*D15
  1

  0
LINE
  5
2CC
330
2CB
100
AcDbEntity
  8
LC-007-003-----0
 62
     2
370
    -2
100
AcDbLine
 10
1430.348093
 20
1926.39
 30
0.0
 11
1430.348093
 21
2018.0
 31
0.0
  0
LINE
  5
2CD
330
2CB
100
AcDbEntity
  8
LC-007-003-----0
 62
     2
370
    -2
100
AcDbLine
 10
980.348093
 20
1927.89
 30
0.0
 11
980.348093
 21
2018.0
 31
0.0
  0
LINE
  5
2CE
330
2CB
100
AcDbEntity
  8
LC-007-003-----0
 62
     2
370
    -2
100
AcDbLine
 10
1405.348093
 20
2000.0
 30
0.0
 11
1005.348093
 21
2000.0
 31
0.0
  0
SOLID
  5
2CF
330
2CB
100
AcDbEntity
  8
LC-007-003-----0
 62
     2
100
AcDbTrace
 10
1405.348093
 20
1995.833333
 30
0.0
 11
1405.348093
 21
2004.166667
 31
0.0
 12
1430.348093
 22
2000.0
 32
0.0
 13
1430.348093
 23
2000.0
 33
0.0
  0
SOLID
  5
2D0
330
2CB
100
AcDbEntity
  8
LC-007-003-----0
 62
     2
100
AcDbTrace
 10
1005.348093
 20
2004.166667
 30
0.0
 11
1005.348093
 21
1995.833333
 31
0.0
 12
980.348093
 22
2000.0
 32
0.0
 13
980.348093
 23
2000.0
 33
0.0
  0
MTEXT
  5
2D1
330
2CB
100
AcDbEntity
  8
LC-007-003-----0
 62
     2
100
AcDbMText
 10
1193.619208
 20
2030.0
 30
0.0
 40
25.0
 41
0.0
 71
     5
 72
     1
  1
\A1;450
  7
LCTX0-400-0-0pDIN-Schrift
 73
     1
 44
1.0
  0
POINT
  5
2D2
330
2CB
100
AcDbEntity
  8
Defpoints
 62
     0
100
AcDbPoint
 10
1430.348093
 20
1926.39
 30
0.0
  0
POINT
  5
2D3
330
2CB
100
AcDbEntity
  8
Defpoints
 62
     0
100
AcDbPoint
 10
980.348093
 20
1927.89
 30
0.0
  0
POINT
  5
2D4
330
2CB
100
AcDbEntity
  8
Defpoints
 62
     0
100
AcDbPoint
 10
980.348093
 20
2000.0
 30
0.0
  0
ENDBLK
  5
2D6
330
2CB
100
AcDbEntity
  8
0
100
AcDbBlockEnd
  0
BLOCK
  5
2E2
330
2D8
100
AcDbEntity
  8
0
100
AcDbBlockBegin
  2
*D16
 70
     1
 71
     0
 10
0.0
 20
0.0
 30
0.0
  3
*D16
  1

  0
LINE
  5
2D9
330
2D8
100
AcDbEntity
  8
LC-007-003-----0
 62
     2
370
    -2
100
AcDbLine
 10
980.348093
 20
1927.89
 30
0.0
 11
980.348093
 21
2018.0
 31
0.0
  0
LINE
  5
2DA
330
2D8
100
AcDbEntity
  8
LC-007-003-----0
 62
     2
370
    -2
100
AcDbLine
 10
860.348093
 20
1927.89
 30
0.0
 11
860.348093
 21
2018.0
 31
0.0
  0
LINE
  5
2DB
330
2D8
100
AcDbEntity
  8
LC-007-003-----0
 62
     2
370
    -2
100
AcDbLine
 10
955.348093
 20
2000.0
 30
0.0
 11
885.348093
 21
2000.0
 31
0.0
  0
SOLID
  5
2DC
330
2D8
100
AcDbEntity
  8
LC-007-003-----0
 62
     2
100
AcDbTrace
 10
955.348093
 20
1995.833333
 30
0.0
 11
955.348093
 21
2004.166667
 31
0.0
 12
980.348093
 22
2000.0
 32
0.0
 13
980.348093
 23
2000.0
 33
0.0
  0
SOLID
  5
2DD
330
2D8
100
AcDbEntity
  8
LC-007-003-----0
 62
     2
100
AcDbTrace
 10
885.348093
 20
2004.166667
 30
0.0
 11
885.348093
 21
1995.833333
 31
0.0
 12
860.348093
 22
2000.0
 32
0.0
 13
860.348093
 23
2000.0
 33
0.0
  0
MTEXT
  5
2DE
330
2D8
100
AcDbEntity
  8
LC-007-003-----0
 62
     2
100
AcDbMText
 10
924.257144
 20
2030.0
 30
0.0
 40
25.0
 41
0.0
 71
     5
 72
     1
  1
\A1;120
  7
LCTX0-400-0-0pDIN-Schrift
 73
     1
 44
1.0
  0
POINT
  5
2DF
330
2D8
100
AcDbEntity
  8
Defpoints
 62
     0
100
AcDbPoint
 10
980.348093
 20
1927.89
 30
0.0
  0
POINT
  5
2E0
330
2D8
100
AcDbEntity
  8
Defpoints
 62
     0
100
AcDbPoint
 10
860.348093
 20
1927.89
 30
0.0
  0
POINT
  5
2E1
330
2D8
100
AcDbEntity
  8
Defpoints
 62
     0
100
AcDbPoint
 10
860.348093
 20
2000.0
 30
0.0
  0
ENDBLK
  5
2E3
330
2D8
100
AcDbEntity
  8
0
100
AcDbBlockEnd
  0
BLOCK
  5
2EF
330
2E5
100
AcDbEntity
  8
0
100
AcDbBlockBegin
  2
*D17
 70
     1
 71
     0
 10
0.0
 20
0.0
 30
0.0
  3
*D17
  1

  0
LINE
  5
2E6
330
2E5
100
AcDbEntity
  8
LC-007-003-----0
 62
     2
370
    -2
100
AcDbLine
 10
860.348093
 20
1927.89
 30
0.0
 11
860.348093
 21
2018.0
 31
0.0
  0
LINE
  5
2E7
330
2E5
100
AcDbEntity
  8
LC-007-003-----0
 62
     2
370
    -2
100
AcDbLine
 10
740.348093
 20
1927.89
 30
0.0
 11
740.348093
 21
2018.0
 31
0.0
  0
LINE
  5
2E8
330
2E5
100
AcDbEntity
  8
LC-007-003-----0
 62
     2
370
    -2
100
AcDbLine
 10
835.348093
 20
2000.0
 30
0.0
 11
765.348093
 21
2000.0
 31
0.0
  0
SOLID
  5
2E9
330
2E5
100
AcDbEntity
  8
LC-007-003-----0
 62
     2
100
AcDbTrace
 10
835.348093
 20
1995.833333
 30
0.0
 11
835.348093
 21
2004.166667
 31
0.0
 12
860.348093
 22
2000.0
 32
0.0
 13
860.348093
 23
2000.0
 33
0.0
  0
SOLID
  5
2EA
330
2E5
100
AcDbEntity
  8
LC-007-003-----0
 62
     2
100
AcDbTrace
 10
765.348093
 20
2004.166667
 30
0.0
 11
765.348093
 21
1995.833333
 31
0.0
 12
740.348093
 22
2000.0
 32
0.0
 13
740.348093
 23
2000.0
 33
0.0
  0
MTEXT
  5
2EB
330
2E5
100
AcDbEntity
  8
LC-007-003-----0
 62
     2
100
AcDbMText
 10
795.187822
 20
2030.0
 30
0.0
 40
25.0
 41
0.0
 71
     5
 72
     1
  1
\A1;120
  7
LCTX0-400-0-0pDIN-Schrift
 73
     1
 44
1.0
  0
POINT
  5
2EC
330
2E5
100
AcDbEntity
  8
Defpoints
 62
     0
100
AcDbPoint
 10
860.348093
 20
1927.89
 30
0.0
  0
POINT
  5
2ED
330
2E5
100
AcDbEntity
  8
Defpoints
 62
     0
100
AcDbPoint
 10
740.348093
 20
1927.89
 30
0.0
  0
POINT
  5
2EE
330
2E5
100
AcDbEntity
  8
Defpoints
 62
     0
100
AcDbPoint
 10
740.348093
 20
2000.0
 30
0.0
  0
ENDBLK
  5
2F0
330
2E5
100
AcDbEntity
  8
0
100
AcDbBlockEnd
  0
BLOCK
  5
2FE
330
2F2
100
AcDbEntity
  8
0
100
AcDbBlockBegin
  2
*D18
 70
     1
 71
     0
 10
0.0
 20
0.0
 30
0.0
  3
*D18
  1

  0
LINE
  5
2F3
330
2F2
100
AcDbEntity
  8
LC-007-003-----0
 62
     2
370
    -2
100
AcDbLine
 10
722.848093
 20
1910.39
 30
0.0
 11
649.877439
 21
1910.39
 31
0.0
  0
LINE
  5
2F4
330
2F2
100
AcDbEntity
  8
LC-007-003-----0
 62
     2
370
    -2
100
AcDbLine
 10
740.348093
 20
1946.39
 30
0.0
 11
649.877439
 21
1946.39
 31
0.0
  0
LINE
  5
2F5
330
2F2
100
AcDbEntity
  8
LC-007-003-----0
 62
     2
370
    -2
100
AcDbLine
 10
667.877439
 20
1885.39
 30
0.0
 11
667.877439
 21
1860.39
 31
0.0
  0
LINE
  5
2F6
330
2F2
100
AcDbEntity
  8
LC-007-003-----0
 62
     2
370
    -2
100
AcDbLine
 10
667.877439
 20
1971.39
 30
0.0
 11
667.877439
 21
2029.351055
 31
0.0
  0
LINE
  5
2F7
330
2F2
100
AcDbEntity
  8
LC-007-003-----0
 62
     2
370
    -2
100
AcDbLine
 10
667.877439
 20
1910.39
 30
0.0
 11
667.877439
 21
1946.39
 31
0.0
  0
SOLID
  5
2F8
330
2F2
100
AcDbEntity
  8
LC-007-003-----0
 62
     2
100
AcDbTrace
 10
672.044106
 20
1885.39
 30
0.0
 11
663.710773
 21
1885.39
 31
0.0
 12
667.877439
 22
1910.39
 32
0.0
 13
667.877439
 23
1910.39
 33
0.0
  0
SOLID
  5
2F9
330
2F2
100
AcDbEntity
  8
LC-007-003-----0
 62
     2
100
AcDbTrace
 10
663.710773
 20
1971.39
 30
0.0
 11
672.044106
 21
1971.39
 31
0.0
 12
667.877439
 22
1946.39
 32
0.0
 13
667.877439
 23
1946.39
 33
0.0
  0
MTEXT
  5
2FA
330
2F2
100
AcDbEntity
  8
LC-007-003-----0
 62
     2
100
AcDbMText
 10
637.877439
 20
1998.160579
 30
0.0
 40
25.0
 41
0.0
 71
     5
 72
     1
  1
\A1;36
  7
LCTX0-400-0-0pDIN-Schrift
 11
6.123031769111886E-17
 21
1.0
 31
0.0
 73
     1
 44
1.0
  0
POINT
  5
2FB
330
2F2
100
AcDbEntity
  8
Defpoints
 62
     0
100
AcDbPoint
 10
722.848093
 20
1910.39
 30
0.0
  0
POINT
  5
2FC
330
2F2
100
AcDbEntity
  8
Defpoints
 62
     0
100
AcDbPoint
 10
740.348093
 20
1946.39
 30
0.0
  0
POINT
  5
2FD
330
2F2
100
AcDbEntity
  8
Defpoints
 62
     0
100
AcDbPoint
 10
667.877439
 20
1946.39
 30
0.0
  0
ENDBLK
  5
2FF
330
2F2
100
AcDbEntity
  8
0
100
AcDbBlockEnd
  0
BLOCK
  5
33E
330
33D
100
AcDbEntity
  8
0
100
AcDbBlockBegin
  2
POLY1
 70
     0
 71
     0
 10
0.0
 20
0.0
 30
0.0
  3
POLY1
  1

  4
POLY1
  0
LINE
  5
340
330
33D
100
AcDbEntity
  8
LC-002-002-----0
 62
     7
370
    25
100
AcDbLine
 10
1053.444372
 20
2360.035384
 30
0.0
 11
1053.444372
 21
2360.035384
 31
0.0
  0
LINE
  5
341
330
33D
100
AcDbEntity
  8
LC-002-002-----0
 62
     7
370
    25
100
AcDbLine
 10
1053.444372
 20
2360.035384
 30
0.0
 11
1052.929598
 21
2359.976446
 31
0.0
  0
LINE
  5
342
330
33D
100
AcDbEntity
  8
LC-002-002-----0
 62
     7
370
    25
100
AcDbLine
 10
1052.929598
 20
2359.976446
 30
0.0
 11
1052.929598
 21
2359.976446
 31
0.0
  0
LINE
  5
343
330
33D
100
AcDbEntity
  8
LC-002-002-----0
 62
     7
370
    25
100
AcDbLine
 10
1052.929598
 20
2359.976446
 30
0.0
 11
1052.448241
 21
2359.8029
 31
0.0
  0
LINE
  5
344
330
33D
100
AcDbEntity
  8
LC-002-002-----0
 62
     7
370
    25
100
AcDbLine
 10
1052.448241
 20
2359.8029
 30
0.0
 11
1052.448241
 21
2359.8029
 31
0.0
  0
LINE
  5
345
330
33D
100
AcDbEntity
  8
LC-002-002-----0
 62
     7
370
    25
100
AcDbLine
 10
1052.448241
 20
2359.8029
 30
0.0
 11
1052.034674
 21
2359.526765
 31
0.0
  0
LINE
  5
346
330
33D
100
AcDbEntity
  8
LC-002-002-----0
 62
     7
370
    25
100
AcDbLine
 10
1052.034674
 20
2359.526765
 30
0.0
 11
1052.034674
 21
2359.526765
 31
0.0
  0
LINE
  5
347
330
33D
100
AcDbEntity
  8
LC-002-002-----0
 62
     7
370
    25
100
AcDbLine
 10
1052.034674
 20
2359.526765
 30
0.0
 11
1051.715728
 21
2359.165419
 31
0.0
  0
LINE
  5
348
330
33D
100
AcDbEntity
  8
LC-002-002-----0
 62
     7
370
    25
100
AcDbLine
 10
1051.715728
 20
2359.165419
 30
0.0
 11
1051.715728
 21
2359.165419
 31
0.0
  0
LINE
  5
349
330
33D
100
AcDbEntity
  8
LC-002-002-----0
 62
     7
370
    25
100
AcDbLine
 10
1051.715728
 20
2359.165419
 30
0.0
 11
1051.513765
 21
2358.742032
 31
0.0
  0
LINE
  5
34A
330
33D
100
AcDbEntity
  8
LC-002-002-----0
 62
     7
370
    25
100
AcDbLine
 10
1051.513765
 20
2358.742032
 30
0.0
 11
1051.513765
 21
2358.742032
 31
0.0
  0
LINE
  5
34B
330
33D
100
AcDbEntity
  8
LC-002-002-----0
 62
     7
370
    25
100
AcDbLine
 10
1051.513765
 20
2358.742032
 30
0.0
 11
1051.444372
 21
2358.28455
 31
0.0
  0
ENDBLK
  5
33F
330
33D
100
AcDbEntity
  8
0
100
AcDbBlockEnd
  0
BLOCK
  5
34E
330
34D
100
AcDbEntity
  8
0
100
AcDbBlockBegin
  2
POLY2
 70
     0
 71
     0
 10
0.0
 20
0.0
 30
0.0
  3
POLY2
  1

  4
POLY2
  0
LINE
  5
350
330
34D
100
AcDbEntity
  8
LC-002-002-----0
 62
     7
370
    25
100
AcDbLine
 10
1053.444372
 20
2313.610422
 30
0.0
 11
1053.444372
 21
2313.610422
 31
0.0
  0
LINE
  5
351
330
34D
100
AcDbEntity
  8
LC-002-002-----0
 62
     7
370
    25
100
AcDbLine
 10
1053.444372
 20
2313.610422
 30
0.0
 11
1052.929599
 21
2313.66936
 31
0.0
  0
LINE
  5
352
330
34D
100
AcDbEntity
  8
LC-002-002-----0
 62
     7
370
    25
100
AcDbLine
 10
1052.929599
 20
2313.66936
 30
0.0
 11
1052.929599
 21
2313.66936
 31
0.0
  0
LINE
  5
353
330
34D
100
AcDbEntity
  8
LC-002-002-----0
 62
     7
370
    25
100
AcDbLine
 10
1052.929599
 20
2313.66936
 30
0.0
 11
1052.448241
 21
2313.842905
 31
0.0
  0
LINE
  5
354
330
34D
100
AcDbEntity
  8
LC-002-002-----0
 62
     7
370
    25
100
AcDbLine
 10
1052.448241
 20
2313.842905
 30
0.0
 11
1052.448241
 21
2313.842905
 31
0.0
  0
LINE
  5
355
330
34D
100
AcDbEntity
  8
LC-002-002-----0
 62
     7
370
    25
100
AcDbLine
 10
1052.448241
 20
2313.842905
 30
0.0
 11
1052.034674
 21
2314.119041
 31
0.0
  0
LINE
  5
356
330
34D
100
AcDbEntity
  8
LC-002-002-----0
 62
     7
370
    25
100
AcDbLine
 10
1052.034674
 20
2314.119041
 30
0.0
 11
1052.034674
 21
2314.119041
 31
0.0
  0
LINE
  5
357
330
34D
100
AcDbEntity
  8
LC-002-002-----0
 62
     7
370
    25
100
AcDbLine
 10
1052.034674
 20
2314.119041
 30
0.0
 11
1051.715728
 21
2314.480386
 31
0.0
  0
LINE
  5
358
330
34D
100
AcDbEntity
  8
LC-002-002-----0
 62
     7
370
    25
100
AcDbLine
 10
1051.715728
 20
2314.480386
 30
0.0
 11
1051.715728
 21
2314.480386
 31
0.0
  0
LINE
  5
359
330
34D
100
AcDbEntity
  8
LC-002-002-----0
 62
     7
370
    25
100
AcDbLine
 10
1051.715728
 20
2314.480386
 30
0.0
 11
1051.513765
 21
2314.903773
 31
0.0
  0
LINE
  5
35A
330
34D
100
AcDbEntity
  8
LC-002-002-----0
 62
     7
370
    25
100
AcDbLine
 10
1051.513765
 20
2314.903773
 30
0.0
 11
1051.513765
 21
2314.903773
 31
0.0
  0
LINE
  5
35B
330
34D
100
AcDbEntity
  8
LC-002-002-----0
 62
     7
370
    25
100
AcDbLine
 10
1051.513765
 20
2314.903773
 30
0.0
 11
1051.444372
 21
2315.361255
 31
0.0
  0
ENDBLK
  5
34F
330
34D
100
AcDbEntity
  8
0
100
AcDbBlockEnd
  0
BLOCK
  5
35F
330
35E
100
AcDbEntity
  8
0
100
AcDbBlockBegin
  2
POLY3
 70
     0
 71
     0
 10
0.0
 20
0.0
 30
0.0
  3
POLY3
  1

  4
POLY3
  0
LINE
  5
361
330
35E
100
AcDbEntity
  8
LC-002-002-----0
 62
     7
370
    25
100
AcDbLine
 10
1053.444372
 20
2336.822903
 30
0.0
 11
1053.444372
 21
2336.822903
 31
0.0
  0
LINE
  5
362
330
35E
100
AcDbEntity
  8
LC-002-002-----0
 62
     7
370
    25
100
AcDbLine
 10
1053.444372
 20
2336.822903
 30
0.0
 11
1052.929584
 21
2336.822936
 31
0.0
  0
LINE
  5
363
330
35E
100
AcDbEntity
  8
LC-002-002-----0
 62
     7
370
    25
100
AcDbLine
 10
1052.929584
 20
2336.822936
 30
0.0
 11
1052.929584
 21
2336.822936
 31
0.0
  0
LINE
  5
364
330
35E
100
AcDbEntity
  8
LC-002-002-----0
 62
     7
370
    25
100
AcDbLine
 10
1052.929584
 20
2336.822936
 30
0.0
 11
1052.448214
 21
2336.8229
 31
0.0
  0
LINE
  5
365
330
35E
100
AcDbEntity
  8
LC-002-002-----0
 62
     7
370
    25
100
AcDbLine
 10
1052.448214
 20
2336.8229
 30
0.0
 11
1052.448214
 21
2336.8229
 31
0.0
  0
LINE
  5
366
330
35E
100
AcDbEntity
  8
LC-002-002-----0
 62
     7
370
    25
100
AcDbLine
 10
1052.448214
 20
2336.8229
 30
0.0
 11
1052.034643
 21
2336.822906
 31
0.0
  0
LINE
  5
367
330
35E
100
AcDbEntity
  8
LC-002-002-----0
 62
     7
370
    25
100
AcDbLine
 10
1052.034643
 20
2336.822906
 30
0.0
 11
1052.034643
 21
2336.822906
 31
0.0
  0
LINE
  5
368
330
35E
100
AcDbEntity
  8
LC-002-002-----0
 62
     7
370
    25
100
AcDbLine
 10
1052.034643
 20
2336.822906
 30
0.0
 11
1051.715707
 21
2336.822881
 31
0.0
  0
LINE
  5
369
330
35E
100
AcDbEntity
  8
LC-002-002-----0
 62
     7
370
    25
100
AcDbLine
 10
1051.715707
 20
2336.822881
 30
0.0
 11
1051.715707
 21
2336.822881
 31
0.0
  0
LINE
  5
36A
330
35E
100
AcDbEntity
  8
LC-002-002-----0
 62
     7
370
    25
100
AcDbLine
 10
1051.715707
 20
2336.822881
 30
0.0
 11
1051.513751
 21
2336.82293
 31
0.0
  0
LINE
  5
36B
330
35E
100
AcDbEntity
  8
LC-002-002-----0
 62
     7
370
    25
100
AcDbLine
 10
1051.513751
 20
2336.82293
 30
0.0
 11
1051.513751
 21
2336.82293
 31
0.0
  0
LINE
  5
36C
330
35E
100
AcDbEntity
  8
LC-002-002-----0
 62
     7
370
    25
100
AcDbLine
 10
1051.513751
 20
2336.82293
 30
0.0
 11
1051.444372
 21
2336.822911
 31
0.0
  0
ENDBLK
  5
360
330
35E
100
AcDbEntity
  8
0
100
AcDbBlockEnd
  0
BLOCK
  5
3CB
330
3CA
100
AcDbEntity
  8
0
100
AcDbBlockBegin
  2
POLY4
 70
     0
 71
     0
 10
0.0
 20
0.0
 30
0.0
  3
POLY4
  1

  4
POLY4
  0
LINE
  5
3CD
330
3CA
100
AcDbEntity
  8
LC-002-002-----0
 62
     7
370
    25
100
AcDbLine
 10
971.150535
 20
2409.147674
 30
0.0
 11
971.150535
 21
2409.147674
 31
0.0
  0
LINE
  5
3CE
330
3CA
100
AcDbEntity
  8
LC-002-002-----0
 62
     7
370
    25
100
AcDbLine
 10
971.150535
 20
2409.147674
 30
0.0
 11
971.313155
 21
2409.147739
 31
0.0
  0
LINE
  5
3CF
330
3CA
100
AcDbEntity
  8
LC-002-002-----0
 62
     7
370
    25
100
AcDbLine
 10
971.313155
 20
2409.147739
 30
0.0
 11
971.313155
 21
2409.147739
 31
0.0
  0
LINE
  5
3D0
330
3CA
100
AcDbEntity
  8
LC-002-002-----0
 62
     7
370
    25
100
AcDbLine
 10
971.313155
 20
2409.147739
 30
0.0
 11
971.780292
 21
2409.148095
 31
0.0
  0
LINE
  5
3D1
330
3CA
100
AcDbEntity
  8
LC-002-002-----0
 62
     7
370
    25
100
AcDbLine
 10
971.780292
 20
2409.148095
 30
0.0
 11
971.780292
 21
2409.148095
 31
0.0
  0
LINE
  5
3D2
330
3CA
100
AcDbEntity
  8
LC-002-002-----0
 62
     7
370
    25
100
AcDbLine
 10
971.780292
 20
2409.148095
 30
0.0
 11
972.533354
 21
2409.147805
 31
0.0
  0
LINE
  5
3D3
330
3CA
100
AcDbEntity
  8
LC-002-002-----0
 62
     7
370
    25
100
AcDbLine
 10
972.533354
 20
2409.147805
 30
0.0
 11
972.533354
 21
2409.147805
 31
0.0
  0
LINE
  5
3D4
330
3CA
100
AcDbEntity
  8
LC-002-002-----0
 62
     7
370
    25
100
AcDbLine
 10
972.533354
 20
2409.147805
 30
0.0
 11
973.567683
 21
2409.147563
 31
0.0
  0
LINE
  5
3D5
330
3CA
100
AcDbEntity
  8
LC-002-002-----0
 62
     7
370
    25
100
AcDbLine
 10
973.567683
 20
2409.147563
 30
0.0
 11
973.567683
 21
2409.147563
 31
0.0
  0
LINE
  5
3D6
330
3CA
100
AcDbEntity
  8
LC-002-002-----0
 62
     7
370
    25
100
AcDbLine
 10
973.567683
 20
2409.147563
 30
0.0
 11
974.914938
 21
2409.147529
 31
0.0
  0
LINE
  5
3D7
330
3CA
100
AcDbEntity
  8
LC-002-002-----0
 62
     7
370
    25
100
AcDbLine
 10
974.914938
 20
2409.147529
 30
0.0
 11
974.914938
 21
2409.147529
 31
0.0
  0
LINE
  5
3D8
330
3CA
100
AcDbEntity
  8
LC-002-002-----0
 62
     7
370
    25
100
AcDbLine
 10
974.914938
 20
2409.147529
 30
0.0
 11
976.570642
 21
2409.147613
 31
0.0
  0
LINE
  5
3D9
330
3CA
100
AcDbEntity
  8
LC-002-002-----0
 62
     7
370
    25
100
AcDbLine
 10
976.570642
 20
2409.147613
 30
0.0
 11
976.570642
 21
2409.147613
 31
0.0
  0
LINE
  5
3DA
330
3CA
100
AcDbEntity
  8
LC-002-002-----0
 62
     7
370
    25
100
AcDbLine
 10
976.570642
 20
2409.147613
 30
0.0
 11
978.518096
 21
2409.147941
 31
0.0
  0
LINE
  5
3DB
330
3CA
100
AcDbEntity
  8
LC-002-002-----0
 62
     7
370
    25
100
AcDbLine
 10
978.518096
 20
2409.147941
 30
0.0
 11
978.518096
 21
2409.147941
 31
0.0
  0
LINE
  5
3DC
330
3CA
100
AcDbEntity
  8
LC-002-002-----0
 62
     7
370
    25
100
AcDbLine
 10
978.518096
 20
2409.147941
 30
0.0
 11
980.731838
 21
2409.147793
 31
0.0
  0
LINE
  5
3DD
330
3CA
100
AcDbEntity
  8
LC-002-002-----0
 62
     7
370
    25
100
AcDbLine
 10
980.731838
 20
2409.147793
 30
0.0
 11
980.731838
 21
2409.147793
 31
0.0
  0
LINE
  5
3DE
330
3CA
100
AcDbEntity
  8
LC-002-002-----0
 62
     7
370
    25
100
AcDbLine
 10
980.731838
 20
2409.147793
 30
0.0
 11
983.142843
 21
2409.147761
 31
0.0
  0
LINE
  5
3DF
330
3CA
100
AcDbEntity
  8
LC-002-002-----0
 62
     7
370
    25
100
AcDbLine
 10
983.142843
 20
2409.147761
 30
0.0
 11
983.142843
 21
2409.147761
 31
0.0
  0
LINE
  5
3E0
330
3CA
100
AcDbEntity
  8
LC-002-002-----0
 62
     7
370
    25
100
AcDbLine
 10
983.142843
 20
2409.147761
 30
0.0
 11
985.627204
 21
2409.147763
 31
0.0
  0
LINE
  5
3E1
330
3CA
100
AcDbEntity
  8
LC-002-002-----0
 62
     7
370
    25
100
AcDbLine
 10
985.627204
 20
2409.147763
 30
0.0
 11
985.627204
 21
2409.147763
 31
0.0
  0
LINE
  5
3E2
330
3CA
100
AcDbEntity
  8
LC-002-002-----0
 62
     7
370
    25
100
AcDbLine
 10
985.627204
 20
2409.147763
 30
0.0
 11
988.027515
 21
2409.14781
 31
0.0
  0
LINE
  5
3E3
330
3CA
100
AcDbEntity
  8
LC-002-002-----0
 62
     7
370
    25
100
AcDbLine
 10
988.027515
 20
2409.14781
 30
0.0
 11
988.027515
 21
2409.14781
 31
0.0
  0
LINE
  5
3E4
330
3CA
100
AcDbEntity
  8
LC-002-002-----0
 62
     7
370
    25
100
AcDbLine
 10
988.027515
 20
2409.14781
 30
0.0
 11
990.222202
 21
2409.147946
 31
0.0
  0
LINE
  5
3E5
330
3CA
100
AcDbEntity
  8
LC-002-002-----0
 62
     7
370
    25
100
AcDbLine
 10
990.222202
 20
2409.147946
 30
0.0
 11
990.222202
 21
2409.147946
 31
0.0
  0
LINE
  5
3E6
330
3CA
100
AcDbEntity
  8
LC-002-002-----0
 62
     7
370
    25
100
AcDbLine
 10
990.222202
 20
2409.147946
 30
0.0
 11
992.149109
 21
2409.147621
 31
0.0
  0
LINE
  5
3E7
330
3CA
100
AcDbEntity
  8
LC-002-002-----0
 62
     7
370
    25
100
AcDbLine
 10
992.149109
 20
2409.147621
 30
0.0
 11
992.149109
 21
2409.147621
 31
0.0
  0
LINE
  5
3E8
330
3CA
100
AcDbEntity
  8
LC-002-002-----0
 62
     7
370
    25
100
AcDbLine
 10
992.149109
 20
2409.147621
 30
0.0
 11
993.787845
 21
2409.147538
 31
0.0
  0
LINE
  5
3E9
330
3CA
100
AcDbEntity
  8
LC-002-002-----0
 62
     7
370
    25
100
AcDbLine
 10
993.787845
 20
2409.147538
 30
0.0
 11
993.787845
 21
2409.147538
 31
0.0
  0
LINE
  5
3EA
330
3CA
100
AcDbEntity
  8
LC-002-002-----0
 62
     7
370
    25
100
AcDbLine
 10
993.787845
 20
2409.147538
 30
0.0
 11
995.124974
 21
2409.147566
 31
0.0
  0
LINE
  5
3EB
330
3CA
100
AcDbEntity
  8
LC-002-002-----0
 62
     7
370
    25
100
AcDbLine
 10
995.124974
 20
2409.147566
 30
0.0
 11
995.124974
 21
2409.147566
 31
0.0
  0
LINE
  5
3EC
330
3CA
100
AcDbEntity
  8
LC-002-002-----0
 62
     7
370
    25
100
AcDbLine
 10
995.124974
 20
2409.147566
 30
0.0
 11
996.156245
 21
2409.147791
 31
0.0
  0
LINE
  5
3ED
330
3CA
100
AcDbEntity
  8
LC-002-002-----0
 62
     7
370
    25
100
AcDbLine
 10
996.156245
 20
2409.147791
 30
0.0
 11
996.156245
 21
2409.147791
 31
0.0
  0
LINE
  5
3EE
330
3CA
100
AcDbEntity
  8
LC-002-002-----0
 62
     7
370
    25
100
AcDbLine
 10
996.156245
 20
2409.147791
 30
0.0
 11
996.910804
 21
2409.148062
 31
0.0
  0
LINE
  5
3EF
330
3CA
100
AcDbEntity
  8
LC-002-002-----0
 62
     7
370
    25
100
AcDbLine
 10
996.910804
 20
2409.148062
 30
0.0
 11
996.910804
 21
2409.148062
 31
0.0
  0
LINE
  5
3F0
330
3CA
100
AcDbEntity
  8
LC-002-002-----0
 62
     7
370
    25
100
AcDbLine
 10
996.910804
 20
2409.148062
 30
0.0
 11
997.381195
 21
2409.147712
 31
0.0
  0
LINE
  5
3F1
330
3CA
100
AcDbEntity
  8
LC-002-002-----0
 62
     7
370
    25
100
AcDbLine
 10
997.381195
 20
2409.147712
 30
0.0
 11
997.381195
 21
2409.147712
 31
0.0
  0
LINE
  5
3F2
330
3CA
100
AcDbEntity
  8
LC-002-002-----0
 62
     7
370
    25
100
AcDbLine
 10
997.381195
 20
2409.147712
 30
0.0
 11
997.545616
 21
2409.147643
 31
0.0
  0
ENDBLK
  5
3CC
330
3CA
100
AcDbEntity
  8
0
100
AcDbBlockEnd
  0
BLOCK
  5
3F5
330
3F4
100
AcDbEntity
  8
0
100
AcDbBlockBegin
  2
POLY5
 70
     0
 71
     0
 10
0.0
 20
0.0
 30
0.0
  3
POLY5
  1

  4
POLY5
  0
LINE
  5
3F7
330
3F4
100
AcDbEntity
  8
LC-002-002-----0
 62
     7
370
    25
100
AcDbLine
 10
1005.770517
 20
2592.215885
 30
0.0
 11
1005.770517
 21
2592.215885
 31
0.0
  0
LINE
  5
3F8
330
3F4
100
AcDbEntity
  8
LC-002-002-----0
 62
     7
370
    25
100
AcDbLine
 10
1005.770517
 20
2592.215885
 30
0.0
 11
1005.941042
 21
2592.28693
 31
0.0
  0
LINE
  5
3F9
330
3F4
100
AcDbEntity
  8
LC-002-002-----0
 62
     7
370
    25
100
AcDbLine
 10
1005.941042
 20
2592.28693
 30
0.0
 11
1005.941042
 21
2592.28693
 31
0.0
  0
LINE
  5
3FA
330
3F4
100
AcDbEntity
  8
LC-002-002-----0
 62
     7
370
    25
100
AcDbLine
 10
1005.941042
 20
2592.28693
 30
0.0
 11
1006.10119
 21
2592.371042
 31
0.0
  0
LINE
  5
3FB
330
3F4
100
AcDbEntity
  8
LC-002-002-----0
 62
     7
370
    25
100
AcDbLine
 10
1006.10119
 20
2592.371042
 30
0.0
 11
1006.10119
 21
2592.371042
 31
0.0
  0
LINE
  5
3FC
330
3F4
100
AcDbEntity
  8
LC-002-002-----0
 62
     7
370
    25
100
AcDbLine
 10
1006.10119
 20
2592.371042
 30
0.0
 11
1006.237984
 21
2592.458103
 31
0.0
  0
LINE
  5
3FD
330
3F4
100
AcDbEntity
  8
LC-002-002-----0
 62
     7
370
    25
100
AcDbLine
 10
1006.237984
 20
2592.458103
 30
0.0
 11
1006.237984
 21
2592.458103
 31
0.0
  0
LINE
  5
3FE
330
3F4
100
AcDbEntity
  8
LC-002-002-----0
 62
     7
370
    25
100
AcDbLine
 10
1006.237984
 20
2592.458103
 30
0.0
 11
1006.349172
 21
2592.54086
 31
0.0
  0
LINE
  5
3FF
330
3F4
100
AcDbEntity
  8
LC-002-002-----0
 62
     7
370
    25
100
AcDbLine
 10
1006.349172
 20
2592.54086
 30
0.0
 11
1006.349172
 21
2592.54086
 31
0.0
  0
LINE
  5
400
330
3F4
100
AcDbEntity
  8
LC-002-002-----0
 62
     7
370
    25
100
AcDbLine
 10
1006.349172
 20
2592.54086
 30
0.0
 11
1006.441945
 21
2592.619529
 31
0.0
  0
LINE
  5
401
330
3F4
100
AcDbEntity
  8
LC-002-002-----0
 62
     7
370
    25
100
AcDbLine
 10
1006.441945
 20
2592.619529
 30
0.0
 11
1006.441945
 21
2592.619529
 31
0.0
  0
LINE
  5
402
330
3F4
100
AcDbEntity
  8
LC-002-002-----0
 62
     7
370
    25
100
AcDbLine
 10
1006.441945
 20
2592.619529
 30
0.0
 11
1006.519826
 21
2592.693475
 31
0.0
  0
LINE
  5
403
330
3F4
100
AcDbEntity
  8
LC-002-002-----0
 62
     7
370
    25
100
AcDbLine
 10
1006.519826
 20
2592.693475
 30
0.0
 11
1006.519826
 21
2592.693475
 31
0.0
  0
LINE
  5
404
330
3F4
100
AcDbEntity
  8
LC-002-002-----0
 62
     7
370
    25
100
AcDbLine
 10
1006.519826
 20
2592.693475
 30
0.0
 11
1006.585372
 21
2592.762247
 31
0.0
  0
LINE
  5
405
330
3F4
100
AcDbEntity
  8
LC-002-002-----0
 62
     7
370
    25
100
AcDbLine
 10
1006.585372
 20
2592.762247
 30
0.0
 11
1006.585372
 21
2592.762247
 31
0.0
  0
LINE
  5
406
330
3F4
100
AcDbEntity
  8
LC-002-002-----0
 62
     7
370
    25
100
AcDbLine
 10
1006.585372
 20
2592.762247
 30
0.0
 11
1006.640826
 21
2592.825874
 31
0.0
  0
LINE
  5
407
330
3F4
100
AcDbEntity
  8
LC-002-002-----0
 62
     7
370
    25
100
AcDbLine
 10
1006.640826
 20
2592.825874
 30
0.0
 11
1006.640826
 21
2592.825874
 31
0.0
  0
LINE
  5
408
330
3F4
100
AcDbEntity
  8
LC-002-002-----0
 62
     7
370
    25
100
AcDbLine
 10
1006.640826
 20
2592.825874
 30
0.0
 11
1006.687768
 21
2592.884262
 31
0.0
  0
LINE
  5
409
330
3F4
100
AcDbEntity
  8
LC-002-002-----0
 62
     7
370
    25
100
AcDbLine
 10
1006.687768
 20
2592.884262
 30
0.0
 11
1006.687768
 21
2592.884262
 31
0.0
  0
LINE
  5
40A
330
3F4
100
AcDbEntity
  8
LC-002-002-----0
 62
     7
370
    25
100
AcDbLine
 10
1006.687768
 20
2592.884262
 30
0.0
 11
1006.727408
 21
2592.937304
 31
0.0
  0
LINE
  5
40B
330
3F4
100
AcDbEntity
  8
LC-002-002-----0
 62
     7
370
    25
100
AcDbLine
 10
1006.727408
 20
2592.937304
 30
0.0
 11
1006.727408
 21
2592.937304
 31
0.0
  0
LINE
  5
40C
330
3F4
100
AcDbEntity
  8
LC-002-002-----0
 62
     7
370
    25
100
AcDbLine
 10
1006.727408
 20
2592.937304
 30
0.0
 11
1006.76065
 21
2592.984811
 31
0.0
  0
LINE
  5
40D
330
3F4
100
AcDbEntity
  8
LC-002-002-----0
 62
     7
370
    25
100
AcDbLine
 10
1006.76065
 20
2592.984811
 30
0.0
 11
1006.76065
 21
2592.984811
 31
0.0
  0
LINE
  5
40E
330
3F4
100
AcDbEntity
  8
LC-002-002-----0
 62
     7
370
    25
100
AcDbLine
 10
1006.76065
 20
2592.984811
 30
0.0
 11
1006.788044
 21
2593.02632
 31
0.0
  0
LINE
  5
40F
330
3F4
100
AcDbEntity
  8
LC-002-002-----0
 62
     7
370
    25
100
AcDbLine
 10
1006.788044
 20
2593.02632
 30
0.0
 11
1006.788044
 21
2593.02632
 31
0.0
  0
LINE
  5
410
330
3F4
100
AcDbEntity
  8
LC-002-002-----0
 62
     7
370
    25
100
AcDbLine
 10
1006.788044
 20
2593.02632
 30
0.0
 11
1006.809896
 21
2593.06115
 31
0.0
  0
LINE
  5
411
330
3F4
100
AcDbEntity
  8
LC-002-002-----0
 62
     7
370
    25
100
AcDbLine
 10
1006.809896
 20
2593.06115
 30
0.0
 11
1006.809896
 21
2593.06115
 31
0.0
  0
LINE
  5
412
330
3F4
100
AcDbEntity
  8
LC-002-002-----0
 62
     7
370
    25
100
AcDbLine
 10
1006.809896
 20
2593.06115
 30
0.0
 11
1006.825897
 21
2593.087721
 31
0.0
  0
LINE
  5
413
330
3F4
100
AcDbEntity
  8
LC-002-002-----0
 62
     7
370
    25
100
AcDbLine
 10
1006.825897
 20
2593.087721
 30
0.0
 11
1006.825897
 21
2593.087721
 31
0.0
  0
LINE
  5
414
330
3F4
100
AcDbEntity
  8
LC-002-002-----0
 62
     7
370
    25
100
AcDbLine
 10
1006.825897
 20
2593.087721
 30
0.0
 11
1006.838765
 21
2593.109803
 31
0.0
  0
ENDBLK
  5
3F6
330
3F4
100
AcDbEntity
  8
0
100
AcDbBlockEnd
  0
BLOCK
  5
439
330
438
100
AcDbEntity
  8
0
100
AcDbBlockBegin
  2
POLY6
 70
     0
 71
     0
 10
0.0
 20
0.0
 30
0.0
  3
POLY6
  1

  4
POLY6
  0
LINE
  5
43B
330
438
100
AcDbEntity
  8
LC-002-002-----0
 62
     7
370
    25
100
AcDbLine
 10
999.681321
 20
2580.977948
 30
0.0
 11
999.681321
 21
2580.977948
 31
0.0
  0
LINE
  5
43C
330
438
100
AcDbEntity
  8
LC-002-002-----0
 62
     7
370
    25
100
AcDbLine
 10
999.681321
 20
2580.977948
 30
0.0
 11
999.680014
 21
2581.028519
 31
0.0
  0
LINE
  5
43D
330
438
100
AcDbEntity
  8
LC-002-002-----0
 62
     7
370
    25
100
AcDbLine
 10
999.680014
 20
2581.028519
 30
0.0
 11
999.680014
 21
2581.028519
 31
0.0
  0
LINE
  5
43E
330
438
100
AcDbEntity
  8
LC-002-002-----0
 62
     7
370
    25
100
AcDbLine
 10
999.680014
 20
2581.028519
 30
0.0
 11
999.676687
 21
2581.172579
 31
0.0
  0
LINE
  5
43F
330
438
100
AcDbEntity
  8
LC-002-002-----0
 62
     7
370
    25
100
AcDbLine
 10
999.676687
 20
2581.172579
 30
0.0
 11
999.676687
 21
2581.172579
 31
0.0
  0
LINE
  5
440
330
438
100
AcDbEntity
  8
LC-002-002-----0
 62
     7
370
    25
100
AcDbLine
 10
999.676687
 20
2581.172579
 30
0.0
 11
999.673111
 21
2581.39463
 31
0.0
  0
LINE
  5
441
330
438
100
AcDbEntity
  8
LC-002-002-----0
 62
     7
370
    25
100
AcDbLine
 10
999.673111
 20
2581.39463
 30
0.0
 11
999.673111
 21
2581.39463
 31
0.0
  0
LINE
  5
442
330
438
100
AcDbEntity
  8
LC-002-002-----0
 62
     7
370
    25
100
AcDbLine
 10
999.673111
 20
2581.39463
 30
0.0
 11
999.670969
 21
2581.682638
 31
0.0
  0
LINE
  5
443
330
438
100
AcDbEntity
  8
LC-002-002-----0
 62
     7
370
    25
100
AcDbLine
 10
999.670969
 20
2581.682638
 30
0.0
 11
999.670969
 21
2581.682638
 31
0.0
  0
LINE
  5
444
330
438
100
AcDbEntity
  8
LC-002-002-----0
 62
     7
370
    25
100
AcDbLine
 10
999.670969
 20
2581.682638
 30
0.0
 11
999.672085
 21
2582.029442
 31
0.0
  0
ENDBLK
  5
43A
330
438
100
AcDbEntity
  8
0
100
AcDbBlockEnd
  0
BLOCK
  5
447
330
446
100
AcDbEntity
  8
0
100
AcDbBlockBegin
  2
POLY7
 70
     0
 71
     0
 10
0.0
 20
0.0
 30
0.0
  3
POLY7
  1

  4
POLY7
  0
LINE
  5
449
330
446
100
AcDbEntity
  8
LC-002-002-----0
 62
     7
370
    25
100
AcDbLine
 10
969.014866
 20
2580.977948
 30
0.0
 11
969.014866
 21
2580.977948
 31
0.0
  0
LINE
  5
44A
330
446
100
AcDbEntity
  8
LC-002-002-----0
 62
     7
370
    25
100
AcDbLine
 10
969.014866
 20
2580.977948
 30
0.0
 11
969.016173
 21
2581.028519
 31
0.0
  0
LINE
  5
44B
330
446
100
AcDbEntity
  8
LC-002-002-----0
 62
     7
370
    25
100
AcDbLine
 10
969.016173
 20
2581.028519
 30
0.0
 11
969.016173
 21
2581.028519
 31
0.0
  0
LINE
  5
44C
330
446
100
AcDbEntity
  8
LC-002-002-----0
 62
     7
370
    25
100
AcDbLine
 10
969.016173
 20
2581.028519
 30
0.0
 11
969.0195
 21
2581.172579
 31
0.0
  0
LINE
  5
44D
330
446
100
AcDbEntity
  8
LC-002-002-----0
 62
     7
370
    25
100
AcDbLine
 10
969.0195
 20
2581.172579
 30
0.0
 11
969.0195
 21
2581.172579
 31
0.0
  0
LINE
  5
44E
330
446
100
AcDbEntity
  8
LC-002-002-----0
 62
     7
370
    25
100
AcDbLine
 10
969.0195
 20
2581.172579
 30
0.0
 11
969.023076
 21
2581.39463
 31
0.0
  0
LINE
  5
44F
330
446
100
AcDbEntity
  8
LC-002-002-----0
 62
     7
370
    25
100
AcDbLine
 10
969.023076
 20
2581.39463
 30
0.0
 11
969.023076
 21
2581.39463
 31
0.0
  0
LINE
  5
450
330
446
100
AcDbEntity
  8
LC-002-002-----0
 62
     7
370
    25
100
AcDbLine
 10
969.023076
 20
2581.39463
 30
0.0
 11
969.025218
 21
2581.682638
 31
0.0
  0
LINE
  5
451
330
446
100
AcDbEntity
  8
LC-002-002-----0
 62
     7
370
    25
100
AcDbLine
 10
969.025218
 20
2581.682638
 30
0.0
 11
969.025218
 21
2581.682638
 31
0.0
  0
LINE
  5
452
330
446
100
AcDbEntity
  8
LC-002-002-----0
 62
     7
370
    25
100
AcDbLine
 10
969.025218
 20
2581.682638
 30
0.0
 11
969.024101
 21
2582.029442
 31
0.0
  0
ENDBLK
  5
448
330
446
100
AcDbEntity
  8
0
100
AcDbBlockEnd
  0
BLOCK
  5
4E1
330
4E0
100
AcDbEntity
  8
0
100
AcDbBlockBegin
  2
POLY8
 70
     0
 71
     0
 10
0.0
 20
0.0
 30
0.0
  3
POLY8
  1

  4
POLY8
  0
LINE
  5
4E3
330
4E0
100
AcDbEntity
  8
LC-002-002-----0
 62
     7
370
    25
100
AcDbLine
 10
1597.172042
 20
1899.39
 30
0.0
 11
1597.172042
 21
1899.39
 31
0.0
  0
LINE
  5
4E4
330
4E0
100
AcDbEntity
  8
LC-002-002-----0
 62
     7
370
    25
100
AcDbLine
 10
1597.172042
 20
1899.39
 30
0.0
 11
1597.172076
 21
1898.875212
 31
0.0
  0
LINE
  5
4E5
330
4E0
100
AcDbEntity
  8
LC-002-002-----0
 62
     7
370
    25
100
AcDbLine
 10
1597.172076
 20
1898.875212
 30
0.0
 11
1597.172076
 21
1898.875212
 31
0.0
  0
LINE
  5
4E6
330
4E0
100
AcDbEntity
  8
LC-002-002-----0
 62
     7
370
    25
100
AcDbLine
 10
1597.172076
 20
1898.875212
 30
0.0
 11
1597.172039
 21
1898.393842
 31
0.0
  0
LINE
  5
4E7
330
4E0
100
AcDbEntity
  8
LC-002-002-----0
 62
     7
370
    25
100
AcDbLine
 10
1597.172039
 20
1898.393842
 30
0.0
 11
1597.172039
 21
1898.393842
 31
0.0
  0
LINE
  5
4E8
330
4E0
100
AcDbEntity
  8
LC-002-002-----0
 62
     7
370
    25
100
AcDbLine
 10
1597.172039
 20
1898.393842
 30
0.0
 11
1597.172046
 21
1897.980272
 31
0.0
  0
LINE
  5
4E9
330
4E0
100
AcDbEntity
  8
LC-002-002-----0
 62
     7
370
    25
100
AcDbLine
 10
1597.172046
 20
1897.980272
 30
0.0
 11
1597.172046
 21
1897.980272
 31
0.0
  0
LINE
  5
4EA
330
4E0
100
AcDbEntity
  8
LC-002-002-----0
 62
     7
370
    25
100
AcDbLine
 10
1597.172046
 20
1897.980272
 30
0.0
 11
1597.172021
 21
1897.661335
 31
0.0
  0
LINE
  5
4EB
330
4E0
100
AcDbEntity
  8
LC-002-002-----0
 62
     7
370
    25
100
AcDbLine
 10
1597.172021
 20
1897.661335
 30
0.0
 11
1597.172021
 21
1897.661335
 31
0.0
  0
LINE
  5
4EC
330
4E0
100
AcDbEntity
  8
LC-002-002-----0
 62
     7
370
    25
100
AcDbLine
 10
1597.172021
 20
1897.661335
 30
0.0
 11
1597.172069
 21
1897.459379
 31
0.0
  0
LINE
  5
4ED
330
4E0
100
AcDbEntity
  8
LC-002-002-----0
 62
     7
370
    25
100
AcDbLine
 10
1597.172069
 20
1897.459379
 30
0.0
 11
1597.172069
 21
1897.459379
 31
0.0
  0
LINE
  5
4EE
330
4E0
100
AcDbEntity
  8
LC-002-002-----0
 62
     7
370
    25
100
AcDbLine
 10
1597.172069
 20
1897.459379
 30
0.0
 11
1597.172051
 21
1897.39
 31
0.0
  0
ENDBLK
  5
4E2
330
4E0
100
AcDbEntity
  8
0
100
AcDbBlockEnd
  0
BLOCK
  5
500
330
4FF
100
AcDbEntity
  8
0
100
AcDbBlockBegin
  2
POLY9
 70
     0
 71
     0
 10
0.0
 20
0.0
 30
0.0
  3
POLY9
  1

  4
POLY9
  0
LINE
  5
502
330
4FF
100
AcDbEntity
  8
LC-002-002-----0
 62
     7
370
    25
100
AcDbLine
 10
1620.384523
 20
1763.39
 30
0.0
 11
1620.384523
 21
1763.39
 31
0.0
  0
LINE
  5
503
330
4FF
100
AcDbEntity
  8
LC-002-002-----0
 62
     7
370
    25
100
AcDbLine
 10
1620.384523
 20
1763.39
 30
0.0
 11
1620.325585
 21
1763.904773
 31
0.0
  0
LINE
  5
504
330
4FF
100
AcDbEntity
  8
LC-002-002-----0
 62
     7
370
    25
100
AcDbLine
 10
1620.325585
 20
1763.904773
 30
0.0
 11
1620.325585
 21
1763.904773
 31
0.0
  0
LINE
  5
505
330
4FF
100
AcDbEntity
  8
LC-002-002-----0
 62
     7
370
    25
100
AcDbLine
 10
1620.325585
 20
1763.904773
 30
0.0
 11
1620.15204
 21
1764.386131
 31
0.0
  0
LINE
  5
506
330
4FF
100
AcDbEntity
  8
LC-002-002-----0
 62
     7
370
    25
100
AcDbLine
 10
1620.15204
 20
1764.386131
 30
0.0
 11
1620.15204
 21
1764.386131
 31
0.0
  0
LINE
  5
507
330
4FF
100
AcDbEntity
  8
LC-002-002-----0
 62
     7
370
    25
100
AcDbLine
 10
1620.15204
 20
1764.386131
 30
0.0
 11
1619.875904
 21
1764.799698
 31
0.0
  0
LINE
  5
508
330
4FF
100
AcDbEntity
  8
LC-002-002-----0
 62
     7
370
    25
100
AcDbLine
 10
1619.875904
 20
1764.799698
 30
0.0
 11
1619.875904
 21
1764.799698
 31
0.0
  0
LINE
  5
509
330
4FF
100
AcDbEntity
  8
LC-002-002-----0
 62
     7
370
    25
100
AcDbLine
 10
1619.875904
 20
1764.799698
 30
0.0
 11
1619.514559
 21
1765.118644
 31
0.0
  0
LINE
  5
50A
330
4FF
100
AcDbEntity
  8
LC-002-002-----0
 62
     7
370
    25
100
AcDbLine
 10
1619.514559
 20
1765.118644
 30
0.0
 11
1619.514559
 21
1765.118644
 31
0.0
  0
LINE
  5
50B
330
4FF
100
AcDbEntity
  8
LC-002-002-----0
 62
     7
370
    25
100
AcDbLine
 10
1619.514559
 20
1765.118644
 30
0.0
 11
1619.091172
 21
1765.320607
 31
0.0
  0
LINE
  5
50C
330
4FF
100
AcDbEntity
  8
LC-002-002-----0
 62
     7
370
    25
100
AcDbLine
 10
1619.091172
 20
1765.320607
 30
0.0
 11
1619.091172
 21
1765.320607
 31
0.0
  0
LINE
  5
50D
330
4FF
100
AcDbEntity
  8
LC-002-002-----0
 62
     7
370
    25
100
AcDbLine
 10
1619.091172
 20
1765.320607
 30
0.0
 11
1618.63369
 21
1765.39
 31
0.0
  0
ENDBLK
  5
501
330
4FF
100
AcDbEntity
  8
0
100
AcDbBlockEnd
  0
BLOCK
  5
511
330
510
100
AcDbEntity
  8
0
100
AcDbBlockBegin
  2
POLY10
 70
     0
 71
     0
 10
0.0
 20
0.0
 30
0.0
  3
POLY10
  1

  4
POLY10
  0
LINE
  5
513
330
510
100
AcDbEntity
  8
LC-002-002-----0
 62
     7
370
    25
100
AcDbLine
 10
1597.172042
 20
1763.39
 30
0.0
 11
1597.172042
 21
1763.39
 31
0.0
  0
LINE
  5
514
330
510
100
AcDbEntity
  8
LC-002-002-----0
 62
     7
370
    25
100
AcDbLine
 10
1597.172042
 20
1763.39
 30
0.0
 11
1597.172076
 21
1763.904788
 31
0.0
  0
LINE
  5
515
330
510
100
AcDbEntity
  8
LC-002-002-----0
 62
     7
370
    25
100
AcDbLine
 10
1597.172076
 20
1763.904788
 30
0.0
 11
1597.172076
 21
1763.904788
 31
0.0
  0
LINE
  5
516
330
510
100
AcDbEntity
  8
LC-002-002-----0
 62
     7
370
    25
100
AcDbLine
 10
1597.172076
 20
1763.904788
 30
0.0
 11
1597.172039
 21
1764.386158
 31
0.0
  0
LINE
  5
517
330
510
100
AcDbEntity
  8
LC-002-002-----0
 62
     7
370
    25
100
AcDbLine
 10
1597.172039
 20
1764.386158
 30
0.0
 11
1597.172039
 21
1764.386158
 31
0.0
  0
LINE
  5
518
330
510
100
AcDbEntity
  8
LC-002-002-----0
 62
     7
370
    25
100
AcDbLine
 10
1597.172039
 20
1764.386158
 30
0.0
 11
1597.172046
 21
1764.799728
 31
0.0
  0
LINE
  5
519
330
510
100
AcDbEntity
  8
LC-002-002-----0
 62
     7
370
    25
100
AcDbLine
 10
1597.172046
 20
1764.799728
 30
0.0
 11
1597.172046
 21
1764.799728
 31
0.0
  0
LINE
  5
51A
330
510
100
AcDbEntity
  8
LC-002-002-----0
 62
     7
370
    25
100
AcDbLine
 10
1597.172046
 20
1764.799728
 30
0.0
 11
1597.172021
 21
1765.118665
 31
0.0
  0
LINE
  5
51B
330
510
100
AcDbEntity
  8
LC-002-002-----0
 62
     7
370
    25
100
AcDbLine
 10
1597.172021
 20
1765.118665
 30
0.0
 11
1597.172021
 21
1765.118665
 31
0.0
  0
LINE
  5
51C
330
510
100
AcDbEntity
  8
LC-002-002-----0
 62
     7
370
    25
100
AcDbLine
 10
1597.172021
 20
1765.118665
 30
0.0
 11
1597.172069
 21
1765.320621
 31
0.0
  0
LINE
  5
51D
330
510
100
AcDbEntity
  8
LC-002-002-----0
 62
     7
370
    25
100
AcDbLine
 10
1597.172069
 20
1765.320621
 30
0.0
 11
1597.172069
 21
1765.320621
 31
0.0
  0
LINE
  5
51E
330
510
100
AcDbEntity
  8
LC-002-002-----0
 62
     7
370
    25
100
AcDbLine
 10
1597.172069
 20
1765.320621
 30
0.0
 11
1597.172051
 21
1765.39
 31
0.0
  0
ENDBLK
  5
512
330
510
100
AcDbEntity
  8
0
100
AcDbBlockEnd
  0
BLOCK
  5
522
330
521
100
AcDbEntity
  8
0
100
AcDbBlockBegin
  2
POLY11
 70
     0
 71
     0
 10
0.0
 20
0.0
 30
0.0
  3
POLY11
  1

  4
POLY11
  0
LINE
  5
524
330
521
100
AcDbEntity
  8
LC-002-002-----0
 62
     7
370
    25
100
AcDbLine
 10
1573.959561
 20
1763.39
 30
0.0
 11
1573.959561
 21
1763.39
 31
0.0
  0
LINE
  5
525
330
521
100
AcDbEntity
  8
LC-002-002-----0
 62
     7
370
    25
100
AcDbLine
 10
1573.959561
 20
1763.39
 30
0.0
 11
1574.018499
 21
1763.904773
 31
0.0
  0
LINE
  5
526
330
521
100
AcDbEntity
  8
LC-002-002-----0
 62
     7
370
    25
100
AcDbLine
 10
1574.018499
 20
1763.904773
 30
0.0
 11
1574.018499
 21
1763.904773
 31
0.0
  0
LINE
  5
527
330
521
100
AcDbEntity
  8
LC-002-002-----0
 62
     7
370
    25
100
AcDbLine
 10
1574.018499
 20
1763.904773
 30
0.0
 11
1574.192045
 21
1764.386131
 31
0.0
  0
LINE
  5
528
330
521
100
AcDbEntity
  8
LC-002-002-----0
 62
     7
370
    25
100
AcDbLine
 10
1574.192045
 20
1764.386131
 30
0.0
 11
1574.192045
 21
1764.386131
 31
0.0
  0
LINE
  5
529
330
521
100
AcDbEntity
  8
LC-002-002-----0
 62
     7
370
    25
100
AcDbLine
 10
1574.192045
 20
1764.386131
 30
0.0
 11
1574.46818
 21
1764.799698
 31
0.0
  0
LINE
  5
52A
330
521
100
AcDbEntity
  8
LC-002-002-----0
 62
     7
370
    25
100
AcDbLine
 10
1574.46818
 20
1764.799698
 30
0.0
 11
1574.46818
 21
1764.799698
 31
0.0
  0
LINE
  5
52B
330
521
100
AcDbEntity
  8
LC-002-002-----0
 62
     7
370
    25
100
AcDbLine
 10
1574.46818
 20
1764.799698
 30
0.0
 11
1574.829526
 21
1765.118644
 31
0.0
  0
LINE
  5
52C
330
521
100
AcDbEntity
  8
LC-002-002-----0
 62
     7
370
    25
100
AcDbLine
 10
1574.829526
 20
1765.118644
 30
0.0
 11
1574.829526
 21
1765.118644
 31
0.0
  0
LINE
  5
52D
330
521
100
AcDbEntity
  8
LC-002-002-----0
 62
     7
370
    25
100
AcDbLine
 10
1574.829526
 20
1765.118644
 30
0.0
 11
1575.252913
 21
1765.320607
 31
0.0
  0
LINE
  5
52E
330
521
100
AcDbEntity
  8
LC-002-002-----0
 62
     7
370
    25
100
AcDbLine
 10
1575.252913
 20
1765.320607
 30
0.0
 11
1575.252913
 21
1765.320607
 31
0.0
  0
LINE
  5
52F
330
521
100
AcDbEntity
  8
LC-002-002-----0
 62
     7
370
    25
100
AcDbLine
 10
1575.252913
 20
1765.320607
 30
0.0
 11
1575.710395
 21
1765.39
 31
0.0
  0
ENDBLK
  5
523
330
521
100
AcDbEntity
  8
0
100
AcDbBlockEnd
  0
BLOCK
  5
56E
330
56D
100
AcDbEntity
  8
0
100
AcDbBlockBegin
  2
POLY12
 70
     0
 71
     0
 10
0.0
 20
0.0
 30
0.0
  3
POLY12
  1

  4
POLY12
  0
LINE
  5
570
330
56D
100
AcDbEntity
  8
LC-002-002-----0
 62
     7
370
    25
100
AcDbLine
 10
1852.952142
 20
1674.967576
 30
0.0
 11
1852.952142
 21
1674.967576
 31
0.0
  0
LINE
  5
571
330
56D
100
AcDbEntity
  8
LC-002-002-----0
 62
     7
370
    25
100
AcDbLine
 10
1852.952142
 20
1674.967576
 30
0.0
 11
1853.023188
 21
1674.797051
 31
0.0
  0
LINE
  5
572
330
56D
100
AcDbEntity
  8
LC-002-002-----0
 62
     7
370
    25
100
AcDbLine
 10
1853.023188
 20
1674.797051
 30
0.0
 11
1853.023188
 21
1674.797051
 31
0.0
  0
LINE
  5
573
330
56D
100
AcDbEntity
  8
LC-002-002-----0
 62
     7
370
    25
100
AcDbLine
 10
1853.023188
 20
1674.797051
 30
0.0
 11
1853.1073
 21
1674.636904
 31
0.0
  0
LINE
  5
574
330
56D
100
AcDbEntity
  8
LC-002-002-----0
 62
     7
370
    25
100
AcDbLine
 10
1853.1073
 20
1674.636904
 30
0.0
 11
1853.1073
 21
1674.636904
 31
0.0
  0
LINE
  5
575
330
56D
100
AcDbEntity
  8
LC-002-002-----0
 62
     7
370
    25
100
AcDbLine
 10
1853.1073
 20
1674.636904
 30
0.0
 11
1853.194361
 21
1674.50011
 31
0.0
  0
LINE
  5
576
330
56D
100
AcDbEntity
  8
LC-002-002-----0
 62
     7
370
    25
100
AcDbLine
 10
1853.194361
 20
1674.50011
 30
0.0
 11
1853.194361
 21
1674.50011
 31
0.0
  0
LINE
  5
577
330
56D
100
AcDbEntity
  8
LC-002-002-----0
 62
     7
370
    25
100
AcDbLine
 10
1853.194361
 20
1674.50011
 30
0.0
 11
1853.277118
 21
1674.388921
 31
0.0
  0
LINE
  5
578
330
56D
100
AcDbEntity
  8
LC-002-002-----0
 62
     7
370
    25
100
AcDbLine
 10
1853.277118
 20
1674.388921
 30
0.0
 11
1853.277118
 21
1674.388921
 31
0.0
  0
LINE
  5
579
330
56D
100
AcDbEntity
  8
LC-002-002-----0
 62
     7
370
    25
100
AcDbLine
 10
1853.277118
 20
1674.388921
 30
0.0
 11
1853.355786
 21
1674.296148
 31
0.0
  0
LINE
  5
57A
330
56D
100
AcDbEntity
  8
LC-002-002-----0
 62
     7
370
    25
100
AcDbLine
 10
1853.355786
 20
1674.296148
 30
0.0
 11
1853.355786
 21
1674.296148
 31
0.0
  0
LINE
  5
57B
330
56D
100
AcDbEntity
  8
LC-002-002-----0
 62
     7
370
    25
100
AcDbLine
 10
1853.355786
 20
1674.296148
 30
0.0
 11
1853.429733
 21
1674.218267
 31
0.0
  0
LINE
  5
57C
330
56D
100
AcDbEntity
  8
LC-002-002-----0
 62
     7
370
    25
100
AcDbLine
 10
1853.429733
 20
1674.218267
 30
0.0
 11
1853.429733
 21
1674.218267
 31
0.0
  0
LINE
  5
57D
330
56D
100
AcDbEntity
  8
LC-002-002-----0
 62
     7
370
    25
100
AcDbLine
 10
1853.429733
 20
1674.218267
 30
0.0
 11
1853.498505
 21
1674.152721
 31
0.0
  0
LINE
  5
57E
330
56D
100
AcDbEntity
  8
LC-002-002-----0
 62
     7
370
    25
100
AcDbLine
 10
1853.498505
 20
1674.152721
 30
0.0
 11
1853.498505
 21
1674.152721
 31
0.0
  0
LINE
  5
57F
330
56D
100
AcDbEntity
  8
LC-002-002-----0
 62
     7
370
    25
100
AcDbLine
 10
1853.498505
 20
1674.152721
 30
0.0
 11
1853.562131
 21
1674.097267
 31
0.0
  0
LINE
  5
580
330
56D
100
AcDbEntity
  8
LC-002-002-----0
 62
     7
370
    25
100
AcDbLine
 10
1853.562131
 20
1674.097267
 30
0.0
 11
1853.562131
 21
1674.097267
 31
0.0
  0
LINE
  5
581
330
56D
100
AcDbEntity
  8
LC-002-002-----0
 62
     7
370
    25
100
AcDbLine
 10
1853.562131
 20
1674.097267
 30
0.0
 11
1853.62052
 21
1674.050325
 31
0.0
  0
LINE
  5
582
330
56D
100
AcDbEntity
  8
LC-002-002-----0
 62
     7
370
    25
100
AcDbLine
 10
1853.62052
 20
1674.050325
 30
0.0
 11
1853.62052
 21
1674.050325
 31
0.0
  0
LINE
  5
583
330
56D
100
AcDbEntity
  8
LC-002-002-----0
 62
     7
370
    25
100
AcDbLine
 10
1853.62052
 20
1674.050325
 30
0.0
 11
1853.673562
 21
1674.010685
 31
0.0
  0
LINE
  5
584
330
56D
100
AcDbEntity
  8
LC-002-002-----0
 62
     7
370
    25
100
AcDbLine
 10
1853.673562
 20
1674.010685
 30
0.0
 11
1853.673562
 21
1674.010685
 31
0.0
  0
LINE
  5
585
330
56D
100
AcDbEntity
  8
LC-002-002-----0
 62
     7
370
    25
100
AcDbLine
 10
1853.673562
 20
1674.010685
 30
0.0
 11
1853.721069
 21
1673.977444
 31
0.0
  0
LINE
  5
586
330
56D
100
AcDbEntity
  8
LC-002-002-----0
 62
     7
370
    25
100
AcDbLine
 10
1853.721069
 20
1673.977444
 30
0.0
 11
1853.721069
 21
1673.977444
 31
0.0
  0
LINE
  5
587
330
56D
100
AcDbEntity
  8
LC-002-002-----0
 62
     7
370
    25
100
AcDbLine
 10
1853.721069
 20
1673.977444
 30
0.0
 11
1853.762578
 21
1673.95005
 31
0.0
  0
LINE
  5
588
330
56D
100
AcDbEntity
  8
LC-002-002-----0
 62
     7
370
    25
100
AcDbLine
 10
1853.762578
 20
1673.95005
 30
0.0
 11
1853.762578
 21
1673.95005
 31
0.0
  0
LINE
  5
589
330
56D
100
AcDbEntity
  8
LC-002-002-----0
 62
     7
370
    25
100
AcDbLine
 10
1853.762578
 20
1673.95005
 30
0.0
 11
1853.797408
 21
1673.928197
 31
0.0
  0
LINE
  5
58A
330
56D
100
AcDbEntity
  8
LC-002-002-----0
 62
     7
370
    25
100
AcDbLine
 10
1853.797408
 20
1673.928197
 30
0.0
 11
1853.797408
 21
1673.928197
 31
0.0
  0
LINE
  5
58B
330
56D
100
AcDbEntity
  8
LC-002-002-----0
 62
     7
370
    25
100
AcDbLine
 10
1853.797408
 20
1673.928197
 30
0.0
 11
1853.823979
 21
1673.912196
 31
0.0
  0
LINE
  5
58C
330
56D
100
AcDbEntity
  8
LC-002-002-----0
 62
     7
370
    25
100
AcDbLine
 10
1853.823979
 20
1673.912196
 30
0.0
 11
1853.823979
 21
1673.912196
 31
0.0
  0
LINE
  5
58D
330
56D
100
AcDbEntity
  8
LC-002-002-----0
 62
     7
370
    25
100
AcDbLine
 10
1853.823979
 20
1673.912196
 30
0.0
 11
1853.846061
 21
1673.899328
 31
0.0
  0
ENDBLK
  5
56F
330
56D
100
AcDbEntity
  8
0
100
AcDbBlockEnd
  0
BLOCK
  5
5B2
330
5B1
100
AcDbEntity
  8
0
100
AcDbBlockBegin
  2
POLY13
 70
     0
 71
     0
 10
0.0
 20
0.0
 30
0.0
  3
POLY13
  1

  4
POLY13
  0
LINE
  5
5B4
330
5B1
100
AcDbEntity
  8
LC-002-002-----0
 62
     7
370
    25
100
AcDbLine
 10
1841.714206
 20
1681.056772
 30
0.0
 11
1841.714206
 21
1681.056772
 31
0.0
  0
LINE
  5
5B5
330
5B1
100
AcDbEntity
  8
LC-002-002-----0
 62
     7
370
    25
100
AcDbLine
 10
1841.714206
 20
1681.056772
 30
0.0
 11
1841.764776
 21
1681.05808
 31
0.0
  0
LINE
  5
5B6
330
5B1
100
AcDbEntity
  8
LC-002-002-----0
 62
     7
370
    25
100
AcDbLine
 10
1841.764776
 20
1681.05808
 30
0.0
 11
1841.764776
 21
1681.05808
 31
0.0
  0
LINE
  5
5B7
330
5B1
100
AcDbEntity
  8
LC-002-002-----0
 62
     7
370
    25
100
AcDbLine
 10
1841.764776
 20
1681.05808
 30
0.0
 11
1841.908837
 21
1681.061407
 31
0.0
  0
LINE
  5
5B8
330
5B1
100
AcDbEntity
  8
LC-002-002-----0
 62
     7
370
    25
100
AcDbLine
 10
1841.908837
 20
1681.061407
 30
0.0
 11
1841.908837
 21
1681.061407
 31
0.0
  0
LINE
  5
5B9
330
5B1
100
AcDbEntity
  8
LC-002-002-----0
 62
     7
370
    25
100
AcDbLine
 10
1841.908837
 20
1681.061407
 30
0.0
 11
1842.130888
 21
1681.064983
 31
0.0
  0
LINE
  5
5BA
330
5B1
100
AcDbEntity
  8
LC-002-002-----0
 62
     7
370
    25
100
AcDbLine
 10
1842.130888
 20
1681.064983
 30
0.0
 11
1842.130888
 21
1681.064983
 31
0.0
  0
LINE
  5
5BB
330
5B1
100
AcDbEntity
  8
LC-002-002-----0
 62
     7
370
    25
100
AcDbLine
 10
1842.130888
 20
1681.064983
 30
0.0
 11
1842.418896
 21
1681.067125
 31
0.0
  0
LINE
  5
5BC
330
5B1
100
AcDbEntity
  8
LC-002-002-----0
 62
     7
370
    25
100
AcDbLine
 10
1842.418896
 20
1681.067125
 30
0.0
 11
1842.418896
 21
1681.067125
 31
0.0
  0
LINE
  5
5BD
330
5B1
100
AcDbEntity
  8
LC-002-002-----0
 62
     7
370
    25
100
AcDbLine
 10
1842.418896
 20
1681.067125
 30
0.0
 11
1842.7657
 21
1681.066008
 31
0.0
  0
ENDBLK
  5
5B3
330
5B1
100
AcDbEntity
  8
0
100
AcDbBlockEnd
  0
BLOCK
  5
5C0
330
5BF
100
AcDbEntity
  8
0
100
AcDbBlockBegin
  2
POLY14
 70
     0
 71
     0
 10
0.0
 20
0.0
 30
0.0
  3
POLY14
  1

  4
POLY14
  0
LINE
  5
5C2
330
5BF
100
AcDbEntity
  8
LC-002-002-----0
 62
     7
370
    25
100
AcDbLine
 10
1841.714206
 20
1711.723228
 30
0.0
 11
1841.714206
 21
1711.723228
 31
0.0
  0
LINE
  5
5C3
330
5BF
100
AcDbEntity
  8
LC-002-002-----0
 62
     7
370
    25
100
AcDbLine
 10
1841.714206
 20
1711.723228
 30
0.0
 11
1841.764776
 21
1711.72192
 31
0.0
  0
LINE
  5
5C4
330
5BF
100
AcDbEntity
  8
LC-002-002-----0
 62
     7
370
    25
100
AcDbLine
 10
1841.764776
 20
1711.72192
 30
0.0
 11
1841.764776
 21
1711.72192
 31
0.0
  0
LINE
  5
5C5
330
5BF
100
AcDbEntity
  8
LC-002-002-----0
 62
     7
370
    25
100
AcDbLine
 10
1841.764776
 20
1711.72192
 30
0.0
 11
1841.908837
 21
1711.718593
 31
0.0
  0
LINE
  5
5C6
330
5BF
100
AcDbEntity
  8
LC-002-002-----0
 62
     7
370
    25
100
AcDbLine
 10
1841.908837
 20
1711.718593
 30
0.0
 11
1841.908837
 21
1711.718593
 31
0.0
  0
LINE
  5
5C7
330
5BF
100
AcDbEntity
  8
LC-002-002-----0
 62
     7
370
    25
100
AcDbLine
 10
1841.908837
 20
1711.718593
 30
0.0
 11
1842.130888
 21
1711.715017
 31
0.0
  0
LINE
  5
5C8
330
5BF
100
AcDbEntity
  8
LC-002-002-----0
 62
     7
370
    25
100
AcDbLine
 10
1842.130888
 20
1711.715017
 30
0.0
 11
1842.130888
 21
1711.715017
 31
0.0
  0
LINE
  5
5C9
330
5BF
100
AcDbEntity
  8
LC-002-002-----0
 62
     7
370
    25
100
AcDbLine
 10
1842.130888
 20
1711.715017
 30
0.0
 11
1842.418896
 21
1711.712875
 31
0.0
  0
LINE
  5
5CA
330
5BF
100
AcDbEntity
  8
LC-002-002-----0
 62
     7
370
    25
100
AcDbLine
 10
1842.418896
 20
1711.712875
 30
0.0
 11
1842.418896
 21
1711.712875
 31
0.0
  0
LINE
  5
5CB
330
5BF
100
AcDbEntity
  8
LC-002-002-----0
 62
     7
370
    25
100
AcDbLine
 10
1842.418896
 20
1711.712875
 30
0.0
 11
1842.7657
 21
1711.713992
 31
0.0
  0
ENDBLK
  5
5C1
330
5BF
100
AcDbEntity
  8
0
100
AcDbBlockEnd
  0
BLOCK
  5
5E0
330
5D6
100
AcDbEntity
  8
0
100
AcDbBlockBegin
  2
*D33
 70
     1
 71
     0
 10
0.0
 20
0.0
 30
0.0
  3
*D33
  1

  0
LINE
  5
5D7
330
5D6
100
AcDbEntity
  8
LC-007-003-----0
 62
     2
370
    -2
100
AcDbLine
 10
1877.82914
 20
1446.39
 30
0.0
 11
1877.82914
 21
1379.49943
 31
0.0
  0
LINE
  5
5D8
330
5D6
100
AcDbEntity
  8
LC-007-003-----0
 62
     2
370
    -2
100
AcDbLine
 10
1569.467249
 20
1746.39
 30
0.0
 11
1569.467249
 21
1379.49943
 31
0.0
  0
LINE
  5
5D9
330
5D6
100
AcDbEntity
  8
LC-007-003-----0
 62
     2
370
    -2
100
AcDbLine
 10
1852.82914
 20
1397.49943
 30
0.0
 11
1594.467249
 21
1397.49943
 31
0.0
  0
SOLID
  5
5DA
330
5D6
100
AcDbEntity
  8
LC-007-003-----0
 62
     2
100
AcDbTrace
 10
1852.82914
 20
1393.332763
 30
0.0
 11
1852.82914
 21
1401.666096
 31
0.0
 12
1877.82914
 22
1397.49943
 32
0.0
 13
1877.82914
 23
1397.49943
 33
0.0
  0
SOLID
  5
5DB
330
5D6
100
AcDbEntity
  8
LC-007-003-----0
 62
     2
100
AcDbTrace
 10
1594.467249
 20
1401.666096
 30
0.0
 11
1594.467249
 21
1393.332763
 31
0.0
 12
1569.467249
 22
1397.49943
 32
0.0
 13
1569.467249
 23
1397.49943
 33
0.0
  0
MTEXT
  5
5DC
330
5D6
100
AcDbEntity
  8
LC-007-003-----0
 62
     2
100
AcDbMText
 10
1718.002249
 20
1427.49943
 30
0.0
 40
25.0
 41
0.0
 71
     5
 72
     1
  1
\A1;308
  7
LCTX0-400-0-0pDIN-Schrift
 73
     1
 44
1.0
  0
POINT
  5
5DD
330
5D6
100
AcDbEntity
  8
Defpoints
 62
     0
100
AcDbPoint
 10
1877.82914
 20
1446.39
 30
0.0
  0
POINT
  5
5DE
330
5D6
100
AcDbEntity
  8
Defpoints
 62
     0
100
AcDbPoint
 10
1569.467249
 20
1746.39
 30
0.0
  0
POINT
  5
5DF
330
5D6
100
AcDbEntity
  8
Defpoints
 62
     0
100
AcDbPoint
 10
1569.467249
 20
1397.49943
 30
0.0
  0
ENDBLK
  5
5E1
330
5D6
100
AcDbEntity
  8
0
100
AcDbBlockEnd
  0
BLOCK
  5
5ED
330
5E3
100
AcDbEntity
  8
0
100
AcDbBlockBegin
  2
*D34
 70
     1
 71
     0
 10
0.0
 20
0.0
 30
0.0
  3
*D34
  1

  0
LINE
  5
5E4
330
5E3
100
AcDbEntity
  8
LC-007-003-----0
 62
     2
370
    -2
100
AcDbLine
 10
291.769952
 20
750.898003
 30
0.0
 11
291.769952
 21
657.849724
 31
0.0
  0
LINE
  5
5E5
330
5E3
100
AcDbEntity
  8
LC-007-003-----0
 62
     2
370
    -2
100
AcDbLine
 10
861.769952
 20
750.898003
 30
0.0
 11
861.769952
 21
657.849724
 31
0.0
  0
LINE
  5
5E6
330
5E3
100
AcDbEntity
  8
LC-007-003-----0
 62
     2
370
    -2
100
AcDbLine
 10
316.769952
 20
675.849724
 30
0.0
 11
836.769952
 21
675.849724
 31
0.0
  0
SOLID
  5
5E7
330
5E3
100
AcDbEntity
  8
LC-007-003-----0
 62
     2
100
AcDbTrace
 10
316.769952
 20
680.016391
 30
0.0
 11
316.769952
 21
671.683058
 31
0.0
 12
291.769952
 22
675.849724
 32
0.0
 13
291.769952
 23
675.849724
 33
0.0
  0
SOLID
  5
5E8
330
5E3
100
AcDbEntity
  8
LC-007-003-----0
 62
     2
100
AcDbTrace
 10
836.769952
 20
671.683058
 30
0.0
 11
836.769952
 21
680.016391
 31
0.0
 12
861.769952
 22
675.849724
 32
0.0
 13
861.769952
 23
675.849724
 33
0.0
  0
MTEXT
  5
5E9
330
5E3
100
AcDbEntity
  8
LC-007-003-----0
 62
     2
100
AcDbMText
 10
569.811533
 20
705.849724
 30
0.0
 40
25.0
 41
0.0
 71
     5
 72
     1
  1
\A1;1140
  7
LCTX0-400-0-0pDIN-Schrift
 73
     1
 44
1.0
  0
POINT
  5
5EA
330
5E3
100
AcDbEntity
  8
Defpoints
 62
     0
100
AcDbPoint
 10
291.769952
 20
750.898003
 30
0.0
  0
POINT
  5
5EB
330
5E3
100
AcDbEntity
  8
Defpoints
 62
     0
100
AcDbPoint
 10
861.769952
 20
750.898003
 30
0.0
  0
POINT
  5
5EC
330
5E3
100
AcDbEntity
  8
Defpoints
 62
     0
100
AcDbPoint
 10
861.769952
 20
675.849724
 30
0.0
  0
ENDBLK
  5
5EE
330
5E3
100
AcDbEntity
  8
0
100
AcDbBlockEnd
  0
BLOCK
  5
5FA
330
5F0
100
AcDbEntity
  8
0
100
AcDbBlockBegin
  2
*D35
 70
     1
 71
     0
 10
0.0
 20
0.0
 30
0.0
  3
*D35
  1

  0
LINE
  5
5F1
330
5F0
100
AcDbEntity
  8
LC-007-003-----0
 62
     2
370
    -2
100
AcDbLine
 10
856.769952
 20
745.898003
 30
0.0
 11
954.001096
 21
745.898003
 31
0.0
  0
LINE
  5
5F2
330
5F0
100
AcDbEntity
  8
LC-007-003-----0
 62
     2
370
    -2
100
AcDbLine
 10
856.769952
 20
985.898003
 30
0.0
 11
954.001096
 21
985.898003
 31
0.0
  0
LINE
  5
5F3
330
5F0
100
AcDbEntity
  8
LC-007-003-----0
 62
     2
370
    -2
100
AcDbLine
 10
936.001096
 20
770.898003
 30
0.0
 11
936.001096
 21
960.898003
 31
0.0
  0
SOLID
  5
5F4
330
5F0
100
AcDbEntity
  8
LC-007-003-----0
 62
     2
100
AcDbTrace
 10
931.834429
 20
770.898003
 30
0.0
 11
940.167762
 21
770.898003
 31
0.0
 12
936.001096
 22
745.898003
 32
0.0
 13
936.001096
 23
745.898003
 33
0.0
  0
SOLID
  5
5F5
330
5F0
100
AcDbEntity
  8
LC-007-003-----0
 62
     2
100
AcDbTrace
 10
940.167762
 20
960.898003
 30
0.0
 11
931.834429
 21
960.898003
 31
0.0
 12
936.001096
 22
985.898003
 32
0.0
 13
936.001096
 23
985.898003
 33
0.0
  0
MTEXT
  5
5F6
330
5F0
100
AcDbEntity
  8
LC-007-003-----0
 62
     2
100
AcDbMText
 10
906.001096
 20
873.380355
 30
0.0
 40
25.0
 41
0.0
 71
     5
 72
     1
  1
\A1;480
  7
LCTX0-400-0-0pDIN-Schrift
 11
6.123031769111886E-17
 21
1.0
 31
0.0
 73
     1
 44
1.0
  0
POINT
  5
5F7
330
5F0
100
AcDbEntity
  8
Defpoints
 62
     0
100
AcDbPoint
 10
856.769952
 20
745.898003
 30
0.0
  0
POINT
  5
5F8
330
5F0
100
AcDbEntity
  8
Defpoints
 62
     0
100
AcDbPoint
 10
856.769952
 20
985.898003
 30
0.0
  0
POINT
  5
5F9
330
5F0
100
AcDbEntity
  8
Defpoints
 62
     0
100
AcDbPoint
 10
936.001096
 20
985.898003
 30
0.0
  0
ENDBLK
  5
5FB
330
5F0
100
AcDbEntity
  8
0
100
AcDbBlockEnd
  0
BLOCK
  5
604
330
5FE
100
AcDbEntity
  8
0
100
AcDbBlockBegin
  2
*D36
 70
     1
 71
     0
 10
0.0
 20
0.0
 30
0.0
  3
*D36
  1

  0
LINE
  5
5FF
330
5FE
100
AcDbEntity
  8
LC-007-003-----0
 62
     2
370
    -2
100
AcDbLine
 10
315.819492
 20
764.590616
 30
0.0
 11
321.129955
 21
768.407721
 31
0.0
  0
MTEXT
  5
600
330
5FE
100
AcDbEntity
  8
LC-007-003-----0
 62
     2
100
AcDbMText
 10
356.104247
 20
778.302532
 30
0.0
 40
25.0
 41
0.0
 71
     5
 72
     1
  1
\A1;R10
  7
LCTX0-400-0-0pDIN-Schrift
 11
0.8120000996614197
 21
0.5836572951226128
 31
0.0
 73
     1
 44
1.0
  0
SOLID
  5
601
330
5FE
100
AcDbEntity
  8
LC-007-003-----0
 62
     2
100
AcDbTrace
 10
282.961855
 20
735.841523
 30
0.0
 11
278.098044
 21
742.60819
 31
0.0
 12
300.829952
 22
753.816289
 32
0.0
 13
300.829952
 23
753.816289
 33
0.0
  0
POINT
  5
602
330
5FE
100
AcDbEntity
  8
Defpoints
 62
     0
100
AcDbPoint
 10
300.829952
 20
753.816289
 30
0.0
  0
POINT
  5
603
330
5FE
100
AcDbEntity
  8
Defpoints
 62
     0
100
AcDbPoint
 10
296.769952
 20
750.898003
 30
0.0
  0
ENDBLK
  5
605
330
5FE
100
AcDbEntity
  8
0
100
AcDbBlockEnd
  0
BLOCK
  5
613
330
607
100
AcDbEntity
  8
0
100
AcDbBlockBegin
  2
*D37
 70
     1
 71
     0
 10
0.0
 20
0.0
 30
0.0
  3
*D37
  1

  0
LINE
  5
608
330
607
100
AcDbEntity
  8
LC-007-003-----0
 62
     2
370
    -2
100
AcDbLine
 10
1420.348093
 20
2579.48
 30
0.0
 11
1420.348093
 21
2308.796688
 31
0.0
  0
LINE
  5
609
330
607
100
AcDbEntity
  8
LC-007-003-----0
 62
     2
370
    -2
100
AcDbLine
 10
1425.348093
 20
2429.48
 30
0.0
 11
1425.348093
 21
2308.796688
 31
0.0
  0
LINE
  5
60A
330
607
100
AcDbEntity
  8
LC-007-003-----0
 62
     2
370
    -2
100
AcDbLine
 10
1450.348093
 20
2326.796688
 30
0.0
 11
1475.348093
 21
2326.796688
 31
0.0
  0
LINE
  5
60B
330
607
100
AcDbEntity
  8
LC-007-003-----0
 62
     2
370
    -2
100
AcDbLine
 10
1395.348093
 20
2326.796688
 30
0.0
 11
1354.388578
 21
2326.796688
 31
0.0
  0
LINE
  5
60C
330
607
100
AcDbEntity
  8
LC-007-003-----0
 62
     2
370
    -2
100
AcDbLine
 10
1420.348093
 20
2326.796688
 30
0.0
 11
1425.348093
 21
2326.796688
 31
0.0
  0
SOLID
  5
60D
330
607
100
AcDbEntity
  8
LC-007-003-----0
 62
     2
100
AcDbTrace
 10
1395.348093
 20
2322.630021
 30
0.0
 11
1395.348093
 21
2330.963355
 31
0.0
 12
1420.348093
 22
2326.796688
 32
0.0
 13
1420.348093
 23
2326.796688
 33
0.0
  0
SOLID
  5
60E
330
607
100
AcDbEntity
  8
LC-007-003-----0
 62
     2
100
AcDbTrace
 10
1450.348093
 20
2330.963355
 30
0.0
 11
1450.348093
 21
2322.630021
 31
0.0
 12
1425.348093
 22
2326.796688
 32
0.0
 13
1425.348093
 23
2326.796688
 33
0.0
  0
MTEXT
  5
60F
330
607
100
AcDbEntity
  8
LC-007-003-----0
 62
     2
100
AcDbMText
 10
1376.055244
 20
2356.796688
 30
0.0
 40
25.0
 41
0.0
 71
     5
 72
     1
  1
\A1;5
  7
LCTX0-400-0-0pDIN-Schrift
 73
     1
 44
1.0
  0
POINT
  5
610
330
607
100
AcDbEntity
  8
Defpoints
 62
     0
100
AcDbPoint
 10
1420.348093
 20
2579.48
 30
0.0
  0
POINT
  5
611
330
607
100
AcDbEntity
  8
Defpoints
 62
     0
100
AcDbPoint
 10
1425.348093
 20
2429.48
 30
0.0
  0
POINT
  5
612
330
607
100
AcDbEntity
  8
Defpoints
 62
     0
100
AcDbPoint
 10
1425.348093
 20
2326.796688
 30
0.0
  0
ENDBLK
  5
614
330
607
100
AcDbEntity
  8
0
100
AcDbBlockEnd
  0
BLOCK
  5
624
330
61A
100
AcDbEntity
  8
0
100
AcDbBlockBegin
  2
*D38
 70
     1
 71
     0
 10
0.0
 20
0.0
 30
0.0
  3
*D38
  1

  0
LINE
  5
61B
330
61A
100
AcDbEntity
  8
LC-007-003-----0
 62
     2
370
    -2
100
AcDbLine
 10
464.269952
 20
1016.989478
 30
0.0
 11
464.269952
 21
1060.972419
 31
0.0
  0
LINE
  5
61C
330
61A
100
AcDbEntity
  8
LC-007-003-----0
 62
     2
370
    -2
100
AcDbLine
 10
864.269952
 20
1016.989478
 30
0.0
 11
864.269952
 21
1060.972419
 31
0.0
  0
LINE
  5
61D
330
61A
100
AcDbEntity
  8
LC-007-003-----0
 62
     2
370
    -2
100
AcDbLine
 10
489.269952
 20
1042.972419
 30
0.0
 11
839.269952
 21
1042.972419
 31
0.0
  0
SOLID
  5
61E
330
61A
100
AcDbEntity
  8
LC-007-003-----0
 62
     2
100
AcDbTrace
 10
489.269952
 20
1047.139086
 30
0.0
 11
489.269952
 21
1038.805753
 31
0.0
 12
464.269952
 22
1042.972419
 32
0.0
 13
464.269952
 23
1042.972419
 33
0.0
  0
SOLID
  5
61F
330
61A
100
AcDbEntity
  8
LC-007-003-----0
 62
     2
100
AcDbTrace
 10
839.269952
 20
1038.805753
 30
0.0
 11
839.269952
 21
1047.139086
 31
0.0
 12
864.269952
 22
1042.972419
 32
0.0
 13
864.269952
 23
1042.972419
 33
0.0
  0
MTEXT
  5
620
330
61A
100
AcDbEntity
  8
LC-007-003-----0
 62
     2
100
AcDbMText
 10
651.71672
 20
1072.972419
 30
0.0
 40
25.0
 41
0.0
 71
     5
 72
     1
  1
\A1;800
  7
LCTX0-400-0-0pDIN-Schrift
 73
     1
 44
1.0
  0
POINT
  5
621
330
61A
100
AcDbEntity
  8
Defpoints
 62
     0
100
AcDbPoint
 10
464.269952
 20
1016.989478
 30
0.0
  0
POINT
  5
622
330
61A
100
AcDbEntity
  8
Defpoints
 62
     0
100
AcDbPoint
 10
864.269952
 20
1016.989478
 30
0.0
  0
POINT
  5
623
330
61A
100
AcDbEntity
  8
Defpoints
 62
     0
100
AcDbPoint
 10
864.269952
 20
1042.972419
 30
0.0
  0
ENDBLK
  5
625
330
61A
100
AcDbEntity
  8
0
100
AcDbBlockEnd
  0
BLOCK
  5
633
330
627
100
AcDbEntity
  8
0
100
AcDbBlockBegin
  2
*D39
 70
     1
 71
     0
 10
0.0
 20
0.0
 30
0.0
  3
*D39
  1

  0
LINE
  5
628
330
627
100
AcDbEntity
  8
LC-007-003-----0
 62
     2
370
    -2
100
AcDbLine
 10
861.769952
 20
980.898003
 30
0.0
 11
861.769952
 21
1036.081198
 31
0.0
  0
LINE
  5
629
330
627
100
AcDbEntity
  8
LC-007-003-----0
 62
     2
370
    -2
100
AcDbLine
 10
864.269952
 20
1016.989478
 30
0.0
 11
864.269952
 21
1036.081198
 31
0.0
  0
LINE
  5
62A
330
627
100
AcDbEntity
  8
LC-007-003-----0
 62
     2
370
    -2
100
AcDbLine
 10
836.769952
 20
1018.081198
 30
0.0
 11
811.769952
 21
1018.081198
 31
0.0
  0
LINE
  5
62B
330
627
100
AcDbEntity
  8
LC-007-003-----0
 62
     2
370
    -2
100
AcDbLine
 10
889.269952
 20
1018.081198
 30
0.0
 11
926.930632
 21
1018.081198
 31
0.0
  0
LINE
  5
62C
330
627
100
AcDbEntity
  8
LC-007-003-----0
 62
     2
370
    -2
100
AcDbLine
 10
861.769952
 20
1018.081198
 30
0.0
 11
864.269952
 21
1018.081198
 31
0.0
  0
SOLID
  5
62D
330
627
100
AcDbEntity
  8
LC-007-003-----0
 62
     2
100
AcDbTrace
 10
836.769952
 20
1013.914531
 30
0.0
 11
836.769952
 21
1022.247865
 31
0.0
 12
861.769952
 22
1018.081198
 32
0.0
 13
861.769952
 23
1018.081198
 33
0.0
  0
SOLID
  5
62E
330
627
100
AcDbEntity
  8
LC-007-003-----0
 62
     2
100
AcDbTrace
 10
889.269952
 20
1022.247865
 30
0.0
 11
889.269952
 21
1013.914531
 31
0.0
 12
864.269952
 22
1018.081198
 32
0.0
 13
864.269952
 23
1018.081198
 33
0.0
  0
MTEXT
  5
62F
330
627
100
AcDbEntity
  8
LC-007-003-----0
 62
     2
100
AcDbMText
 10
905.263965
 20
1048.081198
 30
0.0
 40
25.0
 41
0.0
 71
     5
 72
     1
  1
\A1;5
  7
LCTX0-400-0-0pDIN-Schrift
 73
     1
 44
1.0
  0
POINT
  5
630
330
627
100
AcDbEntity
  8
Defpoints
 62
     0
100
AcDbPoint
 10
861.769952
 20
980.898003
 30
0.0
  0
POINT
  5
631
330
627
100
AcDbEntity
  8
Defpoints
 62
     0
100
AcDbPoint
 10
864.269952
 20
1016.989478
 30
0.0
  0
POINT
  5
632
330
627
100
AcDbEntity
  8
Defpoints
 62
     0
100
AcDbPoint
 10
864.269952
 20
1018.081198
 30
0.0
  0
ENDBLK
  5
634
330
627
100
AcDbEntity
  8
0
100
AcDbBlockEnd
  0
BLOCK
  5
64C
330
642
100
AcDbEntity
  8
0
100
AcDbBlockBegin
  2
*D40
 70
     1
 71
     0
 10
0.0
 20
0.0
 30
0.0
  3
*D40
  1

  0
LINE
  5
643
330
642
100
AcDbEntity
  8
LC-007-003-----0
 62
     2
370
    -2
100
AcDbLine
 10
1815.380209
 20
777.774841
 30
0.0
 11
1900.74941
 21
777.774841
 31
0.0
  0
LINE
  5
644
330
642
100
AcDbEntity
  8
LC-007-003-----0
 62
     2
370
    -2
100
AcDbLine
 10
1815.380209
 20
1020.774841
 30
0.0
 11
1900.74941
 21
1020.774841
 31
0.0
  0
LINE
  5
645
330
642
100
AcDbEntity
  8
LC-007-003-----0
 62
     2
370
    -2
100
AcDbLine
 10
1882.74941
 20
802.774841
 30
0.0
 11
1882.74941
 21
995.774841
 31
0.0
  0
SOLID
  5
646
330
642
100
AcDbEntity
  8
LC-007-003-----0
 62
     2
100
AcDbTrace
 10
1878.582743
 20
802.774841
 30
0.0
 11
1886.916076
 21
802.774841
 31
0.0
 12
1882.74941
 22
777.774841
 32
0.0
 13
1882.74941
 23
777.774841
 33
0.0
  0
SOLID
  5
647
330
642
100
AcDbEntity
  8
LC-007-003-----0
 62
     2
100
AcDbTrace
 10
1886.916076
 20
995.774841
 30
0.0
 11
1878.582743
 21
995.774841
 31
0.0
 12
1882.74941
 22
1020.774841
 32
0.0
 13
1882.74941
 23
1020.774841
 33
0.0
  0
MTEXT
  5
648
330
642
100
AcDbEntity
  8
LC-007-003-----0
 62
     2
100
AcDbMText
 10
1852.74941
 20
901.074808
 30
0.0
 40
25.0
 41
0.0
 71
     5
 72
     1
  1
\A1;486
  7
LCTX0-400-0-0pDIN-Schrift
 11
6.123031769111886E-17
 21
1.0
 31
0.0
 73
     1
 44
1.0
  0
POINT
  5
649
330
642
100
AcDbEntity
  8
Defpoints
 62
     0
100
AcDbPoint
 10
1815.380209
 20
777.774841
 30
0.0
  0
POINT
  5
64A
330
642
100
AcDbEntity
  8
Defpoints
 62
     0
100
AcDbPoint
 10
1815.380209
 20
1020.774841
 30
0.0
  0
POINT
  5
64B
330
642
100
AcDbEntity
  8
Defpoints
 62
     0
100
AcDbPoint
 10
1882.74941
 20
1020.774841
 30
0.0
  0
ENDBLK
  5
64D
330
642
100
AcDbEntity
  8
0
100
AcDbBlockEnd
  0
BLOCK
  5
659
330
64F
100
AcDbEntity
  8
0
100
AcDbBlockBegin
  2
*D41
 70
     1
 71
     0
 10
0.0
 20
0.0
 30
0.0
  3
*D41
  1

  0
LINE
  5
650
330
64F
100
AcDbEntity
  8
LC-007-003-----0
 62
     2
370
    -2
100
AcDbLine
 10
1247.380209
 20
782.774841
 30
0.0
 11
1247.380209
 21
700.374998
 31
0.0
  0
LINE
  5
651
330
64F
100
AcDbEntity
  8
LC-007-003-----0
 62
     2
370
    -2
100
AcDbLine
 10
1820.380209
 20
782.774841
 30
0.0
 11
1820.380209
 21
700.374998
 31
0.0
  0
LINE
  5
652
330
64F
100
AcDbEntity
  8
LC-007-003-----0
 62
     2
370
    -2
100
AcDbLine
 10
1272.380209
 20
718.374998
 30
0.0
 11
1795.380209
 21
718.374998
 31
0.0
  0
SOLID
  5
653
330
64F
100
AcDbEntity
  8
LC-007-003-----0
 62
     2
100
AcDbTrace
 10
1272.380209
 20
722.541665
 30
0.0
 11
1272.380209
 21
714.208331
 31
0.0
 12
1247.380209
 22
718.374998
 32
0.0
 13
1247.380209
 23
718.374998
 33
0.0
  0
SOLID
  5
654
330
64F
100
AcDbEntity
  8
LC-007-003-----0
 62
     2
100
AcDbTrace
 10
1795.380209
 20
714.208331
 30
0.0
 11
1795.380209
 21
722.541665
 31
0.0
 12
1820.380209
 22
718.374998
 32
0.0
 13
1820.380209
 23
718.374998
 33
0.0
  0
MTEXT
  5
655
330
64F
100
AcDbEntity
  8
LC-007-003-----0
 62
     2
100
AcDbMText
 10
1535.172616
 20
748.374998
 30
0.0
 40
25.0
 41
0.0
 71
     5
 72
     1
  1
\A1;1146
  7
LCTX0-400-0-0pDIN-Schrift
 73
     1
 44
1.0
  0
POINT
  5
656
330
64F
100
AcDbEntity
  8
Defpoints
 62
     0
100
AcDbPoint
 10
1247.380209
 20
782.774841
 30
0.0
  0
POINT
  5
657
330
64F
100
AcDbEntity
  8
Defpoints
 62
     0
100
AcDbPoint
 10
1820.380209
 20
782.774841
 30
0.0
  0
POINT
  5
658
330
64F
100
AcDbEntity
  8
Defpoints
 62
     0
100
AcDbPoint
 10
1820.380209
 20
718.374998
 30
0.0
  0
ENDBLK
  5
65A
330
64F
100
AcDbEntity
  8
0
100
AcDbBlockEnd
  0
BLOCK
  5
662
330
65C
100
AcDbEntity
  8
0
100
AcDbBlockBegin
  2
*D42
 70
     1
 71
     0
 10
0.0
 20
0.0
 30
0.0
  3
*D42
  1

  0
LINE
  5
65D
330
65C
100
AcDbEntity
  8
LC-007-003-----0
 62
     2
370
    -2
100
AcDbLine
 10
1248.982744
 20
1019.869903
 30
0.0
 11
1239.610019
 21
1031.16712
 31
0.0
  0
MTEXT
  5
65E
330
65C
100
AcDbEntity
  8
LC-007-003-----0
 62
     2
100
AcDbMText
 10
1287.541032
 20
998.95753
 30
0.0
 40
25.0
 41
0.0
 71
     5
 72
     1
  1
\A1;R10
  7
LCTX0-400-0-0pDIN-Schrift
 11
0.6385094593303156
 21
-0.7696139748898199
 31
0.0
 73
     1
 44
1.0
  0
SOLID
  5
65F
330
65C
100
AcDbEntity
  8
LC-007-003-----0
 62
     2
100
AcDbTrace
 10
1274.742217
 20
995.346877
 30
0.0
 11
1268.328768
 21
990.025965
 31
0.0
 12
1255.572756
 22
1011.926771
 32
0.0
 13
1255.572756
 23
1011.926771
 33
0.0
  0
POINT
  5
660
330
65C
100
AcDbEntity
  8
Defpoints
 62
     0
100
AcDbPoint
 10
1255.572756
 20
1011.926771
 30
0.0
  0
POINT
  5
661
330
65C
100
AcDbEntity
  8
Defpoints
 62
     0
100
AcDbPoint
 10
1252.380209
 20
1015.774841
 30
0.0
  0
ENDBLK
  5
663
330
65C
100
AcDbEntity
  8
0
100
AcDbBlockEnd
  0
BLOCK
  5
675
330
66B
100
AcDbEntity
  8
0
100
AcDbBlockBegin
  2
*D43
 70
     1
 71
     0
 10
0.0
 20
0.0
 30
0.0
  3
*D43
  1

  0
LINE
  5
66C
330
66B
100
AcDbEntity
  8
LC-007-003-----0
 62
     2
370
    -2
100
AcDbLine
 10
1885.375657
 20
1873.342336
 30
0.0
 11
1968.0
 21
1873.342336
 31
0.0
  0
LINE
  5
66D
330
66B
100
AcDbEntity
  8
LC-007-003-----0
 62
     2
370
    -2
100
AcDbLine
 10
1885.375657
 20
1519.437664
 30
0.0
 11
1968.0
 21
1519.437664
 31
0.0
  0
LINE
  5
66E
330
66B
100
AcDbEntity
  8
LC-007-003-----0
 62
     2
370
    -2
100
AcDbLine
 10
1950.0
 20
1848.342336
 30
0.0
 11
1950.0
 21
1544.437664
 31
0.0
  0
SOLID
  5
66F
330
66B
100
AcDbEntity
  8
LC-007-003-----0
 62
     2
100
AcDbTrace
 10
1954.166667
 20
1848.342336
 30
0.0
 11
1945.833333
 21
1848.342336
 31
0.0
 12
1950.0
 22
1873.342336
 32
0.0
 13
1950.0
 23
1873.342336
 33
0.0
  0
SOLID
  5
670
330
66B
100
AcDbEntity
  8
LC-007-003-----0
 62
     2
100
AcDbTrace
 10
1945.833333
 20
1544.437664
 30
0.0
 11
1954.166667
 21
1544.437664
 31
0.0
 12
1950.0
 22
1519.437664
 32
0.0
 13
1950.0
 23
1519.437664
 33
0.0
  0
MTEXT
  5
671
330
66B
100
AcDbEntity
  8
LC-007-003-----0
 62
     2
100
AcDbMText
 10
1920.0
 20
1700.900935
 30
0.0
 40
25.0
 41
0.0
 71
     5
 72
     1
  1
\A1;354
  7
LCTX0-400-0-0pDIN-Schrift
 11
6.123031769111886E-17
 21
1.0
 31
0.0
 73
     1
 44
1.0
  0
POINT
  5
672
330
66B
100
AcDbEntity
  8
Defpoints
 62
     0
100
AcDbPoint
 10
1885.375657
 20
1873.342336
 30
0.0
  0
POINT
  5
673
330
66B
100
AcDbEntity
  8
Defpoints
 62
     0
100
AcDbPoint
 10
1885.375657
 20
1519.437664
 30
0.0
  0
POINT
  5
674
330
66B
100
AcDbEntity
  8
Defpoints
 62
     0
100
AcDbPoint
 10
1950.0
 20
1519.437664
 30
0.0
  0
ENDBLK
  5
676
330
66B
100
AcDbEntity
  8
0
100
AcDbBlockEnd
  0
ENDSEC
  0
SECTION
  2
ENTITIES
  0
INSERT
  5
104
330
1F
100
AcDbEntity
  8
LC-003-230-ZVN-0
 62
     7
370
    25
100
AcDbBlockReference
  2
SYM1
 10
0.0
 20
0.0
 30
0.0
  0
LINE
  5
107
102
{ACAD_REACTORS
330
67D
102
}
330
1F
100
AcDbEntity
  8
LC-004-006-MLN-0
 62
     7
370
    25
100
AcDbLine
 10
1668.774271
 20
1696.39
 30
0.0
 11
1688.82914
 21
1696.39
 31
0.0
  0
LINE
  5
108
102
{ACAD_REACTORS
330
67C
102
}
330
1F
100
AcDbEntity
  8
LC-004-006-MLN-0
 62
     7
370
    25
100
AcDbLine
 10
1120.348093
 20
2408.425131
 30
0.0
 11
1120.348093
 21
2428.48
 31
0.0
  0
LINE
  5
109
102
{ACAD_REACTORS
330
67C
102
}
330
1F
100
AcDbEntity
  8
LC-004-006-MLN-0
 62
     7
370
    25
100
AcDbLine
 10
848.348093
 20
2408.425131
 30
0.0
 11
848.348093
 21
2428.48
 31
0.0
  0
LINE
  5
10A
102
{ACAD_REACTORS
330
67B
102
}
330
1F
100
AcDbEntity
  8
LC-002-002-----0
 62
     7
370
    50
100
AcDbLine
 10
1032.348093
 20
1911.39
 30
0.0
 11
1378.348093
 21
1911.39
 31
0.0
  0
LINE
  5
10B
102
{ACAD_REACTORS
330
67C
102
}
330
1F
100
AcDbEntity
  8
LC-002-002-----0
 62
     7
370
    25
100
AcDbLine
 10
1177.848093
 20
2425.48
 30
0.0
 11
1062.848093
 21
2425.48
 31
0.0
  0
ARC
  5
10D
102
{ACAD_REACTORS
330
67B
102
}
330
1F
100
AcDbEntity
  8
LC-005-002-RND-0
 62
     7
370
    50
100
AcDbCircle
 10
1378.348093
 20
1894.39
 30
0.0
 40
17.0
100
AcDbArc
 50
0.0
 51
90.0
  0
LINE
  5
10E
102
{ACAD_REACTORS
330
67B
102
}
330
1F
100
AcDbEntity
  8
LC-002-002-----0
 62
     7
370
    50
100
AcDbLine
 10
1395.348093
 20
1894.39
 30
0.0
 11
1395.348093
 21
1498.39
 31
0.0
  0
LINE
  5
10F
102
{ACAD_REACTORS
330
67B
102
}
330
1F
100
AcDbEntity
  8
LC-002-002-----0
 62
     7
370
    50
100
AcDbLine
 10
1015.348093
 20
1894.39
 30
0.0
 11
1015.348093
 21
1498.39
 31
0.0
  0
ARC
  5
110
102
{ACAD_REACTORS
330
67B
102
}
330
1F
100
AcDbEntity
  8
LC-005-002-RND-0
 62
     7
370
    50
100
AcDbCircle
 10
1032.348093
 20
1894.39
 30
0.0
 40
17.0
100
AcDbArc
 50
90.0
 51
180.0
  0
ARC
  5
111
102
{ACAD_REACTORS
330
67B
102
}
330
1F
100
AcDbEntity
  8
LC-005-002-RND-0
 62
     7
370
    50
100
AcDbCircle
 10
998.348093
 20
1890.39
 30
0.0
 40
17.0
100
AcDbArc
 50
270.0
 51
0.0
  0
LINE
  5
112
102
{ACAD_REACTORS
330
67B
102
}
330
1F
100
AcDbEntity
  8
LC-002-002-----0
 62
     7
370
    50
100
AcDbLine
 10
953.348093
 20
1856.39
 30
0.0
 11
953.348093
 21
1536.39
 31
0.0
  0
ARC
  5
113
102
{ACAD_REACTORS
330
67C
102
}
330
1F
100
AcDbEntity
  8
LC-005-002-RND-0
 62
     7
370
    50
100
AcDbCircle
 10
956.010789
 20
2602.98
 30
0.0
 40
5.0
100
AcDbArc
 50
90.0
 51
174.0
  0
ARC
  5
114
102
{ACAD_REACTORS
330
67B
102
}
330
1F
100
AcDbEntity
  8
LC-005-002-RND-0
 62
     7
370
    50
100
AcDbCircle
 10
670.348093
 20
1856.39
 30
0.0
 40
17.0
100
AcDbArc
 50
90.0
 51
180.0
  0
LINE
  5
115
102
{ACAD_REACTORS
330
67B
102
}
330
1F
100
AcDbEntity
  8
LC-002-002-----0
 62
     7
370
    50
100
AcDbLine
 10
653.348093
 20
1856.39
 30
0.0
 11
653.348093
 21
1536.39
 31
0.0
  0
ARC
  5
116
102
{ACAD_REACTORS
330
67C
102
}
330
1F
100
AcDbEntity
  8
LC-005-002-RND-0
 62
     7
370
    50
100
AcDbCircle
 10
1351.773271
 20
2459.629341
 30
0.0
 40
34.00000000000012
100
AcDbArc
 50
273.0
 51
354.0
  0
LINE
  5
117
102
{ACAD_REACTORS
330
67B
102
}
330
1F
100
AcDbEntity
  8
LC-002-002-----0
 62
     7
370
    50
100
AcDbLine
 10
305.348093
 20
1539.39
 30
0.0
 11
305.348093
 21
1853.39
 31
0.0
  0
ARC
  5
118
102
{ACAD_REACTORS
330
67B
102
}
330
1F
100
AcDbEntity
  8
LC-005-002-RND-0
 62
     7
370
    50
100
AcDbCircle
 10
325.348093
 20
1853.39
 30
0.0
 40
20.0
100
AcDbArc
 50
90.0
 51
180.0
  0
ARC
  5
119
102
{ACAD_REACTORS
330
67B
102
}
330
1F
100
AcDbEntity
  8
LC-005-002-RND-0
 62
     7
370
    50
100
AcDbCircle
 10
936.348093
 20
1856.39
 30
0.0
 40
17.0
100
AcDbArc
 50
0.0
 51
90.0
  0
LINE
  5
11A
102
{ACAD_REACTORS
330
67C
102
}
330
1F
100
AcDbEntity
  8
LC-002-002-----0
 62
     7
370
    50
100
AcDbLine
 10
1165.348093
 20
2421.306766
 30
0.0
 11
1075.348093
 21
2421.306766
 31
0.0
  0
CIRCLE
  5
11B
102
{ACAD_REACTORS
330
67B
102
}
330
1F
100
AcDbEntity
  8
LC-002-002-----0
 62
     7
370
    50
100
AcDbCircle
 10
848.348093
 20
1696.39
 30
0.0
 40
45.0
  0
CIRCLE
  5
11C
102
{ACAD_REACTORS
330
67B
102
}
330
1F
100
AcDbEntity
  8
LC-002-002-----0
 62
     7
370
    50
100
AcDbCircle
 10
848.348093
 20
1696.39
 30
0.0
 40
57.49999999984402
  0
CIRCLE
  5
11D
102
{ACAD_REACTORS
330
67B
102
}
330
1F
100
AcDbEntity
  8
LC-002-002-----0
 62
     7
370
    50
100
AcDbCircle
 10
984.348104
 20
1696.39
 30
0.0
 40
12.5
  0
CIRCLE
  5
11E
102
{ACAD_REACTORS
330
67B
102
}
330
1F
100
AcDbEntity
  8
LC-002-002-----0
 62
     7
370
    50
100
AcDbCircle
 10
984.348104
 20
1696.39
 30
0.0
 40
18.26716128740736
  0
LINE
  5
11F
102
{ACAD_REACTORS
330
67D
102
}
330
1F
100
AcDbEntity
  8
LC-002-002-----0
 62
     7
370
    50
100
AcDbLine
 10
1671.774271
 20
1651.39
 30
0.0
 11
1681.655906
 21
1651.39
 31
0.0
  0
LINE
  5
120
102
{ACAD_REACTORS
330
67D
102
}
330
1F
100
AcDbEntity
  8
LC-002-002-----0
 62
     7
370
    50
100
AcDbLine
 10
1681.655906
 20
1741.39
 30
0.0
 11
1681.655906
 21
1651.39
 31
0.0
  0
LINE
  5
121
102
{ACAD_REACTORS
330
67D
102
}
330
1F
100
AcDbEntity
  8
LC-002-002-----0
 62
     7
370
    50
100
AcDbLine
 10
1671.774271
 20
1741.39
 30
0.0
 11
1681.655906
 21
1741.39
 31
0.0
  0
LINE
  5
122
102
{ACAD_REACTORS
330
67C
102
}
330
1F
100
AcDbEntity
  8
LC-002-002-----0
 62
     7
370
    50
100
AcDbLine
 10
1075.348093
 20
2411.425131
 30
0.0
 11
1075.348093
 21
2421.306766
 31
0.0
  0
LINE
  5
123
102
{ACAD_REACTORS
330
67C
102
}
330
1F
100
AcDbEntity
  8
LC-002-002-----0
 62
     7
370
    50
100
AcDbLine
 10
893.348093
 20
2421.306766
 30
0.0
 11
803.348093
 21
2421.306766
 31
0.0
  0
LINE
  5
124
102
{ACAD_REACTORS
330
67C
102
}
330
1F
100
AcDbEntity
  8
LC-002-002-----0
 62
     7
370
    50
100
AcDbLine
 10
1165.348093
 20
2411.425131
 30
0.0
 11
1165.348093
 21
2421.306766
 31
0.0
  0
LINE
  5
125
102
{ACAD_REACTORS
330
67C
102
}
330
1F
100
AcDbEntity
  8
LC-002-002-----0
 62
     7
370
    50
100
AcDbLine
 10
971.848104
 20
2597.092882
 30
0.0
 11
971.848104
 21
2605.11029
 31
0.0
  0
LINE
  5
126
102
{ACAD_REACTORS
330
67C
102
}
330
1F
100
AcDbEntity
  8
LC-002-002-----0
 62
     7
370
    50
100
AcDbLine
 10
996.848104
 20
2605.11029
 30
0.0
 11
971.848104
 21
2605.11029
 31
0.0
  0
LINE
  5
127
102
{ACAD_REACTORS
330
67C
102
}
330
1F
100
AcDbEntity
  8
LC-002-002-----0
 62
     7
370
    50
100
AcDbLine
 10
996.848104
 20
2597.092882
 30
0.0
 11
996.848104
 21
2605.11029
 31
0.0
  0
LINE
  5
128
102
{ACAD_REACTORS
330
67B
102
}
330
1F
100
AcDbEntity
  8
LC-002-002-----0
 62
     7
370
    25
100
AcDbLine
 10
653.348093
 20
1818.39
 30
0.0
 11
332.348093
 21
1818.39
 31
0.0
  0
LINE
  5
129
102
{ACAD_REACTORS
330
67B
102
}
330
1F
100
AcDbEntity
  8
LC-002-002-----0
 62
     7
370
    25
100
AcDbLine
 10
332.348093
 20
1808.39
 30
0.0
 11
653.348093
 21
1808.39
 31
0.0
  0
ARC
  5
12A
102
{ACAD_REACTORS
330
67B
102
}
330
1F
100
AcDbEntity
  8
LC-002-002-----0
 62
     7
370
    50
100
AcDbCircle
 10
1410.348093
 20
1926.39
 30
0.0
 40
20.0
100
AcDbArc
 50
0.0
 51
90.0
  0
LINE
  5
12B
102
{ACAD_REACTORS
330
67B
102
}
330
1F
100
AcDbEntity
  8
LC-002-002-----0
 62
     7
370
    50
100
AcDbLine
 10
290.348093
 20
1946.39
 30
0.0
 11
1410.348093
 21
1946.39
 31
0.0
  0
ARC
  5
12C
102
{ACAD_REACTORS
330
67B
102
}
330
1F
100
AcDbEntity
  8
LC-002-002-----0
 62
     7
370
    50
100
AcDbCircle
 10
290.348093
 20
1926.39
 30
0.0
 40
20.0
100
AcDbArc
 50
90.0
 51
180.0
  0
LINE
  5
12D
102
{ACAD_REACTORS
330
67B
102
}
330
1F
100
AcDbEntity
  8
LC-002-002-----0
 62
     7
370
    50
100
AcDbLine
 10
270.348093
 20
1466.39
 30
0.0
 11
270.348093
 21
1926.39
 31
0.0
  0
ARC
  5
12E
102
{ACAD_REACTORS
330
67B
102
}
330
1F
100
AcDbEntity
  8
LC-002-002-----0
 62
     7
370
    50
100
AcDbCircle
 10
290.348093
 20
1466.39
 30
0.0
 40
20.0
100
AcDbArc
 50
180.0
 51
270.0
  0
LINE
  5
12F
102
{ACAD_REACTORS
330
67B
102
}
330
1F
100
AcDbEntity
  8
LC-002-002-----0
 62
     7
370
    50
100
AcDbLine
 10
1410.348093
 20
1446.39
 30
0.0
 11
290.348093
 21
1446.39
 31
0.0
  0
ARC
  5
130
102
{ACAD_REACTORS
330
67B
102
}
330
1F
100
AcDbEntity
  8
LC-002-002-----0
 62
     7
370
    50
100
AcDbCircle
 10
1410.348093
 20
1466.39
 30
0.0
 40
20.0
100
AcDbArc
 50
270.0
 51
0.0
  0
LINE
  5
131
102
{ACAD_REACTORS
330
67B
102
}
330
1F
100
AcDbEntity
  8
LC-002-002-----0
 62
     7
370
    50
100
AcDbLine
 10
1430.348093
 20
1926.39
 30
0.0
 11
1430.348093
 21
1466.39
 31
0.0
  0
LINE
  5
132
102
{ACAD_REACTORS
330
67D
102
}
330
1F
100
AcDbEntity
  8
LC-002-002-----0
 62
     7
370
    50
100
AcDbLine
 10
1671.774271
 20
1634.664141
 30
0.0
 11
1671.774271
 21
1758.115859
 31
0.0
  0
LINE
  5
133
102
{ACAD_REACTORS
330
67D
102
}
330
1F
100
AcDbEntity
  8
LC-002-002-----0
 62
     7
370
    50
100
AcDbLine
 10
1876.82914
 20
1922.990148
 30
0.0
 11
1876.82914
 21
1934.39
 31
0.0
  0
LINE
  5
134
102
{ACAD_REACTORS
330
67D
102
}
330
1F
100
AcDbEntity
  8
LC-002-002-----0
 62
     7
370
    50
100
AcDbLine
 10
1872.351782
 20
1918.017539
 30
0.0
 11
1713.26263
 21
1901.296595
 31
0.0
  0
ARC
  5
135
102
{ACAD_REACTORS
330
67D
102
}
330
1F
100
AcDbEntity
  8
LC-002-002-----0
 62
     7
370
    50
100
AcDbCircle
 10
1716.816598
 20
1867.482851
 30
0.0
 40
33.9999999999998
100
AcDbArc
 50
96.0
 51
177.0
  0
ARC
  5
136
102
{ACAD_REACTORS
330
67D
102
}
330
1F
100
AcDbEntity
  8
LC-002-002-----0
 62
     7
370
    50
100
AcDbCircle
 10
1673.774271
 20
1758.115859
 30
0.0
 40
2.000000000000123
100
AcDbArc
 50
115.0
 51
180.0
  0
ARC
  5
137
102
{ACAD_REACTORS
330
67D
102
}
330
1F
100
AcDbEntity
  8
LC-002-002-----0
 62
     7
370
    50
100
AcDbCircle
 10
1880.82914
 20
1915.89202
 30
0.0
 40
5.000000000000286
100
AcDbArc
 50
276.0
 51
0.0
  0
ARC
  5
138
102
{ACAD_REACTORS
330
67D
102
}
330
1F
100
AcDbEntity
  8
LC-002-002-----0
 62
     7
370
    50
100
AcDbCircle
 10
1881.82914
 20
1942.100525
 30
0.0
 40
4.0
100
AcDbArc
 50
0.0
 51
86.0
  0
ARC
  5
139
102
{ACAD_REACTORS
330
67D
102
}
330
1F
100
AcDbEntity
  8
LC-002-002-----0
 62
     7
370
    50
100
AcDbCircle
 10
1871.82914
 20
1922.990148
 30
0.0
 40
4.999999999999833
100
AcDbArc
 50
276.0
 51
0.0
  0
LINE
  5
13A
102
{ACAD_REACTORS
330
67D
102
}
330
1F
100
AcDbEntity
  8
LC-002-002-----0
 62
     7
370
    50
100
AcDbLine
 10
1682.863193
 20
1869.262273
 30
0.0
 11
1677.427249
 21
1765.538267
 31
0.0
  0
ARC
  5
13B
102
{ACAD_REACTORS
330
67D
102
}
330
1F
100
AcDbEntity
  8
LC-002-002-----0
 62
     7
370
    50
100
AcDbCircle
 10
1671.435471
 20
1765.852283
 30
0.0
 40
5.999999999999985
100
AcDbArc
 50
295.0
 51
357.0
  0
LINE
  5
13C
102
{ACAD_REACTORS
330
67D
102
}
330
1F
100
AcDbEntity
  8
LC-002-002-----0
 62
     7
370
    50
100
AcDbLine
 10
1672.929034
 20
1759.928475
 30
0.0
 11
1673.971181
 21
1760.414436
 31
0.0
  0
LINE
  5
13D
102
{ACAD_REACTORS
330
67D
102
}
330
1F
100
AcDbEntity
  8
LC-002-002-----0
 62
     7
370
    50
100
AcDbLine
 10
1684.789965
 20
1753.799084
 30
0.0
 11
1684.593547
 21
1753.7819
 31
0.0
  0
LINE
  5
13E
102
{ACAD_REACTORS
330
67D
102
}
330
1F
100
AcDbEntity
  8
LC-002-002-----0
 62
     7
370
    50
100
AcDbLine
 10
1691.859148
 20
1868.949417
 30
0.0
 11
1685.883734
 21
1754.931714
 31
0.0
  0
LINE
  5
13F
102
{ACAD_REACTORS
330
67D
102
}
330
1F
100
AcDbEntity
  8
LC-002-002-----0
 62
     7
370
    50
100
AcDbLine
 10
1877.82914
 20
1934.39
 30
0.0
 11
1876.82914
 21
1934.39
 31
0.0
  0
LINE
  5
140
102
{ACAD_REACTORS
330
67D
102
}
330
1F
100
AcDbEntity
  8
LC-002-002-----0
 62
     7
370
    50
100
AcDbLine
 10
1877.82914
 20
1946.39
 30
0.0
 11
1877.82914
 21
1934.39
 31
0.0
  0
LINE
  5
141
102
{ACAD_REACTORS
330
67D
102
}
330
1F
100
AcDbEntity
  8
LC-002-002-----0
 62
     7
370
    50
100
AcDbLine
 10
1881.351782
 20
1910.919411
 30
0.0
 11
1715.105777
 21
1893.446251
 31
0.0
  0
LINE
  5
142
102
{ACAD_REACTORS
330
67D
102
}
330
1F
100
AcDbEntity
  8
LC-002-002-----0
 62
     7
370
    50
100
AcDbLine
 10
1877.82914
 20
1946.39
 30
0.0
 11
1882.108166
 21
1946.090781
 31
0.0
  0
ARC
  5
143
102
{ACAD_REACTORS
330
67D
102
}
330
1F
100
AcDbEntity
  8
LC-002-002-----0
 62
     7
370
    50
100
AcDbCircle
 10
1717.823517
 20
1867.588682
 30
0.0
 40
26.00000000000018
100
AcDbArc
 50
96.0
 51
177.0
  0
LINE
  5
144
102
{ACAD_REACTORS
330
67D
102
}
330
1F
100
AcDbEntity
  8
LC-002-002-----0
 62
     7
370
    50
100
AcDbLine
 10
1683.695895
 20
1752.959353
 30
0.0
 11
1681.655906
 21
1741.39
 31
0.0
  0
ARC
  5
145
102
{ACAD_REACTORS
330
67D
102
}
330
1F
100
AcDbEntity
  8
LC-002-002-----0
 62
     7
370
    50
100
AcDbCircle
 10
1684.680703
 20
1752.785705
 30
0.0
 40
0.9999999999998799
100
AcDbArc
 50
95.0
 51
170.0
  0
ARC
  5
146
102
{ACAD_REACTORS
330
67D
102
}
330
1F
100
AcDbEntity
  8
LC-002-002-----0
 62
     7
370
    50
100
AcDbCircle
 10
1684.685378
 20
1754.994518
 30
0.0
 40
1.199999999999702
100
AcDbArc
 50
275.0
 51
357.0
  0
ARC
  5
147
102
{ACAD_REACTORS
330
67C
102
}
330
1F
100
AcDbEntity
  8
LC-005-002-RND-0
 62
     7
370
    50
100
AcDbCircle
 10
1189.810376
 20
2411.086331
 30
0.0
 40
6.000000000000064
100
AcDbArc
 50
93.0
 51
155.0
  0
ARC
  5
148
102
{ACAD_REACTORS
330
67C
102
}
330
1F
100
AcDbEntity
  8
LC-005-002-RND-0
 62
     7
370
    50
100
AcDbCircle
 10
965.259291
 20
2606.98
 30
0.0
 40
0.9999999999999277
100
AcDbArc
 50
11.183491
 51
90.0
  0
ARC
  5
149
102
{ACAD_REACTORS
330
67C
102
}
330
1F
100
AcDbEntity
  8
LC-005-002-RND-0
 62
     7
370
    50
100
AcDbCircle
 10
1003.436916
 20
2606.98
 30
0.0
 40
1.0
100
AcDbArc
 50
90.0
 51
168.816516
  0
ARC
  5
14A
102
{ACAD_REACTORS
330
67C
102
}
330
1F
100
AcDbEntity
  8
LC-002-002-----0
 62
     7
370
    50
100
AcDbCircle
 10
372.352883
 20
2615.3499
 30
0.0
 40
9.187568506154992
100
AcDbArc
 50
258.228762
 51
268.536748
  0
LINE
  5
14B
102
{ACAD_REACTORS
330
67C
102
}
330
1F
100
AcDbEntity
  8
LC-004-006-MLN-0
 62
     7
370
    25
100
AcDbLine
 10
984.348104
 20
2608.11029
 30
0.0
 11
984.348104
 21
2594.092882
 31
0.0
  0
ARC
  5
14C
102
{ACAD_REACTORS
330
67C
102
}
330
1F
100
AcDbEntity
  8
LC-005-002-RND-0
 62
     7
370
    50
100
AcDbCircle
 10
1012.685397
 20
2602.98
 30
0.0
 40
4.999999999999929
100
AcDbArc
 50
6.0
 51
90.0
  0
ARC
  5
14D
102
{ACAD_REACTORS
330
67C
102
}
330
1F
100
AcDbEntity
  8
LC-002-002-----0
 62
     7
370
    50
100
AcDbCircle
 10
1005.586807
 20
2593.984401
 30
0.0
 40
5.000000000000155
100
AcDbArc
 50
6.0
 51
28.302697
  0
ARC
  5
14E
102
{ACAD_REACTORS
330
67C
102
}
330
1F
100
AcDbEntity
  8
LC-002-002-----0
 62
     7
370
    50
100
AcDbCircle
 10
1007.347624
 20
2594.932611
 30
0.0
 40
3.000104964763241
100
AcDbArc
 50
28.302697
 51
123.691467
  0
ARC
  5
14F
102
{ACAD_REACTORS
330
67C
102
}
330
1F
100
AcDbEntity
  8
LC-002-002-----0
 62
     7
370
    50
100
AcDbCircle
 10
963.109375
 20
2593.984353
 30
0.0
 40
5.000000000000214
100
AcDbArc
 50
151.69572
 51
174.0
  0
ARC
  5
150
102
{ACAD_REACTORS
330
67C
102
}
330
1F
100
AcDbEntity
  8
LC-005-002-RND-0
 62
     7
370
    50
100
AcDbCircle
 10
917.810377
 20
2411.086333
 30
0.0
 40
6.000000000000196
100
AcDbArc
 50
103.067393
 51
155.0
  0
LINE
  5
151
102
{ACAD_REACTORS
330
67C
102
}
330
1F
100
AcDbEntity
  8
LC-002-002-----0
 62
     7
370
    50
100
AcDbLine
 10
643.688679
 20
2599.2283
 30
0.0
 11
372.118271
 21
2606.165327
 31
0.0
  0
LINE
  5
152
102
{ACAD_REACTORS
330
67C
102
}
330
1F
100
AcDbEntity
  8
LC-002-002-----0
 62
     7
370
    50
100
AcDbLine
 10
1004.573963
 20
2597.092882
 30
0.0
 11
964.122244
 21
2597.092882
 31
0.0
  0
LINE
  5
153
102
{ACAD_REACTORS
330
67C
102
}
330
1F
100
AcDbEntity
  8
LC-002-002-----0
 62
     7
370
    50
100
AcDbLine
 10
910.073953
 20
2411.425131
 30
0.0
 11
786.622234
 21
2411.425131
 31
0.0
  0
LINE
  5
154
102
{ACAD_REACTORS
330
67C
102
}
330
1F
100
AcDbEntity
  8
LC-002-002-----0
 62
     7
370
    50
100
AcDbLine
 10
1182.073953
 20
2411.425131
 30
0.0
 11
1058.622234
 21
2411.425131
 31
0.0
  0
LINE
  5
155
102
{ACAD_REACTORS
330
67C
102
}
330
1F
100
AcDbEntity
  8
LC-002-002-----0
 62
     7
370
    50
100
AcDbLine
 10
1418.348093
 20
2616.48
 30
0.0
 11
1406.948242
 21
2616.48
 31
0.0
  0
LINE
  5
156
102
{ACAD_REACTORS
330
67C
102
}
330
1F
100
AcDbEntity
  8
LC-002-002-----0
 62
     7
370
    50
100
AcDbLine
 10
295.640792
 20
2616.48
 30
0.0
 11
282.348093
 21
2616.48
 31
0.0
  0
LINE
  5
157
102
{ACAD_REACTORS
330
67C
102
}
330
1F
100
AcDbEntity
  8
LC-002-002-----0
 62
     7
370
    50
100
AcDbLine
 10
1401.975632
 20
2612.002642
 30
0.0
 11
1385.587016
 21
2456.075373
 31
0.0
  0
LINE
  5
158
102
{ACAD_REACTORS
330
67C
102
}
330
1F
100
AcDbEntity
  8
LC-002-002-----0
 62
     7
370
    50
100
AcDbLine
 10
1010.559416
 20
2594.507044
 30
0.0
 11
1026.115945
 21
2446.496556
 31
0.0
  0
LINE
  5
159
102
{ACAD_REACTORS
330
67C
102
}
330
1F
100
AcDbEntity
  8
LC-002-002-----0
 62
     7
370
    50
100
AcDbLine
 10
958.136766
 20
2594.506995
 30
0.0
 11
942.580242
 21
2446.496557
 31
0.0
  0
LINE
  5
15A
102
{ACAD_REACTORS
330
67C
102
}
330
1F
100
AcDbEntity
  8
LC-002-002-----0
 62
     7
370
    50
100
AcDbLine
 10
648.53361
 20
2594.752573
 30
0.0
 11
663.552274
 21
2451.859529
 31
0.0
  0
LINE
  5
15B
102
{ACAD_REACTORS
330
67C
102
}
330
1F
100
AcDbEntity
  8
LC-002-002-----0
 62
     7
370
    50
100
AcDbLine
 10
369.545815
 20
2606.459935
 30
0.0
 11
310.426
 21
2607.491875
 31
0.0
  0
ARC
  5
15C
102
{ACAD_REACTORS
330
67C
102
}
330
1F
100
AcDbEntity
  8
LC-002-002-----0
 62
     7
370
    50
100
AcDbCircle
 10
1059.92969
 20
2450.050524
 30
0.0
 40
34.00000000000007
100
AcDbArc
 50
186.0
 51
256.932659
  0
ARC
  5
15D
102
{ACAD_REACTORS
330
67C
102
}
330
1F
100
AcDbEntity
  8
LC-002-002-----0
 62
     7
370
    50
100
AcDbCircle
 10
697.366018
 20
2455.413497
 30
0.0
 40
34.00000000435669
100
AcDbArc
 50
186.0
 51
267.0
  0
ARC
  5
15E
102
{ACAD_REACTORS
330
67C
102
}
330
1F
100
AcDbEntity
  8
LC-002-002-----0
 62
     7
370
    50
100
AcDbCircle
 10
908.766497
 20
2450.050524
 30
0.0
 40
34.00000000007822
100
AcDbArc
 50
283.067393
 51
354.0
  0
ARC
  5
15F
102
{ACAD_REACTORS
330
67C
102
}
330
1F
100
AcDbEntity
  8
LC-002-002-----0
 62
     7
370
    50
100
AcDbCircle
 10
1058.622234
 20
2413.425131
 30
0.0
 40
2.000000000000123
100
AcDbArc
 50
205.0
 51
270.0
  0
LINE
  5
160
102
{ACAD_REACTORS
330
67C
102
}
330
1F
100
AcDbEntity
  8
LC-002-002-----0
 62
     7
370
    50
100
AcDbLine
 10
1058.397943
 20
2425.713222
 30
0.0
 11
1061.806379
 21
2425.534594
 31
0.0
  0
ARC
  5
161
102
{ACAD_REACTORS
330
67C
102
}
330
1F
100
AcDbEntity
  8
LC-002-002-----0
 62
     7
370
    50
100
AcDbCircle
 10
1061.743576
 20
2424.336239
 30
0.0
 40
1.200000000000154
100
AcDbArc
 50
5.0
 51
87.0
  0
LINE
  5
162
102
{ACAD_REACTORS
330
67C
102
}
330
1F
100
AcDbEntity
  8
LC-002-002-----0
 62
     7
370
    50
100
AcDbLine
 10
1062.939009
 20
2424.440825
 30
0.0
 11
1062.956194
 21
2424.244407
 31
0.0
  0
LINE
  5
163
102
{ACAD_REACTORS
330
67C
102
}
330
1F
100
AcDbEntity
  8
LC-002-002-----0
 62
     7
370
    50
100
AcDbLine
 10
1063.77874
 20
2423.346755
 30
0.0
 11
1075.348093
 21
2421.306766
 31
0.0
  0
LINE
  5
164
102
{ACAD_REACTORS
330
67C
102
}
330
1F
100
AcDbEntity
  8
LC-002-002-----0
 62
     7
370
    50
100
AcDbLine
 10
1353.239838
 20
2434.671892
 30
0.0
 11
1178.889808
 21
2425.534594
 31
0.0
  0
ARC
  5
165
102
{ACAD_REACTORS
330
67C
102
}
330
1F
100
AcDbEntity
  8
LC-002-002-----0
 62
     7
370
    50
100
AcDbCircle
 10
1399.850114
 20
2620.48
 30
0.0
 40
5.0
100
AcDbArc
 50
90.0
 51
174.0
  0
ARC
  5
166
102
{ACAD_REACTORS
330
67C
102
}
330
1F
100
AcDbEntity
  8
LC-002-002-----0
 62
     7
370
    50
100
AcDbCircle
 10
1426.058619
 20
2621.48
 30
0.0
 40
3.999999999999987
100
AcDbArc
 50
4.0
 51
90.0
  0
ARC
  5
167
102
{ACAD_REACTORS
330
67C
102
}
330
1F
100
AcDbEntity
  8
LC-002-002-----0
 62
     7
370
    50
100
AcDbCircle
 10
1406.948242
 20
2611.48
 30
0.0
 40
5.0
100
AcDbArc
 50
90.0
 51
174.0
  0
LINE
  5
168
102
{ACAD_REACTORS
330
67C
102
}
330
1F
100
AcDbEntity
  8
LC-002-002-----0
 62
     7
370
    50
100
AcDbLine
 10
1353.552694
 20
2425.675937
 30
0.0
 11
1189.49636
 21
2417.078109
 31
0.0
  0
LINE
  5
169
102
{ACAD_REACTORS
330
67C
102
}
330
1F
100
AcDbEntity
  8
LC-002-002-----0
 62
     7
370
    50
100
AcDbLine
 10
1183.886568
 20
2412.579895
 30
0.0
 11
1184.372529
 21
2413.622041
 31
0.0
  0
ARC
  5
16A
102
{ACAD_REACTORS
330
67C
102
}
330
1F
100
AcDbEntity
  8
LC-002-002-----0
 62
     7
370
    50
100
AcDbCircle
 10
1182.073953
 20
2413.425131
 30
0.0
 40
2.0
100
AcDbArc
 50
270.0
 51
335.0
  0
LINE
  5
16B
102
{ACAD_REACTORS
330
67C
102
}
330
1F
100
AcDbEntity
  8
LC-002-002-----0
 62
     7
370
    50
100
AcDbLine
 10
1056.809618
 20
2412.579895
 30
0.0
 11
1056.323657
 21
2413.622041
 31
0.0
  0
ARC
  5
16C
102
{ACAD_REACTORS
330
67C
102
}
330
1F
100
AcDbEntity
  8
LC-002-002-----0
 62
     7
370
    50
100
AcDbCircle
 10
1050.885811
 20
2411.086331
 30
0.0
 40
5.999999999999985
100
AcDbArc
 50
25.0
 51
76.931904
  0
ARC
  5
16D
102
{ACAD_REACTORS
330
67C
102
}
330
1F
100
AcDbEntity
  8
LC-002-002-----0
 62
     7
370
    50
100
AcDbCircle
 10
1004.573963
 20
2599.092882
 30
0.0
 40
2.0
100
AcDbArc
 50
270.0
 51
303.691467
  0
LINE
  5
16E
102
{ACAD_REACTORS
330
67C
102
}
330
1F
100
AcDbEntity
  8
LC-002-002-----0
 62
     7
370
    50
100
AcDbLine
 10
911.886568
 20
2412.579895
 30
0.0
 11
912.37253
 21
2413.622042
 31
0.0
  0
ARC
  5
16F
102
{ACAD_REACTORS
330
67C
102
}
330
1F
100
AcDbEntity
  8
LC-002-002-----0
 62
     7
370
    50
100
AcDbCircle
 10
910.073953
 20
2413.425131
 30
0.0
 40
2.0
100
AcDbArc
 50
270.0
 51
335.0
  0
ARC
  5
170
102
{ACAD_REACTORS
330
67C
102
}
330
1F
100
AcDbEntity
  8
LC-002-002-----0
 62
     7
370
    50
100
AcDbCircle
 10
786.622234
 20
2413.425131
 30
0.0
 40
2.000000000001027
100
AcDbArc
 50
205.0
 51
270.0
  0
LINE
  5
171
102
{ACAD_REACTORS
330
67C
102
}
330
1F
100
AcDbEntity
  8
LC-002-002-----0
 62
     7
370
    50
100
AcDbLine
 10
784.809618
 20
2412.579895
 30
0.0
 11
784.323657
 21
2413.622041
 31
0.0
  0
ARC
  5
172
102
{ACAD_REACTORS
330
67C
102
}
330
1F
100
AcDbEntity
  8
LC-002-002-----0
 62
     7
370
    50
100
AcDbCircle
 10
778.885811
 20
2411.086331
 30
0.0
 40
5.999999999999634
100
AcDbArc
 50
25.0
 51
87.0
  0
LINE
  5
173
102
{ACAD_REACTORS
330
67C
102
}
330
1F
100
AcDbEntity
  8
LC-002-002-----0
 62
     7
370
    50
100
AcDbLine
 10
779.199826
 20
2417.078109
 30
0.0
 11
695.586596
 21
2421.460092
 31
0.0
  0
ARC
  5
174
102
{ACAD_REACTORS
330
67C
102
}
330
1F
100
AcDbEntity
  8
LC-002-002-----0
 62
     7
370
    50
100
AcDbCircle
 10
643.561
 20
2594.22993
 30
0.0
 40
5.000000000000286
100
AcDbArc
 50
6.0
 51
88.536748
  0
ARC
  5
175
102
{ACAD_REACTORS
330
67C
102
}
330
1F
100
AcDbEntity
  8
LC-002-002-----0
 62
     7
370
    50
100
AcDbCircle
 10
369.458553
 20
2601.460697
 30
0.0
 40
5.000000000000335
100
AcDbArc
 50
78.228762
 51
89.0
  0
ARC
  5
176
102
{ACAD_REACTORS
330
67C
102
}
330
1F
100
AcDbEntity
  8
LC-002-002-----0
 62
     7
370
    50
100
AcDbCircle
 10
310.635429
 20
2619.490048
 30
0.0
 40
12.00000000000012
100
AcDbArc
 50
208.110874
 51
269.0
  0
ARC
  5
177
102
{ACAD_REACTORS
330
67C
102
}
330
1F
100
AcDbEntity
  8
LC-002-002-----0
 62
     7
370
    50
100
AcDbCircle
 10
295.640792
 20
2611.48
 30
0.0
 40
4.999999999999965
100
AcDbArc
 50
28.110874
 51
90.0
  0
ARC
  5
178
102
{ACAD_REACTORS
330
67C
102
}
330
1F
100
AcDbEntity
  8
LC-002-002-----0
 62
     7
370
    50
100
AcDbCircle
 10
274.637568
 20
2621.48
 30
0.0
 40
4.0
100
AcDbArc
 50
90.0
 51
176.0
  0
ARC
  5
179
102
{ACAD_REACTORS
330
67C
102
}
330
1F
100
AcDbEntity
  8
LC-002-002-----0
 62
     7
370
    50
100
AcDbCircle
 10
301.511458
 20
2620.48
 30
0.0
 40
5.000000000000005
100
AcDbArc
 50
15.0
 51
90.0
  0
ARC
  5
17A
102
{ACAD_REACTORS
330
67C
102
}
330
1F
100
AcDbEntity
  8
LC-002-002-----0
 62
     7
370
    50
100
AcDbCircle
 10
312.368891
 20
2622.460247
 30
0.0
 40
5.999999999962895
100
AcDbArc
 50
195.0
 51
269.0
  0
LINE
  5
17B
102
{ACAD_REACTORS
330
67C
102
}
330
1F
100
AcDbEntity
  8
LC-002-002-----0
 62
     7
370
    50
100
AcDbLine
 10
789.806379
 20
2425.534594
 30
0.0
 11
695.899452
 21
2430.456047
 31
0.0
  0
ARC
  5
17C
102
{ACAD_REACTORS
330
67C
102
}
330
1F
100
AcDbEntity
  8
LC-002-002-----0
 62
     7
370
    50
100
AcDbCircle
 10
789.743576
 20
2424.336239
 30
0.0
 40
1.199999999999746
100
AcDbArc
 50
5.0
 51
87.0
  0
LINE
  5
17D
102
{ACAD_REACTORS
330
67C
102
}
330
1F
100
AcDbEntity
  8
LC-002-002-----0
 62
     7
370
    50
100
AcDbLine
 10
893.348093
 20
2421.306766
 30
0.0
 11
904.917446
 21
2423.346755
 31
0.0
  0
LINE
  5
17E
102
{ACAD_REACTORS
330
67C
102
}
330
1F
100
AcDbEntity
  8
LC-002-002-----0
 62
     7
370
    50
100
AcDbLine
 10
905.739993
 20
2424.244407
 30
0.0
 11
905.757177
 21
2424.440825
 31
0.0
  0
LINE
  5
17F
102
{ACAD_REACTORS
330
67C
102
}
330
1F
100
AcDbEntity
  8
LC-002-002-----0
 62
     7
370
    50
100
AcDbLine
 10
906.889808
 20
2425.534594
 30
0.0
 11
910.298244
 21
2425.713222
 31
0.0
  0
LINE
  5
180
102
{ACAD_REACTORS
330
67C
102
}
330
1F
100
AcDbEntity
  8
LC-002-002-----0
 62
     7
370
    50
100
AcDbLine
 10
650.501704
 20
2608.057203
 30
0.0
 11
341.442137
 21
2615.951858
 31
0.0
  0
LINE
  5
181
102
{ACAD_REACTORS
330
67C
102
}
330
1F
100
AcDbEntity
  8
LC-002-002-----0
 62
     7
370
    50
100
AcDbLine
 10
965.259291
 20
2607.98
 30
0.0
 11
956.010789
 21
2607.98
 31
0.0
  0
ARC
  5
182
102
{ACAD_REACTORS
330
67C
102
}
330
1F
100
AcDbEntity
  8
LC-002-002-----0
 62
     7
370
    50
100
AcDbCircle
 10
972.111409
 20
2607.092882
 30
0.0
 40
1.999999999999122
100
AcDbArc
 50
255.0
 51
262.434906
  0
ARC
  5
183
102
{ACAD_REACTORS
330
67C
102
}
330
1F
100
AcDbEntity
  8
LC-002-002-----0
 62
     7
370
    50
100
AcDbCircle
 10
996.584799
 20
2607.092882
 30
0.0
 40
1.999999999999298
100
AcDbArc
 50
277.565094
 51
285.0
  0
LINE
  5
184
102
{ACAD_REACTORS
330
67C
102
}
330
1F
100
AcDbEntity
  8
LC-002-002-----0
 62
     7
370
    50
100
AcDbLine
 10
997.102437
 20
2605.16103
 30
0.0
 11
1001.733713
 21
2606.401977
 31
0.0
  0
LINE
  5
185
102
{ACAD_REACTORS
330
67C
102
}
330
1F
100
AcDbEntity
  8
LC-002-002-----0
 62
     7
370
    50
100
AcDbLine
 10
1012.685397
 20
2607.98
 30
0.0
 11
1003.436916
 21
2607.98
 31
0.0
  0
LINE
  5
186
102
{ACAD_REACTORS
330
67C
102
}
330
1F
100
AcDbEntity
  8
LC-002-002-----0
 62
     7
370
    50
100
AcDbLine
 10
1418.348093
 20
2616.48
 30
0.0
 11
1418.348093
 21
2617.48
 31
0.0
  0
LINE
  5
187
102
{ACAD_REACTORS
330
67C
102
}
330
1F
100
AcDbEntity
  8
LC-002-002-----0
 62
     7
370
    50
100
AcDbLine
 10
282.348093
 20
2617.48
 30
0.0
 11
270.348093
 21
2617.48
 31
0.0
  0
LINE
  5
188
102
{ACAD_REACTORS
330
67C
102
}
330
1F
100
AcDbEntity
  8
LC-002-002-----0
 62
     7
370
    50
100
AcDbLine
 10
1430.348093
 20
2617.48
 30
0.0
 11
1418.348093
 21
2617.48
 31
0.0
  0
LINE
  5
189
102
{ACAD_REACTORS
330
67C
102
}
330
1F
100
AcDbEntity
  8
LC-002-002-----0
 62
     7
370
    50
100
AcDbLine
 10
282.348093
 20
2616.48
 30
0.0
 11
282.348093
 21
2617.48
 31
0.0
  0
LINE
  5
18A
102
{ACAD_REACTORS
330
67C
102
}
330
1F
100
AcDbEntity
  8
LC-002-002-----0
 62
     7
370
    50
100
AcDbLine
 10
1426.058619
 20
2625.48
 30
0.0
 11
1120.348093
 21
2625.48
 31
0.0
  0
LINE
  5
18B
102
{ACAD_REACTORS
330
67C
102
}
330
1F
100
AcDbEntity
  8
LC-002-002-----0
 62
     7
370
    50
100
AcDbLine
 10
341.442137
 20
2615.951858
 30
0.0
 11
312.264176
 21
2616.461161
 31
0.0
  0
ARC
  5
18C
102
{ACAD_REACTORS
330
67C
102
}
330
1F
100
AcDbEntity
  8
LC-002-002-----0
 62
     7
370
    50
100
AcDbCircle
 10
967.221313
 20
2607.367903
 30
0.0
 40
0.9999999937993098
100
AcDbArc
 50
191.183491
 51
255.003467
  0
ARC
  5
18D
102
{ACAD_REACTORS
330
67C
102
}
330
1F
100
AcDbEntity
  8
LC-002-002-----0
 62
     7
370
    50
100
AcDbCircle
 10
1001.474894
 20
2607.367903
 30
0.0
 40
0.9999999941998473
100
AcDbArc
 50
284.996528
 51
348.816516
  0
LINE
  5
18E
102
{ACAD_REACTORS
330
67C
102
}
330
1F
100
AcDbEntity
  8
LC-002-002-----0
 62
     7
370
    50
100
AcDbLine
 10
306.341088
 20
2621.774095
 30
0.0
 11
306.573336
 21
2620.907333
 31
0.0
  0
LINE
  5
18F
102
{ACAD_REACTORS
330
67C
102
}
330
1F
100
AcDbEntity
  8
LC-002-002-----0
 62
     7
370
    50
100
AcDbLine
 10
951.03818
 20
2603.502642
 30
0.0
 11
934.795078
 21
2448.95985
 31
0.0
  0
LINE
  5
190
102
{ACAD_REACTORS
330
67C
102
}
330
1F
100
AcDbEntity
  8
LC-002-002-----0
 62
     7
370
    50
100
AcDbLine
 10
655.531824
 20
2604.703192
 30
0.0
 11
671.402618
 21
2453.702675
 31
0.0
  0
LINE
  5
191
102
{ACAD_REACTORS
330
67C
102
}
330
1F
100
AcDbEntity
  8
LC-002-002-----0
 62
     7
370
    50
100
AcDbLine
 10
1394.877504
 20
2621.002642
 30
0.0
 11
1377.736672
 21
2457.91852
 31
0.0
  0
LINE
  5
192
102
{ACAD_REACTORS
330
67C
102
}
330
1F
100
AcDbEntity
  8
LC-002-002-----0
 62
     7
370
    50
100
AcDbLine
 10
1017.658007
 20
2603.502642
 30
0.0
 11
1033.901109
 21
2448.95985
 31
0.0
  0
LINE
  5
193
102
{ACAD_REACTORS
330
67C
102
}
330
1F
100
AcDbEntity
  8
LC-002-002-----0
 62
     7
370
    50
100
AcDbLine
 10
1430.348093
 20
2617.48
 30
0.0
 11
1430.048875
 21
2621.759026
 31
0.0
  0
LINE
  5
194
102
{ACAD_REACTORS
330
67C
102
}
330
1F
100
AcDbEntity
  8
LC-002-002-----0
 62
     7
370
    50
100
AcDbLine
 10
270.348093
 20
2617.48
 30
0.0
 11
270.647312
 21
2621.759026
 31
0.0
  0
ARC
  5
195
102
{ACAD_REACTORS
330
67C
102
}
330
1F
100
AcDbEntity
  8
LC-002-002-----0
 62
     7
370
    50
100
AcDbCircle
 10
1059.758678
 20
2451.67759
 30
0.0
 40
25.99999999999968
100
AcDbArc
 50
186.0
 51
266.998089
  0
ARC
  5
196
102
{ACAD_REACTORS
330
67C
102
}
330
1F
100
AcDbEntity
  8
LC-002-002-----0
 62
     7
370
    50
100
AcDbCircle
 10
1351.879103
 20
2460.63626
 30
0.0
 40
25.99999999991934
100
AcDbArc
 50
273.001466
 51
354.0
  0
ARC
  5
197
102
{ACAD_REACTORS
330
67C
102
}
330
1F
100
AcDbEntity
  8
LC-002-002-----0
 62
     7
370
    50
100
AcDbCircle
 10
908.937509
 20
2451.67759
 30
0.0
 40
25.99999999992923
100
AcDbArc
 50
273.0
 51
354.0
  0
ARC
  5
198
102
{ACAD_REACTORS
330
67C
102
}
330
1F
100
AcDbEntity
  8
LC-002-002-----0
 62
     7
370
    50
100
AcDbCircle
 10
697.260187
 20
2456.420415
 30
0.0
 40
26.00000000494746
100
AcDbArc
 50
186.0
 51
267.0
  0
ARC
  5
199
102
{ACAD_REACTORS
330
67C
102
}
330
1F
100
AcDbEntity
  8
LC-002-002-----0
 62
     7
370
    50
100
AcDbCircle
 10
904.743798
 20
2424.331563
 30
0.0
 40
1.000000000000045
100
AcDbArc
 50
280.0
 51
355.0
  0
ARC
  5
19A
102
{ACAD_REACTORS
330
67C
102
}
330
1F
100
AcDbEntity
  8
LC-002-002-----0
 62
     7
370
    50
100
AcDbCircle
 10
906.952611
 20
2424.336239
 30
0.0
 40
1.199999999999871
100
AcDbArc
 50
93.0
 51
175.0
  0
ARC
  5
19B
102
{ACAD_REACTORS
330
67C
102
}
330
1F
100
AcDbEntity
  8
LC-002-002-----0
 62
     7
370
    50
100
AcDbCircle
 10
1063.952388
 20
2424.331563
 30
0.0
 40
1.000000000000657
100
AcDbArc
 50
185.0
 51
260.0
  0
LINE
  5
19C
102
{ACAD_REACTORS
330
67C
102
}
330
1F
100
AcDbEntity
  8
LC-002-002-----0
 62
     7
370
    50
100
AcDbLine
 10
971.593771
 20
2605.16103
 30
0.0
 11
966.962493
 21
2606.401977
 31
0.0
  0
LINE
  5
19D
102
{ACAD_REACTORS
330
67C
102
}
330
1F
100
AcDbEntity
  8
LC-002-002-----0
 62
     7
370
    50
100
AcDbLine
 10
1176.917446
 20
2423.346755
 30
0.0
 11
1165.348093
 21
2421.306766
 31
0.0
  0
ARC
  5
19E
102
{ACAD_REACTORS
330
67C
102
}
330
1F
100
AcDbEntity
  8
LC-002-002-----0
 62
     7
370
    50
100
AcDbCircle
 10
1176.743798
 20
2424.331563
 30
0.0
 40
1.000000000000124
100
AcDbArc
 50
280.0
 51
355.0
  0
LINE
  5
19F
102
{ACAD_REACTORS
330
67C
102
}
330
1F
100
AcDbEntity
  8
LC-002-002-----0
 62
     7
370
    50
100
AcDbLine
 10
1177.757177
 20
2424.440825
 30
0.0
 11
1177.739993
 21
2424.244407
 31
0.0
  0
ARC
  5
1A0
102
{ACAD_REACTORS
330
67C
102
}
330
1F
100
AcDbEntity
  8
LC-002-002-----0
 62
     7
370
    50
100
AcDbCircle
 10
1178.952611
 20
2424.336239
 30
0.0
 40
1.200000000000289
100
AcDbArc
 50
93.0
 51
175.0
  0
LINE
  5
1A1
102
{ACAD_REACTORS
330
67C
102
}
330
1F
100
AcDbEntity
  8
LC-002-002-----0
 62
     7
370
    50
100
AcDbLine
 10
790.956194
 20
2424.244407
 30
0.0
 11
790.939009
 21
2424.440825
 31
0.0
  0
ARC
  5
1A2
102
{ACAD_REACTORS
330
67C
102
}
330
1F
100
AcDbEntity
  8
LC-002-002-----0
 62
     7
370
    50
100
AcDbCircle
 10
791.952388
 20
2424.331563
 30
0.0
 40
1.000000000000657
100
AcDbArc
 50
185.0
 51
260.0
  0
LINE
  5
1A3
102
{ACAD_REACTORS
330
67C
102
}
330
1F
100
AcDbEntity
  8
LC-002-002-----0
 62
     7
370
    50
100
AcDbLine
 10
803.348093
 20
2421.306766
 30
0.0
 11
791.77874
 21
2423.346755
 31
0.0
  0
ARC
  5
1A4
102
{ACAD_REACTORS
330
67C
102
}
330
1F
100
AcDbEntity
  8
LC-002-002-----0
 62
     7
370
    50
100
AcDbCircle
 10
961.348584
 20
2594.932611
 30
0.0
 40
3.00010496476275
100
AcDbArc
 50
56.308533
 51
151.69572
  0
ARC
  5
1A5
102
{ACAD_REACTORS
330
67C
102
}
330
1F
100
AcDbEntity
  8
LC-002-002-----0
 62
     7
370
    50
100
AcDbCircle
 10
964.122244
 20
2599.092882
 30
0.0
 40
1.999999999999906
100
AcDbArc
 50
236.308533
 51
270.0
  0
LINE
  5
1A6
102
{ACAD_REACTORS
330
67C
102
}
330
1F
100
AcDbEntity
  8
LC-002-002-----0
 62
     7
370
    50
100
AcDbLine
 10
655.531824
 20
2604.703192
 30
0.0
 11
655.4726
 21
2605.033254
 31
0.0
  0
LINE
  5
1A7
102
{ACAD_REACTORS
330
67C
102
}
330
1F
100
AcDbEntity
  8
LC-002-002-----0
 62
     7
370
    50
100
AcDbLine
 10
655.4726
 20
2605.033254
 30
0.0
 11
655.363967
 21
2605.35955
 31
0.0
  0
LINE
  5
1A8
102
{ACAD_REACTORS
330
67C
102
}
330
1F
100
AcDbEntity
  8
LC-002-002-----0
 62
     7
370
    50
100
AcDbLine
 10
655.363967
 20
2605.35955
 30
0.0
 11
655.20433
 21
2605.681976
 31
0.0
  0
LINE
  5
1A9
102
{ACAD_REACTORS
330
67C
102
}
330
1F
100
AcDbEntity
  8
LC-002-002-----0
 62
     7
370
    50
100
AcDbLine
 10
655.20433
 20
2605.681976
 30
0.0
 11
654.992325
 21
2605.998942
 31
0.0
  0
LINE
  5
1AA
102
{ACAD_REACTORS
330
67C
102
}
330
1F
100
AcDbEntity
  8
LC-002-002-----0
 62
     7
370
    50
100
AcDbLine
 10
654.992325
 20
2605.998942
 30
0.0
 11
654.724215
 21
2606.311154
 31
0.0
  0
LINE
  5
1AB
102
{ACAD_REACTORS
330
67C
102
}
330
1F
100
AcDbEntity
  8
LC-002-002-----0
 62
     7
370
    50
100
AcDbLine
 10
654.724215
 20
2606.311154
 30
0.0
 11
654.388753
 21
2606.623378
 31
0.0
  0
LINE
  5
1AC
102
{ACAD_REACTORS
330
67C
102
}
330
1F
100
AcDbEntity
  8
LC-002-002-----0
 62
     7
370
    50
100
AcDbLine
 10
654.388753
 20
2606.623378
 30
0.0
 11
653.978173
 21
2606.931913
 31
0.0
  0
LINE
  5
1AD
102
{ACAD_REACTORS
330
67C
102
}
330
1F
100
AcDbEntity
  8
LC-002-002-----0
 62
     7
370
    50
100
AcDbLine
 10
653.978173
 20
2606.931913
 30
0.0
 11
653.487301
 21
2607.229425
 31
0.0
  0
LINE
  5
1AE
102
{ACAD_REACTORS
330
67C
102
}
330
1F
100
AcDbEntity
  8
LC-002-002-----0
 62
     7
370
    50
100
AcDbLine
 10
653.487301
 20
2607.229425
 30
0.0
 11
652.918894
 21
2607.503587
 31
0.0
  0
LINE
  5
1AF
102
{ACAD_REACTORS
330
67C
102
}
330
1F
100
AcDbEntity
  8
LC-002-002-----0
 62
     7
370
    50
100
AcDbLine
 10
652.918894
 20
2607.503587
 30
0.0
 11
652.301485
 21
2607.733897
 31
0.0
  0
LINE
  5
1B0
102
{ACAD_REACTORS
330
67C
102
}
330
1F
100
AcDbEntity
  8
LC-002-002-----0
 62
     7
370
    50
100
AcDbLine
 10
652.301485
 20
2607.733897
 30
0.0
 11
651.669708
 21
2607.906251
 31
0.0
  0
LINE
  5
1B1
102
{ACAD_REACTORS
330
67C
102
}
330
1F
100
AcDbEntity
  8
LC-002-002-----0
 62
     7
370
    50
100
AcDbLine
 10
651.669708
 20
2607.906251
 30
0.0
 11
651.055992
 21
2608.014215
 31
0.0
  0
LINE
  5
1B2
102
{ACAD_REACTORS
330
67C
102
}
330
1F
100
AcDbEntity
  8
LC-002-002-----0
 62
     7
370
    50
100
AcDbLine
 10
651.055992
 20
2608.014215
 30
0.0
 11
650.501704
 21
2608.057203
 31
0.0
  0
LINE
  5
1B3
102
{ACAD_REACTORS
330
67B
102
}
330
1F
100
AcDbEntity
  8
LC-002-002-----0
 62
     7
370
    50
100
AcDbLine
 10
325.348093
 20
1873.39
 30
0.0
 11
998.348093
 21
1873.39
 31
0.0
  0
ARC
  5
1B4
102
{ACAD_REACTORS
330
67D
102
}
330
1F
100
AcDbEntity
  8
LC-002-002-----0
 62
     7
370
    25
100
AcDbCircle
 10
1715.82099
 20
1563.401792
 30
0.0
 40
26.00000000000001
100
AcDbArc
 50
183.0
 51
264.0
  0
CIRCLE
  5
1B5
102
{ACAD_REACTORS
330
67B
102
}
330
1F
100
AcDbEntity
  8
LC-002-002-----0
 62
     7
370
    50
100
AcDbCircle
 10
1120.348093
 20
1696.39
 30
0.0
 40
45.0
  0
CIRCLE
  5
1B6
102
{ACAD_REACTORS
330
67B
102
}
330
1F
100
AcDbEntity
  8
LC-002-002-----0
 62
     7
370
    50
100
AcDbCircle
 10
1120.348093
 20
1696.39
 30
0.0
 40
57.49999999984402
  0
LINE
  5
1B7
102
{ACAD_REACTORS
330
67B
102
}
330
1F
100
AcDbEntity
  8
LC-002-002-----0
 62
     7
370
    25
100
AcDbLine
 10
332.348093
 20
1749.89
 30
0.0
 11
653.348093
 21
1749.89
 31
0.0
  0
LINE
  5
1B8
102
{ACAD_REACTORS
330
67B
102
}
330
1F
100
AcDbEntity
  8
LC-002-002-----0
 62
     7
370
    25
100
AcDbLine
 10
653.348093
 20
1759.89
 30
0.0
 11
332.348093
 21
1759.89
 31
0.0
  0
LINE
  5
1B9
102
{ACAD_REACTORS
330
67B
102
}
330
1F
100
AcDbEntity
  8
LC-002-002-----0
 62
     7
370
    25
100
AcDbLine
 10
332.348093
 20
1691.39
 30
0.0
 11
653.348093
 21
1691.39
 31
0.0
  0
LINE
  5
1BA
102
{ACAD_REACTORS
330
67B
102
}
330
1F
100
AcDbEntity
  8
LC-002-002-----0
 62
     7
370
    25
100
AcDbLine
 10
653.348093
 20
1701.39
 30
0.0
 11
332.348093
 21
1701.39
 31
0.0
  0
LINE
  5
1BB
102
{ACAD_REACTORS
330
67B
102
}
330
1F
100
AcDbEntity
  8
LC-002-002-----0
 62
     7
370
    25
100
AcDbLine
 10
653.348093
 20
1574.39
 30
0.0
 11
332.348093
 21
1574.39
 31
0.0
  0
LINE
  5
1BC
102
{ACAD_REACTORS
330
67B
102
}
330
1F
100
AcDbEntity
  8
LC-002-002-----0
 62
     7
370
    25
100
AcDbLine
 10
332.348093
 20
1584.39
 30
0.0
 11
653.348093
 21
1584.39
 31
0.0
  0
LINE
  5
1BD
102
{ACAD_REACTORS
330
67B
102
}
330
1F
100
AcDbEntity
  8
LC-002-002-----0
 62
     7
370
    25
100
AcDbLine
 10
332.348093
 20
1642.89
 30
0.0
 11
653.348093
 21
1642.89
 31
0.0
  0
LINE
  5
1BE
102
{ACAD_REACTORS
330
67B
102
}
330
1F
100
AcDbEntity
  8
LC-002-002-----0
 62
     7
370
    25
100
AcDbLine
 10
653.348093
 20
1632.89
 30
0.0
 11
332.348093
 21
1632.89
 31
0.0
  0
ARC
  5
1BF
102
{ACAD_REACTORS
330
67B
102
}
330
1F
100
AcDbEntity
  8
LC-005-002-RND-0
 62
     7
370
    50
100
AcDbCircle
 10
1378.348093
 20
1498.39
 30
0.0
 40
17.0
100
AcDbArc
 50
270.0
 51
0.0
  0
LINE
  5
1C0
102
{ACAD_REACTORS
330
67B
102
}
330
1F
100
AcDbEntity
  8
LC-002-002-----0
 62
     7
370
    50
100
AcDbLine
 10
1032.348093
 20
1481.39
 30
0.0
 11
1378.348093
 21
1481.39
 31
0.0
  0
ARC
  5
1C1
102
{ACAD_REACTORS
330
67B
102
}
330
1F
100
AcDbEntity
  8
LC-005-002-RND-0
 62
     7
370
    50
100
AcDbCircle
 10
1032.348093
 20
1498.39
 30
0.0
 40
17.0
100
AcDbArc
 50
180.0
 51
270.0
  0
ARC
  5
1C2
102
{ACAD_REACTORS
330
67B
102
}
330
1F
100
AcDbEntity
  8
LC-005-002-RND-0
 62
     7
370
    50
100
AcDbCircle
 10
998.348093
 20
1502.39
 30
0.0
 40
17.0
100
AcDbArc
 50
0.0
 51
90.0
  0
ARC
  5
1C3
102
{ACAD_REACTORS
330
67B
102
}
330
1F
100
AcDbEntity
  8
LC-005-002-RND-0
 62
     7
370
    50
100
AcDbCircle
 10
670.348093
 20
1536.39
 30
0.0
 40
17.0
100
AcDbArc
 50
180.0
 51
270.0
  0
ARC
  5
1C4
102
{ACAD_REACTORS
330
67B
102
}
330
1F
100
AcDbEntity
  8
LC-005-002-RND-0
 62
     7
370
    50
100
AcDbCircle
 10
325.348093
 20
1539.39
 30
0.0
 40
20.0
100
AcDbArc
 50
180.0
 51
270.0
  0
ARC
  5
1C5
102
{ACAD_REACTORS
330
67B
102
}
330
1F
100
AcDbEntity
  8
LC-005-002-RND-0
 62
     7
370
    50
100
AcDbCircle
 10
936.348093
 20
1536.39
 30
0.0
 40
17.0
100
AcDbArc
 50
270.0
 51
360.0
  0
LINE
  5
1C6
102
{ACAD_REACTORS
330
67B
102
}
330
1F
100
AcDbEntity
  8
LC-002-002-----0
 62
     7
370
    50
100
AcDbLine
 10
325.348093
 20
1519.39
 30
0.0
 11
998.348093
 21
1519.39
 31
0.0
  0
LINE
  5
1C7
102
{ACAD_REACTORS
330
67D
102
}
330
1F
100
AcDbEntity
  8
LC-002-002-----0
 62
     7
370
    50
100
AcDbLine
 10
1876.82914
 20
1469.789852
 30
0.0
 11
1876.82914
 21
1458.39
 31
0.0
  0
LINE
  5
1C8
102
{ACAD_REACTORS
330
67D
102
}
330
1F
100
AcDbEntity
  8
LC-002-002-----0
 62
     7
370
    50
100
AcDbLine
 10
1872.351782
 20
1474.762461
 30
0.0
 11
1713.26263
 21
1491.483405
 31
0.0
  0
ARC
  5
1C9
102
{ACAD_REACTORS
330
67D
102
}
330
1F
100
AcDbEntity
  8
LC-002-002-----0
 62
     7
370
    50
100
AcDbCircle
 10
1716.816598
 20
1525.297149
 30
0.0
 40
34.00000000000048
100
AcDbArc
 50
183.0
 51
264.0
  0
ARC
  5
1CA
102
{ACAD_REACTORS
330
67D
102
}
330
1F
100
AcDbEntity
  8
LC-002-002-----0
 62
     7
370
    50
100
AcDbCircle
 10
1673.774271
 20
1634.664141
 30
0.0
 40
2.0
100
AcDbArc
 50
180.0
 51
245.0
  0
ARC
  5
1CB
102
{ACAD_REACTORS
330
67D
102
}
330
1F
100
AcDbEntity
  8
LC-002-002-----0
 62
     7
370
    50
100
AcDbCircle
 10
1880.82914
 20
1476.88798
 30
0.0
 40
5.0
100
AcDbArc
 50
0.0
 51
84.0
  0
ARC
  5
1CC
102
{ACAD_REACTORS
330
67D
102
}
330
1F
100
AcDbEntity
  8
LC-002-002-----0
 62
     7
370
    50
100
AcDbCircle
 10
1881.82914
 20
1450.679475
 30
0.0
 40
3.999999999999987
100
AcDbArc
 50
274.0
 51
0.0
  0
ARC
  5
1CD
102
{ACAD_REACTORS
330
67D
102
}
330
1F
100
AcDbEntity
  8
LC-002-002-----0
 62
     7
370
    50
100
AcDbCircle
 10
1871.82914
 20
1469.789852
 30
0.0
 40
5.0
100
AcDbArc
 50
0.0
 51
84.0
  0
LINE
  5
1CE
102
{ACAD_REACTORS
330
67D
102
}
330
1F
100
AcDbEntity
  8
LC-002-002-----0
 62
     7
370
    50
100
AcDbLine
 10
1682.863193
 20
1523.517727
 30
0.0
 11
1677.427249
 21
1627.241733
 31
0.0
  0
ARC
  5
1CF
102
{ACAD_REACTORS
330
67D
102
}
330
1F
100
AcDbEntity
  8
LC-002-002-----0
 62
     7
370
    50
100
AcDbCircle
 10
1671.435471
 20
1626.927717
 30
0.0
 40
5.999999999999834
100
AcDbArc
 50
3.0
 51
65.0
  0
LINE
  5
1D0
102
{ACAD_REACTORS
330
67D
102
}
330
1F
100
AcDbEntity
  8
LC-002-002-----0
 62
     7
370
    50
100
AcDbLine
 10
1672.929034
 20
1632.851525
 30
0.0
 11
1673.971181
 21
1632.365564
 31
0.0
  0
LINE
  5
1D1
102
{ACAD_REACTORS
330
67D
102
}
330
1F
100
AcDbEntity
  8
LC-002-002-----0
 62
     7
370
    50
100
AcDbLine
 10
1684.789965
 20
1638.980916
 30
0.0
 11
1684.593547
 21
1638.9981
 31
0.0
  0
LINE
  5
1D2
102
{ACAD_REACTORS
330
67D
102
}
330
1F
100
AcDbEntity
  8
LC-002-002-----0
 62
     7
370
    50
100
AcDbLine
 10
1691.859148
 20
1523.830583
 30
0.0
 11
1685.883734
 21
1637.848286
 31
0.0
  0
LINE
  5
1D3
102
{ACAD_REACTORS
330
67D
102
}
330
1F
100
AcDbEntity
  8
LC-002-002-----0
 62
     7
370
    50
100
AcDbLine
 10
1877.82914
 20
1458.39
 30
0.0
 11
1876.82914
 21
1458.39
 31
0.0
  0
LINE
  5
1D4
102
{ACAD_REACTORS
330
67D
102
}
330
1F
100
AcDbEntity
  8
LC-002-002-----0
 62
     7
370
    50
100
AcDbLine
 10
1877.82914
 20
1446.39
 30
0.0
 11
1877.82914
 21
1458.39
 31
0.0
  0
LINE
  5
1D5
102
{ACAD_REACTORS
330
67D
102
}
330
1F
100
AcDbEntity
  8
LC-002-002-----0
 62
     7
370
    50
100
AcDbLine
 10
1885.82914
 20
1942.100525
 30
0.0
 11
1885.82914
 21
1450.679475
 31
0.0
  0
LINE
  5
1D6
102
{ACAD_REACTORS
330
67D
102
}
330
1F
100
AcDbEntity
  8
LC-002-002-----0
 62
     7
370
    50
100
AcDbLine
 10
1885.82914
 20
1481.39
 30
0.0
 11
1715.105777
 21
1499.333749
 31
0.0
  0
LINE
  5
1D7
102
{ACAD_REACTORS
330
67D
102
}
330
1F
100
AcDbEntity
  8
LC-002-002-----0
 62
     7
370
    50
100
AcDbLine
 10
1877.82914
 20
1446.39
 30
0.0
 11
1882.108166
 21
1446.689219
 31
0.0
  0
ARC
  5
1D8
102
{ACAD_REACTORS
330
67D
102
}
330
1F
100
AcDbEntity
  8
LC-002-002-----0
 62
     7
370
    50
100
AcDbCircle
 10
1717.823517
 20
1525.191318
 30
0.0
 40
26.00000000000084
100
AcDbArc
 50
183.0
 51
264.0
  0
LINE
  5
1D9
102
{ACAD_REACTORS
330
67D
102
}
330
1F
100
AcDbEntity
  8
LC-002-002-----0
 62
     7
370
    50
100
AcDbLine
 10
1683.695895
 20
1639.820647
 30
0.0
 11
1681.655906
 21
1651.39
 31
0.0
  0
ARC
  5
1DA
102
{ACAD_REACTORS
330
67D
102
}
330
1F
100
AcDbEntity
  8
LC-002-002-----0
 62
     7
370
    50
100
AcDbCircle
 10
1684.680703
 20
1639.994295
 30
0.0
 40
1.000000000000125
100
AcDbArc
 50
190.0
 51
265.0
  0
ARC
  5
1DB
102
{ACAD_REACTORS
330
67D
102
}
330
1F
100
AcDbEntity
  8
LC-002-002-----0
 62
     7
370
    50
100
AcDbCircle
 10
1684.685378
 20
1637.785482
 30
0.0
 40
1.200000000000161
100
AcDbArc
 50
3.0
 51
85.0
  0
LINE
  5
1DC
102
{ACAD_REACTORS
330
67C
102
}
330
1F
100
AcDbEntity
  8
LC-002-002-----0
 62
     7
370
    50
100
AcDbLine
 10
803.348093
 20
2411.425131
 30
0.0
 11
803.348093
 21
2421.306766
 31
0.0
  0
LINE
  5
1DD
102
{ACAD_REACTORS
330
67C
102
}
330
1F
100
AcDbEntity
  8
LC-002-002-----0
 62
     7
370
    50
100
AcDbLine
 10
893.348093
 20
2411.425131
 30
0.0
 11
893.348093
 21
2421.306766
 31
0.0
  0
LINE
  5
1DE
102
{ACAD_REACTORS
330
67C
102
}
330
1F
100
AcDbEntity
  8
LC-002-002-----0
 62
     7
370
    25
100
AcDbLine
 10
905.848093
 20
2425.48
 30
0.0
 11
790.848093
 21
2425.48
 31
0.0
  0
LINE
  5
1DF
102
{ACAD_REACTORS
330
67C
102
}
330
1F
100
AcDbEntity
  8
LC-002-002-----0
 62
     7
370
    50
100
AcDbLine
 10
1120.348093
 20
2625.48
 30
0.0
 11
848.348093
 21
2625.48
 31
0.0
  0
LINE
  5
1E0
102
{ACAD_REACTORS
330
67D
102
}
330
1F
100
AcDbEntity
  8
LC-002-002-----0
 62
     7
370
    25
100
AcDbLine
 10
1685.82914
 20
1753.89
 30
0.0
 11
1685.82914
 21
1638.89
 31
0.0
  0
INSERT
  5
202
102
{ACAD_REACTORS
330
67D
102
}
330
1F
100
AcDbEntity
  8
LC-006-005-----0
 62
     7
370
    25
100
AcDbBlockReference
  2
*X12
 10
0.0
 20
0.0
 30
0.0
  0
INSERT
  5
21D
102
{ACAD_REACTORS
330
67D
102
}
330
1F
100
AcDbEntity
  8
LC-006-005-----0
 62
     7
370
    25
100
AcDbBlockReference
  2
*X23
 10
0.0
 20
0.0
 30
0.0
  0
DIMENSION
  5
220
102
{ACAD_REACTORS
330
67B
102
}
330
1F
100
AcDbEntity
  8
LC-007-003-----0
 62
     7
370
    25
100
AcDbDimension
  2
*D4
 10
270.348093
 20
1350.0
 30
0.0
 11
854.635834
 21
1380.0
 31
0.0
 70
   160
 71
     5
 42
1160.0
  3
LC-DIM-L-0025-02-02
100
AcDbAlignedDimension
 13
1430.348093
 23
1466.39
 33
0.0
 14
270.348093
 24
1466.39
 34
0.0
100
AcDbRotatedDimension
  0
LINE
  5
22E
102
{ACAD_REACTORS
330
685
102
}
330
1F
100
AcDbEntity
  8
LC-002-002-----0
 62
     7
370
    50
100
AcDbLine
 10
291.769952
 20
980.898003
 30
0.0
 11
291.769952
 21
750.898003
 31
0.0
  0
LINE
  5
22F
102
{ACAD_REACTORS
330
685
102
}
330
1F
100
AcDbEntity
  8
LC-002-002-----0
 62
     7
370
    50
100
AcDbLine
 10
296.769952
 20
745.898003
 30
0.0
 11
856.769952
 21
745.898003
 31
0.0
  0
DIMENSION
  5
231
102
{ACAD_REACTORS
330
67C
102
}
330
1F
100
AcDbEntity
  8
LC-007-003-----0
 62
     7
370
    25
100
AcDbDimension
  2
*D5
 10
1017.658007
 20
2688.231357
 30
0.0
 11
1207.297243
 21
2718.231357
 31
0.0
 70
   160
 71
     5
 42
377.219497
  3
LC-DIM-L-0025-00-02
100
AcDbAlignedDimension
 13
1394.877504
 23
2621.002642
 33
0.0
 14
1017.658007
 24
2603.502642
 34
0.0
100
AcDbRotatedDimension
  0
DIMENSION
  5
23E
102
{ACAD_REACTORS
330
67C
102
}
330
1F
100
AcDbEntity
  8
LC-007-003-----0
 62
     7
370
    25
100
AcDbDimension
  2
*D6
 10
655.531824
 20
2688.231357
 30
0.0
 11
805.880798
 21
2718.231357
 31
0.0
 70
   160
 71
     5
 42
295.506356
  3
LC-DIM-L-0025-00-02
100
AcDbAlignedDimension
 13
951.03818
 23
2603.502642
 33
0.0
 14
655.531824
 24
2604.703192
 34
0.0
100
AcDbRotatedDimension
  0
DIMENSION
  5
24B
102
{ACAD_REACTORS
330
67D
102
}
330
1F
100
AcDbEntity
  8
LC-007-003-----0
 62
     7
370
    25
100
AcDbDimension
  2
*D7
 10
2000.0
 20
1481.860589
 30
0.0
 11
1970.0
 21
1703.75731
 31
0.0
 70
   160
 71
     5
 42
429.058821
 53
90.0
  3
LC-DIM-L-0025-00-02
100
AcDbAlignedDimension
 13
1881.351782
 23
1910.919411
 33
0.0
 14
1881.351782
 24
1481.860589
 34
0.0
 50
90.0
100
AcDbRotatedDimension
  0
LINE
  5
258
102
{ACAD_REACTORS
330
67C
102
}
330
1F
100
AcDbEntity
  8
LC-002-002-----0
 62
     7
370
    50
100
AcDbLine
 10
848.348093
 20
2625.48
 30
0.0
 11
274.637568
 21
2625.48
 31
0.0
  0
DIMENSION
  5
259
102
{ACAD_REACTORS
330
67C
102
}
330
1F
100
AcDbEntity
  8
LC-007-003-----0
 62
     7
370
    25
100
AcDbDimension
  2
*D8
 10
1167.877439
 20
2425.48
 30
0.0
 11
1137.877439
 21
2526.661285
 31
0.0
 70
   160
 71
     5
 42
200.0
 53
90.0
  3
LC-DIM-L-0025-02-02
100
AcDbAlignedDimension
 13
1120.348093
 23
2625.48
 33
0.0
 14
1120.348093
 24
2425.48
 34
0.0
 50
90.0
100
AcDbRotatedDimension
  0
DIMENSION
  5
266
102
{ACAD_REACTORS
330
67C
102
}
330
1F
100
AcDbEntity
  8
LC-007-003-----0
 62
     7
370
    25
100
AcDbDimension
  2
*D9
 10
867.877439
 20
2425.48
 30
0.0
 11
837.877439
 21
2524.75463
 31
0.0
 70
   160
 71
     5
 42
200.0
 53
90.0
  3
LC-DIM-L-0025-02-02
100
AcDbAlignedDimension
 13
848.348093
 23
2625.48
 33
0.0
 14
848.348093
 24
2425.48
 34
0.0
 50
90.0
100
AcDbRotatedDimension
  0
DIMENSION
  5
273
102
{ACAD_REACTORS
330
67B
102
}
330
1F
100
AcDbEntity
  8
LC-007-003-----0
 62
     7
370
    25
100
AcDbDimension
  2
*D10
 10
1517.877439
 20
1446.39
 30
0.0
 11
1487.877439
 21
1692.906676
 31
0.0
 70
   160
 71
     5
 42
500.0
 53
90.0
  3
LC-DIM-L-0025-02-02
100
AcDbAlignedDimension
 13
1410.348093
 23
1946.39
 33
0.0
 14
1410.348093
 24
1446.39
 34
0.0
 50
90.0
100
AcDbRotatedDimension
  0
LINE
  5
280
102
{ACAD_REACTORS
330
686
102
}
330
1F
100
AcDbEntity
  8
LC-002-002-----0
 62
     7
370
    25
100
AcDbLine
 10
203.687965
 20
2617.48
 30
0.0
 11
200.772824
 21
2594.267945
 31
0.0
  0
LINE
  5
281
102
{ACAD_REACTORS
330
686
102
}
330
1F
100
AcDbEntity
  8
LC-002-002-----0
 62
     7
370
    25
100
AcDbLine
 10
200.772824
 20
2594.267945
 30
0.0
 11
203.687965
 21
2579.48
 31
0.0
  0
LINE
  5
282
102
{ACAD_REACTORS
330
686
102
}
330
1F
100
AcDbEntity
  8
LC-002-002-----0
 62
     7
370
    50
100
AcDbLine
 10
280.348093
 20
2617.48
 30
0.0
 11
280.348093
 21
2579.48
 31
0.0
  0
LINE
  5
283
102
{ACAD_REACTORS
330
686
102
}
330
1F
100
AcDbEntity
  8
LC-002-002-----0
 62
     7
370
    50
100
AcDbLine
 10
280.348093
 20
2617.48
 30
0.0
 11
203.687965
 21
2617.48
 31
0.0
  0
LINE
  5
284
102
{ACAD_REACTORS
330
686
102
}
330
1F
100
AcDbEntity
  8
LC-002-002-----0
 62
     7
370
    50
100
AcDbLine
 10
280.348093
 20
2579.48
 30
0.0
 11
203.687965
 21
2579.48
 31
0.0
  0
LINE
  5
285
102
{ACAD_REACTORS
330
686
102
}
330
1F
100
AcDbEntity
  8
LC-002-002-----0
 62
     7
370
    50
100
AcDbLine
 10
1420.348093
 20
2617.48
 30
0.0
 11
1480.632492
 21
2617.48
 31
0.0
  0
LINE
  5
286
102
{ACAD_REACTORS
330
686
102
}
330
1F
100
AcDbEntity
  8
LC-002-002-----0
 62
     7
370
    50
100
AcDbLine
 10
1420.348093
 20
2617.48
 30
0.0
 11
1420.348093
 21
2579.48
 31
0.0
  0
LINE
  5
287
102
{ACAD_REACTORS
330
686
102
}
330
1F
100
AcDbEntity
  8
LC-002-002-----0
 62
     7
370
    50
100
AcDbLine
 10
1420.348093
 20
2579.48
 30
0.0
 11
1480.632492
 21
2579.48
 31
0.0
  0
LINE
  5
288
102
{ACAD_REACTORS
330
686
102
}
330
1F
100
AcDbEntity
  8
LC-002-002-----0
 62
     7
370
    25
100
AcDbLine
 10
1480.632492
 20
2617.48
 30
0.0
 11
1485.119397
 21
2597.257491
 31
0.0
  0
LINE
  5
289
102
{ACAD_REACTORS
330
686
102
}
330
1F
100
AcDbEntity
  8
LC-002-002-----0
 62
     7
370
    25
100
AcDbLine
 10
1485.119397
 20
2597.257491
 30
0.0
 11
1480.632492
 21
2579.48
 31
0.0
  0
LINE
  5
28A
102
{ACAD_REACTORS
330
686
102
}
330
1F
100
AcDbEntity
  8
LC-002-002-----0
 62
     7
370
    25
100
AcDbLine
 10
1425.348093
 20
2579.48
 30
0.0
 11
1425.348093
 21
2429.48
 31
0.0
  0
LINE
  5
28B
102
{ACAD_REACTORS
330
686
102
}
330
1F
100
AcDbEntity
  8
LC-002-002-----0
 62
     7
370
    25
100
AcDbLine
 10
625.348093
 20
2579.48
 30
0.0
 11
644.348093
 21
2579.48
 31
0.0
  0
LINE
  5
28C
102
{ACAD_REACTORS
330
686
102
}
330
1F
100
AcDbEntity
  8
LC-002-002-----0
 62
     7
370
    25
100
AcDbLine
 10
625.348093
 20
2429.48
 30
0.0
 11
625.348093
 21
2579.48
 31
0.0
  0
LINE
  5
28D
102
{ACAD_REACTORS
330
686
102
}
330
1F
100
AcDbEntity
  8
LC-002-002-----0
 62
     7
370
    25
100
AcDbLine
 10
644.348093
 20
2429.48
 30
0.0
 11
625.348093
 21
2429.48
 31
0.0
  0
LINE
  5
28E
102
{ACAD_REACTORS
330
686
102
}
330
1F
100
AcDbEntity
  8
LC-002-002-----0
 62
     7
370
    25
100
AcDbLine
 10
644.348093
 20
2579.48
 30
0.0
 11
644.348093
 21
2429.48
 31
0.0
  0
LINE
  5
28F
102
{ACAD_REACTORS
330
686
102
}
330
1F
100
AcDbEntity
  8
LC-002-002-----0
 62
     7
370
    25
100
AcDbLine
 10
1406.348093
 20
2579.48
 30
0.0
 11
1425.348093
 21
2579.48
 31
0.0
  0
LINE
  5
290
102
{ACAD_REACTORS
330
686
102
}
330
1F
100
AcDbEntity
  8
LC-002-002-----0
 62
     7
370
    25
100
AcDbLine
 10
1406.348093
 20
2429.48
 30
0.0
 11
1406.348093
 21
2579.48
 31
0.0
  0
LINE
  5
291
102
{ACAD_REACTORS
330
686
102
}
330
1F
100
AcDbEntity
  8
LC-002-002-----0
 62
     7
370
    25
100
AcDbLine
 10
1425.348093
 20
2429.48
 30
0.0
 11
1406.348093
 21
2429.48
 31
0.0
  0
INSERT
  5
299
102
{ACAD_REACTORS
330
686
102
}
330
1F
100
AcDbEntity
  8
LC-006-005-----0
 62
     7
370
    25
100
AcDbBlockReference
  2
*X311
 10
0.0
 20
0.0
 30
0.0
  0
INSERT
  5
2A1
102
{ACAD_REACTORS
330
686
102
}
330
1F
100
AcDbEntity
  8
LC-006-005-----0
 62
     7
370
    25
100
AcDbBlockReference
  2
*X412
 10
0.0
 20
0.0
 30
0.0
  0
LINE
  5
2A2
102
{ACAD_REACTORS
330
685
102
}
330
1F
100
AcDbEntity
  8
LC-002-002-----0
 62
     7
370
    50
100
AcDbLine
 10
861.769952
 20
750.898003
 30
0.0
 11
861.769952
 21
980.898003
 31
0.0
  0
DIMENSION
  5
2A3
102
{ACAD_REACTORS
330
686
102
}
330
1F
100
AcDbEntity
  8
LC-007-003-----0
 62
     7
370
    25
100
AcDbDimension
  2
*D13
 10
1425.348093
 20
2257.732139
 30
0.0
 11
1219.884895
 21
2287.732139
 31
0.0
 70
   160
 71
     5
 42
800.0
  3
LC-DIM-L-0025-02-02
100
AcDbAlignedDimension
 13
625.348093
 23
2429.48
 33
0.0
 14
1425.348093
 24
2429.48
 34
0.0
100
AcDbRotatedDimension
  0
INSERT
  5
2BF
102
{ACAD_REACTORS
330
686
102
}
330
1F
100
AcDbEntity
  8
LC-006-005-----0
 62
     7
370
    25
100
AcDbBlockReference
  2
*X514
 10
0.0
 20
0.0
 30
0.0
  0
LINE
  5
2C0
102
{ACAD_REACTORS
330
685
102
}
330
1F
100
AcDbEntity
  8
LC-002-002-----0
 62
     7
370
    50
100
AcDbLine
 10
856.769952
 20
985.898003
 30
0.0
 11
296.769952
 21
985.898003
 31
0.0
  0
CIRCLE
  5
2C2
102
{ACAD_REACTORS
330
67B
102
}
330
1F
100
AcDbEntity
  8
LC-004-006-MLN-0
  6
DASHDOT
 62
     7
370
    25
100
AcDbCircle
 10
980.348093
 20
1910.39
 30
0.0
 40
17.5
  0
ARC
  5
2C3
102
{ACAD_REACTORS
330
685
102
}
330
1F
100
AcDbEntity
  8
LC-005-002-RND-0
 62
     7
370
    50
100
AcDbCircle
 10
296.769952
 20
980.898003
 30
0.0
 40
5.0
100
AcDbArc
 50
90.0
 51
180.0
  0
CIRCLE
  5
2C4
102
{ACAD_REACTORS
330
67B
102
}
330
1F
100
AcDbEntity
  8
LC-004-006-MLN-0
  6
DASHDOT
 62
     7
370
    25
100
AcDbCircle
 10
860.348093
 20
1910.39
 30
0.0
 40
17.5
  0
ARC
  5
2C5
102
{ACAD_REACTORS
330
685
102
}
330
1F
100
AcDbEntity
  8
LC-005-002-RND-0
 62
     7
370
    50
100
AcDbCircle
 10
296.769952
 20
750.898003
 30
0.0
 40
5.0
100
AcDbArc
 50
180.0
 51
270.0
  0
CIRCLE
  5
2C6
102
{ACAD_REACTORS
330
67B
102
}
330
1F
100
AcDbEntity
  8
LC-004-006-MLN-0
  6
DASHDOT
 62
     7
370
    25
100
AcDbCircle
 10
740.348093
 20
1910.39
 30
0.0
 40
17.5
  0
CIRCLE
  5
2C7
102
{ACAD_REACTORS
330
67B
102
}
330
1F
100
AcDbEntity
  8
LC-004-006-MLN-0
  6
DASHDOT
 62
     7
370
    25
100
AcDbCircle
 10
740.348093
 20
1482.39
 30
0.0
 40
17.5
  0
CIRCLE
  5
2C8
102
{ACAD_REACTORS
330
67B
102
}
330
1F
100
AcDbEntity
  8
LC-004-006-MLN-0
  6
DASHDOT
 62
     7
370
    25
100
AcDbCircle
 10
860.348093
 20
1482.39
 30
0.0
 40
17.5
  0
CIRCLE
  5
2C9
102
{ACAD_REACTORS
330
67B
102
}
330
1F
100
AcDbEntity
  8
LC-004-006-MLN-0
  6
DASHDOT
 62
     7
370
    25
100
AcDbCircle
 10
980.348093
 20
1482.39
 30
0.0
 40
17.5
  0
DIMENSION
  5
2CA
102
{ACAD_REACTORS
330
67B
102
}
330
1F
100
AcDbEntity
  8
LC-007-003-----0
 62
     7
370
    25
100
AcDbDimension
  2
*D15
 10
980.348093
 20
2000.0
 30
0.0
 11
1193.619208
 21
2030.0
 31
0.0
 70
   160
 71
     5
 42
450.0
  3
LC-DIM-L-0025-02-02
100
AcDbAlignedDimension
 13
1430.348093
 23
1926.39
 33
0.0
 14
980.348093
 24
1927.89
 34
0.0
100
AcDbRotatedDimension
  0
DIMENSION
  5
2D7
102
{ACAD_REACTORS
330
67B
102
}
330
1F
100
AcDbEntity
  8
LC-007-003-----0
 62
     7
370
    25
100
AcDbDimension
  2
*D16
 10
860.348093
 20
2000.0
 30
0.0
 11
924.257144
 21
2030.0
 31
0.0
 70
   160
 71
     5
 42
120.0
  3
LC-DIM-L-0025-02-02
100
AcDbAlignedDimension
 13
980.348093
 23
1927.89
 33
0.0
 14
860.348093
 24
1927.89
 34
0.0
100
AcDbRotatedDimension
  0
DIMENSION
  5
2E4
102
{ACAD_REACTORS
330
67B
102
}
330
1F
100
AcDbEntity
  8
LC-007-003-----0
 62
     7
370
    25
100
AcDbDimension
  2
*D17
 10
740.348093
 20
2000.0
 30
0.0
 11
795.187822
 21
2030.0
 31
0.0
 70
   160
 71
     5
 42
120.0
  3
LC-DIM-L-0025-02-02
100
AcDbAlignedDimension
 13
860.348093
 23
1927.89
 33
0.0
 14
740.348093
 24
1927.89
 34
0.0
100
AcDbRotatedDimension
  0
DIMENSION
  5
2F1
102
{ACAD_REACTORS
330
67B
102
}
330
1F
100
AcDbEntity
  8
LC-007-003-----0
 62
     7
370
    25
100
AcDbDimension
  2
*D18
 10
667.877439
 20
1946.39
 30
0.0
 11
637.877439
 21
1998.160579
 31
0.0
 70
   160
 71
     5
 42
36.0
 53
90.0
  3
LC-DIM-L-0025-02-02
100
AcDbAlignedDimension
 13
722.848093
 23
1910.39
 33
0.0
 14
740.348093
 24
1946.39
 34
0.0
 50
90.0
100
AcDbRotatedDimension
  0
ARC
  5
300
102
{ACAD_REACTORS
330
681
102
}
330
1F
100
AcDbEntity
  8
LC-002-002-----0
 62
     7
370
    25
100
AcDbCircle
 10
1002.73382
 20
2589.09472
 30
0.0
 40
3.0
100
AcDbArc
 50
90.0
 51
179.500301
  0
ARC
  5
301
102
{ACAD_REACTORS
330
681
102
}
330
1F
100
AcDbEntity
  8
LC-002-002-----0
 62
     7
370
    25
100
AcDbCircle
 10
965.962367
 20
2589.09472
 30
0.0
 40
2.999999999999853
100
AcDbArc
 50
0.499699
 51
90.0
  0
ARC
  5
302
102
{ACAD_REACTORS
330
685
102
}
330
1F
100
AcDbEntity
  8
LC-005-002-RND-0
 62
     7
370
    50
100
AcDbCircle
 10
856.769952
 20
750.898003
 30
0.0
 40
5.0
100
AcDbArc
 50
270.0
 51
0.0
  0
ARC
  5
303
102
{ACAD_REACTORS
330
685
102
}
330
1F
100
AcDbEntity
  8
LC-005-002-RND-0
 62
     7
370
    50
100
AcDbCircle
 10
856.769952
 20
980.898003
 30
0.0
 40
5.0
100
AcDbArc
 50
0.0
 51
90.0
  0
LINE
  5
304
102
{ACAD_REACTORS
330
67F
102
}
330
1F
100
AcDbEntity
  8
LC-002-002-----0
 62
     7
370
    25
100
AcDbLine
 10
1070.444372
 20
2315.031762
 30
0.0
 11
1096.144372
 21
2315.031762
 31
0.0
  0
LINE
  5
305
102
{ACAD_REACTORS
330
67F
102
}
330
1F
100
AcDbEntity
  8
LC-002-002-----0
 62
     7
370
    25
100
AcDbLine
 10
1098.544372
 20
2317.431762
 30
0.0
 11
1100.560743
 21
2317.431762
 31
0.0
  0
LINE
  5
306
102
{ACAD_REACTORS
330
67F
102
}
330
1F
100
AcDbEntity
  8
LC-002-002-----0
 62
     7
370
    25
100
AcDbLine
 10
1070.444372
 20
2358.614043
 30
0.0
 11
1092.012919
 21
2358.614043
 31
0.0
  0
LINE
  5
307
102
{ACAD_REACTORS
330
67F
102
}
330
1F
100
AcDbEntity
  8
LC-002-002-----0
 62
     7
370
    25
100
AcDbLine
 10
1096.144482
 20
2315.031872
 30
0.0
 11
1098.544418
 21
2317.431808
 31
0.0
  0
LINE
  5
308
102
{ACAD_REACTORS
330
680
102
}
330
1F
100
AcDbEntity
  8
LC-002-002-----0
 62
     7
370
    25
100
AcDbLine
 10
1144.227888
 20
2298.593449
 30
0.0
 11
1142.747685
 21
2299.363994
 31
0.0
  0
LINE
  5
309
102
{ACAD_REACTORS
330
680
102
}
330
1F
100
AcDbEntity
  8
LC-002-002-----0
 62
     7
370
    25
100
AcDbLine
 10
1144.228
 20
2300.134269
 30
0.0
 11
1142.74758
 21
2300.904927
 31
0.0
  0
LINE
  5
30A
102
{ACAD_REACTORS
330
680
102
}
330
1F
100
AcDbEntity
  8
LC-002-002-----0
 62
     7
370
    25
100
AcDbLine
 10
1144.227888
 20
2301.675206
 30
0.0
 11
1142.7479
 21
2302.445638
 31
0.0
  0
LINE
  5
30B
102
{ACAD_REACTORS
330
680
102
}
330
1F
100
AcDbEntity
  8
LC-002-002-----0
 62
     7
370
    25
100
AcDbLine
 10
1144.227888
 20
2303.216084
 30
0.0
 11
1142.7479
 21
2303.986517
 31
0.0
  0
LINE
  5
30C
102
{ACAD_REACTORS
330
680
102
}
330
1F
100
AcDbEntity
  8
LC-002-002-----0
 62
     7
370
    25
100
AcDbLine
 10
1144.227888
 20
2304.756963
 30
0.0
 11
1142.7479
 21
2305.527395
 31
0.0
  0
LINE
  5
30D
102
{ACAD_REACTORS
330
680
102
}
330
1F
100
AcDbEntity
  8
LC-002-002-----0
 62
     7
370
    25
100
AcDbLine
 10
1144.227888
 20
2306.297841
 30
0.0
 11
1142.7479
 21
2307.068274
 31
0.0
  0
LINE
  5
30E
102
{ACAD_REACTORS
330
680
102
}
330
1F
100
AcDbEntity
  8
LC-002-002-----0
 62
     7
370
    25
100
AcDbLine
 10
1144.227888
 20
2307.83872
 30
0.0
 11
1142.7479
 21
2308.609152
 31
0.0
  0
LINE
  5
30F
102
{ACAD_REACTORS
330
680
102
}
330
1F
100
AcDbEntity
  8
LC-002-002-----0
 62
     7
370
    25
100
AcDbLine
 10
1143.461818
 20
2310.609178
 30
0.0
 11
1140.348069
 21
2313.722927
 31
0.0
  0
LINE
  5
310
102
{ACAD_REACTORS
330
680
102
}
330
1F
100
AcDbEntity
  8
LC-002-002-----0
 62
     7
370
    25
100
AcDbLine
 10
1142.748093
 20
2296.822903
 30
0.0
 11
1097.948093
 21
2296.822903
 31
0.0
  0
LINE
  5
311
102
{ACAD_REACTORS
330
680
102
}
330
1F
100
AcDbEntity
  8
LC-002-002-----0
 62
     7
370
    25
100
AcDbLine
 10
1100.348093
 20
2313.722903
 30
0.0
 11
1100.348093
 21
2317.431762
 31
0.0
  0
LINE
  5
312
102
{ACAD_REACTORS
330
680
102
}
330
1F
100
AcDbEntity
  8
LC-002-002-----0
 62
     7
370
    25
100
AcDbLine
 10
1143.461818
 20
2310.609178
 30
0.0
 11
1142.748093
 21
2310.609178
 31
0.0
  0
LINE
  5
313
102
{ACAD_REACTORS
330
680
102
}
330
1F
100
AcDbEntity
  8
LC-002-002-----0
 62
     7
370
    25
100
AcDbLine
 10
1140.348093
 20
2313.722903
 30
0.0
 11
1140.348093
 21
2317.651164
 31
0.0
  0
LINE
  5
314
102
{ACAD_REACTORS
330
680
102
}
330
1F
100
AcDbEntity
  8
LC-002-002-----0
 62
     7
370
    25
100
AcDbLine
 10
1142.748093
 20
2296.822903
 30
0.0
 11
1142.748093
 21
2297.822903
 31
0.0
  0
LINE
  5
315
102
{ACAD_REACTORS
330
680
102
}
330
1F
100
AcDbEntity
  8
LC-002-002-----0
 62
     7
370
    25
100
AcDbLine
 10
1142.748093
 20
2308.609052
 30
0.0
 11
1142.748093
 21
2310.609052
 31
0.0
  0
LINE
  5
316
102
{ACAD_REACTORS
330
680
102
}
330
1F
100
AcDbEntity
  8
LC-002-002-----0
 62
     7
370
    25
100
AcDbLine
 10
1097.234369
 20
2310.609178
 30
0.0
 11
1100.348118
 21
2313.722927
 31
0.0
  0
LINE
  5
317
102
{ACAD_REACTORS
330
680
102
}
330
1F
100
AcDbEntity
  8
LC-002-002-----0
 62
     7
370
    25
100
AcDbLine
 10
1142.748006
 20
2307.068128
 30
0.0
 11
1144.228
 21
2307.838564
 31
0.0
  0
LINE
  5
318
102
{ACAD_REACTORS
330
680
102
}
330
1F
100
AcDbEntity
  8
LC-002-002-----0
 62
     7
370
    25
100
AcDbLine
 10
1142.748006
 20
2305.527249
 30
0.0
 11
1144.228
 21
2306.297685
 31
0.0
  0
LINE
  5
319
102
{ACAD_REACTORS
330
680
102
}
330
1F
100
AcDbEntity
  8
LC-002-002-----0
 62
     7
370
    25
100
AcDbLine
 10
1142.748006
 20
2303.986371
 30
0.0
 11
1144.228
 21
2304.756807
 31
0.0
  0
LINE
  5
31A
102
{ACAD_REACTORS
330
680
102
}
330
1F
100
AcDbEntity
  8
LC-002-002-----0
 62
     7
370
    25
100
AcDbLine
 10
1142.748006
 20
2302.445492
 30
0.0
 11
1144.228
 21
2303.215929
 31
0.0
  0
LINE
  5
31B
102
{ACAD_REACTORS
330
680
102
}
330
1F
100
AcDbEntity
  8
LC-002-002-----0
 62
     7
370
    25
100
AcDbLine
 10
1142.747685
 20
2300.904447
 30
0.0
 11
1144.228
 21
2301.67505
 31
0.0
  0
LINE
  5
31C
102
{ACAD_REACTORS
330
680
102
}
330
1F
100
AcDbEntity
  8
LC-002-002-----0
 62
     7
370
    25
100
AcDbLine
 10
1142.74758
 20
2299.363514
 30
0.0
 11
1144.227888
 21
2300.134113
 31
0.0
  0
LINE
  5
31D
102
{ACAD_REACTORS
330
680
102
}
330
1F
100
AcDbEntity
  8
LC-002-002-----0
 62
     7
370
    25
100
AcDbLine
 10
1142.747685
 20
2297.82269
 30
0.0
 11
1144.228
 21
2298.593293
 31
0.0
  0
LINE
  5
31E
102
{ACAD_REACTORS
330
680
102
}
330
1F
100
AcDbEntity
  8
LC-002-002-----0
 62
     7
370
    25
100
AcDbLine
 10
1096.468299
 20
2298.593449
 30
0.0
 11
1097.948501
 21
2299.363994
 31
0.0
  0
LINE
  5
31F
102
{ACAD_REACTORS
330
680
102
}
330
1F
100
AcDbEntity
  8
LC-002-002-----0
 62
     7
370
    25
100
AcDbLine
 10
1096.468187
 20
2300.134269
 30
0.0
 11
1097.948607
 21
2300.904927
 31
0.0
  0
LINE
  5
320
102
{ACAD_REACTORS
330
680
102
}
330
1F
100
AcDbEntity
  8
LC-002-002-----0
 62
     7
370
    25
100
AcDbLine
 10
1096.468299
 20
2301.675206
 30
0.0
 11
1097.948286
 21
2302.445638
 31
0.0
  0
LINE
  5
321
102
{ACAD_REACTORS
330
680
102
}
330
1F
100
AcDbEntity
  8
LC-002-002-----0
 62
     7
370
    25
100
AcDbLine
 10
1096.468299
 20
2303.216084
 30
0.0
 11
1097.948286
 21
2303.986517
 31
0.0
  0
LINE
  5
322
102
{ACAD_REACTORS
330
680
102
}
330
1F
100
AcDbEntity
  8
LC-002-002-----0
 62
     7
370
    25
100
AcDbLine
 10
1096.468299
 20
2304.756963
 30
0.0
 11
1097.948286
 21
2305.527395
 31
0.0
  0
LINE
  5
323
102
{ACAD_REACTORS
330
680
102
}
330
1F
100
AcDbEntity
  8
LC-002-002-----0
 62
     7
370
    25
100
AcDbLine
 10
1096.468299
 20
2306.297841
 30
0.0
 11
1097.948286
 21
2307.068274
 31
0.0
  0
LINE
  5
324
102
{ACAD_REACTORS
330
680
102
}
330
1F
100
AcDbEntity
  8
LC-002-002-----0
 62
     7
370
    25
100
AcDbLine
 10
1096.468299
 20
2307.83872
 30
0.0
 11
1097.948286
 21
2308.609152
 31
0.0
  0
LINE
  5
325
102
{ACAD_REACTORS
330
680
102
}
330
1F
100
AcDbEntity
  8
LC-002-002-----0
 62
     7
370
    25
100
AcDbLine
 10
1097.948093
 20
2296.822903
 30
0.0
 11
1097.948093
 21
2297.822903
 31
0.0
  0
LINE
  5
326
102
{ACAD_REACTORS
330
680
102
}
330
1F
100
AcDbEntity
  8
LC-002-002-----0
 62
     7
370
    25
100
AcDbLine
 10
1097.948093
 20
2308.609052
 30
0.0
 11
1097.948093
 21
2310.609052
 31
0.0
  0
LINE
  5
327
102
{ACAD_REACTORS
330
680
102
}
330
1F
100
AcDbEntity
  8
LC-002-002-----0
 62
     7
370
    25
100
AcDbLine
 10
1097.948181
 20
2307.068128
 30
0.0
 11
1096.468187
 21
2307.838564
 31
0.0
  0
LINE
  5
328
102
{ACAD_REACTORS
330
680
102
}
330
1F
100
AcDbEntity
  8
LC-002-002-----0
 62
     7
370
    25
100
AcDbLine
 10
1097.948181
 20
2305.527249
 30
0.0
 11
1096.468187
 21
2306.297685
 31
0.0
  0
LINE
  5
329
102
{ACAD_REACTORS
330
680
102
}
330
1F
100
AcDbEntity
  8
LC-002-002-----0
 62
     7
370
    25
100
AcDbLine
 10
1097.948181
 20
2303.986371
 30
0.0
 11
1096.468187
 21
2304.756807
 31
0.0
  0
LINE
  5
32A
102
{ACAD_REACTORS
330
680
102
}
330
1F
100
AcDbEntity
  8
LC-002-002-----0
 62
     7
370
    25
100
AcDbLine
 10
1097.948181
 20
2302.445492
 30
0.0
 11
1096.468187
 21
2303.215929
 31
0.0
  0
LINE
  5
32B
102
{ACAD_REACTORS
330
680
102
}
330
1F
100
AcDbEntity
  8
LC-002-002-----0
 62
     7
370
    25
100
AcDbLine
 10
1097.948501
 20
2300.904447
 30
0.0
 11
1096.468187
 21
2301.67505
 31
0.0
  0
LINE
  5
32C
102
{ACAD_REACTORS
330
680
102
}
330
1F
100
AcDbEntity
  8
LC-002-002-----0
 62
     7
370
    25
100
AcDbLine
 10
1097.948607
 20
2299.363514
 30
0.0
 11
1096.468299
 21
2300.134113
 31
0.0
  0
LINE
  5
32D
102
{ACAD_REACTORS
330
680
102
}
330
1F
100
AcDbEntity
  8
LC-002-002-----0
 62
     7
370
    25
100
AcDbLine
 10
1097.948501
 20
2297.82269
 30
0.0
 11
1096.468187
 21
2298.593293
 31
0.0
  0
LINE
  5
32E
102
{ACAD_REACTORS
330
67F
102
}
330
1F
100
AcDbEntity
  8
LC-002-002-----0
 62
     7
370
    25
100
AcDbLine
 10
1067.944372
 20
2309.118109
 30
0.0
 11
1070.444372
 21
2309.118109
 31
0.0
  0
LINE
  5
32F
102
{ACAD_REACTORS
330
67F
102
}
330
1F
100
AcDbEntity
  8
LC-002-002-----0
 62
     7
370
    25
100
AcDbLine
 10
1066.944372
 20
2309.868109
 30
0.0
 11
1067.194372
 21
2309.868109
 31
0.0
  0
LINE
  5
330
102
{ACAD_REACTORS
330
67F
102
}
330
1F
100
AcDbEntity
  8
LC-002-002-----0
 62
     7
370
    25
100
AcDbLine
 10
1066.944372
 20
2311.022903
 30
0.0
 11
1053.444372
 21
2311.022903
 31
0.0
  0
LINE
  5
331
102
{ACAD_REACTORS
330
67F
102
}
330
1F
100
AcDbEntity
  8
LC-002-002-----0
 62
     7
370
    25
100
AcDbLine
 10
1066.944372
 20
2362.622903
 30
0.0
 11
1053.444372
 21
2362.622903
 31
0.0
  0
LINE
  5
332
102
{ACAD_REACTORS
330
67F
102
}
330
1F
100
AcDbEntity
  8
LC-002-002-----0
 62
     7
370
    25
100
AcDbLine
 10
1066.944372
 20
2363.777696
 30
0.0
 11
1067.194372
 21
2363.777696
 31
0.0
  0
LINE
  5
333
102
{ACAD_REACTORS
330
67F
102
}
330
1F
100
AcDbEntity
  8
LC-002-002-----0
 62
     7
370
    25
100
AcDbLine
 10
1067.944372
 20
2364.527696
 30
0.0
 11
1070.444372
 21
2364.527696
 31
0.0
  0
LINE
  5
334
102
{ACAD_REACTORS
330
67F
102
}
330
1F
100
AcDbEntity
  8
LC-002-002-----0
 62
     7
370
    25
100
AcDbLine
 10
1067.194371
 20
2309.868111
 30
0.0
 11
1067.944371
 21
2309.11811
 31
0.0
  0
LINE
  5
335
102
{ACAD_REACTORS
330
67F
102
}
330
1F
100
AcDbEntity
  8
LC-002-002-----0
 62
     7
370
    25
100
AcDbLine
 10
1051.444372
 20
2360.622903
 30
0.0
 11
1051.444372
 21
2313.022903
 31
0.0
  0
LINE
  5
336
102
{ACAD_REACTORS
330
67F
102
}
330
1F
100
AcDbEntity
  8
LC-002-002-----0
 62
     7
370
    25
100
AcDbLine
 10
1066.944372
 20
2363.777678
 30
0.0
 11
1066.944372
 21
2309.868127
 31
0.0
  0
LINE
  5
337
102
{ACAD_REACTORS
330
67F
102
}
330
1F
100
AcDbEntity
  8
LC-002-002-----0
 62
     7
370
    25
100
AcDbLine
 10
1070.444372
 20
2364.527696
 30
0.0
 11
1070.444372
 21
2309.118109
 31
0.0
  0
LINE
  5
338
102
{ACAD_REACTORS
330
67F
102
}
330
1F
100
AcDbEntity
  8
LC-002-002-----0
 62
     7
370
    25
100
AcDbLine
 10
1067.194371
 20
2363.777695
 30
0.0
 11
1067.944371
 21
2364.527695
 31
0.0
  0
ARC
  5
339
102
{ACAD_REACTORS
330
67F
102
}
330
1F
100
AcDbEntity
  8
LC-002-002-----0
 62
     7
370
    25
100
AcDbCircle
 10
1053.444372
 20
2360.622903
 30
0.0
 40
2.0
100
AcDbArc
 50
90.0
 51
180.0
  0
ARC
  5
33A
102
{ACAD_REACTORS
330
67F
102
}
330
1F
100
AcDbEntity
  8
LC-002-002-----0
 62
     7
370
    25
100
AcDbCircle
 10
1053.444372
 20
2313.022903
 30
0.0
 40
2.0
100
AcDbArc
 50
180.0
 51
270.0
  0
LINE
  5
33B
102
{ACAD_REACTORS
330
680
102
}
330
1F
100
AcDbEntity
  8
LC-002-002-----0
 62
     7
370
    25
100
AcDbLine
 10
1097.948093
 20
2310.609178
 30
0.0
 11
1097.234369
 21
2310.609178
 31
0.0
  0
LINE
  5
33C
102
{ACAD_REACTORS
330
67F
102
}
330
1F
100
AcDbEntity
  8
LC-002-002-----0
 62
     7
370
    25
100
AcDbLine
 10
1066.944372
 20
2360.035289
 30
0.0
 11
1053.444372
 21
2360.035289
 31
0.0
  0
INSERT
  5
34C
102
{ACAD_REACTORS
330
67F
102
}
330
1F
100
AcDbEntity
  8
LC-002-002-----0
 62
     7
370
    25
100
AcDbBlockReference
  2
POLY1
 10
0.0
 20
0.0
 30
0.0
  0
INSERT
  5
35C
102
{ACAD_REACTORS
330
67F
102
}
330
1F
100
AcDbEntity
  8
LC-002-002-----0
 62
     7
370
    25
100
AcDbBlockReference
  2
POLY2
 10
0.0
 20
0.0
 30
0.0
  0
LINE
  5
35D
102
{ACAD_REACTORS
330
67F
102
}
330
1F
100
AcDbEntity
  8
LC-002-002-----0
 62
     7
370
    25
100
AcDbLine
 10
1053.444372
 20
2313.610408
 30
0.0
 11
1066.944372
 21
2313.610408
 31
0.0
  0
INSERT
  5
36D
102
{ACAD_REACTORS
330
67F
102
}
330
1F
100
AcDbEntity
  8
LC-002-002-----0
 62
     7
370
    25
100
AcDbBlockReference
  2
POLY3
 10
0.0
 20
0.0
 30
0.0
  0
LINE
  5
36E
102
{ACAD_REACTORS
330
67F
102
}
330
1F
100
AcDbEntity
  8
LC-002-002-----0
 62
     7
370
    25
100
AcDbLine
 10
1066.944372
 20
2336.82145
 30
0.0
 11
1053.444372
 21
2336.82145
 31
0.0
  0
ARC
  5
36F
102
{ACAD_REACTORS
330
680
102
}
330
1F
100
AcDbEntity
  8
LC-002-002-----0
 62
     7
370
    25
100
AcDbCircle
 10
1120.348093
 20
2336.822903
 30
0.0
 40
22.0
100
AcDbArc
 50
180.0
 51
0.0
  0
LINE
  5
370
102
{ACAD_REACTORS
330
680
102
}
330
1F
100
AcDbEntity
  8
LC-002-002-----0
 62
     7
370
    25
100
AcDbLine
 10
1098.348093
 20
2336.822903
 30
0.0
 11
1098.348093
 21
2350.514087
 31
0.0
  0
LINE
  5
371
102
{ACAD_REACTORS
330
680
102
}
330
1F
100
AcDbEntity
  8
LC-002-002-----0
 62
     7
370
    25
100
AcDbLine
 10
1142.348093
 20
2336.822903
 30
0.0
 11
1142.348093
 21
2350.514087
 31
0.0
  0
LINE
  5
372
102
{ACAD_REACTORS
330
680
102
}
330
1F
100
AcDbEntity
  8
LC-002-002-----0
 62
     7
370
    25
100
AcDbLine
 10
1157.848093
 20
2368.78245
 30
0.0
 11
1155.846231
 21
2368.78245
 31
0.0
  0
LINE
  5
373
102
{ACAD_REACTORS
330
680
102
}
330
1F
100
AcDbEntity
  8
LC-002-002-----0
 62
     7
370
    25
100
AcDbLine
 10
1155.846231
 20
2368.079205
 30
0.0
 11
1155.846231
 21
2368.78245
 31
0.0
  0
LINE
  5
374
102
{ACAD_REACTORS
330
680
102
}
330
1F
100
AcDbEntity
  8
LC-002-002-----0
 62
     7
370
    25
100
AcDbLine
 10
1157.848093
 20
2371.28245
 30
0.0
 11
1157.848093
 21
2368.78245
 31
0.0
  0
LINE
  5
375
102
{ACAD_REACTORS
330
680
102
}
330
1F
100
AcDbEntity
  8
LC-002-002-----0
 62
     7
370
    25
100
AcDbLine
 10
1148.637032
 20
2358.324069
 30
0.0
 11
1149.115479
 21
2360.942933
 31
0.0
  0
ARC
  5
376
102
{ACAD_REACTORS
330
680
102
}
330
1F
100
AcDbEntity
  8
LC-002-002-----0
 62
     7
370
    25
100
AcDbCircle
 10
1142.242869
 20
2359.49226
 30
0.0
 40
6.500000000000005
100
AcDbArc
 50
289.07704
 51
349.645823
  0
ARC
  5
377
102
{ACAD_REACTORS
330
680
102
}
330
1F
100
AcDbEntity
  8
LC-002-002-----0
 62
     7
370
    25
100
AcDbCircle
 10
1145.348093
 20
2350.514087
 30
0.0
 40
3.00000000000037
100
AcDbArc
 50
109.055448
 51
180.0
  0
ARC
  5
378
102
{ACAD_REACTORS
330
680
102
}
330
1F
100
AcDbEntity
  8
LC-002-002-----0
 62
     7
370
    25
100
AcDbCircle
 10
1153.846231
 20
2368.079205
 30
0.0
 40
1.999999999999766
100
AcDbArc
 50
334.152631
 51
0.0
  0
ARC
  5
379
102
{ACAD_REACTORS
330
680
102
}
330
1F
100
AcDbEntity
  8
LC-002-002-----0
 62
     7
370
    25
100
AcDbCircle
 10
1150.246297
 20
2369.822903
 30
0.0
 40
5.999999999999909
100
AcDbArc
 50
286.283517
 51
334.155028
  0
ARC
  5
37A
102
{ACAD_REACTORS
330
680
102
}
330
1F
100
AcDbEntity
  8
LC-002-002-----0
 62
     7
370
    25
100
AcDbCircle
 10
1153.050356
 20
2360.224087
 30
0.0
 40
4.000000000000306
100
AcDbArc
 50
106.281751
 51
169.647048
  0
LINE
  5
37B
102
{ACAD_REACTORS
330
680
102
}
330
1F
100
AcDbEntity
  8
LC-002-002-----0
 62
     7
370
    25
100
AcDbLine
 10
1092.059154
 20
2358.324069
 30
0.0
 11
1091.580708
 21
2360.942933
 31
0.0
  0
ARC
  5
37C
102
{ACAD_REACTORS
330
680
102
}
330
1F
100
AcDbEntity
  8
LC-002-002-----0
 62
     7
370
    25
100
AcDbCircle
 10
1098.453318
 20
2359.49226
 30
0.0
 40
6.499999999999973
100
AcDbArc
 50
190.354177
 51
250.92296
  0
ARC
  5
37D
102
{ACAD_REACTORS
330
680
102
}
330
1F
100
AcDbEntity
  8
LC-002-002-----0
 62
     7
370
    25
100
AcDbCircle
 10
1095.348093
 20
2350.514087
 30
0.0
 40
2.999999995699227
100
AcDbArc
 50
0.0
 51
70.944552
  0
ARC
  5
37E
102
{ACAD_REACTORS
330
680
102
}
330
1F
100
AcDbEntity
  8
LC-002-002-----0
 62
     7
370
    25
100
AcDbCircle
 10
1090.449889
 20
2369.822903
 30
0.0
 40
6.000000000000205
100
AcDbArc
 50
205.844972
 51
253.716483
  0
ARC
  5
37F
102
{ACAD_REACTORS
330
680
102
}
330
1F
100
AcDbEntity
  8
LC-002-002-----0
 62
     7
370
    25
100
AcDbCircle
 10
1087.645831
 20
2360.224087
 30
0.0
 40
3.999999999999492
100
AcDbArc
 50
10.352952
 51
73.718249
  0
ARC
  5
380
102
{ACAD_REACTORS
330
680
102
}
330
1F
100
AcDbEntity
  8
LC-002-002-----0
 62
     7
370
    25
100
AcDbCircle
 10
1120.348093
 20
2336.822903
 30
0.0
 40
27.70479324129989
100
AcDbArc
 50
145.394244
 51
34.605756
  0
LINE
  5
381
102
{ACAD_REACTORS
330
680
102
}
330
1F
100
AcDbEntity
  8
LC-002-002-----0
 62
     7
370
    25
100
AcDbLine
 10
1065.348093
 20
2411.425131
 30
0.0
 11
1175.348093
 21
2411.425131
 31
0.0
  0
LINE
  5
382
102
{ACAD_REACTORS
330
680
102
}
330
1F
100
AcDbEntity
  8
LC-002-002-----0
 62
     7
370
    25
100
AcDbLine
 10
1175.348093
 20
2407.425131
 30
0.0
 11
1175.348093
 21
2411.425131
 31
0.0
  0
LINE
  5
383
102
{ACAD_REACTORS
330
680
102
}
330
1F
100
AcDbEntity
  8
LC-002-002-----0
 62
     7
370
    25
100
AcDbLine
 10
1159.853057
 20
2371.28245
 30
0.0
 11
1157.848093
 21
2371.28245
 31
0.0
  0
LINE
  5
384
102
{ACAD_REACTORS
330
680
102
}
330
1F
100
AcDbEntity
  8
LC-002-002-----0
 62
     7
370
    25
100
AcDbLine
 10
1065.348093
 20
2404.211963
 30
0.0
 11
1065.348093
 21
2407.425131
 31
0.0
  0
LINE
  5
385
102
{ACAD_REACTORS
330
680
102
}
330
1F
100
AcDbEntity
  8
LC-002-002-----0
 62
     7
370
    25
100
AcDbLine
 10
1163.097483
 20
2375.612224
 30
0.0
 11
1164.847458
 21
2376.622573
 31
0.0
  0
LINE
  5
386
102
{ACAD_REACTORS
330
680
102
}
330
1F
100
AcDbEntity
  8
LC-002-002-----0
 62
     7
370
    25
100
AcDbLine
 10
1167.848093
 20
2381.819092
 30
0.0
 11
1167.848093
 21
2397.28245
 31
0.0
  0
LINE
  5
387
102
{ACAD_REACTORS
330
680
102
}
330
1F
100
AcDbEntity
  8
LC-002-002-----0
 62
     7
370
    25
100
AcDbLine
 10
1175.348093
 20
2406.964908
 30
0.0
 11
1175.348093
 21
2407.425131
 31
0.0
  0
ARC
  5
388
102
{ACAD_REACTORS
330
680
102
}
330
1F
100
AcDbEntity
  8
LC-002-002-----0
 62
     7
370
    25
100
AcDbCircle
 10
1171.848093
 20
2397.28245
 30
0.0
 40
3.999999999999812
100
AcDbArc
 50
104.492147
 51
180.0
  0
ARC
  5
389
102
{ACAD_REACTORS
330
680
102
}
330
1F
100
AcDbEntity
  8
LC-002-002-----0
 62
     7
370
    25
100
AcDbCircle
 10
1169.348093
 20
2406.964908
 30
0.0
 40
5.999999999999658
100
AcDbArc
 50
284.469452
 51
0.0
  0
ARC
  5
38A
102
{ACAD_REACTORS
330
680
102
}
330
1F
100
AcDbEntity
  8
LC-002-002-----0
 62
     7
370
    25
100
AcDbCircle
 10
1161.848093
 20
2381.819092
 30
0.0
 40
5.999999999999977
100
AcDbArc
 50
299.988476
 51
0.0
  0
ARC
  5
38B
102
{ACAD_REACTORS
330
680
102
}
330
1F
100
AcDbEntity
  8
LC-002-002-----0
 62
     7
370
    25
100
AcDbCircle
 10
1165.598093
 20
2371.28245
 30
0.0
 40
4.999999999999906
100
AcDbArc
 50
120.016153
 51
172.072225
  0
ARC
  5
38C
102
{ACAD_REACTORS
330
680
102
}
330
1F
100
AcDbEntity
  8
LC-002-002-----0
 62
     7
370
    25
100
AcDbCircle
 10
1159.853531
 20
2372.08245
 30
0.0
 40
0.7999999999997272
100
AcDbArc
 50
270.0
 51
352.062606
  0
LINE
  5
38D
102
{ACAD_REACTORS
330
680
102
}
330
1F
100
AcDbEntity
  8
LC-002-002-----0
 62
     7
370
    25
100
AcDbLine
 10
1065.348093
 20
2407.425131
 30
0.0
 11
1065.348093
 21
2411.425131
 31
0.0
  0
LINE
  5
38E
102
{ACAD_REACTORS
330
680
102
}
330
1F
100
AcDbEntity
  8
LC-002-002-----0
 62
     7
370
    25
100
AcDbLine
 10
1063.098093
 20
2369.175131
 30
0.0
 11
1061.098093
 21
2369.175131
 31
0.0
  0
LINE
  5
38F
102
{ACAD_REACTORS
330
680
102
}
330
1F
100
AcDbEntity
  8
LC-002-002-----0
 62
     7
370
    25
100
AcDbLine
 10
1060.348092
 20
2371.217893
 30
0.0
 11
1048.608859
 21
2371.217893
 31
0.0
  0
LINE
  5
390
102
{ACAD_REACTORS
330
680
102
}
330
1F
100
AcDbEntity
  8
LC-002-002-----0
 62
     7
370
    25
100
AcDbLine
 10
1060.348092
 20
2407.132369
 30
0.0
 11
1048.608859
 21
2407.132369
 31
0.0
  0
LINE
  5
391
102
{ACAD_REACTORS
330
680
102
}
330
1F
100
AcDbEntity
  8
LC-002-002-----0
 62
     7
370
    25
100
AcDbLine
 10
1063.098093
 20
2409.175131
 30
0.0
 11
1061.098093
 21
2409.175131
 31
0.0
  0
LINE
  5
392
102
{ACAD_REACTORS
330
680
102
}
330
1F
100
AcDbEntity
  8
LC-002-002-----0
 62
     7
370
    25
100
AcDbLine
 10
1061.097997
 20
2369.175228
 30
0.0
 11
1060.348106
 21
2369.925119
 31
0.0
  0
LINE
  5
393
102
{ACAD_REACTORS
330
680
102
}
330
1F
100
AcDbEntity
  8
LC-002-002-----0
 62
     7
370
    25
100
AcDbLine
 10
1048.598093
 20
2371.425321
 30
0.0
 11
1048.598093
 21
2406.924941
 31
0.0
  0
LINE
  5
394
102
{ACAD_REACTORS
330
680
102
}
330
1F
100
AcDbEntity
  8
LC-002-002-----0
 62
     7
370
    25
100
AcDbLine
 10
1060.348106
 20
2369.925119
 30
0.0
 11
1060.348106
 21
2371.217893
 31
0.0
  0
LINE
  5
395
102
{ACAD_REACTORS
330
680
102
}
330
1F
100
AcDbEntity
  8
LC-002-002-----0
 62
     7
370
    25
100
AcDbLine
 10
1060.348097
 20
2407.132369
 30
0.0
 11
1060.348106
 21
2408.425144
 31
0.0
  0
LINE
  5
396
102
{ACAD_REACTORS
330
680
102
}
330
1F
100
AcDbEntity
  8
LC-002-002-----0
 62
     7
370
    25
100
AcDbLine
 10
1063.098093
 20
2369.175131
 30
0.0
 11
1063.098093
 21
2409.175131
 31
0.0
  0
LINE
  5
397
102
{ACAD_REACTORS
330
680
102
}
330
1F
100
AcDbEntity
  8
LC-002-002-----0
 62
     7
370
    25
100
AcDbLine
 10
1061.097997
 20
2409.175034
 30
0.0
 11
1060.348106
 21
2408.425144
 31
0.0
  0
ARC
  5
398
102
{ACAD_REACTORS
330
680
102
}
330
1F
100
AcDbEntity
  8
LC-002-002-----0
 62
     7
370
    25
100
AcDbCircle
 10
1050.598093
 20
2406.925131
 30
0.0
 40
2.000000000000268
100
AcDbArc
 50
174.05239
 51
180.0
  0
ARC
  5
399
102
{ACAD_REACTORS
330
680
102
}
330
1F
100
AcDbEntity
  8
LC-002-002-----0
 62
     7
370
    25
100
AcDbCircle
 10
1050.598093
 20
2371.425131
 30
0.0
 40
2.0
100
AcDbArc
 50
180.0
 51
185.94761
  0
LINE
  5
39A
102
{ACAD_REACTORS
330
680
102
}
330
1F
100
AcDbEntity
  8
LC-002-002-----0
 62
     7
370
    25
100
AcDbLine
 10
1063.098093
 20
2404.275131
 30
0.0
 11
1065.365506
 21
2404.275131
 31
0.0
  0
LINE
  5
39B
102
{ACAD_REACTORS
330
680
102
}
330
1F
100
AcDbEntity
  8
LC-002-002-----0
 62
     7
370
    25
100
AcDbLine
 10
1063.098093
 20
2374.075131
 30
0.0
 11
1079.245494
 21
2374.075131
 31
0.0
  0
LINE
  5
39C
102
{ACAD_REACTORS
330
67F
102
}
330
1F
100
AcDbEntity
  8
LC-002-002-----0
 62
     7
370
    25
100
AcDbLine
 10
867.519832
 20
2316.822903
 30
0.0
 11
1051.444372
 21
2316.822903
 31
0.0
  0
LINE
  5
39D
102
{ACAD_REACTORS
330
67F
102
}
330
1F
100
AcDbEntity
  8
LC-002-002-----0
 62
     7
370
    25
100
AcDbLine
 10
876.169464
 20
2356.822903
 30
0.0
 11
1051.444372
 21
2356.822903
 31
0.0
  0
LINE
  5
39E
102
{ACAD_REACTORS
330
681
102
}
330
1F
100
AcDbEntity
  8
LC-002-002-----0
 62
     7
370
    25
100
AcDbLine
 10
999.681321
 20
2580.977948
 30
0.0
 11
1004.02901
 21
2585.325636
 31
0.0
  0
LINE
  5
39F
102
{ACAD_REACTORS
330
67E
102
}
330
1F
100
AcDbEntity
  8
LC-002-002-----0
 62
     7
370
    25
100
AcDbLine
 10
971.15064
 20
2409.147572
 30
0.0
 11
971.848094
 21
2389.175121
 31
0.0
  0
LINE
  5
3A0
102
{ACAD_REACTORS
330
681
102
}
330
1F
100
AcDbEntity
  8
LC-002-002-----0
 62
     7
370
    25
100
AcDbLine
 10
969.110316
 20
2570.040431
 30
0.0
 11
969.014866
 21
2580.977948
 31
0.0
  0
LINE
  5
3A1
102
{ACAD_REACTORS
330
681
102
}
330
1F
100
AcDbEntity
  8
LC-002-002-----0
 62
     7
370
    25
100
AcDbLine
 10
968.962253
 20
2589.120884
 30
0.0
 11
969.024101
 21
2582.029442
 31
0.0
  0
LINE
  5
3A2
102
{ACAD_REACTORS
330
681
102
}
330
1F
100
AcDbEntity
  8
LC-002-002-----0
 62
     7
370
    25
100
AcDbLine
 10
961.598093
 20
2594.09472
 30
0.0
 11
961.598093
 21
2595.092882
 31
0.0
  0
LINE
  5
3A3
102
{ACAD_REACTORS
330
681
102
}
330
1F
100
AcDbEntity
  8
LC-002-002-----0
 62
     7
370
    25
100
AcDbLine
 10
961.848093
 20
2597.092882
 30
0.0
 11
961.848093
 21
2595.092882
 31
0.0
  0
LINE
  5
3A4
102
{ACAD_REACTORS
330
67E
102
}
330
1F
100
AcDbEntity
  8
LC-002-002-----0
 62
     7
370
    25
100
AcDbLine
 10
964.348093
 20
2424.175131
 30
0.0
 11
964.348093
 21
2430.175131
 31
0.0
  0
LINE
  5
3A5
102
{ACAD_REACTORS
330
682
102
}
330
1F
100
AcDbEntity
  8
LC-002-002-----0
 62
     7
370
    25
100
AcDbLine
 10
971.848093
 20
2494.675131
 30
0.0
 11
971.848093
 21
2437.824242
 31
0.0
  0
LINE
  5
3A6
102
{ACAD_REACTORS
330
681
102
}
330
1F
100
AcDbEntity
  8
LC-002-002-----0
 62
     7
370
    25
100
AcDbLine
 10
973.148093
 20
2495.175131
 30
0.0
 11
973.148093
 21
2561.381391
 31
0.0
  0
LINE
  5
3A7
102
{ACAD_REACTORS
330
681
102
}
330
1F
100
AcDbEntity
  8
LC-002-002-----0
 62
     7
370
    25
100
AcDbLine
 10
1004.76884
 20
2586.544839
 30
0.0
 11
1006.838765
 21
2593.109803
 31
0.0
  0
LINE
  5
3A8
102
{ACAD_REACTORS
330
681
102
}
330
1F
100
AcDbEntity
  8
LC-002-002-----0
 62
     7
370
    25
100
AcDbLine
 10
995.548044
 20
2561.381286
 30
0.0
 11
999.585857
 21
2570.040403
 31
0.0
  0
LINE
  5
3A9
102
{ACAD_REACTORS
330
681
102
}
330
1F
100
AcDbEntity
  8
LC-002-002-----0
 62
     7
370
    25
100
AcDbLine
 10
995.548093
 20
2495.175131
 30
0.0
 11
995.548093
 21
2561.381391
 31
0.0
  0
LINE
  5
3AA
102
{ACAD_REACTORS
330
682
102
}
330
1F
100
AcDbEntity
  8
LC-002-002-----0
 62
     7
370
    25
100
AcDbLine
 10
996.848093
 20
2494.675131
 30
0.0
 11
996.848093
 21
2437.824242
 31
0.0
  0
LINE
  5
3AB
102
{ACAD_REACTORS
330
67E
102
}
330
1F
100
AcDbEntity
  8
LC-002-002-----0
 62
     7
370
    25
100
AcDbLine
 10
1004.348093
 20
2424.175131
 30
0.0
 11
1004.348093
 21
2430.175131
 31
0.0
  0
LINE
  5
3AC
102
{ACAD_REACTORS
330
681
102
}
330
1F
100
AcDbEntity
  8
LC-002-002-----0
 62
     7
370
    25
100
AcDbLine
 10
1006.848093
 20
2597.092882
 30
0.0
 11
1006.848093
 21
2595.092882
 31
0.0
  0
LINE
  5
3AD
102
{ACAD_REACTORS
330
681
102
}
330
1F
100
AcDbEntity
  8
LC-002-002-----0
 62
     7
370
    25
100
AcDbLine
 10
1007.098093
 20
2594.09472
 30
0.0
 11
1007.098093
 21
2595.092882
 31
0.0
  0
LINE
  5
3AE
102
{ACAD_REACTORS
330
681
102
}
330
1F
100
AcDbEntity
  8
LC-002-002-----0
 62
     7
370
    25
100
AcDbLine
 10
999.733934
 20
2589.120884
 30
0.0
 11
999.672085
 21
2582.029442
 31
0.0
  0
LINE
  5
3AF
102
{ACAD_REACTORS
330
681
102
}
330
1F
100
AcDbEntity
  8
LC-002-002-----0
 62
     7
370
    25
100
AcDbLine
 10
999.585871
 20
2570.040431
 30
0.0
 11
999.681321
 21
2580.977948
 31
0.0
  0
LINE
  5
3B0
102
{ACAD_REACTORS
330
67E
102
}
330
1F
100
AcDbEntity
  8
LC-002-002-----0
 62
     7
370
    25
100
AcDbLine
 10
997.545546
 20
2409.147572
 30
0.0
 11
997.282836
 21
2401.624527
 31
0.0
  0
LINE
  5
3B1
102
{ACAD_REACTORS
330
681
102
}
330
1F
100
AcDbEntity
  8
LC-002-002-----0
 62
     7
370
    25
100
AcDbLine
 10
961.857421
 20
2593.109803
 30
0.0
 11
963.927347
 21
2586.544839
 31
0.0
  0
LINE
  5
3B2
102
{ACAD_REACTORS
330
681
102
}
330
1F
100
AcDbEntity
  8
LC-002-002-----0
 62
     7
370
    25
100
AcDbLine
 10
973.148142
 20
2561.381286
 30
0.0
 11
969.11033
 21
2570.040403
 31
0.0
  0
LINE
  5
3B3
102
{ACAD_REACTORS
330
67E
102
}
330
1F
100
AcDbEntity
  8
LC-002-002-----0
 62
     7
370
    25
100
AcDbLine
 10
1048.598093
 20
2376.675131
 30
0.0
 11
984.347625
 21
2376.675131
 31
0.0
  0
LINE
  5
3B4
102
{ACAD_REACTORS
330
67E
102
}
330
1F
100
AcDbEntity
  8
LC-002-002-----0
 62
     7
370
    25
100
AcDbLine
 10
1048.598093
 20
2401.675131
 30
0.0
 11
997.284603
 21
2401.675131
 31
0.0
  0
LINE
  5
3B5
102
{ACAD_REACTORS
330
681
102
}
330
1F
100
AcDbEntity
  8
LC-002-002-----0
 62
     7
370
    25
100
AcDbLine
 10
964.667177
 20
2585.325636
 30
0.0
 11
969.014866
 21
2580.977948
 31
0.0
  0
LINE
  5
3B6
102
{ACAD_REACTORS
330
67E
102
}
330
1F
100
AcDbEntity
  8
LC-002-002-----0
 62
     7
370
    25
100
AcDbLine
 10
964.348093
 20
2430.175131
 30
0.0
 11
1004.348093
 21
2430.175131
 31
0.0
  0
LINE
  5
3B7
102
{ACAD_REACTORS
330
682
102
}
330
1F
100
AcDbEntity
  8
LC-002-002-----0
 62
     7
370
    25
100
AcDbLine
 10
996.848093
 20
2437.824242
 30
0.0
 11
971.848093
 21
2437.824242
 31
0.0
  0
LINE
  5
3B8
102
{ACAD_REACTORS
330
682
102
}
330
1F
100
AcDbEntity
  8
LC-002-002-----0
 62
     7
370
    25
100
AcDbLine
 10
996.348093
 20
2495.175131
 30
0.0
 11
972.348093
 21
2495.175131
 31
0.0
  0
LINE
  5
3B9
102
{ACAD_REACTORS
330
681
102
}
330
1F
100
AcDbEntity
  8
LC-002-002-----0
 62
     7
370
    25
100
AcDbLine
 10
973.148093
 20
2561.381391
 30
0.0
 11
995.548093
 21
2561.381391
 31
0.0
  0
LINE
  5
3BA
102
{ACAD_REACTORS
330
681
102
}
330
1F
100
AcDbEntity
  8
LC-002-002-----0
 62
     7
370
    25
100
AcDbLine
 10
969.110344
 20
2570.040373
 30
0.0
 11
999.585843
 21
2570.040373
 31
0.0
  0
LINE
  5
3BB
102
{ACAD_REACTORS
330
681
102
}
330
1F
100
AcDbEntity
  8
LC-002-002-----0
 62
     7
370
    25
100
AcDbLine
 10
1007.098093
 20
2595.092882
 30
0.0
 11
1006.848093
 21
2595.092882
 31
0.0
  0
LINE
  5
3BC
102
{ACAD_REACTORS
330
681
102
}
330
1F
100
AcDbEntity
  8
LC-002-002-----0
 62
     7
370
    25
100
AcDbLine
 10
961.848277
 20
2597.092882
 30
0.0
 11
1006.84791
 21
2597.092882
 31
0.0
  0
ARC
  5
3BD
102
{ACAD_REACTORS
330
67E
102
}
330
1F
100
AcDbEntity
  8
LC-002-002-----0
 62
     7
370
    25
100
AcDbCircle
 10
984.348093
 20
2424.175131
 30
0.0
 40
19.99999999999994
100
AcDbArc
 50
311.290426
 51
0.0
  0
ARC
  5
3BE
102
{ACAD_REACTORS
330
67E
102
}
330
1F
100
AcDbEntity
  8
LC-002-002-----0
 62
     7
370
    25
100
AcDbCircle
 10
984.348093
 20
2424.175131
 30
0.0
 40
19.99999999999977
100
AcDbArc
 50
180.0
 51
228.709438
  0
ARC
  5
3BF
102
{ACAD_REACTORS
330
67E
102
}
330
1F
100
AcDbEntity
  8
LC-002-002-----0
 62
     7
370
    25
100
AcDbCircle
 10
984.348075
 20
2389.17515
 30
0.0
 40
12.49998146379982
100
AcDbArc
 50
180.000085
 51
270.0
  0
ARC
  5
3C0
102
{ACAD_REACTORS
330
682
102
}
330
1F
100
AcDbEntity
  8
LC-002-002-----0
 62
     7
370
    25
100
AcDbCircle
 10
996.348093
 20
2494.675131
 30
0.0
 40
0.5
100
AcDbArc
 50
0.0
 51
90.0
  0
ARC
  5
3C1
102
{ACAD_REACTORS
330
682
102
}
330
1F
100
AcDbEntity
  8
LC-002-002-----0
 62
     7
370
    25
100
AcDbCircle
 10
972.348093
 20
2494.675131
 30
0.0
 40
0.5
100
AcDbArc
 50
90.0
 51
180.0
  0
ARC
  5
3C2
102
{ACAD_REACTORS
330
682
102
}
330
1F
100
AcDbEntity
  8
LC-002-002-----0
 62
     7
370
    25
100
AcDbCircle
 10
997.848093
 20
2437.824242
 30
0.0
 40
1.0
100
AcDbArc
 50
180.0
 51
223.137678
  0
ARC
  5
3C3
102
{ACAD_REACTORS
330
682
102
}
330
1F
100
AcDbEntity
  8
LC-002-002-----0
 62
     7
370
    25
100
AcDbCircle
 10
970.848093
 20
2437.824242
 30
0.0
 40
0.999999999999745
100
AcDbArc
 50
316.862322
 51
0.0
  0
ARC
  5
3C4
102
{ACAD_REACTORS
330
682
102
}
330
1F
100
AcDbEntity
  8
LC-002-002-----0
 62
     7
370
    25
100
AcDbCircle
 10
984.348093
 20
2425.175131
 30
0.0
 40
17.50000000000025
100
AcDbArc
 50
136.85835
 51
163.398451
  0
ARC
  5
3C5
102
{ACAD_REACTORS
330
682
102
}
330
1F
100
AcDbEntity
  8
LC-002-002-----0
 62
     7
370
    25
100
AcDbCircle
 10
984.348093
 20
2425.175131
 30
0.0
 40
17.50000000000008
100
AcDbArc
 50
16.601548
 51
43.141806
  0
ARC
  5
3C6
102
{ACAD_REACTORS
330
681
102
}
330
1F
100
AcDbEntity
  8
LC-002-002-----0
 62
     7
370
    25
100
AcDbCircle
 10
966.788497
 20
2587.446957
 30
0.0
 40
2.999999999999963
100
AcDbArc
 50
197.500173
 51
224.999934
  0
ARC
  5
3C7
102
{ACAD_REACTORS
330
681
102
}
330
1F
100
AcDbEntity
  8
LC-002-002-----0
 62
     7
370
    25
100
AcDbCircle
 10
1005.098093
 20
2594.09472
 30
0.0
 40
1.999999999999859
100
AcDbArc
 50
330.492633
 51
0.0
  0
ARC
  5
3C8
102
{ACAD_REACTORS
330
681
102
}
330
1F
100
AcDbEntity
  8
LC-002-002-----0
 62
     7
370
    25
100
AcDbCircle
 10
963.598093
 20
2594.09472
 30
0.0
 40
2.0
100
AcDbArc
 50
180.0
 51
209.507367
  0
ARC
  5
3C9
102
{ACAD_REACTORS
330
681
102
}
330
1F
100
AcDbEntity
  8
LC-002-002-----0
 62
     7
370
    25
100
AcDbCircle
 10
1001.907689
 20
2587.446957
 30
0.0
 40
3.000000000000082
100
AcDbArc
 50
315.000066
 51
342.499827
  0
INSERT
  5
3F3
102
{ACAD_REACTORS
330
67E
102
}
330
1F
100
AcDbEntity
  8
LC-002-002-----0
 62
     7
370
    25
100
AcDbBlockReference
  2
POLY4
 10
0.0
 20
0.0
 30
0.0
  0
INSERT
  5
415
102
{ACAD_REACTORS
330
681
102
}
330
1F
100
AcDbEntity
  8
LC-002-002-----0
 62
     7
370
    25
100
AcDbBlockReference
  2
POLY5
 10
0.0
 20
0.0
 30
0.0
  0
LINE
  5
416
102
{ACAD_REACTORS
330
681
102
}
330
1F
100
AcDbEntity
  8
LC-002-002-----0
 62
     7
370
    25
100
AcDbLine
 10
1005.084535
 20
2592.09472
 30
0.0
 11
1002.73382
 21
2592.09472
 31
0.0
  0
LINE
  5
417
102
{ACAD_REACTORS
330
681
102
}
330
1F
100
AcDbEntity
  8
LC-002-002-----0
 62
     7
370
    25
100
AcDbLine
 10
961.857509
 20
2593.109649
 30
0.0
 11
961.857509
 21
2593.109649
 31
0.0
  0
LINE
  5
418
102
{ACAD_REACTORS
330
681
102
}
330
1F
100
AcDbEntity
  8
LC-002-002-----0
 62
     7
370
    25
100
AcDbLine
 10
961.857509
 20
2593.109649
 30
0.0
 11
961.872906
 21
2593.083314
 31
0.0
  0
LINE
  5
419
102
{ACAD_REACTORS
330
681
102
}
330
1F
100
AcDbEntity
  8
LC-002-002-----0
 62
     7
370
    25
100
AcDbLine
 10
961.872906
 20
2593.083314
 30
0.0
 11
961.872906
 21
2593.083314
 31
0.0
  0
LINE
  5
41A
102
{ACAD_REACTORS
330
681
102
}
330
1F
100
AcDbEntity
  8
LC-002-002-----0
 62
     7
370
    25
100
AcDbLine
 10
961.872906
 20
2593.083314
 30
0.0
 11
961.913322
 21
2593.018317
 31
0.0
  0
LINE
  5
41B
102
{ACAD_REACTORS
330
681
102
}
330
1F
100
AcDbEntity
  8
LC-002-002-----0
 62
     7
370
    25
100
AcDbLine
 10
961.913322
 20
2593.018317
 30
0.0
 11
961.913322
 21
2593.018317
 31
0.0
  0
LINE
  5
41C
102
{ACAD_REACTORS
330
681
102
}
330
1F
100
AcDbEntity
  8
LC-002-002-----0
 62
     7
370
    25
100
AcDbLine
 10
961.913322
 20
2593.018317
 30
0.0
 11
961.968022
 21
2592.938396
 31
0.0
  0
LINE
  5
41D
102
{ACAD_REACTORS
330
681
102
}
330
1F
100
AcDbEntity
  8
LC-002-002-----0
 62
     7
370
    25
100
AcDbLine
 10
961.968022
 20
2592.938396
 30
0.0
 11
961.968022
 21
2592.938396
 31
0.0
  0
LINE
  5
41E
102
{ACAD_REACTORS
330
681
102
}
330
1F
100
AcDbEntity
  8
LC-002-002-----0
 62
     7
370
    25
100
AcDbLine
 10
961.968022
 20
2592.938396
 30
0.0
 11
962.03694
 21
2592.848301
 31
0.0
  0
LINE
  5
41F
102
{ACAD_REACTORS
330
681
102
}
330
1F
100
AcDbEntity
  8
LC-002-002-----0
 62
     7
370
    25
100
AcDbLine
 10
962.03694
 20
2592.848301
 30
0.0
 11
962.03694
 21
2592.848301
 31
0.0
  0
LINE
  5
420
102
{ACAD_REACTORS
330
681
102
}
330
1F
100
AcDbEntity
  8
LC-002-002-----0
 62
     7
370
    25
100
AcDbLine
 10
962.03694
 20
2592.848301
 30
0.0
 11
962.121601
 21
2592.750543
 31
0.0
  0
LINE
  5
421
102
{ACAD_REACTORS
330
681
102
}
330
1F
100
AcDbEntity
  8
LC-002-002-----0
 62
     7
370
    25
100
AcDbLine
 10
962.121601
 20
2592.750543
 30
0.0
 11
962.121601
 21
2592.750543
 31
0.0
  0
LINE
  5
422
102
{ACAD_REACTORS
330
681
102
}
330
1F
100
AcDbEntity
  8
LC-002-002-----0
 62
     7
370
    25
100
AcDbLine
 10
962.121601
 20
2592.750543
 30
0.0
 11
962.224519
 21
2592.646908
 31
0.0
  0
LINE
  5
423
102
{ACAD_REACTORS
330
681
102
}
330
1F
100
AcDbEntity
  8
LC-002-002-----0
 62
     7
370
    25
100
AcDbLine
 10
962.224519
 20
2592.646908
 30
0.0
 11
962.224519
 21
2592.646908
 31
0.0
  0
LINE
  5
424
102
{ACAD_REACTORS
330
681
102
}
330
1F
100
AcDbEntity
  8
LC-002-002-----0
 62
     7
370
    25
100
AcDbLine
 10
962.224519
 20
2592.646908
 30
0.0
 11
962.350224
 21
2592.538385
 31
0.0
  0
LINE
  5
425
102
{ACAD_REACTORS
330
681
102
}
330
1F
100
AcDbEntity
  8
LC-002-002-----0
 62
     7
370
    25
100
AcDbLine
 10
962.350224
 20
2592.538385
 30
0.0
 11
962.350224
 21
2592.538385
 31
0.0
  0
LINE
  5
426
102
{ACAD_REACTORS
330
681
102
}
330
1F
100
AcDbEntity
  8
LC-002-002-----0
 62
     7
370
    25
100
AcDbLine
 10
962.350224
 20
2592.538385
 30
0.0
 11
962.504876
 21
2592.426762
 31
0.0
  0
LINE
  5
427
102
{ACAD_REACTORS
330
681
102
}
330
1F
100
AcDbEntity
  8
LC-002-002-----0
 62
     7
370
    25
100
AcDbLine
 10
962.504876
 20
2592.426762
 30
0.0
 11
962.504876
 21
2592.426762
 31
0.0
  0
LINE
  5
428
102
{ACAD_REACTORS
330
681
102
}
330
1F
100
AcDbEntity
  8
LC-002-002-----0
 62
     7
370
    25
100
AcDbLine
 10
962.504876
 20
2592.426762
 30
0.0
 11
962.695612
 21
2592.316177
 31
0.0
  0
LINE
  5
429
102
{ACAD_REACTORS
330
681
102
}
330
1F
100
AcDbEntity
  8
LC-002-002-----0
 62
     7
370
    25
100
AcDbLine
 10
962.695612
 20
2592.316177
 30
0.0
 11
962.695612
 21
2592.316177
 31
0.0
  0
LINE
  5
42A
102
{ACAD_REACTORS
330
681
102
}
330
1F
100
AcDbEntity
  8
LC-002-002-----0
 62
     7
370
    25
100
AcDbLine
 10
962.695612
 20
2592.316177
 30
0.0
 11
962.9258
 21
2592.215881
 31
0.0
  0
LINE
  5
42B
102
{ACAD_REACTORS
330
681
102
}
330
1F
100
AcDbEntity
  8
LC-002-002-----0
 62
     7
370
    25
100
AcDbLine
 10
962.92567
 20
2592.215885
 30
0.0
 11
962.92567
 21
2592.215885
 31
0.0
  0
LINE
  5
42C
102
{ACAD_REACTORS
330
681
102
}
330
1F
100
AcDbEntity
  8
LC-002-002-----0
 62
     7
370
    25
100
AcDbLine
 10
962.92567
 20
2592.215885
 30
0.0
 11
963.148914
 21
2592.148924
 31
0.0
  0
LINE
  5
42D
102
{ACAD_REACTORS
330
681
102
}
330
1F
100
AcDbEntity
  8
LC-002-002-----0
 62
     7
370
    25
100
AcDbLine
 10
963.148914
 20
2592.148924
 30
0.0
 11
963.148914
 21
2592.148924
 31
0.0
  0
LINE
  5
42E
102
{ACAD_REACTORS
330
681
102
}
330
1F
100
AcDbEntity
  8
LC-002-002-----0
 62
     7
370
    25
100
AcDbLine
 10
963.148914
 20
2592.148924
 30
0.0
 11
963.37894
 21
2592.108293
 31
0.0
  0
LINE
  5
42F
102
{ACAD_REACTORS
330
681
102
}
330
1F
100
AcDbEntity
  8
LC-002-002-----0
 62
     7
370
    25
100
AcDbLine
 10
963.37894
 20
2592.108293
 30
0.0
 11
963.37894
 21
2592.108293
 31
0.0
  0
LINE
  5
430
102
{ACAD_REACTORS
330
681
102
}
330
1F
100
AcDbEntity
  8
LC-002-002-----0
 62
     7
370
    25
100
AcDbLine
 10
963.37894
 20
2592.108293
 30
0.0
 11
963.611652
 21
2592.09472
 31
0.0
  0
LINE
  5
431
102
{ACAD_REACTORS
330
681
102
}
330
1F
100
AcDbEntity
  8
LC-002-002-----0
 62
     7
370
    25
100
AcDbLine
 10
1005.770517
 20
2592.215885
 30
0.0
 11
1005.770517
 21
2592.215885
 31
0.0
  0
LINE
  5
432
102
{ACAD_REACTORS
330
681
102
}
330
1F
100
AcDbEntity
  8
LC-002-002-----0
 62
     7
370
    25
100
AcDbLine
 10
1005.770517
 20
2592.215885
 30
0.0
 11
1005.547273
 21
2592.148924
 31
0.0
  0
LINE
  5
433
102
{ACAD_REACTORS
330
681
102
}
330
1F
100
AcDbEntity
  8
LC-002-002-----0
 62
     7
370
    25
100
AcDbLine
 10
1005.547273
 20
2592.148924
 30
0.0
 11
1005.547273
 21
2592.148924
 31
0.0
  0
LINE
  5
434
102
{ACAD_REACTORS
330
681
102
}
330
1F
100
AcDbEntity
  8
LC-002-002-----0
 62
     7
370
    25
100
AcDbLine
 10
1005.547273
 20
2592.148924
 30
0.0
 11
1005.317247
 21
2592.108293
 31
0.0
  0
LINE
  5
435
102
{ACAD_REACTORS
330
681
102
}
330
1F
100
AcDbEntity
  8
LC-002-002-----0
 62
     7
370
    25
100
AcDbLine
 10
1005.317247
 20
2592.108293
 30
0.0
 11
1005.317247
 21
2592.108293
 31
0.0
  0
LINE
  5
436
102
{ACAD_REACTORS
330
681
102
}
330
1F
100
AcDbEntity
  8
LC-002-002-----0
 62
     7
370
    25
100
AcDbLine
 10
1005.317247
 20
2592.108293
 30
0.0
 11
1005.084535
 21
2592.09472
 31
0.0
  0
LINE
  5
437
102
{ACAD_REACTORS
330
681
102
}
330
1F
100
AcDbEntity
  8
LC-002-002-----0
 62
     7
370
    25
100
AcDbLine
 10
965.962367
 20
2592.09472
 30
0.0
 11
963.611652
 21
2592.09472
 31
0.0
  0
INSERT
  5
445
102
{ACAD_REACTORS
330
681
102
}
330
1F
100
AcDbEntity
  8
LC-002-002-----0
 62
     7
370
    25
100
AcDbBlockReference
  2
POLY6
 10
0.0
 20
0.0
 30
0.0
  0
INSERT
  5
453
102
{ACAD_REACTORS
330
681
102
}
330
1F
100
AcDbEntity
  8
LC-002-002-----0
 62
     7
370
    25
100
AcDbBlockReference
  2
POLY7
 10
0.0
 20
0.0
 30
0.0
  0
ARC
  5
454
102
{ACAD_REACTORS
330
683
102
}
330
1F
100
AcDbEntity
  8
LC-002-002-----0
 62
     7
370
    25
100
AcDbCircle
 10
848.348093
 20
2336.822903
 30
0.0
 40
22.00000000000023
100
AcDbArc
 50
180.0
 51
0.0
  0
LINE
  5
455
102
{ACAD_REACTORS
330
683
102
}
330
1F
100
AcDbEntity
  8
LC-002-002-----0
 62
     7
370
    25
100
AcDbLine
 10
826.348093
 20
2336.822903
 30
0.0
 11
826.348093
 21
2350.514087
 31
0.0
  0
LINE
  5
456
102
{ACAD_REACTORS
330
683
102
}
330
1F
100
AcDbEntity
  8
LC-002-002-----0
 62
     7
370
    25
100
AcDbLine
 10
870.348093
 20
2336.822903
 30
0.0
 11
870.348093
 21
2350.514087
 31
0.0
  0
LINE
  5
457
102
{ACAD_REACTORS
330
683
102
}
330
1F
100
AcDbEntity
  8
LC-002-002-----0
 62
     7
370
    25
100
AcDbLine
 10
793.348093
 20
2411.425131
 30
0.0
 11
903.348093
 21
2411.425131
 31
0.0
  0
LINE
  5
458
102
{ACAD_REACTORS
330
683
102
}
330
1F
100
AcDbEntity
  8
LC-002-002-----0
 62
     7
370
    25
100
AcDbLine
 10
903.348093
 20
2407.425131
 30
0.0
 11
903.348093
 21
2411.425131
 31
0.0
  0
LINE
  5
459
102
{ACAD_REACTORS
330
683
102
}
330
1F
100
AcDbEntity
  8
LC-002-002-----0
 62
     7
370
    25
100
AcDbLine
 10
885.848093
 20
2368.78245
 30
0.0
 11
883.846231
 21
2368.78245
 31
0.0
  0
LINE
  5
45A
102
{ACAD_REACTORS
330
683
102
}
330
1F
100
AcDbEntity
  8
LC-002-002-----0
 62
     7
370
    25
100
AcDbLine
 10
887.853057
 20
2371.28245
 30
0.0
 11
885.848093
 21
2371.28245
 31
0.0
  0
LINE
  5
45B
102
{ACAD_REACTORS
330
683
102
}
330
1F
100
AcDbEntity
  8
LC-002-002-----0
 62
     7
370
    25
100
AcDbLine
 10
891.097483
 20
2375.612224
 30
0.0
 11
892.847458
 21
2376.622573
 31
0.0
  0
LINE
  5
45C
102
{ACAD_REACTORS
330
683
102
}
330
1F
100
AcDbEntity
  8
LC-002-002-----0
 62
     7
370
    25
100
AcDbLine
 10
883.846231
 20
2368.079205
 30
0.0
 11
883.846231
 21
2368.78245
 31
0.0
  0
LINE
  5
45D
102
{ACAD_REACTORS
330
683
102
}
330
1F
100
AcDbEntity
  8
LC-002-002-----0
 62
     7
370
    25
100
AcDbLine
 10
885.848093
 20
2371.28245
 30
0.0
 11
885.848093
 21
2368.78245
 31
0.0
  0
LINE
  5
45E
102
{ACAD_REACTORS
330
683
102
}
330
1F
100
AcDbEntity
  8
LC-002-002-----0
 62
     7
370
    25
100
AcDbLine
 10
895.848093
 20
2381.819092
 30
0.0
 11
895.848093
 21
2397.28245
 31
0.0
  0
LINE
  5
45F
102
{ACAD_REACTORS
330
683
102
}
330
1F
100
AcDbEntity
  8
LC-002-002-----0
 62
     7
370
    25
100
AcDbLine
 10
876.637032
 20
2358.324069
 30
0.0
 11
877.115479
 21
2360.942933
 31
0.0
  0
LINE
  5
460
102
{ACAD_REACTORS
330
683
102
}
330
1F
100
AcDbEntity
  8
LC-002-002-----0
 62
     7
370
    25
100
AcDbLine
 10
903.348093
 20
2406.964908
 30
0.0
 11
903.348093
 21
2407.425131
 31
0.0
  0
ARC
  5
461
102
{ACAD_REACTORS
330
683
102
}
330
1F
100
AcDbEntity
  8
LC-002-002-----0
 62
     7
370
    25
100
AcDbCircle
 10
899.848093
 20
2397.28245
 30
0.0
 40
4.000000000000252
100
AcDbArc
 50
104.492147
 51
180.0
  0
ARC
  5
462
102
{ACAD_REACTORS
330
683
102
}
330
1F
100
AcDbEntity
  8
LC-002-002-----0
 62
     7
370
    25
100
AcDbCircle
 10
897.348093
 20
2406.964908
 30
0.0
 40
5.999999999999658
100
AcDbArc
 50
284.469452
 51
0.0
  0
ARC
  5
463
102
{ACAD_REACTORS
330
683
102
}
330
1F
100
AcDbEntity
  8
LC-002-002-----0
 62
     7
370
    25
100
AcDbCircle
 10
889.848093
 20
2381.819092
 30
0.0
 40
5.999999999999977
100
AcDbArc
 50
299.988476
 51
0.0
  0
ARC
  5
464
102
{ACAD_REACTORS
330
683
102
}
330
1F
100
AcDbEntity
  8
LC-002-002-----0
 62
     7
370
    25
100
AcDbCircle
 10
893.598093
 20
2371.28245
 30
0.0
 40
5.0000000000003
100
AcDbArc
 50
120.016153
 51
172.072225
  0
ARC
  5
465
102
{ACAD_REACTORS
330
683
102
}
330
1F
100
AcDbEntity
  8
LC-002-002-----0
 62
     7
370
    25
100
AcDbCircle
 10
887.853531
 20
2372.08245
 30
0.0
 40
0.8000000000001819
100
AcDbArc
 50
270.0
 51
352.062606
  0
ARC
  5
466
102
{ACAD_REACTORS
330
683
102
}
330
1F
100
AcDbEntity
  8
LC-002-002-----0
 62
     7
370
    25
100
AcDbCircle
 10
870.242869
 20
2359.49226
 30
0.0
 40
6.499999999999931
100
AcDbArc
 50
289.07704
 51
349.645823
  0
ARC
  5
467
102
{ACAD_REACTORS
330
683
102
}
330
1F
100
AcDbEntity
  8
LC-002-002-----0
 62
     7
370
    25
100
AcDbCircle
 10
873.348093
 20
2350.514087
 30
0.0
 40
2.99999999999994
100
AcDbArc
 50
109.055448
 51
180.0
  0
ARC
  5
468
102
{ACAD_REACTORS
330
683
102
}
330
1F
100
AcDbEntity
  8
LC-002-002-----0
 62
     7
370
    25
100
AcDbCircle
 10
881.846231
 20
2368.079205
 30
0.0
 40
1.999999999999561
100
AcDbArc
 50
334.152631
 51
360.0
  0
ARC
  5
469
102
{ACAD_REACTORS
330
683
102
}
330
1F
100
AcDbEntity
  8
LC-002-002-----0
 62
     7
370
    25
100
AcDbCircle
 10
878.246297
 20
2369.822903
 30
0.0
 40
5.999999999999409
100
AcDbArc
 50
286.283517
 51
334.155028
  0
ARC
  5
46A
102
{ACAD_REACTORS
330
683
102
}
330
1F
100
AcDbEntity
  8
LC-002-002-----0
 62
     7
370
    25
100
AcDbCircle
 10
881.050356
 20
2360.224087
 30
0.0
 40
4.000000000000306
100
AcDbArc
 50
106.281751
 51
169.647048
  0
LINE
  5
46B
102
{ACAD_REACTORS
330
683
102
}
330
1F
100
AcDbEntity
  8
LC-002-002-----0
 62
     7
370
    25
100
AcDbLine
 10
793.348093
 20
2407.425131
 30
0.0
 11
793.348093
 21
2411.425131
 31
0.0
  0
LINE
  5
46C
102
{ACAD_REACTORS
330
683
102
}
330
1F
100
AcDbEntity
  8
LC-002-002-----0
 62
     7
370
    25
100
AcDbLine
 10
805.598703
 20
2375.612224
 30
0.0
 11
803.848728
 21
2376.622573
 31
0.0
  0
LINE
  5
46D
102
{ACAD_REACTORS
330
683
102
}
330
1F
100
AcDbEntity
  8
LC-002-002-----0
 62
     7
370
    25
100
AcDbLine
 10
812.849956
 20
2368.079205
 30
0.0
 11
812.849956
 21
2368.78245
 31
0.0
  0
LINE
  5
46E
102
{ACAD_REACTORS
330
683
102
}
330
1F
100
AcDbEntity
  8
LC-002-002-----0
 62
     7
370
    25
100
AcDbLine
 10
810.848093
 20
2371.28245
 30
0.0
 11
810.848093
 21
2368.78245
 31
0.0
  0
LINE
  5
46F
102
{ACAD_REACTORS
330
683
102
}
330
1F
100
AcDbEntity
  8
LC-002-002-----0
 62
     7
370
    25
100
AcDbLine
 10
800.848093
 20
2381.819092
 30
0.0
 11
800.848093
 21
2397.28245
 31
0.0
  0
LINE
  5
470
102
{ACAD_REACTORS
330
683
102
}
330
1F
100
AcDbEntity
  8
LC-002-002-----0
 62
     7
370
    25
100
AcDbLine
 10
820.059154
 20
2358.324069
 30
0.0
 11
819.580708
 21
2360.942933
 31
0.0
  0
LINE
  5
471
102
{ACAD_REACTORS
330
683
102
}
330
1F
100
AcDbEntity
  8
LC-002-002-----0
 62
     7
370
    25
100
AcDbLine
 10
793.348093
 20
2406.964908
 30
0.0
 11
793.348093
 21
2407.425131
 31
0.0
  0
ARC
  5
472
102
{ACAD_REACTORS
330
683
102
}
330
1F
100
AcDbEntity
  8
LC-002-002-----0
 62
     7
370
    25
100
AcDbCircle
 10
796.848093
 20
2397.28245
 30
0.0
 40
4.000000000000227
100
AcDbArc
 50
0.0
 51
75.507853
  0
ARC
  5
473
102
{ACAD_REACTORS
330
683
102
}
330
1F
100
AcDbEntity
  8
LC-002-002-----0
 62
     7
370
    25
100
AcDbCircle
 10
799.348093
 20
2406.964908
 30
0.0
 40
6.0
100
AcDbArc
 50
180.0
 51
255.530548
  0
ARC
  5
474
102
{ACAD_REACTORS
330
683
102
}
330
1F
100
AcDbEntity
  8
LC-002-002-----0
 62
     7
370
    25
100
AcDbCircle
 10
806.848093
 20
2381.819092
 30
0.0
 40
6.0
100
AcDbArc
 50
180.0
 51
240.011524
  0
ARC
  5
475
102
{ACAD_REACTORS
330
683
102
}
330
1F
100
AcDbEntity
  8
LC-002-002-----0
 62
     7
370
    25
100
AcDbCircle
 10
803.098093
 20
2371.28245
 30
0.0
 40
4.999999999999906
100
AcDbArc
 50
7.927775
 51
59.983847
  0
ARC
  5
476
102
{ACAD_REACTORS
330
683
102
}
330
1F
100
AcDbEntity
  8
LC-002-002-----0
 62
     7
370
    25
100
AcDbCircle
 10
808.842656
 20
2372.08245
 30
0.0
 40
0.7999999999997188
100
AcDbArc
 50
187.937394
 51
270.0
  0
ARC
  5
477
102
{ACAD_REACTORS
330
683
102
}
330
1F
100
AcDbEntity
  8
LC-002-002-----0
 62
     7
370
    25
100
AcDbCircle
 10
826.453318
 20
2359.49226
 30
0.0
 40
6.499999999999973
100
AcDbArc
 50
190.354177
 51
250.92296
  0
ARC
  5
478
102
{ACAD_REACTORS
330
683
102
}
330
1F
100
AcDbEntity
  8
LC-002-002-----0
 62
     7
370
    25
100
AcDbCircle
 10
823.348093
 20
2350.514087
 30
0.0
 40
2.999999995699682
100
AcDbArc
 50
0.0
 51
70.944552
  0
ARC
  5
479
102
{ACAD_REACTORS
330
683
102
}
330
1F
100
AcDbEntity
  8
LC-002-002-----0
 62
     7
370
    25
100
AcDbCircle
 10
814.849956
 20
2368.079205
 30
0.0
 40
2.0
100
AcDbArc
 50
180.0
 51
205.847369
  0
ARC
  5
47A
102
{ACAD_REACTORS
330
683
102
}
330
1F
100
AcDbEntity
  8
LC-002-002-----0
 62
     7
370
    25
100
AcDbCircle
 10
818.449889
 20
2369.822903
 30
0.0
 40
6.000000000000001
100
AcDbArc
 50
205.844972
 51
253.716483
  0
ARC
  5
47B
102
{ACAD_REACTORS
330
683
102
}
330
1F
100
AcDbEntity
  8
LC-002-002-----0
 62
     7
370
    25
100
AcDbCircle
 10
815.645831
 20
2360.224087
 30
0.0
 40
3.999999999999797
100
AcDbArc
 50
10.352952
 51
73.718249
  0
ARC
  5
47C
102
{ACAD_REACTORS
330
683
102
}
330
1F
100
AcDbEntity
  8
LC-002-002-----0
 62
     7
370
    25
100
AcDbCircle
 10
848.348093
 20
2336.822903
 30
0.0
 40
27.70479324130015
100
AcDbArc
 50
145.394244
 51
34.605756
  0
ARC
  5
47D
102
{ACAD_REACTORS
330
680
102
}
330
1F
100
AcDbEntity
  8
LC-002-002-----0
 62
     7
370
    25
100
AcDbCircle
 10
1071.348093
 20
2406.964908
 30
0.0
 40
5.999999999999773
100
AcDbArc
 50
180.0
 51
255.530548
  0
ARC
  5
47E
102
{ACAD_REACTORS
330
680
102
}
330
1F
100
AcDbEntity
  8
LC-002-002-----0
 62
     7
370
    25
100
AcDbCircle
 10
1068.848093
 20
2397.28245
 30
0.0
 40
3.999999999999773
100
AcDbArc
 50
0.0
 51
75.507853
  0
LINE
  5
47F
102
{ACAD_REACTORS
330
680
102
}
330
1F
100
AcDbEntity
  8
LC-002-002-----0
 62
     7
370
    25
100
AcDbLine
 10
1072.848093
 20
2381.819092
 30
0.0
 11
1072.848093
 21
2397.28245
 31
0.0
  0
LINE
  5
480
102
{ACAD_REACTORS
330
680
102
}
330
1F
100
AcDbEntity
  8
LC-002-002-----0
 62
     7
370
    25
100
AcDbLine
 10
1077.598703
 20
2375.612224
 30
0.0
 11
1075.848728
 21
2376.622573
 31
0.0
  0
ARC
  5
481
102
{ACAD_REACTORS
330
680
102
}
330
1F
100
AcDbEntity
  8
LC-002-002-----0
 62
     7
370
    25
100
AcDbCircle
 10
1078.848093
 20
2381.819092
 30
0.0
 40
5.999999999999773
100
AcDbArc
 50
180.0
 51
240.011524
  0
LINE
  5
482
102
{ACAD_REACTORS
330
680
102
}
330
1F
100
AcDbEntity
  8
LC-002-002-----0
 62
     7
370
    25
100
AcDbLine
 10
1082.848093
 20
2368.78245
 30
0.0
 11
1084.849956
 21
2368.78245
 31
0.0
  0
LINE
  5
483
102
{ACAD_REACTORS
330
680
102
}
330
1F
100
AcDbEntity
  8
LC-002-002-----0
 62
     7
370
    25
100
AcDbLine
 10
1084.849956
 20
2368.079205
 30
0.0
 11
1084.849956
 21
2368.78245
 31
0.0
  0
LINE
  5
484
102
{ACAD_REACTORS
330
680
102
}
330
1F
100
AcDbEntity
  8
LC-002-002-----0
 62
     7
370
    25
100
AcDbLine
 10
1082.848093
 20
2371.28245
 30
0.0
 11
1082.848093
 21
2368.78245
 31
0.0
  0
ARC
  5
485
102
{ACAD_REACTORS
330
680
102
}
330
1F
100
AcDbEntity
  8
LC-002-002-----0
 62
     7
370
    25
100
AcDbCircle
 10
1086.849956
 20
2368.079205
 30
0.0
 40
2.000000000000227
100
AcDbArc
 50
180.0
 51
205.847369
  0
LINE
  5
486
102
{ACAD_REACTORS
330
680
102
}
330
1F
100
AcDbEntity
  8
LC-002-002-----0
 62
     7
370
    25
100
AcDbLine
 10
1080.84313
 20
2371.28245
 30
0.0
 11
1082.848093
 21
2371.28245
 31
0.0
  0
ARC
  5
487
102
{ACAD_REACTORS
330
680
102
}
330
1F
100
AcDbEntity
  8
LC-002-002-----0
 62
     7
370
    25
100
AcDbCircle
 10
1080.842656
 20
2372.08245
 30
0.0
 40
0.7999999999992057
100
AcDbArc
 50
187.937394
 51
270.0
  0
ARC
  5
488
102
{ACAD_REACTORS
330
680
102
}
330
1F
100
AcDbEntity
  8
LC-002-002-----0
 62
     7
370
    25
100
AcDbCircle
 10
1075.098093
 20
2371.28245
 30
0.0
 40
4.999999999999906
100
AcDbArc
 50
7.927775
 51
59.983847
  0
LINE
  5
489
102
{ACAD_REACTORS
330
681
102
}
330
1F
100
AcDbEntity
  8
LC-002-002-----0
 62
     7
370
    25
100
AcDbLine
 10
961.848093
 20
2595.092882
 30
0.0
 11
961.598093
 21
2595.092882
 31
0.0
  0
LINE
  5
48A
102
{ACAD_REACTORS
330
683
102
}
330
1F
100
AcDbEntity
  8
LC-002-002-----0
 62
     7
370
    25
100
AcDbLine
 10
810.848093
 20
2371.28245
 30
0.0
 11
808.842656
 21
2371.28245
 31
0.0
  0
LINE
  5
48B
102
{ACAD_REACTORS
330
683
102
}
330
1F
100
AcDbEntity
  8
LC-002-002-----0
 62
     7
370
    25
100
AcDbLine
 10
812.849956
 20
2368.78245
 30
0.0
 11
810.848093
 21
2368.78245
 31
0.0
  0
ARC
  5
48C
102
{ACAD_REACTORS
330
679
102
}
330
1F
100
AcDbEntity
  8
LC-002-002-----0
 62
     7
370
    25
100
AcDbCircle
 10
1849.830978
 20
1714.775727
 30
0.0
 40
2.999999999999853
100
AcDbArc
 50
270.499699
 51
0.0
  0
ARC
  5
48D
102
{ACAD_REACTORS
330
679
102
}
330
1F
100
AcDbEntity
  8
LC-002-002-----0
 62
     7
370
    25
100
AcDbCircle
 10
1849.830978
 20
1678.004273
 30
0.0
 40
3.0
100
AcDbArc
 50
0.0
 51
89.500301
  0
ARC
  5
48E
102
{ACAD_REACTORS
330
677
102
}
330
1F
100
AcDbEntity
  8
LC-002-002-----0
 62
     7
370
    25
100
AcDbCircle
 10
1597.172042
 20
1821.39
 30
0.0
 40
21.80000000000009
100
AcDbArc
 50
336.553383
 51
23.446617
  0
LINE
  5
48F
102
{ACAD_REACTORS
330
677
102
}
330
1F
100
AcDbEntity
  8
LC-002-002-----0
 62
     7
370
    25
100
AcDbLine
 10
1558.942589
 20
1942.415419
 30
0.0
 11
1559.713133
 21
1943.895621
 31
0.0
  0
LINE
  5
490
102
{ACAD_REACTORS
330
677
102
}
330
1F
100
AcDbEntity
  8
LC-002-002-----0
 62
     7
370
    25
100
AcDbLine
 10
1560.483409
 20
1942.415307
 30
0.0
 11
1561.254067
 21
1943.895727
 31
0.0
  0
LINE
  5
491
102
{ACAD_REACTORS
330
677
102
}
330
1F
100
AcDbEntity
  8
LC-002-002-----0
 62
     7
370
    25
100
AcDbLine
 10
1562.024346
 20
1942.415419
 30
0.0
 11
1562.794778
 21
1943.895406
 31
0.0
  0
LINE
  5
492
102
{ACAD_REACTORS
330
677
102
}
330
1F
100
AcDbEntity
  8
LC-002-002-----0
 62
     7
370
    25
100
AcDbLine
 10
1563.565224
 20
1942.415419
 30
0.0
 11
1564.335657
 21
1943.895406
 31
0.0
  0
LINE
  5
493
102
{ACAD_REACTORS
330
677
102
}
330
1F
100
AcDbEntity
  8
LC-002-002-----0
 62
     7
370
    25
100
AcDbLine
 10
1565.106103
 20
1942.415419
 30
0.0
 11
1565.876535
 21
1943.895406
 31
0.0
  0
LINE
  5
494
102
{ACAD_REACTORS
330
677
102
}
330
1F
100
AcDbEntity
  8
LC-002-002-----0
 62
     7
370
    25
100
AcDbLine
 10
1566.646981
 20
1942.415419
 30
0.0
 11
1567.417414
 21
1943.895406
 31
0.0
  0
LINE
  5
495
102
{ACAD_REACTORS
330
677
102
}
330
1F
100
AcDbEntity
  8
LC-002-002-----0
 62
     7
370
    25
100
AcDbLine
 10
1568.18786
 20
1942.415419
 30
0.0
 11
1568.958292
 21
1943.895406
 31
0.0
  0
LINE
  5
496
102
{ACAD_REACTORS
330
677
102
}
330
1F
100
AcDbEntity
  8
LC-002-002-----0
 62
     7
370
    25
100
AcDbLine
 10
1570.958318
 20
1943.181489
 30
0.0
 11
1574.072067
 21
1946.295238
 31
0.0
  0
LINE
  5
497
102
{ACAD_REACTORS
330
677
102
}
330
1F
100
AcDbEntity
  8
LC-002-002-----0
 62
     7
370
    25
100
AcDbLine
 10
1557.172042
 20
1943.895213
 30
0.0
 11
1557.172042
 21
1988.695213
 31
0.0
  0
LINE
  5
498
102
{ACAD_REACTORS
330
677
102
}
330
1F
100
AcDbEntity
  8
LC-002-002-----0
 62
     7
370
    25
100
AcDbLine
 10
1575.172163
 20
1938.39012
 30
0.0
 11
1577.172067
 21
1940.390024
 31
0.0
  0
LINE
  5
499
102
{ACAD_REACTORS
330
677
102
}
330
1F
100
AcDbEntity
  8
LC-002-002-----0
 62
     7
370
    25
100
AcDbLine
 10
1574.072042
 20
1986.295213
 30
0.0
 11
1577.172042
 21
1986.295213
 31
0.0
  0
LINE
  5
49A
102
{ACAD_REACTORS
330
677
102
}
330
1F
100
AcDbEntity
  8
LC-002-002-----0
 62
     7
370
    25
100
AcDbLine
 10
1569.467249
 20
1913.89
 30
0.0
 11
1569.467249
 21
1916.39
 31
0.0
  0
LINE
  5
49B
102
{ACAD_REACTORS
330
677
102
}
330
1F
100
AcDbEntity
  8
LC-002-002-----0
 62
     7
370
    25
100
AcDbLine
 10
1570.217249
 20
1912.89
 30
0.0
 11
1570.217249
 21
1913.14
 31
0.0
  0
LINE
  5
49C
102
{ACAD_REACTORS
330
677
102
}
330
1F
100
AcDbEntity
  8
LC-002-002-----0
 62
     7
370
    25
100
AcDbLine
 10
1570.958318
 20
1943.181489
 30
0.0
 11
1570.958318
 21
1989.408938
 31
0.0
  0
LINE
  5
49D
102
{ACAD_REACTORS
330
677
102
}
330
1F
100
AcDbEntity
  8
LC-002-002-----0
 62
     7
370
    25
100
AcDbLine
 10
1571.372042
 20
1912.89
 30
0.0
 11
1571.372042
 21
1899.39
 31
0.0
  0
LINE
  5
49E
102
{ACAD_REACTORS
330
678
102
}
330
1F
100
AcDbEntity
  8
LC-002-002-----0
 62
     7
370
    25
100
AcDbLine
 10
1574.772042
 20
1722.89
 30
0.0
 11
1574.772042
 21
1746.39
 31
0.0
  0
LINE
  5
49F
102
{ACAD_REACTORS
330
677
102
}
330
1F
100
AcDbEntity
  8
LC-002-002-----0
 62
     7
370
    25
100
AcDbLine
 10
1575.172042
 20
1916.39
 30
0.0
 11
1575.172042
 21
1938.39
 31
0.0
  0
LINE
  5
4A0
102
{ACAD_REACTORS
330
677
102
}
330
1F
100
AcDbEntity
  8
LC-002-002-----0
 62
     7
370
    25
100
AcDbLine
 10
1577.172042
 20
1765.39
 30
0.0
 11
1577.172042
 21
1897.39
 31
0.0
  0
LINE
  5
4A1
102
{ACAD_REACTORS
330
677
102
}
330
1F
100
AcDbEntity
  8
LC-002-002-----0
 62
     7
370
    25
100
AcDbLine
 10
1577.172042
 20
1945.790598
 30
0.0
 11
1577.172042
 21
1940.39
 31
0.0
  0
LINE
  5
4A2
102
{ACAD_REACTORS
330
677
102
}
330
1F
100
AcDbEntity
  8
LC-002-002-----0
 62
     7
370
    25
100
AcDbLine
 10
1617.172042
 20
1765.39
 30
0.0
 11
1617.172042
 21
1897.39
 31
0.0
  0
LINE
  5
4A3
102
{ACAD_REACTORS
330
677
102
}
330
1F
100
AcDbEntity
  8
LC-002-002-----0
 62
     7
370
    25
100
AcDbLine
 10
1617.172042
 20
1946.295213
 30
0.0
 11
1617.172042
 21
1940.39
 31
0.0
  0
LINE
  5
4A4
102
{ACAD_REACTORS
330
677
102
}
330
1F
100
AcDbEntity
  8
LC-002-002-----0
 62
     7
370
    25
100
AcDbLine
 10
1619.172042
 20
1916.39
 30
0.0
 11
1619.172042
 21
1938.39
 31
0.0
  0
LINE
  5
4A5
102
{ACAD_REACTORS
330
678
102
}
330
1F
100
AcDbEntity
  8
LC-002-002-----0
 62
     7
370
    25
100
AcDbLine
 10
1619.572042
 20
1724.843149
 30
0.0
 11
1619.572042
 21
1746.39
 31
0.0
  0
LINE
  5
4A6
102
{ACAD_REACTORS
330
677
102
}
330
1F
100
AcDbEntity
  8
LC-002-002-----0
 62
     7
370
    25
100
AcDbLine
 10
1624.126835
 20
1913.139999
 30
0.0
 11
1624.876835
 21
1913.889999
 31
0.0
  0
LINE
  5
4A7
102
{ACAD_REACTORS
330
677
102
}
330
1F
100
AcDbEntity
  8
LC-002-002-----0
 62
     7
370
    25
100
AcDbLine
 10
1574.072042
 20
1946.295213
 30
0.0
 11
1576.667427
 21
1946.295213
 31
0.0
  0
LINE
  5
4A8
102
{ACAD_REACTORS
330
677
102
}
330
1F
100
AcDbEntity
  8
LC-002-002-----0
 62
     7
370
    25
100
AcDbLine
 10
1557.172042
 20
1943.895213
 30
0.0
 11
1558.172042
 21
1943.895213
 31
0.0
  0
LINE
  5
4A9
102
{ACAD_REACTORS
330
677
102
}
330
1F
100
AcDbEntity
  8
LC-002-002-----0
 62
     7
370
    25
100
AcDbLine
 10
1568.958192
 20
1943.895213
 30
0.0
 11
1570.958192
 21
1943.895213
 31
0.0
  0
LINE
  5
4AA
102
{ACAD_REACTORS
330
677
102
}
330
1F
100
AcDbEntity
  8
LC-002-002-----0
 62
     7
370
    25
100
AcDbLine
 10
1622.972042
 20
1912.89
 30
0.0
 11
1622.972042
 21
1899.39
 31
0.0
  0
LINE
  5
4AB
102
{ACAD_REACTORS
330
677
102
}
330
1F
100
AcDbEntity
  8
LC-002-002-----0
 62
     7
370
    25
100
AcDbLine
 10
1624.126836
 20
1912.89
 30
0.0
 11
1624.126836
 21
1913.14
 31
0.0
  0
LINE
  5
4AC
102
{ACAD_REACTORS
330
677
102
}
330
1F
100
AcDbEntity
  8
LC-002-002-----0
 62
     7
370
    25
100
AcDbLine
 10
1624.876836
 20
1913.89
 30
0.0
 11
1624.876836
 21
1916.39
 31
0.0
  0
LINE
  5
4AD
102
{ACAD_REACTORS
330
677
102
}
330
1F
100
AcDbEntity
  8
LC-002-002-----0
 62
     7
370
    25
100
AcDbLine
 10
1569.467249
 20
1916.39
 30
0.0
 11
1624.876836
 21
1916.39
 31
0.0
  0
LINE
  5
4AE
102
{ACAD_REACTORS
330
677
102
}
330
1F
100
AcDbEntity
  8
LC-002-002-----0
 62
     7
370
    25
100
AcDbLine
 10
1624.126836
 20
1912.89
 30
0.0
 11
1570.217249
 21
1912.89
 31
0.0
  0
LINE
  5
4AF
102
{ACAD_REACTORS
330
677
102
}
330
1F
100
AcDbEntity
  8
LC-002-002-----0
 62
     7
370
    25
100
AcDbLine
 10
1620.972162
 20
1897.39
 30
0.0
 11
1573.372042
 21
1897.39
 31
0.0
  0
LINE
  5
4B0
102
{ACAD_REACTORS
330
677
102
}
330
1F
100
AcDbEntity
  8
LC-002-002-----0
 62
     7
370
    25
100
AcDbLine
 10
1570.958318
 20
1989.408938
 30
0.0
 11
1574.072067
 21
1986.295189
 31
0.0
  0
LINE
  5
4B1
102
{ACAD_REACTORS
330
677
102
}
330
1F
100
AcDbEntity
  8
LC-002-002-----0
 62
     7
370
    25
100
AcDbLine
 10
1619.171922
 20
1938.39012
 30
0.0
 11
1617.171985
 21
1940.390058
 31
0.0
  0
LINE
  5
4B2
102
{ACAD_REACTORS
330
677
102
}
330
1F
100
AcDbEntity
  8
LC-002-002-----0
 62
     7
370
    25
100
AcDbLine
 10
1570.21725
 20
1913.139999
 30
0.0
 11
1569.46725
 21
1913.889999
 31
0.0
  0
LINE
  5
4B3
102
{ACAD_REACTORS
330
677
102
}
330
1F
100
AcDbEntity
  8
LC-002-002-----0
 62
     7
370
    25
100
AcDbLine
 10
1567.417268
 20
1943.895301
 30
0.0
 11
1568.187704
 21
1942.415307
 31
0.0
  0
LINE
  5
4B4
102
{ACAD_REACTORS
330
677
102
}
330
1F
100
AcDbEntity
  8
LC-002-002-----0
 62
     7
370
    25
100
AcDbLine
 10
1565.876389
 20
1943.895301
 30
0.0
 11
1566.646825
 21
1942.415307
 31
0.0
  0
LINE
  5
4B5
102
{ACAD_REACTORS
330
677
102
}
330
1F
100
AcDbEntity
  8
LC-002-002-----0
 62
     7
370
    25
100
AcDbLine
 10
1564.335511
 20
1943.895301
 30
0.0
 11
1565.105947
 21
1942.415307
 31
0.0
  0
LINE
  5
4B6
102
{ACAD_REACTORS
330
677
102
}
330
1F
100
AcDbEntity
  8
LC-002-002-----0
 62
     7
370
    25
100
AcDbLine
 10
1562.794632
 20
1943.895301
 30
0.0
 11
1563.565068
 21
1942.415307
 31
0.0
  0
LINE
  5
4B7
102
{ACAD_REACTORS
330
677
102
}
330
1F
100
AcDbEntity
  8
LC-002-002-----0
 62
     7
370
    25
100
AcDbLine
 10
1561.253587
 20
1943.895621
 30
0.0
 11
1562.02419
 21
1942.415307
 31
0.0
  0
LINE
  5
4B8
102
{ACAD_REACTORS
330
677
102
}
330
1F
100
AcDbEntity
  8
LC-002-002-----0
 62
     7
370
    25
100
AcDbLine
 10
1559.712654
 20
1943.895727
 30
0.0
 11
1560.483253
 21
1942.415419
 31
0.0
  0
LINE
  5
4B9
102
{ACAD_REACTORS
330
677
102
}
330
1F
100
AcDbEntity
  8
LC-002-002-----0
 62
     7
370
    25
100
AcDbLine
 10
1558.17183
 20
1943.895621
 30
0.0
 11
1558.942433
 21
1942.415307
 31
0.0
  0
ARC
  5
4BA
102
{ACAD_REACTORS
330
677
102
}
330
1F
100
AcDbEntity
  8
LC-002-002-----0
 62
     7
370
    25
100
AcDbCircle
 10
1577.172042
 20
1946.295213
 30
0.0
 40
39.99972357249999
100
AcDbArc
 50
0.0
 51
90.0
  0
ARC
  5
4BB
102
{ACAD_REACTORS
330
677
102
}
330
1F
100
AcDbEntity
  8
LC-002-002-----0
 62
     7
370
    25
100
AcDbCircle
 10
1573.372042
 20
1899.39
 30
0.0
 40
2.0
100
AcDbArc
 50
180.0
 51
270.0
  0
ARC
  5
4BC
102
{ACAD_REACTORS
330
677
102
}
330
1F
100
AcDbEntity
  8
LC-002-002-----0
 62
     7
370
    25
100
AcDbCircle
 10
1620.972042
 20
1899.39
 30
0.0
 40
2.0
100
AcDbArc
 50
270.0
 51
360.0
  0
LINE
  5
4BD
102
{ACAD_REACTORS
330
678
102
}
330
1F
100
AcDbEntity
  8
LC-002-002-----0
 62
     7
370
    25
100
AcDbLine
 10
1684.524271
 20
1716.39
 30
0.0
 11
1690.524271
 21
1716.39
 31
0.0
  0
LINE
  5
4BE
102
{ACAD_REACTORS
330
67A
102
}
330
1F
100
AcDbEntity
  8
LC-002-002-----0
 62
     7
370
    25
100
AcDbLine
 10
1755.024271
 20
1708.89
 30
0.0
 11
1698.173382
 21
1708.89
 31
0.0
  0
LINE
  5
4BF
102
{ACAD_REACTORS
330
67A
102
}
330
1F
100
AcDbEntity
  8
LC-002-002-----0
 62
     7
370
    25
100
AcDbLine
 10
1755.024271
 20
1683.89
 30
0.0
 11
1698.173382
 21
1683.89
 31
0.0
  0
LINE
  5
4C0
102
{ACAD_REACTORS
330
678
102
}
330
1F
100
AcDbEntity
  8
LC-002-002-----0
 62
     7
370
    25
100
AcDbLine
 10
1684.524271
 20
1676.39
 30
0.0
 11
1690.524271
 21
1676.39
 31
0.0
  0
LINE
  5
4C1
102
{ACAD_REACTORS
330
678
102
}
330
1F
100
AcDbEntity
  8
LC-002-002-----0
 62
     7
370
    25
100
AcDbLine
 10
1690.524271
 20
1716.39
 30
0.0
 11
1690.524271
 21
1676.39
 31
0.0
  0
LINE
  5
4C2
102
{ACAD_REACTORS
330
67A
102
}
330
1F
100
AcDbEntity
  8
LC-002-002-----0
 62
     7
370
    25
100
AcDbLine
 10
1698.173382
 20
1683.89
 30
0.0
 11
1698.173382
 21
1708.89
 31
0.0
  0
LINE
  5
4C3
102
{ACAD_REACTORS
330
67A
102
}
330
1F
100
AcDbEntity
  8
LC-002-002-----0
 62
     7
370
    25
100
AcDbLine
 10
1755.524271
 20
1684.39
 30
0.0
 11
1755.524271
 21
1708.39
 31
0.0
  0
ARC
  5
4C4
102
{ACAD_REACTORS
330
678
102
}
330
1F
100
AcDbEntity
  8
LC-002-002-----0
 62
     7
370
    25
100
AcDbCircle
 10
1684.524271
 20
1696.39
 30
0.0
 40
20.00000000000009
100
AcDbArc
 50
230.394348
 51
270.0
  0
ARC
  5
4C5
102
{ACAD_REACTORS
330
678
102
}
330
1F
100
AcDbEntity
  8
LC-002-002-----0
 62
     7
370
    25
100
AcDbCircle
 10
1684.524271
 20
1696.39
 30
0.0
 40
20.0
100
AcDbArc
 50
90.0
 51
129.605652
  0
ARC
  5
4C6
102
{ACAD_REACTORS
330
67A
102
}
330
1F
100
AcDbEntity
  8
LC-002-002-----0
 62
     7
370
    25
100
AcDbCircle
 10
1755.024271
 20
1684.39
 30
0.0
 40
0.5
100
AcDbArc
 50
270.0
 51
0.0
  0
ARC
  5
4C7
102
{ACAD_REACTORS
330
67A
102
}
330
1F
100
AcDbEntity
  8
LC-002-002-----0
 62
     7
370
    25
100
AcDbCircle
 10
1755.024271
 20
1708.39
 30
0.0
 40
0.5
100
AcDbArc
 50
0.0
 51
90.0
  0
ARC
  5
4C8
102
{ACAD_REACTORS
330
67A
102
}
330
1F
100
AcDbEntity
  8
LC-002-002-----0
 62
     7
370
    25
100
AcDbCircle
 10
1698.173382
 20
1682.89
 30
0.0
 40
1.0
100
AcDbArc
 50
90.0
 51
133.137678
  0
ARC
  5
4C9
102
{ACAD_REACTORS
330
67A
102
}
330
1F
100
AcDbEntity
  8
LC-002-002-----0
 62
     7
370
    25
100
AcDbCircle
 10
1698.173382
 20
1709.89
 30
0.0
 40
1.000000000000066
100
AcDbArc
 50
226.862322
 51
270.0
  0
ARC
  5
4CA
102
{ACAD_REACTORS
330
67A
102
}
330
1F
100
AcDbEntity
  8
LC-002-002-----0
 62
     7
370
    25
100
AcDbCircle
 10
1685.524271
 20
1696.39
 30
0.0
 40
17.50000000000025
100
AcDbArc
 50
46.85835
 51
73.398451
  0
ARC
  5
4CB
102
{ACAD_REACTORS
330
67A
102
}
330
1F
100
AcDbEntity
  8
LC-002-002-----0
 62
     7
370
    25
100
AcDbCircle
 10
1685.524271
 20
1696.39
 30
0.0
 40
17.49999999999965
100
AcDbArc
 50
286.601548
 51
313.141806
  0
LINE
  5
4CC
102
{ACAD_REACTORS
330
677
102
}
330
1F
100
AcDbEntity
  8
LC-002-002-----0
 62
     7
370
    25
100
AcDbLine
 10
1576.667427
 20
1946.295213
 30
0.0
 11
1577.025596
 21
1946.148767
 31
0.0
  0
LINE
  5
4CD
102
{ACAD_REACTORS
330
677
102
}
330
1F
100
AcDbEntity
  8
LC-002-002-----0
 62
     7
370
    25
100
AcDbLine
 10
1577.025596
 20
1946.148767
 30
0.0
 11
1577.172042
 21
1945.790598
 31
0.0
  0
LINE
  5
4CE
102
{ACAD_REACTORS
330
677
102
}
330
1F
100
AcDbEntity
  8
LC-002-002-----0
 62
     7
370
    25
100
AcDbLine
 10
1558.942589
 20
1990.175008
 30
0.0
 11
1559.713133
 21
1988.694805
 31
0.0
  0
LINE
  5
4CF
102
{ACAD_REACTORS
330
677
102
}
330
1F
100
AcDbEntity
  8
LC-002-002-----0
 62
     7
370
    25
100
AcDbLine
 10
1560.483409
 20
1990.17512
 30
0.0
 11
1561.254067
 21
1988.6947
 31
0.0
  0
LINE
  5
4D0
102
{ACAD_REACTORS
330
677
102
}
330
1F
100
AcDbEntity
  8
LC-002-002-----0
 62
     7
370
    25
100
AcDbLine
 10
1562.024346
 20
1990.175008
 30
0.0
 11
1562.794778
 21
1988.69502
 31
0.0
  0
LINE
  5
4D1
102
{ACAD_REACTORS
330
677
102
}
330
1F
100
AcDbEntity
  8
LC-002-002-----0
 62
     7
370
    25
100
AcDbLine
 10
1563.565224
 20
1990.175008
 30
0.0
 11
1564.335657
 21
1988.69502
 31
0.0
  0
LINE
  5
4D2
102
{ACAD_REACTORS
330
677
102
}
330
1F
100
AcDbEntity
  8
LC-002-002-----0
 62
     7
370
    25
100
AcDbLine
 10
1565.106103
 20
1990.175008
 30
0.0
 11
1565.876535
 21
1988.69502
 31
0.0
  0
LINE
  5
4D3
102
{ACAD_REACTORS
330
677
102
}
330
1F
100
AcDbEntity
  8
LC-002-002-----0
 62
     7
370
    25
100
AcDbLine
 10
1566.646981
 20
1990.175008
 30
0.0
 11
1567.417414
 21
1988.69502
 31
0.0
  0
LINE
  5
4D4
102
{ACAD_REACTORS
330
677
102
}
330
1F
100
AcDbEntity
  8
LC-002-002-----0
 62
     7
370
    25
100
AcDbLine
 10
1568.18786
 20
1990.175008
 30
0.0
 11
1568.958292
 21
1988.69502
 31
0.0
  0
LINE
  5
4D5
102
{ACAD_REACTORS
330
677
102
}
330
1F
100
AcDbEntity
  8
LC-002-002-----0
 62
     7
370
    25
100
AcDbLine
 10
1557.172042
 20
1988.695213
 30
0.0
 11
1558.172042
 21
1988.695213
 31
0.0
  0
LINE
  5
4D6
102
{ACAD_REACTORS
330
677
102
}
330
1F
100
AcDbEntity
  8
LC-002-002-----0
 62
     7
370
    25
100
AcDbLine
 10
1568.958192
 20
1988.695213
 30
0.0
 11
1570.958192
 21
1988.695213
 31
0.0
  0
LINE
  5
4D7
102
{ACAD_REACTORS
330
677
102
}
330
1F
100
AcDbEntity
  8
LC-002-002-----0
 62
     7
370
    25
100
AcDbLine
 10
1567.417268
 20
1988.695126
 30
0.0
 11
1568.187704
 21
1990.17512
 31
0.0
  0
LINE
  5
4D8
102
{ACAD_REACTORS
330
677
102
}
330
1F
100
AcDbEntity
  8
LC-002-002-----0
 62
     7
370
    25
100
AcDbLine
 10
1565.876389
 20
1988.695126
 30
0.0
 11
1566.646825
 21
1990.17512
 31
0.0
  0
LINE
  5
4D9
102
{ACAD_REACTORS
330
677
102
}
330
1F
100
AcDbEntity
  8
LC-002-002-----0
 62
     7
370
    25
100
AcDbLine
 10
1564.335511
 20
1988.695126
 30
0.0
 11
1565.105947
 21
1990.17512
 31
0.0
  0
LINE
  5
4DA
102
{ACAD_REACTORS
330
677
102
}
330
1F
100
AcDbEntity
  8
LC-002-002-----0
 62
     7
370
    25
100
AcDbLine
 10
1562.794632
 20
1988.695126
 30
0.0
 11
1563.565068
 21
1990.17512
 31
0.0
  0
LINE
  5
4DB
102
{ACAD_REACTORS
330
677
102
}
330
1F
100
AcDbEntity
  8
LC-002-002-----0
 62
     7
370
    25
100
AcDbLine
 10
1561.253587
 20
1988.694805
 30
0.0
 11
1562.02419
 21
1990.17512
 31
0.0
  0
LINE
  5
4DC
102
{ACAD_REACTORS
330
677
102
}
330
1F
100
AcDbEntity
  8
LC-002-002-----0
 62
     7
370
    25
100
AcDbLine
 10
1559.712654
 20
1988.6947
 30
0.0
 11
1560.483253
 21
1990.175008
 31
0.0
  0
LINE
  5
4DD
102
{ACAD_REACTORS
330
677
102
}
330
1F
100
AcDbEntity
  8
LC-002-002-----0
 62
     7
370
    25
100
AcDbLine
 10
1558.17183
 20
1988.694805
 30
0.0
 11
1558.942433
 21
1990.17512
 31
0.0
  0
ARC
  5
4DE
102
{ACAD_REACTORS
330
677
102
}
330
1F
100
AcDbEntity
  8
LC-002-002-----0
 62
     7
370
    25
100
AcDbCircle
 10
1592.072042
 20
1830.223459
 30
0.0
 40
36.00000000000017
100
AcDbArc
 50
278.141966
 51
278.144301
  0
LINE
  5
4DF
102
{ACAD_REACTORS
330
677
102
}
330
1F
100
AcDbEntity
  8
LC-002-002-----0
 62
     7
370
    25
100
AcDbLine
 10
1597.17059
 20
1912.89
 30
0.0
 11
1597.17059
 21
1899.39
 31
0.0
  0
INSERT
  5
4EF
102
{ACAD_REACTORS
330
677
102
}
330
1F
100
AcDbEntity
  8
LC-002-002-----0
 62
     7
370
    25
100
AcDbBlockReference
  2
POLY8
 10
0.0
 20
0.0
 30
0.0
  0
ARC
  5
4F0
102
{ACAD_REACTORS
330
677
102
}
330
1F
100
AcDbEntity
  8
LC-002-002-----0
 62
     7
370
    25
100
AcDbCircle
 10
1602.272042
 20
1830.223459
 30
0.0
 40
36.00000000000123
100
AcDbArc
 50
261.855699
 51
261.858034
  0
LINE
  5
4F1
102
{ACAD_REACTORS
330
678
102
}
330
1F
100
AcDbEntity
  8
LC-002-002-----0
 62
     7
370
    25
100
AcDbLine
 10
1569.467249
 20
1748.89
 30
0.0
 11
1569.467249
 21
1746.39
 31
0.0
  0
LINE
  5
4F2
102
{ACAD_REACTORS
330
678
102
}
330
1F
100
AcDbEntity
  8
LC-002-002-----0
 62
     7
370
    25
100
AcDbLine
 10
1570.217249
 20
1749.89
 30
0.0
 11
1570.217249
 21
1749.64
 31
0.0
  0
LINE
  5
4F3
102
{ACAD_REACTORS
330
678
102
}
330
1F
100
AcDbEntity
  8
LC-002-002-----0
 62
     7
370
    25
100
AcDbLine
 10
1571.372042
 20
1749.89
 30
0.0
 11
1571.372042
 21
1763.39
 31
0.0
  0
LINE
  5
4F4
102
{ACAD_REACTORS
330
678
102
}
330
1F
100
AcDbEntity
  8
LC-002-002-----0
 62
     7
370
    25
100
AcDbLine
 10
1622.972042
 20
1749.89
 30
0.0
 11
1622.972042
 21
1763.39
 31
0.0
  0
LINE
  5
4F5
102
{ACAD_REACTORS
330
678
102
}
330
1F
100
AcDbEntity
  8
LC-002-002-----0
 62
     7
370
    25
100
AcDbLine
 10
1624.126836
 20
1749.89
 30
0.0
 11
1624.126836
 21
1749.64
 31
0.0
  0
LINE
  5
4F6
102
{ACAD_REACTORS
330
678
102
}
330
1F
100
AcDbEntity
  8
LC-002-002-----0
 62
     7
370
    25
100
AcDbLine
 10
1624.876836
 20
1748.89
 30
0.0
 11
1624.876836
 21
1746.39
 31
0.0
  0
LINE
  5
4F7
102
{ACAD_REACTORS
330
678
102
}
330
1F
100
AcDbEntity
  8
LC-002-002-----0
 62
     7
370
    25
100
AcDbLine
 10
1570.21725
 20
1749.640001
 30
0.0
 11
1569.46725
 21
1748.890001
 31
0.0
  0
LINE
  5
4F8
102
{ACAD_REACTORS
330
678
102
}
330
1F
100
AcDbEntity
  8
LC-002-002-----0
 62
     7
370
    25
100
AcDbLine
 10
1620.972042
 20
1765.39
 30
0.0
 11
1573.372042
 21
1765.39
 31
0.0
  0
LINE
  5
4F9
102
{ACAD_REACTORS
330
678
102
}
330
1F
100
AcDbEntity
  8
LC-002-002-----0
 62
     7
370
    25
100
AcDbLine
 10
1624.126818
 20
1749.89
 30
0.0
 11
1622.972042
 21
1749.89
 31
0.0
  0
LINE
  5
4FA
102
{ACAD_REACTORS
330
678
102
}
330
1F
100
AcDbEntity
  8
LC-002-002-----0
 62
     7
370
    25
100
AcDbLine
 10
1624.876836
 20
1746.39
 30
0.0
 11
1569.467249
 21
1746.39
 31
0.0
  0
LINE
  5
4FB
102
{ACAD_REACTORS
330
678
102
}
330
1F
100
AcDbEntity
  8
LC-002-002-----0
 62
     7
370
    25
100
AcDbLine
 10
1624.126835
 20
1749.640001
 30
0.0
 11
1624.876835
 21
1748.890001
 31
0.0
  0
ARC
  5
4FC
102
{ACAD_REACTORS
330
678
102
}
330
1F
100
AcDbEntity
  8
LC-002-002-----0
 62
     7
370
    25
100
AcDbCircle
 10
1620.972042
 20
1763.39
 30
0.0
 40
2.0
100
AcDbArc
 50
0.0
 51
90.0
  0
ARC
  5
4FD
102
{ACAD_REACTORS
330
678
102
}
330
1F
100
AcDbEntity
  8
LC-002-002-----0
 62
     7
370
    25
100
AcDbCircle
 10
1573.372042
 20
1763.39
 30
0.0
 40
2.0
100
AcDbArc
 50
90.0
 51
180.0
  0
LINE
  5
4FE
102
{ACAD_REACTORS
330
678
102
}
330
1F
100
AcDbEntity
  8
LC-002-002-----0
 62
     7
370
    25
100
AcDbLine
 10
1620.384429
 20
1749.89
 30
0.0
 11
1620.384429
 21
1763.39
 31
0.0
  0
INSERT
  5
50E
102
{ACAD_REACTORS
330
678
102
}
330
1F
100
AcDbEntity
  8
LC-002-002-----0
 62
     7
370
    25
100
AcDbBlockReference
  2
POLY9
 10
0.0
 20
0.0
 30
0.0
  0
LINE
  5
50F
102
{ACAD_REACTORS
330
678
102
}
330
1F
100
AcDbEntity
  8
LC-002-002-----0
 62
     7
370
    25
100
AcDbLine
 10
1597.17059
 20
1749.89
 30
0.0
 11
1597.17059
 21
1763.39
 31
0.0
  0
INSERT
  5
51F
102
{ACAD_REACTORS
330
678
102
}
330
1F
100
AcDbEntity
  8
LC-002-002-----0
 62
     7
370
    25
100
AcDbBlockReference
  2
POLY10
 10
0.0
 20
0.0
 30
0.0
  0
LINE
  5
520
102
{ACAD_REACTORS
330
678
102
}
330
1F
100
AcDbEntity
  8
LC-002-002-----0
 62
     7
370
    25
100
AcDbLine
 10
1573.959548
 20
1763.39
 30
0.0
 11
1573.959548
 21
1749.89
 31
0.0
  0
INSERT
  5
530
102
{ACAD_REACTORS
330
678
102
}
330
1F
100
AcDbEntity
  8
LC-002-002-----0
 62
     7
370
    25
100
AcDbBlockReference
  2
POLY11
 10
0.0
 20
0.0
 30
0.0
  0
ARC
  5
531
102
{ACAD_REACTORS
330
677
102
}
330
1F
100
AcDbEntity
  8
LC-002-002-----0
 62
     7
370
    25
100
AcDbCircle
 10
1597.172042
 20
1821.39
 30
0.0
 40
27.70479324130082
100
AcDbArc
 50
136.211302
 51
223.788698
  0
LINE
  5
532
102
{ACAD_REACTORS
330
678
102
}
330
1F
100
AcDbEntity
  8
LC-002-002-----0
 62
     7
370
    25
100
AcDbLine
 10
1575.172042
 20
1696.39
 30
0.0
 11
1575.172042
 21
1722.49
 31
0.0
  0
ARC
  5
533
102
{ACAD_REACTORS
330
678
102
}
330
1F
100
AcDbEntity
  8
LC-002-002-----0
 62
     7
370
    25
100
AcDbCircle
 10
1597.172042
 20
1696.39
 30
0.0
 40
22.0
100
AcDbArc
 50
180.0
 51
270.0
  0
LINE
  5
534
102
{ACAD_REACTORS
330
678
102
}
330
1F
100
AcDbEntity
  8
LC-002-002-----0
 62
     7
370
    25
100
AcDbLine
 10
1629.13159
 20
1658.89
 30
0.0
 11
1629.13159
 21
1660.891863
 31
0.0
  0
LINE
  5
535
102
{ACAD_REACTORS
330
678
102
}
330
1F
100
AcDbEntity
  8
LC-002-002-----0
 62
     7
370
    25
100
AcDbLine
 10
1619.572042
 20
1724.843149
 30
0.0
 11
1621.292073
 21
1725.157385
 31
0.0
  0
LINE
  5
536
102
{ACAD_REACTORS
330
678
102
}
330
1F
100
AcDbEntity
  8
LC-002-002-----0
 62
     7
370
    25
100
AcDbLine
 10
1631.63159
 20
1733.89
 30
0.0
 11
1629.13159
 21
1733.89
 31
0.0
  0
LINE
  5
537
102
{ACAD_REACTORS
330
678
102
}
330
1F
100
AcDbEntity
  8
LC-002-002-----0
 62
     7
370
    25
100
AcDbLine
 10
1628.428345
 20
1731.888137
 30
0.0
 11
1629.13159
 21
1731.888137
 31
0.0
  0
LINE
  5
538
102
{ACAD_REACTORS
330
678
102
}
330
1F
100
AcDbEntity
  8
LC-002-002-----0
 62
     7
370
    25
100
AcDbLine
 10
1597.172042
 20
1674.39
 30
0.0
 11
1610.863227
 21
1674.39
 31
0.0
  0
LINE
  5
539
102
{ACAD_REACTORS
330
678
102
}
330
1F
100
AcDbEntity
  8
LC-002-002-----0
 62
     7
370
    25
100
AcDbLine
 10
1628.428345
 20
1660.891863
 30
0.0
 11
1629.13159
 21
1660.891863
 31
0.0
  0
LINE
  5
53A
102
{ACAD_REACTORS
330
678
102
}
330
1F
100
AcDbEntity
  8
LC-002-002-----0
 62
     7
370
    25
100
AcDbLine
 10
1631.63159
 20
1658.89
 30
0.0
 11
1629.13159
 21
1658.89
 31
0.0
  0
LINE
  5
53B
102
{ACAD_REACTORS
330
678
102
}
330
1F
100
AcDbEntity
  8
LC-002-002-----0
 62
     7
370
    25
100
AcDbLine
 10
1618.673209
 20
1668.101061
 30
0.0
 11
1621.292073
 21
1667.622615
 31
0.0
  0
LINE
  5
53C
102
{ACAD_REACTORS
330
678
102
}
330
1F
100
AcDbEntity
  8
LC-002-002-----0
 62
     7
370
    25
100
AcDbLine
 10
1574.77207
 20
1722.889973
 30
0.0
 11
1575.17215
 21
1722.489892
 31
0.0
  0
ARC
  5
53D
102
{ACAD_REACTORS
330
678
102
}
330
1F
100
AcDbEntity
  8
LC-002-002-----0
 62
     7
370
    25
100
AcDbCircle
 10
1619.841399
 20
1674.495225
 30
0.0
 40
6.499999999999857
100
AcDbArc
 50
199.07704
 51
259.645823
  0
ARC
  5
53E
102
{ACAD_REACTORS
330
678
102
}
330
1F
100
AcDbEntity
  8
LC-002-002-----0
 62
     7
370
    25
100
AcDbCircle
 10
1610.863227
 20
1671.39
 30
0.0
 40
3.000000000000014
100
AcDbArc
 50
19.055448
 51
90.0
  0
ARC
  5
53F
102
{ACAD_REACTORS
330
678
102
}
330
1F
100
AcDbEntity
  8
LC-002-002-----0
 62
     7
370
    25
100
AcDbCircle
 10
1628.428345
 20
1662.891863
 30
0.0
 40
2.000000000000386
100
AcDbArc
 50
244.152631
 51
270.0
  0
ARC
  5
540
102
{ACAD_REACTORS
330
678
102
}
330
1F
100
AcDbEntity
  8
LC-002-002-----0
 62
     7
370
    25
100
AcDbCircle
 10
1628.428345
 20
1729.888137
 30
0.0
 40
2.000000000000455
100
AcDbArc
 50
90.0
 51
115.847369
  0
ARC
  5
541
102
{ACAD_REACTORS
330
678
102
}
330
1F
100
AcDbEntity
  8
LC-002-002-----0
 62
     7
370
    25
100
AcDbCircle
 10
1630.172042
 20
1666.491796
 30
0.0
 40
5.999999999999846
100
AcDbArc
 50
196.283517
 51
244.155028
  0
ARC
  5
542
102
{ACAD_REACTORS
330
678
102
}
330
1F
100
AcDbEntity
  8
LC-002-002-----0
 62
     7
370
    25
100
AcDbCircle
 10
1630.172042
 20
1726.288204
 30
0.0
 40
6.000000000000001
100
AcDbArc
 50
115.844972
 51
163.716483
  0
ARC
  5
543
102
{ACAD_REACTORS
330
678
102
}
330
1F
100
AcDbEntity
  8
LC-002-002-----0
 62
     7
370
    25
100
AcDbCircle
 10
1620.573227
 20
1663.687737
 30
0.0
 40
4.000000000000497
100
AcDbArc
 50
16.281751
 51
79.647048
  0
ARC
  5
544
102
{ACAD_REACTORS
330
678
102
}
330
1F
100
AcDbEntity
  8
LC-002-002-----0
 62
     7
370
    25
100
AcDbCircle
 10
1620.573227
 20
1729.092263
 30
0.0
 40
4.000000000000468
100
AcDbArc
 50
280.352952
 51
343.718249
  0
LINE
  5
545
102
{ACAD_REACTORS
330
678
102
}
330
1F
100
AcDbEntity
  8
LC-002-002-----0
 62
     7
370
    25
100
AcDbLine
 10
1671.774271
 20
1751.39
 30
0.0
 11
1671.774271
 21
1641.39
 31
0.0
  0
LINE
  5
546
102
{ACAD_REACTORS
330
678
102
}
330
1F
100
AcDbEntity
  8
LC-002-002-----0
 62
     7
370
    25
100
AcDbLine
 10
1667.774271
 20
1641.39
 30
0.0
 11
1671.774271
 21
1641.39
 31
0.0
  0
LINE
  5
547
102
{ACAD_REACTORS
330
678
102
}
330
1F
100
AcDbEntity
  8
LC-002-002-----0
 62
     7
370
    25
100
AcDbLine
 10
1631.63159
 20
1656.885036
 30
0.0
 11
1631.63159
 21
1658.89
 31
0.0
  0
LINE
  5
548
102
{ACAD_REACTORS
330
678
102
}
330
1F
100
AcDbEntity
  8
LC-002-002-----0
 62
     7
370
    25
100
AcDbLine
 10
1635.961364
 20
1653.64061
 30
0.0
 11
1636.971713
 21
1651.890635
 31
0.0
  0
LINE
  5
549
102
{ACAD_REACTORS
330
678
102
}
330
1F
100
AcDbEntity
  8
LC-002-002-----0
 62
     7
370
    25
100
AcDbLine
 10
1642.168232
 20
1648.89
 30
0.0
 11
1657.63159
 21
1648.89
 31
0.0
  0
LINE
  5
54A
102
{ACAD_REACTORS
330
678
102
}
330
1F
100
AcDbEntity
  8
LC-002-002-----0
 62
     7
370
    25
100
AcDbLine
 10
1667.314048
 20
1641.39
 30
0.0
 11
1667.774271
 21
1641.39
 31
0.0
  0
ARC
  5
54B
102
{ACAD_REACTORS
330
678
102
}
330
1F
100
AcDbEntity
  8
LC-002-002-----0
 62
     7
370
    25
100
AcDbCircle
 10
1657.63159
 20
1644.89
 30
0.0
 40
4.000000000000089
100
AcDbArc
 50
14.492147
 51
90.0
  0
ARC
  5
54C
102
{ACAD_REACTORS
330
678
102
}
330
1F
100
AcDbEntity
  8
LC-002-002-----0
 62
     7
370
    25
100
AcDbCircle
 10
1667.314048
 20
1647.39
 30
0.0
 40
5.999999999999878
100
AcDbArc
 50
194.469452
 51
270.0
  0
ARC
  5
54D
102
{ACAD_REACTORS
330
678
102
}
330
1F
100
AcDbEntity
  8
LC-002-002-----0
 62
     7
370
    25
100
AcDbCircle
 10
1642.168232
 20
1654.89
 30
0.0
 40
6.00000000000006
100
AcDbArc
 50
209.988476
 51
270.0
  0
ARC
  5
54E
102
{ACAD_REACTORS
330
678
102
}
330
1F
100
AcDbEntity
  8
LC-002-002-----0
 62
     7
370
    25
100
AcDbCircle
 10
1631.63159
 20
1651.14
 30
0.0
 40
5.00000000000002
100
AcDbArc
 50
30.016153
 51
82.072225
  0
ARC
  5
54F
102
{ACAD_REACTORS
330
678
102
}
330
1F
100
AcDbEntity
  8
LC-002-002-----0
 62
     7
370
    25
100
AcDbCircle
 10
1632.43159
 20
1656.884563
 30
0.0
 40
0.7999999999997272
100
AcDbArc
 50
180.0
 51
262.062606
  0
LINE
  5
550
102
{ACAD_REACTORS
330
678
102
}
330
1F
100
AcDbEntity
  8
LC-002-002-----0
 62
     7
370
    25
100
AcDbLine
 10
1667.774271
 20
1751.39
 30
0.0
 11
1671.774271
 21
1751.39
 31
0.0
  0
LINE
  5
551
102
{ACAD_REACTORS
330
678
102
}
330
1F
100
AcDbEntity
  8
LC-002-002-----0
 62
     7
370
    25
100
AcDbLine
 10
1635.961364
 20
1739.13939
 30
0.0
 11
1636.971713
 21
1740.889365
 31
0.0
  0
LINE
  5
552
102
{ACAD_REACTORS
330
678
102
}
330
1F
100
AcDbEntity
  8
LC-002-002-----0
 62
     7
370
    25
100
AcDbLine
 10
1642.168232
 20
1743.89
 30
0.0
 11
1657.63159
 21
1743.89
 31
0.0
  0
LINE
  5
553
102
{ACAD_REACTORS
330
678
102
}
330
1F
100
AcDbEntity
  8
LC-002-002-----0
 62
     7
370
    25
100
AcDbLine
 10
1667.314048
 20
1751.39
 30
0.0
 11
1667.774271
 21
1751.39
 31
0.0
  0
ARC
  5
554
102
{ACAD_REACTORS
330
678
102
}
330
1F
100
AcDbEntity
  8
LC-002-002-----0
 62
     7
370
    25
100
AcDbCircle
 10
1657.63159
 20
1747.89
 30
0.0
 40
4.0
100
AcDbArc
 50
270.0
 51
345.507853
  0
ARC
  5
555
102
{ACAD_REACTORS
330
678
102
}
330
1F
100
AcDbEntity
  8
LC-002-002-----0
 62
     7
370
    25
100
AcDbCircle
 10
1667.314048
 20
1745.39
 30
0.0
 40
6.0
100
AcDbArc
 50
90.0
 51
165.530548
  0
ARC
  5
556
102
{ACAD_REACTORS
330
678
102
}
330
1F
100
AcDbEntity
  8
LC-002-002-----0
 62
     7
370
    25
100
AcDbCircle
 10
1642.168232
 20
1737.89
 30
0.0
 40
6.0
100
AcDbArc
 50
90.0
 51
150.011524
  0
ARC
  5
557
102
{ACAD_REACTORS
330
678
102
}
330
1F
100
AcDbEntity
  8
LC-002-002-----0
 62
     7
370
    25
100
AcDbCircle
 10
1631.63159
 20
1741.64
 30
0.0
 40
4.999999999999969
100
AcDbArc
 50
277.927775
 51
329.983847
  0
ARC
  5
558
102
{ACAD_REACTORS
330
678
102
}
330
1F
100
AcDbEntity
  8
LC-002-002-----0
 62
     7
370
    25
100
AcDbCircle
 10
1632.43159
 20
1735.895437
 30
0.0
 40
0.8000000000001692
100
AcDbArc
 50
97.937394
 51
180.0
  0
LINE
  5
559
102
{ACAD_REACTORS
330
679
102
}
330
1F
100
AcDbEntity
  8
LC-002-002-----0
 62
     7
370
    25
100
AcDbLine
 10
1841.714206
 20
1681.056772
 30
0.0
 11
1846.061894
 21
1676.709084
 31
0.0
  0
LINE
  5
55A
102
{ACAD_REACTORS
330
679
102
}
330
1F
100
AcDbEntity
  8
LC-002-002-----0
 62
     7
370
    25
100
AcDbLine
 10
1830.776689
 20
1711.627777
 30
0.0
 11
1841.714206
 21
1711.723228
 31
0.0
  0
LINE
  5
55B
102
{ACAD_REACTORS
330
679
102
}
330
1F
100
AcDbEntity
  8
LC-002-002-----0
 62
     7
370
    25
100
AcDbLine
 10
1849.857142
 20
1711.775841
 30
0.0
 11
1842.7657
 21
1711.713992
 31
0.0
  0
LINE
  5
55C
102
{ACAD_REACTORS
330
679
102
}
330
1F
100
AcDbEntity
  8
LC-002-002-----0
 62
     7
370
    25
100
AcDbLine
 10
1854.830978
 20
1719.14
 30
0.0
 11
1855.82914
 21
1719.14
 31
0.0
  0
LINE
  5
55D
102
{ACAD_REACTORS
330
679
102
}
330
1F
100
AcDbEntity
  8
LC-002-002-----0
 62
     7
370
    25
100
AcDbLine
 10
1857.82914
 20
1718.89
 30
0.0
 11
1855.82914
 21
1718.89
 31
0.0
  0
LINE
  5
55E
102
{ACAD_REACTORS
330
679
102
}
330
1F
100
AcDbEntity
  8
LC-002-002-----0
 62
     7
370
    25
100
AcDbLine
 10
1847.281097
 20
1675.969253
 30
0.0
 11
1853.846061
 21
1673.899328
 31
0.0
  0
LINE
  5
55F
102
{ACAD_REACTORS
330
679
102
}
330
1F
100
AcDbEntity
  8
LC-002-002-----0
 62
     7
370
    25
100
AcDbLine
 10
1822.117544
 20
1685.190049
 30
0.0
 11
1830.776661
 21
1681.152236
 31
0.0
  0
LINE
  5
560
102
{ACAD_REACTORS
330
679
102
}
330
1F
100
AcDbEntity
  8
LC-002-002-----0
 62
     7
370
    25
100
AcDbLine
 10
1857.82914
 20
1673.89
 30
0.0
 11
1855.82914
 21
1673.89
 31
0.0
  0
LINE
  5
561
102
{ACAD_REACTORS
330
679
102
}
330
1F
100
AcDbEntity
  8
LC-002-002-----0
 62
     7
370
    25
100
AcDbLine
 10
1854.830978
 20
1673.64
 30
0.0
 11
1855.82914
 21
1673.64
 31
0.0
  0
LINE
  5
562
102
{ACAD_REACTORS
330
679
102
}
330
1F
100
AcDbEntity
  8
LC-002-002-----0
 62
     7
370
    25
100
AcDbLine
 10
1849.857142
 20
1681.004159
 30
0.0
 11
1842.7657
 21
1681.066008
 31
0.0
  0
LINE
  5
563
102
{ACAD_REACTORS
330
679
102
}
330
1F
100
AcDbEntity
  8
LC-002-002-----0
 62
     7
370
    25
100
AcDbLine
 10
1830.776689
 20
1681.152223
 30
0.0
 11
1841.714206
 21
1681.056772
 31
0.0
  0
LINE
  5
564
102
{ACAD_REACTORS
330
679
102
}
330
1F
100
AcDbEntity
  8
LC-002-002-----0
 62
     7
370
    25
100
AcDbLine
 10
1853.846061
 20
1718.880672
 30
0.0
 11
1847.281097
 21
1716.810747
 31
0.0
  0
LINE
  5
565
102
{ACAD_REACTORS
330
679
102
}
330
1F
100
AcDbEntity
  8
LC-002-002-----0
 62
     7
370
    25
100
AcDbLine
 10
1822.117544
 20
1707.589951
 30
0.0
 11
1830.776661
 21
1711.627764
 31
0.0
  0
LINE
  5
566
102
{ACAD_REACTORS
330
679
102
}
330
1F
100
AcDbEntity
  8
LC-002-002-----0
 62
     7
370
    25
100
AcDbLine
 10
1846.061894
 20
1716.070916
 30
0.0
 11
1841.714206
 21
1711.723228
 31
0.0
  0
LINE
  5
567
102
{ACAD_REACTORS
330
679
102
}
330
1F
100
AcDbEntity
  8
LC-002-002-----0
 62
     7
370
    25
100
AcDbLine
 10
1855.82914
 20
1673.64
 30
0.0
 11
1855.82914
 21
1673.89
 31
0.0
  0
LINE
  5
568
102
{ACAD_REACTORS
330
679
102
}
330
1F
100
AcDbEntity
  8
LC-002-002-----0
 62
     7
370
    25
100
AcDbLine
 10
1857.82914
 20
1718.889817
 30
0.0
 11
1857.82914
 21
1673.890183
 31
0.0
  0
ARC
  5
569
102
{ACAD_REACTORS
330
679
102
}
330
1F
100
AcDbEntity
  8
LC-002-002-----0
 62
     7
370
    25
100
AcDbCircle
 10
1848.183215
 20
1713.949596
 30
0.0
 40
3.00000000000018
100
AcDbArc
 50
107.500173
 51
134.999934
  0
ARC
  5
56A
102
{ACAD_REACTORS
330
679
102
}
330
1F
100
AcDbEntity
  8
LC-002-002-----0
 62
     7
370
    25
100
AcDbCircle
 10
1854.830978
 20
1675.64
 30
0.0
 40
2.000000000000169
100
AcDbArc
 50
240.492633
 51
270.0
  0
ARC
  5
56B
102
{ACAD_REACTORS
330
679
102
}
330
1F
100
AcDbEntity
  8
LC-002-002-----0
 62
     7
370
    25
100
AcDbCircle
 10
1854.830978
 20
1717.14
 30
0.0
 40
2.0
100
AcDbArc
 50
90.0
 51
119.507367
  0
ARC
  5
56C
102
{ACAD_REACTORS
330
679
102
}
330
1F
100
AcDbEntity
  8
LC-002-002-----0
 62
     7
370
    25
100
AcDbCircle
 10
1848.183215
 20
1678.830404
 30
0.0
 40
3.000000000000082
100
AcDbArc
 50
225.000066
 51
252.499827
  0
INSERT
  5
58E
102
{ACAD_REACTORS
330
679
102
}
330
1F
100
AcDbEntity
  8
LC-002-002-----0
 62
     7
370
    25
100
AcDbBlockReference
  2
POLY12
 10
0.0
 20
0.0
 30
0.0
  0
LINE
  5
58F
102
{ACAD_REACTORS
330
679
102
}
330
1F
100
AcDbEntity
  8
LC-002-002-----0
 62
     7
370
    25
100
AcDbLine
 10
1852.830978
 20
1675.653558
 30
0.0
 11
1852.830978
 21
1678.004273
 31
0.0
  0
LINE
  5
590
102
{ACAD_REACTORS
330
679
102
}
330
1F
100
AcDbEntity
  8
LC-002-002-----0
 62
     7
370
    25
100
AcDbLine
 10
1853.845907
 20
1718.880585
 30
0.0
 11
1853.845907
 21
1718.880585
 31
0.0
  0
LINE
  5
591
102
{ACAD_REACTORS
330
679
102
}
330
1F
100
AcDbEntity
  8
LC-002-002-----0
 62
     7
370
    25
100
AcDbLine
 10
1853.845907
 20
1718.880585
 30
0.0
 11
1853.819572
 21
1718.865187
 31
0.0
  0
LINE
  5
592
102
{ACAD_REACTORS
330
679
102
}
330
1F
100
AcDbEntity
  8
LC-002-002-----0
 62
     7
370
    25
100
AcDbLine
 10
1853.819572
 20
1718.865187
 30
0.0
 11
1853.819572
 21
1718.865187
 31
0.0
  0
LINE
  5
593
102
{ACAD_REACTORS
330
679
102
}
330
1F
100
AcDbEntity
  8
LC-002-002-----0
 62
     7
370
    25
100
AcDbLine
 10
1853.819572
 20
1718.865187
 30
0.0
 11
1853.754575
 21
1718.824771
 31
0.0
  0
LINE
  5
594
102
{ACAD_REACTORS
330
679
102
}
330
1F
100
AcDbEntity
  8
LC-002-002-----0
 62
     7
370
    25
100
AcDbLine
 10
1853.754575
 20
1718.824771
 30
0.0
 11
1853.754575
 21
1718.824771
 31
0.0
  0
LINE
  5
595
102
{ACAD_REACTORS
330
679
102
}
330
1F
100
AcDbEntity
  8
LC-002-002-----0
 62
     7
370
    25
100
AcDbLine
 10
1853.754575
 20
1718.824771
 30
0.0
 11
1853.674654
 21
1718.770071
 31
0.0
  0
LINE
  5
596
102
{ACAD_REACTORS
330
679
102
}
330
1F
100
AcDbEntity
  8
LC-002-002-----0
 62
     7
370
    25
100
AcDbLine
 10
1853.674654
 20
1718.770071
 30
0.0
 11
1853.674654
 21
1718.770071
 31
0.0
  0
LINE
  5
597
102
{ACAD_REACTORS
330
679
102
}
330
1F
100
AcDbEntity
  8
LC-002-002-----0
 62
     7
370
    25
100
AcDbLine
 10
1853.674654
 20
1718.770071
 30
0.0
 11
1853.584559
 21
1718.701153
 31
0.0
  0
LINE
  5
598
102
{ACAD_REACTORS
330
679
102
}
330
1F
100
AcDbEntity
  8
LC-002-002-----0
 62
     7
370
    25
100
AcDbLine
 10
1853.584559
 20
1718.701153
 30
0.0
 11
1853.584559
 21
1718.701153
 31
0.0
  0
LINE
  5
599
102
{ACAD_REACTORS
330
679
102
}
330
1F
100
AcDbEntity
  8
LC-002-002-----0
 62
     7
370
    25
100
AcDbLine
 10
1853.584559
 20
1718.701153
 30
0.0
 11
1853.486801
 21
1718.616493
 31
0.0
  0
LINE
  5
59A
102
{ACAD_REACTORS
330
679
102
}
330
1F
100
AcDbEntity
  8
LC-002-002-----0
 62
     7
370
    25
100
AcDbLine
 10
1853.486801
 20
1718.616493
 30
0.0
 11
1853.486801
 21
1718.616493
 31
0.0
  0
LINE
  5
59B
102
{ACAD_REACTORS
330
679
102
}
330
1F
100
AcDbEntity
  8
LC-002-002-----0
 62
     7
370
    25
100
AcDbLine
 10
1853.486801
 20
1718.616493
 30
0.0
 11
1853.383166
 21
1718.513574
 31
0.0
  0
LINE
  5
59C
102
{ACAD_REACTORS
330
679
102
}
330
1F
100
AcDbEntity
  8
LC-002-002-----0
 62
     7
370
    25
100
AcDbLine
 10
1853.383166
 20
1718.513574
 30
0.0
 11
1853.383166
 21
1718.513574
 31
0.0
  0
LINE
  5
59D
102
{ACAD_REACTORS
330
679
102
}
330
1F
100
AcDbEntity
  8
LC-002-002-----0
 62
     7
370
    25
100
AcDbLine
 10
1853.383166
 20
1718.513574
 30
0.0
 11
1853.274643
 21
1718.387869
 31
0.0
  0
LINE
  5
59E
102
{ACAD_REACTORS
330
679
102
}
330
1F
100
AcDbEntity
  8
LC-002-002-----0
 62
     7
370
    25
100
AcDbLine
 10
1853.274643
 20
1718.387869
 30
0.0
 11
1853.274643
 21
1718.387869
 31
0.0
  0
LINE
  5
59F
102
{ACAD_REACTORS
330
679
102
}
330
1F
100
AcDbEntity
  8
LC-002-002-----0
 62
     7
370
    25
100
AcDbLine
 10
1853.274643
 20
1718.387869
 30
0.0
 11
1853.16302
 21
1718.233218
 31
0.0
  0
LINE
  5
5A0
102
{ACAD_REACTORS
330
679
102
}
330
1F
100
AcDbEntity
  8
LC-002-002-----0
 62
     7
370
    25
100
AcDbLine
 10
1853.16302
 20
1718.233218
 30
0.0
 11
1853.16302
 21
1718.233218
 31
0.0
  0
LINE
  5
5A1
102
{ACAD_REACTORS
330
679
102
}
330
1F
100
AcDbEntity
  8
LC-002-002-----0
 62
     7
370
    25
100
AcDbLine
 10
1853.16302
 20
1718.233218
 30
0.0
 11
1853.052435
 21
1718.042481
 31
0.0
  0
LINE
  5
5A2
102
{ACAD_REACTORS
330
679
102
}
330
1F
100
AcDbEntity
  8
LC-002-002-----0
 62
     7
370
    25
100
AcDbLine
 10
1853.052435
 20
1718.042481
 30
0.0
 11
1853.052435
 21
1718.042481
 31
0.0
  0
LINE
  5
5A3
102
{ACAD_REACTORS
330
679
102
}
330
1F
100
AcDbEntity
  8
LC-002-002-----0
 62
     7
370
    25
100
AcDbLine
 10
1853.052435
 20
1718.042481
 30
0.0
 11
1852.952139
 21
1717.812293
 31
0.0
  0
LINE
  5
5A4
102
{ACAD_REACTORS
330
679
102
}
330
1F
100
AcDbEntity
  8
LC-002-002-----0
 62
     7
370
    25
100
AcDbLine
 10
1852.952142
 20
1717.812424
 30
0.0
 11
1852.952142
 21
1717.812424
 31
0.0
  0
LINE
  5
5A5
102
{ACAD_REACTORS
330
679
102
}
330
1F
100
AcDbEntity
  8
LC-002-002-----0
 62
     7
370
    25
100
AcDbLine
 10
1852.952142
 20
1717.812424
 30
0.0
 11
1852.885182
 21
1717.58918
 31
0.0
  0
LINE
  5
5A6
102
{ACAD_REACTORS
330
679
102
}
330
1F
100
AcDbEntity
  8
LC-002-002-----0
 62
     7
370
    25
100
AcDbLine
 10
1852.885182
 20
1717.58918
 30
0.0
 11
1852.885182
 21
1717.58918
 31
0.0
  0
LINE
  5
5A7
102
{ACAD_REACTORS
330
679
102
}
330
1F
100
AcDbEntity
  8
LC-002-002-----0
 62
     7
370
    25
100
AcDbLine
 10
1852.885182
 20
1717.58918
 30
0.0
 11
1852.844551
 21
1717.359154
 31
0.0
  0
LINE
  5
5A8
102
{ACAD_REACTORS
330
679
102
}
330
1F
100
AcDbEntity
  8
LC-002-002-----0
 62
     7
370
    25
100
AcDbLine
 10
1852.844551
 20
1717.359154
 30
0.0
 11
1852.844551
 21
1717.359154
 31
0.0
  0
LINE
  5
5A9
102
{ACAD_REACTORS
330
679
102
}
330
1F
100
AcDbEntity
  8
LC-002-002-----0
 62
     7
370
    25
100
AcDbLine
 10
1852.844551
 20
1717.359154
 30
0.0
 11
1852.830978
 21
1717.126442
 31
0.0
  0
LINE
  5
5AA
102
{ACAD_REACTORS
330
679
102
}
330
1F
100
AcDbEntity
  8
LC-002-002-----0
 62
     7
370
    25
100
AcDbLine
 10
1852.952142
 20
1674.967576
 30
0.0
 11
1852.952142
 21
1674.967576
 31
0.0
  0
LINE
  5
5AB
102
{ACAD_REACTORS
330
679
102
}
330
1F
100
AcDbEntity
  8
LC-002-002-----0
 62
     7
370
    25
100
AcDbLine
 10
1852.952142
 20
1674.967576
 30
0.0
 11
1852.885182
 21
1675.19082
 31
0.0
  0
LINE
  5
5AC
102
{ACAD_REACTORS
330
679
102
}
330
1F
100
AcDbEntity
  8
LC-002-002-----0
 62
     7
370
    25
100
AcDbLine
 10
1852.885182
 20
1675.19082
 30
0.0
 11
1852.885182
 21
1675.19082
 31
0.0
  0
LINE
  5
5AD
102
{ACAD_REACTORS
330
679
102
}
330
1F
100
AcDbEntity
  8
LC-002-002-----0
 62
     7
370
    25
100
AcDbLine
 10
1852.885182
 20
1675.19082
 30
0.0
 11
1852.844551
 21
1675.420846
 31
0.0
  0
LINE
  5
5AE
102
{ACAD_REACTORS
330
679
102
}
330
1F
100
AcDbEntity
  8
LC-002-002-----0
 62
     7
370
    25
100
AcDbLine
 10
1852.844551
 20
1675.420846
 30
0.0
 11
1852.844551
 21
1675.420846
 31
0.0
  0
LINE
  5
5AF
102
{ACAD_REACTORS
330
679
102
}
330
1F
100
AcDbEntity
  8
LC-002-002-----0
 62
     7
370
    25
100
AcDbLine
 10
1852.844551
 20
1675.420846
 30
0.0
 11
1852.830978
 21
1675.653558
 31
0.0
  0
LINE
  5
5B0
102
{ACAD_REACTORS
330
679
102
}
330
1F
100
AcDbEntity
  8
LC-002-002-----0
 62
     7
370
    25
100
AcDbLine
 10
1852.830978
 20
1714.775727
 30
0.0
 11
1852.830978
 21
1717.126442
 31
0.0
  0
INSERT
  5
5BE
102
{ACAD_REACTORS
330
679
102
}
330
1F
100
AcDbEntity
  8
LC-002-002-----0
 62
     7
370
    25
100
AcDbBlockReference
  2
POLY13
 10
0.0
 20
0.0
 30
0.0
  0
INSERT
  5
5CC
102
{ACAD_REACTORS
330
679
102
}
330
1F
100
AcDbEntity
  8
LC-002-002-----0
 62
     7
370
    25
100
AcDbBlockReference
  2
POLY14
 10
0.0
 20
0.0
 30
0.0
  0
LINE
  5
5CD
102
{ACAD_REACTORS
330
679
102
}
330
1F
100
AcDbEntity
  8
LC-002-002-----0
 62
     7
370
    25
100
AcDbLine
 10
1755.524271
 20
1707.59
 30
0.0
 11
1822.117649
 21
1707.59
 31
0.0
  0
LINE
  5
5CE
102
{ACAD_REACTORS
330
679
102
}
330
1F
100
AcDbEntity
  8
LC-002-002-----0
 62
     7
370
    25
100
AcDbLine
 10
1755.524271
 20
1685.19
 30
0.0
 11
1822.117649
 21
1685.19
 31
0.0
  0
ARC
  5
5CF
102
{ACAD_REACTORS
330
677
102
}
330
1F
100
AcDbEntity
  8
LC-002-002-----0
 62
     7
370
    25
100
AcDbCircle
 10
1597.172042
 20
1821.39
 30
0.0
 40
27.70479324130097
100
AcDbArc
 50
316.211302
 51
43.788698
  0
ARC
  5
5D0
102
{ACAD_REACTORS
330
677
102
}
330
1F
100
AcDbEntity
  8
LC-002-002-----0
 62
     7
370
    25
100
AcDbCircle
 10
1597.172042
 20
1821.39
 30
0.0
 40
21.7999999999997
100
AcDbArc
 50
156.553383
 51
203.446617
  0
LINE
  5
5D1
102
{ACAD_REACTORS
330
679
102
}
330
1F
100
AcDbEntity
  8
LC-002-002-----0
 62
     7
370
    25
100
AcDbLine
 10
1855.82914
 20
1718.89
 30
0.0
 11
1855.82914
 21
1719.14
 31
0.0
  0
LINE
  5
5D2
102
{ACAD_REACTORS
330
678
102
}
330
1F
100
AcDbEntity
  8
LC-002-002-----0
 62
     7
370
    25
100
AcDbLine
 10
1631.63159
 20
1733.89
 30
0.0
 11
1631.63159
 21
1735.895437
 31
0.0
  0
LINE
  5
5D3
102
{ACAD_REACTORS
330
678
102
}
330
1F
100
AcDbEntity
  8
LC-002-002-----0
 62
     7
370
    25
100
AcDbLine
 10
1629.13159
 20
1731.888137
 30
0.0
 11
1629.13159
 21
1733.89
 31
0.0
  0
LINE
  5
5D4
102
{ACAD_REACTORS
330
678
102
}
330
1F
100
AcDbEntity
  8
LC-002-002-----0
 62
     7
370
    25
100
AcDbLine
 10
1571.372042
 20
1749.89
 30
0.0
 11
1570.217267
 21
1749.89
 31
0.0
  0
DIMENSION
  5
5D5
102
{ACAD_REACTORS
330
67D
102
}
330
1F
100
AcDbEntity
  8
LC-007-003-----0
 62
     7
370
    25
100
AcDbDimension
  2
*D33
 10
1569.467249
 20
1397.49943
 30
0.0
 11
1718.002249
 21
1427.49943
 31
0.0
 70
   160
 71
     5
 42
308.361891
  3
LC-DIM-L-0025-00-02
100
AcDbAlignedDimension
 13
1877.82914
 23
1446.39
 33
0.0
 14
1569.467249
 24
1746.39
 34
0.0
100
AcDbRotatedDimension
  0
DIMENSION
  5
5E2
102
{ACAD_REACTORS
330
685
102
}
330
1F
100
AcDbEntity
  8
LC-007-003-----0
 62
     7
370
    25
100
AcDbDimension
  2
*D34
 10
861.769952
 20
675.849724
 30
0.0
 11
569.811533
 21
705.849724
 31
0.0
 70
   160
 71
     5
 42
1140.0
  3
LC-DIM-L-0025-02-02
100
AcDbAlignedDimension
 13
291.769952
 23
750.898003
 33
0.0
 14
861.769952
 24
750.898003
 34
0.0
100
AcDbRotatedDimension
1001
ACAD
1000
DSTYLE
1002
{
1070
   144
1040
2.0
1002
}
  0
DIMENSION
  5
5EF
102
{ACAD_REACTORS
330
685
102
}
330
1F
100
AcDbEntity
  8
LC-007-003-----0
 62
     7
370
    25
100
AcDbDimension
  2
*D35
 10
936.001096
 20
985.898003
 30
0.0
 11
906.001096
 21
873.380355
 31
0.0
 70
   160
 71
     5
 42
480.0
 53
90.0
  3
LC-DIM-L-0025-02-02
100
AcDbAlignedDimension
 13
856.769952
 23
745.898003
 33
0.0
 14
856.769952
 24
985.898003
 34
0.0
 50
90.0
100
AcDbRotatedDimension
1001
ACAD
1000
DSTYLE
1002
{
1070
   144
1040
2.0
1002
}
  0
DIMENSION
  5
5FD
102
{ACAD_REACTORS
330
685
102
}
330
1F
100
AcDbEntity
  8
LC-007-003-----0
 62
     7
370
    25
100
AcDbDimension
  2
*D36
 10
296.769952
 20
750.898003
 30
0.0
 11
356.104247
 21
778.302532
 31
0.0
 70
   164
 71
     5
 42
10.0
  3
LC-DIM-R-0025-02-02
100
AcDbRadialDimension
 15
300.829952
 25
753.816289
 35
0.0
 40
1.0
1001
ACAD
1000
DSTYLE
1002
{
1070
   144
1040
2.0
1002
}
  0
DIMENSION
  5
606
102
{ACAD_REACTORS
330
686
102
}
330
1F
100
AcDbEntity
  8
LC-007-003-----0
 62
     7
370
    25
100
AcDbDimension
  2
*D37
 10
1425.348093
 20
2326.796688
 30
0.0
 11
1376.055244
 21
2356.796688
 31
0.0
 70
   160
 71
     5
 42
5.0
  3
LC-DIM-L-0025-02-02
100
AcDbAlignedDimension
 13
1420.348093
 23
2579.48
 33
0.0
 14
1425.348093
 24
2429.48
 34
0.0
100
AcDbRotatedDimension
  0
LINE
  5
615
102
{ACAD_REACTORS
330
685
102
}
330
1F
100
AcDbEntity
  8
LC-002-002-----0
  6
DASHDOT
 62
     7
370
    25
100
AcDbLine
 10
864.269952
 20
723.098392
 30
0.0
 11
864.269952
 21
1016.989478
 31
0.0
  0
LINE
  5
616
102
{ACAD_REACTORS
330
685
102
}
330
1F
100
AcDbEntity
  8
LC-002-002-----0
  6
DASHDOT
 62
     7
370
    25
100
AcDbLine
 10
854.769952
 20
723.098392
 30
0.0
 11
854.769952
 21
1016.989478
 31
0.0
  0
LINE
  5
617
102
{ACAD_REACTORS
330
685
102
}
330
1F
100
AcDbEntity
  8
LC-002-002-----0
  6
DASHDOT
 62
     7
370
    25
100
AcDbLine
 10
464.269952
 20
723.098392
 30
0.0
 11
464.269952
 21
1016.989478
 31
0.0
  0
LINE
  5
618
102
{ACAD_REACTORS
330
685
102
}
330
1F
100
AcDbEntity
  8
LC-002-002-----0
  6
DASHDOT
 62
     7
370
    25
100
AcDbLine
 10
473.769952
 20
723.098392
 30
0.0
 11
473.769952
 21
1016.989478
 31
0.0
  0
DIMENSION
  5
619
102
{ACAD_REACTORS
330
685
102
}
330
1F
100
AcDbEntity
  8
LC-007-003-----0
 62
     7
370
    25
100
AcDbDimension
  2
*D38
 10
864.269952
 20
1042.972419
 30
0.0
 11
651.71672
 21
1072.972419
 31
0.0
 70
   160
 71
     5
 42
800.0
  3
LC-DIM-L-0025-02-02
100
AcDbAlignedDimension
 13
464.269952
 23
1016.989478
 33
0.0
 14
864.269952
 24
1016.989478
 34
0.0
100
AcDbRotatedDimension
1001
ACAD
1000
DSTYLE
1002
{
1070
   144
1040
2.0
1002
}
  0
DIMENSION
  5
626
102
{ACAD_REACTORS
330
685
102
}
330
1F
100
AcDbEntity
  8
LC-007-003-----0
 62
     7
370
    25
100
AcDbDimension
  2
*D39
 10
864.269952
 20
1018.081198
 30
0.0
 11
905.263965
 21
1048.081198
 31
0.0
 70
   160
 71
     5
 42
5.0
  3
LC-DIM-L-0025-02-02
100
AcDbAlignedDimension
 13
861.769952
 23
980.898003
 33
0.0
 14
864.269952
 24
1016.989478
 34
0.0
100
AcDbRotatedDimension
1001
ACAD
1000
DSTYLE
1002
{
1070
   144
1040
2.0
1002
}
  0
TEXT
  5
636
102
{ACAD_REACTORS
330
685
102
}
330
1F
100
AcDbEntity
  8
LC-008-004-----0
 62
     7
370
    35
100
AcDbText
 10
292.734698
 20
1107.404701
 30
0.0
 40
35.0
  1
Ausschnitt übergreifend
 41
0.8
  7
LCTX0-400-0-0pDIN-Schrift
100
AcDbText
  0
TEXT
  5
637
102
{ACAD_REACTORS
330
685
102
}
330
1F
100
AcDbEntity
  8
LC-008-004-----0
 62
     7
370
    35
100
AcDbText
 10
292.734698
 20
1037.404701
 30
0.0
 40
35.0
  1
M 1:20
 41
0.8
  7
LCTX0-400-0-0pDIN-Schrift
100
AcDbText
  0
LINE
  5
638
102
{ACAD_REACTORS
330
684
102
}
330
1F
100
AcDbEntity
  8
LC-002-002-----0
 62
     7
370
    50
100
AcDbLine
 10
1533.880209
 20
777.774841
 30
0.0
 11
1815.380209
 21
777.774841
 31
0.0
  0
ARC
  5
639
102
{ACAD_REACTORS
330
684
102
}
330
1F
100
AcDbEntity
  8
LC-002-002-----0
 62
     7
370
    50
100
AcDbCircle
 10
1815.380209
 20
782.774841
 30
0.0
 40
5.0
100
AcDbArc
 50
270.0
 51
0.0
  0
LINE
  5
63A
102
{ACAD_REACTORS
330
684
102
}
330
1F
100
AcDbEntity
  8
LC-002-002-----0
 62
     7
370
    50
100
AcDbLine
 10
1820.380209
 20
782.774841
 30
0.0
 11
1820.380209
 21
1015.774841
 31
0.0
  0
ARC
  5
63B
102
{ACAD_REACTORS
330
684
102
}
330
1F
100
AcDbEntity
  8
LC-002-002-----0
 62
     7
370
    50
100
AcDbCircle
 10
1815.380209
 20
1015.774841
 30
0.0
 40
5.0
100
AcDbArc
 50
0.0
 51
90.0
  0
LINE
  5
63C
102
{ACAD_REACTORS
330
684
102
}
330
1F
100
AcDbEntity
  8
LC-002-002-----0
 62
     7
370
    50
100
AcDbLine
 10
1815.380209
 20
1020.774841
 30
0.0
 11
1252.380209
 21
1020.774841
 31
0.0
  0
ARC
  5
63D
102
{ACAD_REACTORS
330
684
102
}
330
1F
100
AcDbEntity
  8
LC-002-002-----0
 62
     7
370
    50
100
AcDbCircle
 10
1252.380209
 20
1015.774841
 30
0.0
 40
5.0
100
AcDbArc
 50
90.0
 51
180.0
  0
LINE
  5
63E
102
{ACAD_REACTORS
330
684
102
}
330
1F
100
AcDbEntity
  8
LC-002-002-----0
 62
     7
370
    50
100
AcDbLine
 10
1247.380209
 20
1015.774841
 30
0.0
 11
1247.380209
 21
782.774841
 31
0.0
  0
ARC
  5
63F
102
{ACAD_REACTORS
330
684
102
}
330
1F
100
AcDbEntity
  8
LC-002-002-----0
 62
     7
370
    50
100
AcDbCircle
 10
1252.380209
 20
782.774841
 30
0.0
 40
5.0
100
AcDbArc
 50
180.0
 51
270.0
  0
LINE
  5
640
102
{ACAD_REACTORS
330
684
102
}
330
1F
100
AcDbEntity
  8
LC-002-002-----0
 62
     7
370
    50
100
AcDbLine
 10
1252.380209
 20
777.774841
 30
0.0
 11
1533.880209
 21
777.774841
 31
0.0
  0
DIMENSION
  5
641
102
{ACAD_REACTORS
330
684
102
}
330
1F
100
AcDbEntity
  8
LC-007-003-----0
 62
     7
370
    25
100
AcDbDimension
  2
*D40
 10
1882.74941
 20
1020.774841
 30
0.0
 11
1852.74941
 21
901.074808
 31
0.0
 70
   160
 71
     5
 42
486.0
 53
90.0
  3
LC-DIM-L-0025-02-02
100
AcDbAlignedDimension
 13
1815.380209
 23
777.774841
 33
0.0
 14
1815.380209
 24
1020.774841
 34
0.0
 50
90.0
100
AcDbRotatedDimension
1001
ACAD
1000
DSTYLE
1002
{
1070
   144
1040
2.0
1002
}
  0
DIMENSION
  5
64E
102
{ACAD_REACTORS
330
684
102
}
330
1F
100
AcDbEntity
  8
LC-007-003-----0
 62
     7
370
    25
100
AcDbDimension
  2
*D41
 10
1820.380209
 20
718.374998
 30
0.0
 11
1535.172616
 21
748.374998
 31
0.0
 70
   160
 71
     5
 42
1146.0
  3
LC-DIM-L-0025-02-02
100
AcDbAlignedDimension
 13
1247.380209
 23
782.774841
 33
0.0
 14
1820.380209
 24
782.774841
 34
0.0
100
AcDbRotatedDimension
1001
ACAD
1000
DSTYLE
1002
{
1070
   144
1040
2.0
1002
}
  0
DIMENSION
  5
65B
102
{ACAD_REACTORS
330
684
102
}
330
1F
100
AcDbEntity
  8
LC-007-003-----0
 62
     7
370
    25
100
AcDbDimension
  2
*D42
 10
1252.380209
 20
1015.774841
 30
0.0
 11
1287.541032
 21
998.95753
 31
0.0
 70
   164
 71
     5
 42
10.0
  3
LC-DIM-R-0025-02-02
100
AcDbRadialDimension
 15
1255.572756
 25
1011.926771
 35
0.0
 40
1.0
1001
ACAD
1000
DSTYLE
1002
{
1070
   144
1040
2.0
1002
}
  0
TEXT
  5
664
102
{ACAD_REACTORS
330
684
102
}
330
1F
100
AcDbEntity
  8
LC-008-004-----0
 62
     7
370
    35
100
AcDbText
 10
1252.256788
 20
1069.074655
 30
0.0
 40
35.0
  1
Ausschnitt Unterbau M 1:20
 41
0.8
  7
LCTX0-400-0-0pDIN-Schrift
100
AcDbText
  0
LINE
  5
665
102
{ACAD_REACTORS
330
67D
102
}
330
1F
100
AcDbEntity
  8
LC-002-002-----0
 62
     7
370
    25
100
AcDbLine
 10
1713.10325
 20
1537.544223
 30
0.0
 11
1882.247254
 21
1519.766471
 31
0.0
  0
ARC
  5
666
102
{ACAD_REACTORS
330
67D
102
}
330
1F
100
AcDbEntity
  8
LC-002-002-----0
 62
     7
370
    25
100
AcDbCircle
 10
1881.82914
 20
1515.788385
 30
0.0
 40
3.999999698399694
100
AcDbArc
 50
7.636342
 51
83.999998
  0
LINE
  5
667
102
{ACAD_REACTORS
330
67D
102
}
330
1F
100
AcDbEntity
  8
LC-002-002-----0
 62
     7
370
    25
100
AcDbLine
 10
1713.10325
 20
1855.235777
 30
0.0
 11
1882.247254
 21
1873.013529
 31
0.0
  0
ARC
  5
668
102
{ACAD_REACTORS
330
67D
102
}
330
1F
100
AcDbEntity
  8
LC-002-002-----0
 62
     7
370
    25
100
AcDbCircle
 10
1715.82099
 20
1829.378208
 30
0.0
 40
25.99999999999993
100
AcDbArc
 50
96.0
 51
177.0
  0
ARC
  5
669
102
{ACAD_REACTORS
330
67D
102
}
330
1F
100
AcDbEntity
  8
LC-002-002-----0
 62
     7
370
    25
100
AcDbCircle
 10
1881.82914
 20
1876.991615
 30
0.0
 40
3.999999698399716
100
AcDbArc
 50
276.000002
 51
352.363658
  0
DIMENSION
  5
66A
102
{ACAD_REACTORS
330
67D
102
}
330
1F
100
AcDbEntity
  8
LC-007-003-----0
 62
     7
370
    25
100
AcDbDimension
  2
*D43
 10
1950.0
 20
1519.437664
 30
0.0
 11
1920.0
 21
1700.900935
 31
0.0
 70
   160
 71
     5
 42
353.904672
 53
90.0
  3
LC-DIM-L-0025-00-02
100
AcDbAlignedDimension
 13
1885.375657
 23
1873.342336
 33
0.0
 14
1885.375657
 24
1519.437664
 34
0.0
 50
90.0
100
AcDbRotatedDimension
  0
ENDSEC
  0
SECTION
  2
OBJECTS
  0
DICTIONARY
  5
C
330
0
100
AcDbDictionary
281
     1
  3
ACAD_GROUP
350
D
  3
ACAD_LAYOUT
350
1A
  3
ACAD_MLINESTYLE
350
17
  3
ACAD_PLOTSETTINGS
350
19
  3
ACAD_PLOTSTYLENAME
350
E
  0
DICTIONARY
  5
D
102
{ACAD_REACTORS
330
C
102
}
330
C
100
AcDbDictionary
281
     1
  3
LCGROUP10
350
67C
  3
LCGROUP11
350
67D
  3
LCGROUP15
350
67B
  3
LCGROUP251
350
686
  3
LCGROUP292
350
681
  3
LCGROUP295
350
67F
  3
LCGROUP299
350
680
  3
LCGROUP301
350
67E
  3
LCGROUP411
350
682
  3
LCGROUP494
350
683
  3
LCGROUP551
350
679
  3
LCGROUP554
350
678
  3
LCGROUP555
350
677
  3
LCGROUP557
350
67A
  3
LCGROUP777
350
685
  3
LCGROUP778
350
684
  0
DICTIONARY
  5
1A
102
{ACAD_REACTORS
330
C
102
}
330
C
100
AcDbDictionary
281
     1
  3
Layout1
350
1E
  3
Layout2
350
26
  3
Model
350
22
  0
DICTIONARY
  5
17
102
{ACAD_REACTORS
330
C
102
}
330
C
100
AcDbDictionary
281
     1
  3
Standard
350
18
  0
DICTIONARY
  5
19
102
{ACAD_REACTORS
330
C
102
}
330
C
100
AcDbDictionary
281
     1
  0
ACDBDICTIONARYWDFLT
  5
E
102
{ACAD_REACTORS
330
C
102
}
330
C
100
AcDbDictionary
281
     1
  3
Normal
350
F
100
AcDbDictionaryWithDefault
340
F
  0
GROUP
  5
67C
102
{ACAD_REACTORS
330
D
102
}
330
D
100
AcDbGroup
300
GRP10
 70
     1
 71
     1
340
108
340
109
340
10B
340
113
340
116
340
11A
340
122
340
123
340
124
340
125
340
126
340
127
340
147
340
148
340
149
340
14A
340
14B
340
14C
340
14D
340
14E
340
14F
340
150
340
151
340
152
340
153
340
154
340
155
340
156
340
157
340
158
340
159
340
15A
340
15B
340
15C
340
15D
340
15E
340
15F
340
160
340
161
340
162
340
163
340
164
340
165
340
166
340
167
340
168
340
169
340
16A
340
16B
340
16C
340
16D
340
16E
340
16F
340
170
340
171
340
172
340
173
340
174
340
175
340
176
340
177
340
178
340
179
340
17A
340
17B
340
17C
340
17D
340
17E
340
17F
340
180
340
181
340
182
340
183
340
184
340
185
340
186
340
187
340
188
340
189
340
18A
340
18B
340
18C
340
18D
340
18E
340
18F
340
190
340
191
340
192
340
193
340
194
340
195
340
196
340
197
340
198
340
199
340
19A
340
19B
340
19C
340
19D
340
19E
340
19F
340
1A0
340
1A1
340
1A2
340
1A3
340
1A4
340
1A5
340
1A6
340
1A7
340
1A8
340
1A9
340
1AA
340
1AB
340
1AC
340
1AD
340
1AE
340
1AF
340
1B0
340
1B1
340
1B2
340
1DC
340
1DD
340
1DE
340
1DF
340
231
340
23E
340
258
340
259
340
266
  0
GROUP
  5
67D
102
{ACAD_REACTORS
330
D
102
}
330
D
100
AcDbGroup
300
GRP11
 70
     1
 71
     1
340
107
340
11F
340
120
340
121
340
132
340
133
340
134
340
135
340
136
340
137
340
138
340
139
340
13A
340
13B
340
13C
340
13D
340
13E
340
13F
340
140
340
141
340
142
340
143
340
144
340
145
340
146
340
1B4
340
1C7
340
1C8
340
1C9
340
1CA
340
1CB
340
1CC
340
1CD
340
1CE
340
1CF
340
1D0
340
1D1
340
1D2
340
1D3
340
1D4
340
1D5
340
1D6
340
1D7
340
1D8
340
1D9
340
1DA
340
1DB
340
1E0
340
202
340
21D
340
24B
340
5D5
340
665
340
666
340
667
340
668
340
669
340
66A
  0
GROUP
  5
67B
102
{ACAD_REACTORS
330
D
102
}
330
D
100
AcDbGroup
300
GRP15
 70
     1
 71
     1
340
10A
340
10D
340
10E
340
10F
340
110
340
111
340
112
340
114
340
115
340
117
340
118
340
119
340
11B
340
11C
340
11D
340
11E
340
128
340
129
340
12A
340
12B
340
12C
340
12D
340
12E
340
12F
340
130
340
131
340
1B3
340
1B5
340
1B6
340
1B7
340
1B8
340
1B9
340
1BA
340
1BB
340
1BC
340
1BD
340
1BE
340
1BF
340
1C0
340
1C1
340
1C2
340
1C3
340
1C4
340
1C5
340
1C6
340
220
340
273
340
2C2
340
2C4
340
2C6
340
2C7
340
2C8
340
2C9
340
2CA
340
2D7
340
2E4
340
2F1
  0
GROUP
  5
686
102
{ACAD_REACTORS
330
D
102
}
330
D
100
AcDbGroup
300
GRP251
 70
     1
 71
     1
340
280
340
281
340
282
340
283
340
284
340
285
340
286
340
287
340
288
340
289
340
28A
340
28B
340
28C
340
28D
340
28E
340
28F
340
290
340
291
340
299
340
2A1
340
2A3
340
2BF
340
606
  0
GROUP
  5
681
102
{ACAD_REACTORS
330
D
102
}
330
D
100
AcDbGroup
300
GRP292-LCMaster-LCGROUP411
 70
     1
 71
     1
340
300
340
301
340
39E
340
3A0
340
3A1
340
3A2
340
3A3
340
3A6
340
3A7
340
3A8
340
3A9
340
3AC
340
3AD
340
3AE
340
3AF
340
3B1
340
3B2
340
3B5
340
3B9
340
3BA
340
3BB
340
3BC
340
3C6
340
3C7
340
3C8
340
3C9
340
415
340
416
340
417
340
418
340
419
340
41A
340
41B
340
41C
340
41D
340
41E
340
41F
340
420
340
421
340
422
340
423
340
424
340
425
340
426
340
427
340
428
340
429
340
42A
340
42B
340
42C
340
42D
340
42E
340
42F
340
430
340
431
340
432
340
433
340
434
340
435
340
436
340
437
340
445
340
453
340
489
  0
GROUP
  5
67F
102
{ACAD_REACTORS
330
D
102
}
330
D
100
AcDbGroup
300
GRP295-LCMaster-LCGROUP299
 70
     1
 71
     1
340
304
340
305
340
306
340
307
340
32E
340
32F
340
330
340
331
340
332
340
333
340
334
340
335
340
336
340
337
340
338
340
339
340
33A
340
33C
340
34C
340
35C
340
35D
340
36D
340
36E
340
39C
340
39D
  0
GROUP
  5
680
102
{ACAD_REACTORS
330
D
102
}
330
D
100
AcDbGroup
300
GRP299
 70
     1
 71
     1
340
308
340
309
340
30A
340
30B
340
30C
340
30D
340
30E
340
30F
340
310
340
311
340
312
340
313
340
314
340
315
340
316
340
317
340
318
340
319
340
31A
340
31B
340
31C
340
31D
340
31E
340
31F
340
320
340
321
340
322
340
323
340
324
340
325
340
326
340
327
340
328
340
329
340
32A
340
32B
340
32C
340
32D
340
33B
340
36F
340
370
340
371
340
372
340
373
340
374
340
375
340
376
340
377
340
378
340
379
340
37A
340
37B
340
37C
340
37D
340
37E
340
37F
340
380
340
381
340
382
340
383
340
384
340
385
340
386
340
387
340
388
340
389
340
38A
340
38B
340
38C
340
38D
340
38E
340
38F
340
390
340
391
340
392
340
393
340
394
340
395
340
396
340
397
340
398
340
399
340
39A
340
39B
340
47D
340
47E
340
47F
340
480
340
481
340
482
340
483
340
484
340
485
340
486
340
487
340
488
  0
GROUP
  5
67E
102
{ACAD_REACTORS
330
D
102
}
330
D
100
AcDbGroup
300
GRP2319-LCMaster-LCGROUP300
 70
     1
 71
     1
340
39F
340
3A4
340
3AB
340
3B0
340
3B3
340
3B4
340
3B6
340
3BD
340
3BE
340
3BF
340
3F3
  0
GROUP
  5
682
102
{ACAD_REACTORS
330
D
102
}
330
D
100
AcDbGroup
300
GRP411-LCMaster-LCGROUP301
 70
     1
 71
     1
340
3A5
340
3AA
340
3B7
340
3B8
340
3C0
340
3C1
340
3C2
340
3C3
340
3C4
340
3C5
  0
GROUP
  5
683
102
{ACAD_REACTORS
330
D
102
}
330
D
100
AcDbGroup
300
GRP494-LCMaster-LCGROUP295
 70
     1
 71
     1
340
454
340
455
340
456
340
457
340
458
340
459
340
45A
340
45B
340
45C
340
45D
340
45E
340
45F
340
460
340
461
340
462
340
463
340
464
340
465
340
466
340
467
340
468
340
469
340
46A
340
46B
340
46C
340
46D
340
46E
340
46F
340
470
340
471
340
472
340
473
340
474
340
475
340
476
340
477
340
478
340
479
340
47A
340
47B
340
47C
340
48A
340
48B
  0
GROUP
  5
679
102
{ACAD_REACTORS
330
D
102
}
330
D
100
AcDbGroup
300
GRP551-LCMaster-LCGROUP557
 70
     1
 71
     1
340
48C
340
48D
340
559
340
55A
340
55B
340
55C
340
55D
340
55E
340
55F
340
560
340
561
340
562
340
563
340
564
340
565
340
566
340
567
340
568
340
569
340
56A
340
56B
340
56C
340
58E
340
58F
340
590
340
591
340
592
340
593
340
594
340
595
340
596
340
597
340
598
340
599
340
59A
340
59B
340
59C
340
59D
340
59E
340
59F
340
5A0
340
5A1
340
5A2
340
5A3
340
5A4
340
5A5
340
5A6
340
5A7
340
5A8
340
5A9
340
5AA
340
5AB
340
5AC
340
5AD
340
5AE
340
5AF
340
5B0
340
5BE
340
5CC
340
5CD
340
5CE
340
5D1
  0
GROUP
  5
678
102
{ACAD_REACTORS
330
D
102
}
330
D
100
AcDbGroup
300
GRP554
 70
     1
 71
     1
340
49E
340
4A5
340
4BD
340
4C0
340
4C1
340
4C4
340
4C5
340
4F1
340
4F2
340
4F3
340
4F4
340
4F5
340
4F6
340
4F7
340
4F8
340
4F9
340
4FA
340
4FB
340
4FC
340
4FD
340
4FE
340
50E
340
50F
340
51F
340
520
340
530
340
532
340
533
340
534
340
535
340
536
340
537
340
538
340
539
340
53A
340
53B
340
53C
340
53D
340
53E
340
53F
340
540
340
541
340
542
340
543
340
544
340
545
340
546
340
547
340
548
340
549
340
54A
340
54B
340
54C
340
54D
340
54E
340
54F
340
550
340
551
340
552
340
553
340
554
340
555
340
556
340
557
340
558
340
5D2
340
5D3
340
5D4
  0
GROUP
  5
677
102
{ACAD_REACTORS
330
D
102
}
330
D
100
AcDbGroup
300
GRP555-LCMaster-LCGROUP554
 70
     1
 71
     1
340
48E
340
48F
340
490
340
491
340
492
340
493
340
494
340
495
340
496
340
497
340
498
340
499
340
49A
340
49B
340
49C
340
49D
340
49F
340
4A0
340
4A1
340
4A2
340
4A3
340
4A4
340
4A6
340
4A7
340
4A8
340
4A9
340
4AA
340
4AB
340
4AC
340
4AD
340
4AE
340
4AF
340
4B0
340
4B1
340
4B2
340
4B3
340
4B4
340
4B5
340
4B6
340
4B7
340
4B8
340
4B9
340
4BA
340
4BB
340
4BC
340
4CC
340
4CD
340
4CE
340
4CF
340
4D0
340
4D1
340
4D2
340
4D3
340
4D4
340
4D5
340
4D6
340
4D7
340
4D8
340
4D9
340
4DA
340
4DB
340
4DC
340
4DD
340
4DE
340
4DF
340
4EF
340
4F0
340
531
340
5CF
340
5D0
  0
GROUP
  5
67A
102
{ACAD_REACTORS
330
D
102
}
330
D
100
AcDbGroup
300
GRP557-LCMaster-LCGROUP554
 70
     1
 71
     1
340
4BE
340
4BF
340
4C2
340
4C3
340
4C6
340
4C7
340
4C8
340
4C9
340
4CA
340
4CB
  0
GROUP
  5
685
102
{ACAD_REACTORS
330
D
102
}
330
D
100
AcDbGroup
300
GRP777
 70
     1
 71
     1
340
22E
340
22F
340
2A2
340
2C0
340
2C3
340
2C5
340
302
340
303
340
5E2
340
5EF
340
5FD
340
615
340
616
340
617
340
618
340
619
340
626
340
636
340
637
  0
GROUP
  5
684
102
{ACAD_REACTORS
330
D
102
}
330
D
100
AcDbGroup
300
GRP778
 70
     1
 71
     1
340
638
340
639
340
63A
340
63B
340
63C
340
63D
340
63E
340
63F
340
640
340
641
340
64E
340
65B
340
664
  0
LAYOUT
  5
1E
102
{ACAD_REACTORS
330
1A
102
}
330
1A
100
AcDbPlotSettings
  1

  2

  4

  6

 40
0.0
 41
0.0
 42
0.0
 43
0.0
 44
0.0
 45
0.0
 46
0.0
 47
0.0
 48
0.0
 49
0.0
140
0.0
141
0.0
142
1.0
143
1.0
 70
   688
 72
     0
 73
     0
 74
     5
  7

 75
    16
 76
     0
 77
     2
 78
   300
147
1.0
148
0.0
149
0.0
100
AcDbLayout
  1
Layout1
 70
     1
 71
     1
 10
0.0
 20
0.0
 11
2100.0
 21
2970.0
 12
0.0
 22
0.0
 32
0.0
 14
0.0
 24
0.0
 34
0.0
 15
2100.0
 25
2970.0
 35
0.0
146
0.0
 13
0.0
 23
0.0
 33
0.0
 16
1.0
 26
0.0
 36
0.0
 17
0.0
 27
1.0
 37
0.0
 76
     0
330
1B
  0
LAYOUT
  5
26
102
{ACAD_REACTORS
330
1A
102
}
330
1A
100
AcDbPlotSettings
  1

  2

  4

  6

 40
0.0
 41
0.0
 42
0.0
 43
0.0
 44
0.0
 45
0.0
 46
0.0
 47
0.0
 48
0.0
 49
0.0
140
0.0
141
0.0
142
1.0
143
1.0
 70
   688
 72
     0
 73
     0
 74
     5
  7

 75
    16
 76
     0
 77
     2
 78
   300
147
1.0
148
0.0
149
0.0
100
AcDbLayout
  1
Layout2
 70
     1
 71
     2
 10
0.0
 20
0.0
 11
0.0
 21
0.0
 12
0.0
 22
0.0
 32
0.0
 14
0.0
 24
0.0
 34
0.0
 15
0.0
 25
0.0
 35
0.0
146
0.0
 13
0.0
 23
0.0
 33
0.0
 16
1.0
 26
0.0
 36
0.0
 17
0.0
 27
1.0
 37
0.0
 76
     0
330
23
  0
LAYOUT
  5
22
102
{ACAD_REACTORS
330
1A
102
}
330
1A
100
AcDbPlotSettings
  1

  2

  4

  6

 40
0.0
 41
0.0
 42
0.0
 43
0.0
 44
0.0
 45
0.0
 46
0.0
 47
0.0
 48
0.0
 49
0.0
140
0.0
141
0.0
142
1.0
143
1.0
 70
  1776
 72
     0
 73
     0
 74
     0
  7

 75
     0
 76
     0
 77
     2
 78
   300
147
1.0
148
0.0
149
0.0
100
AcDbLayout
  1
Model
 70
     1
 71
     0
 10
0.0
 20
0.0
 11
2100.0
 21
2970.0
 12
0.0
 22
0.0
 32
0.0
 14
0.0
 24
0.0
 34
0.0
 15
2100.0
 25
2970.0
 35
0.0
146
0.0
 13
0.0
 23
0.0
 33
0.0
 16
1.0
 26
0.0
 36
0.0
 17
0.0
 27
1.0
 37
0.0
 76
     0
330
1F
  0
MLINESTYLE
  5
18
102
{ACAD_REACTORS
330
17
102
}
330
17
100
AcDbMlineStyle
  2
Standard
 70
     0
  3

 62
   256
 51
90.0
 52
90.0
 71
     2
 49
0.5
 62
   256
  6
BYLAYER
 49
-0.5
 62
   256
  6
BYLAYER
  0
ACDBPLACEHOLDER
  5
F
102
{ACAD_REACTORS
330
E
102
}
330
E
  0
ENDSEC
  0
EOF
