  0
SECTION
  2
HEADER
  9
$ACADVER
  1
AC1018
  9
$ACADMAINTVER
 70
     0
  9
$DWGCODEPAGE
  3
ANSI_1252
  9
$INSBASE
 10
0.0
 20
0.0
 30
0.0
  9
$EXTMIN
 10
0.0
 20
0.0
 30
0.0
  9
$EXTMAX
 10
2100.0
 20
2970.0
 30
0.0
  9
$LIMMIN
 10
0.0
 20
0.0
  9
$LIMMAX
 10
2100.0
 20
2970.0
  9
$ORTHOMODE
 70
     0
  9
$REGENMODE
 70
     1
  9
$FILLMODE
 70
     1
  9
$QTEXTMODE
 70
     0
  9
$MIRRTEXT
 70
     1
  9
$LTSCALE
 40
10.0
  9
$ATTMODE
 70
     1
  9
$TEXTSIZE
 40
2.5
  9
$TRACEWID
 40
1.0
  9
$TEXTSTYLE
  7
Standard
  9
$CLAYER
  8
0
  9
$CELTYPE
  6
ByLayer
  9
$CECOLOR
 62
     7
  9
$CELTSCALE
 40
1.0
  9
$DISPSILH
 70
     0
  9
$DIMSCALE
 40
10.0
  9
$DIMASZ
 40
3.5
  9
$DIMEXO
 40
0.625
  9
$DIMDLI
 40
3.75
  9
$DIMRND
 40
0.0
  9
$DIMDLE
 40
0.0
  9
$DIMEXE
 40
1.25
  9
$DIMTP
 40
0.0
  9
$DIMTM
 40
0.0
  9
$DIMTXT
 40
3.5
  9
$DIMCEN
 40
2.5
  9
$DIMTSZ
 40
0.0
  9
$DIMTOL
 70
     0
  9
$DIMLIM
 70
     0
  9
$DIMTIH
 70
     0
  9
$DIMTOH
 70
     0
  9
$DIMSE1
 70
     0
  9
$DIMSE2
 70
     0
  9
$DIMTAD
 70
     1
  9
$DIMZIN
 70
     8
  9
$DIMBLK
  1

  9
$DIMASO
 70
     1
  9
$DIMSHO
 70
     1
  9
$DIMPOST
  1

  9
$DIMAPOST
  1

  9
$DIMALT
 70
     0
  9
$DIMALTD
 70
     3
  9
$DIMALTF
 40
0.03937
  9
$DIMLFAC
 40
1.0
  9
$DIMTOFL
 70
     1
  9
$DIMTVP
 40
0.0
  9
$DIMTIX
 70
     0
  9
$DIMSOXD
 70
     0
  9
$DIMSAH
 70
     0
  9
$DIMBLK1
  1

  9
$DIMBLK2
  1

  9
$DIMSTYLE
  2
ISO-25
  9
$DIMCLRD
 70
     0
  9
$DIMCLRE
 70
     0
  9
$DIMCLRT
 70
     0
  9
$DIMTFAC
 40
1.0
  9
$DIMGAP
 40
0.625
  9
$DIMJUST
 70
     0
  9
$DIMSD1
 70
     0
  9
$DIMSD2
 70
     0
  9
$DIMTOLJ
 70
     0
  9
$DIMTZIN
 70
     8
  9
$DIMALTZ
 70
     0
  9
$DIMALTTZ
 70
     0
  9
$DIMUPT
 70
     0
  9
$DIMDEC
 70
     2
  9
$DIMTDEC
 70
     2
  9
$DIMALTU
 70
     2
  9
$DIMALTTD
 70
     3
  9
$DIMTXSTY
  7
Standard
  9
$DIMAUNIT
 70
     0
  9
$DIMADEC
 70
     0
  9
$DIMALTRND
 40
0.0
  9
$DIMAZIN
 70
     0
  9
$DIMDSEP
 70
    44
  9
$DIMATFIT
 70
     3
  9
$DIMFRAC
 70
     0
  9
$DIMLDRBLK
  1

  9
$DIMLUNIT
 70
     2
  9
$DIMLWD
 70
    -2
  9
$DIMLWE
 70
    -2
  9
$DIMTMOVE
 70
     0
  9
$LUNITS
 70
     2
  9
$LUPREC
 70
     4
  9
$SKETCHINC
 40
1.0
  9
$FILLETRAD
 40
10.0
  9
$AUNITS
 70
     0
  9
$AUPREC
 70
     0
  9
$MENU
  1
.
  9
$ELEVATION
 40
0.0
  9
$PELEVATION
 40
0.0
  9
$THICKNESS
 40
0.0
  9
$LIMCHECK
 70
     0
  9
$CHAMFERA
 40
10.0
  9
$CHAMFERB
 40
10.0
  9
$CHAMFERC
 40
20.0
  9
$CHAMFERD
 40
0.0
  9
$SKPOLY
 70
     0
  9
$TDCREATE
 40
2456860.526933067
  9
$TDUCREATE
 40
2456860.443599734
  9
$TDUPDATE
 40
2456860.526933079
  9
$TDUUPDATE
 40
2456860.443599745
  9
$TDINDWG
 40
0.0000000116
  9
$TDUSRTIMER
 40
0.0000000116
  9
$USRTIMER
 70
     1
  9
$ANGBASE
 50
0.0
  9
$ANGDIR
 70
     0
  9
$PDMODE
 70
     0
  9
$PDSIZE
 40
0.0
  9
$PLINEWID
 40
0.0
  9
$SPLFRAME
 70
     0
  9
$SPLINETYPE
 70
     6
  9
$SPLINESEGS
 70
     8
  9
$HANDSEED
  5
573
  9
$SURFTAB1
 70
     6
  9
$SURFTAB2
 70
     6
  9
$SURFTYPE
 70
     6
  9
$SURFU
 70
     6
  9
$SURFV
 70
     6
  9
$UCSBASE
  2

  9
$UCSNAME
  2

  9
$UCSORG
 10
0.0
 20
0.0
 30
0.0
  9
$UCSXDIR
 10
1.0
 20
0.0
 30
0.0
  9
$UCSYDIR
 10
0.0
 20
1.0
 30
0.0
  9
$UCSORTHOREF
  2

  9
$UCSORTHOVIEW
 70
     0
  9
$UCSORGTOP
 10
0.0
 20
0.0
 30
0.0
  9
$UCSORGBOTTOM
 10
0.0
 20
0.0
 30
0.0
  9
$UCSORGLEFT
 10
0.0
 20
0.0
 30
0.0
  9
$UCSORGRIGHT
 10
0.0
 20
0.0
 30
0.0
  9
$UCSORGFRONT
 10
0.0
 20
0.0
 30
0.0
  9
$UCSORGBACK
 10
0.0
 20
0.0
 30
0.0
  9
$PUCSBASE
  2

  9
$PUCSNAME
  2

  9
$PUCSORG
 10
0.0
 20
0.0
 30
0.0
  9
$PUCSXDIR
 10
1.0
 20
0.0
 30
0.0
  9
$PUCSYDIR
 10
0.0
 20
1.0
 30
0.0
  9
$PUCSORTHOREF
  2

  9
$PUCSORTHOVIEW
 70
     0
  9
$PUCSORGTOP
 10
0.0
 20
0.0
 30
0.0
  9
$PUCSORGBOTTOM
 10
0.0
 20
0.0
 30
0.0
  9
$PUCSORGLEFT
 10
0.0
 20
0.0
 30
0.0
  9
$PUCSORGRIGHT
 10
0.0
 20
0.0
 30
0.0
  9
$PUCSORGFRONT
 10
0.0
 20
0.0
 30
0.0
  9
$PUCSORGBACK
 10
0.0
 20
0.0
 30
0.0
  9
$USERI1
 70
     0
  9
$USERI2
 70
     0
  9
$USERI3
 70
     0
  9
$USERI4
 70
     0
  9
$USERI5
 70
     0
  9
$USERR1
 40
0.0
  9
$USERR2
 40
0.0
  9
$USERR3
 40
0.0
  9
$USERR4
 40
0.0
  9
$USERR5
 40
0.0
  9
$WORLDVIEW
 70
     1
  9
$SHADEDGE
 70
     3
  9
$SHADEDIF
 70
    70
  9
$TILEMODE
 70
     1
  9
$MAXACTVP
 70
    64
  9
$PINSBASE
 10
0.0
 20
0.0
 30
0.0
  9
$PLIMCHECK
 70
     0
  9
$PEXTMIN
 10
0.0
 20
0.0
 30
0.0
  9
$PEXTMAX
 10
2100.0
 20
2970.0
 30
0.0
  9
$PLIMMIN
 10
0.0
 20
0.0
  9
$PLIMMAX
 10
2100.0
 20
2970.0
  9
$UNITMODE
 70
     0
  9
$VISRETAIN
 70
     1
  9
$PLINEGEN
 70
     0
  9
$PSLTSCALE
 70
     1
  9
$TREEDEPTH
 70
  3020
  9
$CMLSTYLE
  2
Standard
  9
$CMLJUST
 70
     0
  9
$CMLSCALE
 40
20.0
  9
$PROXYGRAPHICS
 70
     1
  9
$MEASUREMENT
 70
     1
  9
$CELWEIGHT
370
    -1
  9
$ENDCAPS
280
     0
  9
$JOINSTYLE
280
     0
  9
$LWDISPLAY
290
     0
  9
$INSUNITS
 70
     4
  9
$HYPERLINKBASE
  1

  9
$STYLESHEET
  1

  9
$XEDIT
290
     1
  9
$CEPSNTYPE
380
     0
  9
$PSTYLEMODE
290
     1
  9
$FINGERPRINTGUID
  2
{FAEB1C30-E019-11D5-929B-00C0DF256EC4}
  9
$VERSIONGUID
  2
{FAEB1C32-E019-11D5-929B-00C0DF256EC4}
  9
$EXTNAMES
290
     1
  9
$PSVPSCALE
 40
0.0
  9
$OLESTARTUP
290
     0
  9
$SORTENTS
280
   127
  9
$INDEXCTL
280
     0
  9
$HIDETEXT
280
     1
  9
$XCLIPFRAME
290
     0
  9
$HALOGAP
280
     0
  9
$OBSCOLOR
 70
   257
  9
$OBSLTYPE
280
     0
  9
$INTERSECTIONDISPLAY
280
     0
  9
$INTERSECTIONCOLOR
 70
   257
  9
$DIMASSOC
280
     2
  9
$PROJECTNAME
  1

  0
ENDSEC
  0
SECTION
  2
CLASSES
  0
CLASS
  1
ACDBDICTIONARYWDFLT
  2
AcDbDictionaryWithDefault
  3
ObjectDBX Classes
 90
        0
 91
        1
280
     0
281
     0
  0
ENDSEC
  0
SECTION
  2
TABLES
  0
TABLE
  2
VPORT
  5
8
330
0
100
AcDbSymbolTable
 70
     2
  0
VPORT
  5
29
330
8
100
AcDbSymbolTableRecord
100
AcDbViewportTableRecord
  2
*ACTIVE
 70
     0
 10
0.0
 20
0.0
 11
1.0
 21
1.0
 12
1050.0
 22
1485.0
 13
0.0
 23
0.0
 14
1.0
 24
1.0
 15
0.0
 25
0.0
 16
0.0
 26
0.0
 36
1.0
 17
0.0
 27
0.0
 37
0.0
 40
2970.0
 41
0.707071
 42
50.0
 43
0.0
 44
0.0
 50
0.0
 51
0.0
 71
    16
 72
   100
 73
     1
 74
     0
 75
     0
 76
     0
 77
     0
 78
     0
281
     0
 65
     0
110
0.0
120
0.0
130
0.0
111
1.0
121
0.0
131
0.0
112
0.0
122
1.0
132
0.0
 79
     0
146
0.0
  0
ENDTAB
  0
TABLE
  2
LTYPE
  5
5
330
0
100
AcDbSymbolTable
 70
     3
  0
LTYPE
  5
14
330
5
100
AcDbSymbolTableRecord
100
AcDbLinetypeTableRecord
  2
ByBlock
 70
     0
  3

 72
    65
 73
     0
 40
0.0
  0
LTYPE
  5
15
330
5
100
AcDbSymbolTableRecord
100
AcDbLinetypeTableRecord
  2
ByLayer
 70
     0
  3

 72
    65
 73
     0
 40
0.0
  0
LTYPE
  5
16
330
5
100
AcDbSymbolTableRecord
100
AcDbLinetypeTableRecord
  2
Continuous
 70
     0
  3
Solid line
 72
    65
 73
     0
 40
0.0
  0
LTYPE
  5
2A
330
5
100
AcDbSymbolTableRecord
100
AcDbLinetypeTableRecord
  2
DASHED
 70
     0
  3
__ __ __ __ __
 72
    65
 73
     2
 40
6.25
 49
5.0
 74
     4
 75
     0
340
0
 46
1.0
 50
0.0
 44
0.0
 45
0.0
 49
-1.25
 74
     4
 75
     0
340
0
 46
1.0
 50
0.0
 44
0.0
 45
0.0
  0
LTYPE
  5
20F
330
5
100
AcDbSymbolTableRecord
100
AcDbLinetypeTableRecord
  2
CENTER
 70
     0
  3
__ . __ . __ . __ . __
 72
    65
 73
     4
 40
7.5
 49
5.0
 74
     4
 75
     0
340
0
 46
1.0
 50
0.0
 44
0.0
 45
0.0
 49
-1.25
 74
     4
 75
     0
340
0
 46
1.0
 50
0.0
 44
0.0
 45
0.0
 49
0.0
 74
     4
 75
     0
340
0
 46
1.0
 50
0.0
 44
0.0
 45
0.0
 49
-1.25
 74
     4
 75
     0
340
0
 46
1.0
 50
0.0
 44
0.0
 45
0.0
  0
ENDTAB
  0
TABLE
  2
LAYER
  5
2
330
0
100
AcDbSymbolTable
 70
    15
  0
LAYER
  5
10
330
2
100
AcDbSymbolTableRecord
100
AcDbLayerTableRecord
  2
0
 70
     0
 62
     7
  6
Continuous
370
    -3
390
F
  0
LAYER
  5
2B
330
2
100
AcDbSymbolTableRecord
100
AcDbLayerTableRecord
  2
LC-INFO-1-10-mm-A4H-0
 70
     1
 62
     7
  6
ByBlock
370
    -3
390
F
  0
LAYER
  5
2C
330
2
100
AcDbSymbolTableRecord
100
AcDbLayerTableRecord
  2
LC-CUT-HIDDEN
 70
     0
 62
     7
  6
DASHED
370
    -3
390
F
  0
LAYER
  5
2D
330
2
100
AcDbSymbolTableRecord
100
AcDbLayerTableRecord
  2
LC-VIEWPORT
 70
     0
 62
     7
  6
ByBlock
370
    -3
390
F
  0
LAYER
  5
2E
330
2
100
AcDbSymbolTableRecord
100
AcDbLayerTableRecord
  2
LC-3D-HIDDEN
 70
     0
 62
     9
  6
DASHED
370
    -3
390
F
  0
LAYER
  5
33
330
2
100
AcDbSymbolTableRecord
100
AcDbLayerTableRecord
  2
LC-001-111-----0
 70
     0
 62
   253
  6
ByBlock
370
    -3
390
F
  0
LAYER
  5
A3
330
2
100
AcDbSymbolTableRecord
100
AcDbLayerTableRecord
  2
LC-002-002-----0
 70
     0
 62
     1
  6
ByBlock
370
    -3
390
F
  0
LAYER
  5
105
330
2
100
AcDbSymbolTableRecord
100
AcDbLayerTableRecord
  2
LC-003-230-ZVN-0
 70
     0
 62
     1
  6
ByBlock
370
    -3
390
F
  0
LAYER
  5
109
330
2
100
AcDbSymbolTableRecord
100
AcDbLayerTableRecord
  2
LC-004-002-RND-0
 70
     0
 62
     1
  6
ByBlock
370
    -3
390
F
  0
LAYER
  5
110
330
2
100
AcDbSymbolTableRecord
100
AcDbLayerTableRecord
  2
LC-005-004-----0
 70
     0
 62
     7
  6
ByBlock
370
    -3
390
F
  0
LAYER
  5
115
330
2
100
AcDbSymbolTableRecord
100
AcDbLayerTableRecord
  2
LC-006-005-----0
 70
     0
 62
     5
  6
ByBlock
370
    -3
390
F
  0
LAYER
  5
210
330
2
100
AcDbSymbolTableRecord
100
AcDbLayerTableRecord
  2
LC-007-006-MLN-0
 70
     0
 62
     2
  6
CENTER
370
    -3
390
F
  0
LAYER
  5
29C
330
2
100
AcDbSymbolTableRecord
100
AcDbLayerTableRecord
  2
LC-008-100-D00-0
 70
     0
 62
    44
  6
ByBlock
370
    -3
390
F
  0
LAYER
  5
2B8
330
2
100
AcDbSymbolTableRecord
100
AcDbLayerTableRecord
  2
LC-009-003-----0
 70
     0
 62
     2
  6
ByBlock
370
    -3
390
F
  0
LAYER
  5
2BA
330
2
100
AcDbSymbolTableRecord
100
AcDbLayerTableRecord
  2
Defpoints
 70
     0
 62
     7
  6
Continuous
290
     0
370
    -3
390
F
  0
ENDTAB
  0
TABLE
  2
STYLE
  5
3
330
0
100
AcDbSymbolTable
 70
     2
  0
STYLE
  5
11
330
3
100
AcDbSymbolTableRecord
100
AcDbTextStyleTableRecord
  2
Standard
 70
     0
 40
0.0
 41
1.0
 50
0.0
 71
     0
 42
2.5
  3
txt
  4

  0
STYLE
  5
2F
330
3
100
AcDbSymbolTableRecord
100
AcDbTextStyleTableRecord
  2
LCTX0-400-0-0pDIN-Schrift
 70
     0
 40
0.0
 41
0.8
 50
0.0
 71
     0
 42
3.5
  3
TXT
  4

  0
ENDTAB
  0
TABLE
  2
VIEW
  5
6
330
0
100
AcDbSymbolTable
 70
     0
  0
ENDTAB
  0
TABLE
  2
UCS
  5
7
330
0
100
AcDbSymbolTable
 70
     0
  0
ENDTAB
  0
TABLE
  2
APPID
  5
9
330
0
100
AcDbSymbolTable
 70
     1
  0
APPID
  5
12
330
9
100
AcDbSymbolTableRecord
100
AcDbRegAppTableRecord
  2
ACAD
 70
     0
  0
ENDTAB
  0
TABLE
  2
DIMSTYLE
  5
A
330
0
100
AcDbSymbolTable
 70
     4
100
AcDbDimStyleTable
  0
DIMSTYLE
105
27
330
A
100
AcDbSymbolTableRecord
100
AcDbDimStyleTableRecord
  2
ISO-25
 70
     0
 41
2.5
 42
0.625
 43
3.75
 44
1.25
 73
     0
 74
     0
 77
     1
 78
     8
140
2.5
141
2.5
143
0.03937
147
0.625
171
     3
172
     1
271
     2
272
     2
274
     3
278
    44
283
     0
284
     8
340
11
  0
DIMSTYLE
105
2B7
102
{ACAD_REACTORS
330
2B9
330
2CE
330
387
330
514
102
}
330
A
100
AcDbSymbolTableRecord
100
AcDbDimStyleTableRecord
  2
LC-DIM-L-0025-00-02
 70
     0
 40
10.0
 41
2.5
 42
0.0
 43
7.5
 44
1.8
 73
     0
 74
     0
 77
     1
 78
     8
140
2.5
141
0.0
146
0.71
147
1.5
172
     1
176
     2
177
     2
178
     2
271
     0
278
    44
289
     1
340
2F
  0
DIMSTYLE
105
379
102
{ACAD_REACTORS
330
37A
330
524
330
540
330
54D
330
55C
102
}
330
A
100
AcDbSymbolTableRecord
100
AcDbDimStyleTableRecord
  2
LC-DIM-L-0025-02-02
 70
     0
 40
10.0
 41
2.5
 42
0.0
 43
7.5
 44
1.8
 73
     0
 74
     0
 77
     1
 78
     8
 79
     2
140
2.5
141
0.0
146
0.71
147
1.5
172
     1
176
     2
177
     2
178
     2
179
     2
271
     2
278
    44
289
     1
340
2F
  0
DIMSTYLE
105
536
102
{ACAD_REACTORS
330
537
102
}
330
A
100
AcDbSymbolTableRecord
100
AcDbDimStyleTableRecord
  2
LC-DIM-R-0025-02-02
 70
     0
 40
10.0
 41
2.5
 42
0.0
 43
7.5
 44
1.8
 73
     0
 74
     0
 77
     1
 78
     8
 79
     2
140
2.5
141
0.0
146
0.71
147
1.5
176
     2
177
     2
178
     2
179
     2
271
     2
278
    44
289
     1
340
2F
  0
ENDTAB
  0
TABLE
  2
BLOCK_RECORD
  5
1
330
0
100
AcDbSymbolTable
 70
    27
  0
BLOCK_RECORD
  5
1F
330
1
100
AcDbSymbolTableRecord
100
AcDbBlockTableRecord
  2
*Model_Space
340
22
  0
BLOCK_RECORD
  5
1B
330
1
100
AcDbSymbolTableRecord
100
AcDbBlockTableRecord
  2
*Paper_Space
340
1E
  0
BLOCK_RECORD
  5
23
330
1
100
AcDbSymbolTableRecord
100
AcDbBlockTableRecord
  2
*Paper_Space0
340
26
  0
BLOCK_RECORD
  5
30
330
1
100
AcDbSymbolTableRecord
100
AcDbBlockTableRecord
  2
SYM1
340
0
102
{BLKREFS
331
106
102
}
  0
BLOCK_RECORD
  5
112
330
1
100
AcDbSymbolTableRecord
100
AcDbBlockTableRecord
  2
*X12
340
0
102
{BLKREFS
331
204
102
}
  0
BLOCK_RECORD
  5
2BB
330
1
100
AcDbSymbolTableRecord
100
AcDbBlockTableRecord
  2
*D3
340
0
  0
BLOCK_RECORD
  5
2CF
330
1
100
AcDbSymbolTableRecord
100
AcDbBlockTableRecord
  2
*D4
340
0
  0
BLOCK_RECORD
  5
2E1
330
1
100
AcDbSymbolTableRecord
100
AcDbBlockTableRecord
  2
*X25
340
0
102
{BLKREFS
331
32C
102
}
  0
BLOCK_RECORD
  5
32D
330
1
100
AcDbSymbolTableRecord
100
AcDbBlockTableRecord
  2
*X36
340
0
102
{BLKREFS
331
378
102
}
  0
BLOCK_RECORD
  5
37B
330
1
100
AcDbSymbolTableRecord
100
AcDbBlockTableRecord
  2
*D7
340
0
  0
BLOCK_RECORD
  5
388
330
1
100
AcDbSymbolTableRecord
100
AcDbBlockTableRecord
  2
*D8
340
0
  0
BLOCK_RECORD
  5
3BF
330
1
100
AcDbSymbolTableRecord
100
AcDbBlockTableRecord
  2
*X49
340
0
102
{BLKREFS
331
3C9
102
}
  0
BLOCK_RECORD
  5
413
330
1
100
AcDbSymbolTableRecord
100
AcDbBlockTableRecord
  2
POLY1
340
0
102
{BLKREFS
331
417
102
}
  0
BLOCK_RECORD
  5
428
330
1
100
AcDbSymbolTableRecord
100
AcDbBlockTableRecord
  2
POLY2
340
0
102
{BLKREFS
331
437
102
}
  0
BLOCK_RECORD
  5
439
330
1
100
AcDbSymbolTableRecord
100
AcDbBlockTableRecord
  2
POLY3
340
0
102
{BLKREFS
331
448
102
}
  0
BLOCK_RECORD
  5
44A
330
1
100
AcDbSymbolTableRecord
100
AcDbBlockTableRecord
  2
POLY4
340
0
102
{BLKREFS
331
459
102
}
  0
BLOCK_RECORD
  5
484
330
1
100
AcDbSymbolTableRecord
100
AcDbBlockTableRecord
  2
POLY5
340
0
102
{BLKREFS
331
48D
102
}
  0
BLOCK_RECORD
  5
48E
330
1
100
AcDbSymbolTableRecord
100
AcDbBlockTableRecord
  2
POLY6
340
0
102
{BLKREFS
331
497
102
}
  0
BLOCK_RECORD
  5
498
330
1
100
AcDbSymbolTableRecord
100
AcDbBlockTableRecord
  2
POLY7
340
0
102
{BLKREFS
331
4A5
102
}
  0
BLOCK_RECORD
  5
4A6
330
1
100
AcDbSymbolTableRecord
100
AcDbBlockTableRecord
  2
POLY8
340
0
102
{BLKREFS
331
4B3
102
}
  0
BLOCK_RECORD
  5
4B4
330
1
100
AcDbSymbolTableRecord
100
AcDbBlockTableRecord
  2
POLY9
340
0
102
{BLKREFS
331
4C3
102
}
  0
BLOCK_RECORD
  5
4C4
330
1
100
AcDbSymbolTableRecord
100
AcDbBlockTableRecord
  2
POLY10
340
0
102
{BLKREFS
331
4D1
102
}
  0
BLOCK_RECORD
  5
50C
330
1
100
AcDbSymbolTableRecord
100
AcDbBlockTableRecord
  2
POLY11
340
0
102
{BLKREFS
331
510
102
}
  0
BLOCK_RECORD
  5
515
330
1
100
AcDbSymbolTableRecord
100
AcDbBlockTableRecord
  2
*D21
340
0
  0
BLOCK_RECORD
  5
525
330
1
100
AcDbSymbolTableRecord
100
AcDbBlockTableRecord
  2
*D22
340
0
  0
BLOCK_RECORD
  5
538
330
1
100
AcDbSymbolTableRecord
100
AcDbBlockTableRecord
  2
*D23
340
0
  0
BLOCK_RECORD
  5
541
330
1
100
AcDbSymbolTableRecord
100
AcDbBlockTableRecord
  2
*D24
340
0
  0
BLOCK_RECORD
  5
54E
330
1
100
AcDbSymbolTableRecord
100
AcDbBlockTableRecord
  2
*D25
340
0
  0
BLOCK_RECORD
  5
55D
330
1
100
AcDbSymbolTableRecord
100
AcDbBlockTableRecord
  2
*D26
340
0
  0
ENDTAB
  0
ENDSEC
  0
SECTION
  2
BLOCKS
  0
BLOCK
  5
20
330
1F
100
AcDbEntity
  8
0
100
AcDbBlockBegin
  2
*Model_Space
 70
     0
 71
     0
 10
0.0
 20
0.0
 30
0.0
  3
*Model_Space
  1

  0
ENDBLK
  5
21
330
1F
100
AcDbEntity
  8
0
100
AcDbBlockEnd
  0
BLOCK
  5
1C
330
1B
100
AcDbEntity
 67
     1
  8
0
100
AcDbBlockBegin
  2
*Paper_Space
 70
     0
 71
     0
 10
0.0
 20
0.0
 30
0.0
  3
*Paper_Space
  1

  0
ENDBLK
  5
1D
330
1B
100
AcDbEntity
 67
     1
  8
0
100
AcDbBlockEnd
  0
BLOCK
  5
24
330
23
100
AcDbEntity
  8
0
100
AcDbBlockBegin
  2
*Paper_Space0
 70
     0
 71
     0
 10
0.0
 20
0.0
 30
0.0
  3
*Paper_Space0
  1

  0
ENDBLK
  5
25
330
23
100
AcDbEntity
  8
0
100
AcDbBlockEnd
  0
BLOCK
  5
31
330
30
100
AcDbEntity
  8
0
100
AcDbBlockBegin
  2
SYM1
 70
     0
 71
     0
 10
0.0
 20
0.0
 30
0.0
  3
SYM1
  1

  4
SYM1
  0
LINE
  5
34
330
30
100
AcDbEntity
  8
LC-001-111-----0
 62
   253
370
    50
100
AcDbLine
 10
2050.0
 20
50.0
 30
0.0
 11
2050.0
 21
2920.0
 31
0.0
  0
LINE
  5
35
330
30
100
AcDbEntity
  8
LC-001-111-----0
 62
   253
370
    25
100
AcDbLine
 10
178.0
 20
220.0
 30
0.0
 11
724.0
 21
220.0
 31
0.0
  0
LINE
  5
36
330
30
100
AcDbEntity
  8
LC-001-111-----0
 62
   253
370
    35
100
AcDbLine
 10
724.0
 20
220.0
 30
0.0
 11
2050.0
 21
220.0
 31
0.0
  0
LINE
  5
37
330
30
100
AcDbEntity
  8
LC-001-111-----0
 62
   253
370
    50
100
AcDbLine
 10
178.0
 20
602.5
 30
0.0
 11
2050.0
 21
602.5
 31
0.0
  0
LINE
  5
38
330
30
100
AcDbEntity
  8
LC-001-111-----0
 62
   253
370
    25
100
AcDbLine
 10
178.0
 20
92.5
 30
0.0
 11
2050.0
 21
92.5
 31
0.0
  0
LINE
  5
39
330
30
100
AcDbEntity
  8
LC-001-111-----0
 62
   253
370
    25
100
AcDbLine
 10
178.0
 20
135.0
 30
0.0
 11
724.0
 21
135.0
 31
0.0
  0
LINE
  5
3A
330
30
100
AcDbEntity
  8
LC-001-111-----0
 62
   253
370
    25
100
AcDbLine
 10
178.0
 20
177.5
 30
0.0
 11
724.0
 21
177.5
 31
0.0
  0
LINE
  5
3B
330
30
100
AcDbEntity
  8
LC-001-111-----0
 62
   253
370
    25
100
AcDbLine
 10
178.0
 20
262.5
 30
0.0
 11
1166.0
 21
262.5
 31
0.0
  0
LINE
  5
3C
330
30
100
AcDbEntity
  8
LC-001-111-----0
 62
   253
370
    25
100
AcDbLine
 10
178.0
 20
305.0
 30
0.0
 11
1166.0
 21
305.0
 31
0.0
  0
LINE
  5
3D
330
30
100
AcDbEntity
  8
LC-001-111-----0
 62
   253
370
    25
100
AcDbLine
 10
178.0
 20
347.5
 30
0.0
 11
1166.0
 21
347.5
 31
0.0
  0
LINE
  5
3E
330
30
100
AcDbEntity
  8
LC-001-111-----0
 62
   253
370
    25
100
AcDbLine
 10
178.0
 20
390.0
 30
0.0
 11
1166.0
 21
390.0
 31
0.0
  0
LINE
  5
3F
330
30
100
AcDbEntity
  8
LC-001-111-----0
 62
   253
370
    35
100
AcDbLine
 10
178.0
 20
432.5
 30
0.0
 11
2050.0
 21
432.5
 31
0.0
  0
LINE
  5
40
330
30
100
AcDbEntity
  8
LC-001-111-----0
 62
   253
370
    25
100
AcDbLine
 10
828.0
 20
262.5
 30
0.0
 11
828.0
 21
432.5
 31
0.0
  0
LINE
  5
41
330
30
100
AcDbEntity
  8
LC-001-111-----0
 62
   253
370
    35
100
AcDbLine
 10
1920.0
 20
92.5
 30
0.0
 11
1920.0
 21
220.0
 31
0.0
  0
LINE
  5
42
330
30
100
AcDbEntity
  8
LC-001-111-----0
 62
   253
370
    25
100
AcDbLine
 10
1166.0
 20
538.75
 30
0.0
 11
2050.0
 21
538.75
 31
0.0
  0
LINE
  5
43
330
30
100
AcDbEntity
  8
LC-001-111-----0
 62
   253
370
    25
100
AcDbLine
 10
256.0
 20
50.0
 30
0.0
 11
256.0
 21
432.5
 31
0.0
  0
LINE
  5
44
330
30
100
AcDbEntity
  8
LC-001-111-----0
 62
   253
370
    25
100
AcDbLine
 10
516.0
 20
50.0
 30
0.0
 11
516.0
 21
432.5
 31
0.0
  0
LINE
  5
45
330
30
100
AcDbEntity
  8
LC-001-111-----0
 62
   253
370
    25
100
AcDbLine
 10
646.0
 20
50.0
 30
0.0
 11
646.0
 21
432.5
 31
0.0
  0
LINE
  5
46
330
30
100
AcDbEntity
  8
LC-001-111-----0
 62
   253
370
    35
100
AcDbLine
 10
724.0
 20
50.0
 30
0.0
 11
724.0
 21
602.5
 31
0.0
  0
LINE
  5
47
330
30
100
AcDbEntity
  8
LC-001-111-----0
 62
   253
370
    35
100
AcDbLine
 10
1166.0
 20
50.0
 30
0.0
 11
1166.0
 21
602.5
 31
0.0
  0
LINE
  5
48
330
30
100
AcDbEntity
  8
LC-001-111-----0
 62
   253
370
    25
100
AcDbLine
 10
1920.0
 20
135.0
 30
0.0
 11
2050.0
 21
135.0
 31
0.0
  0
LINE
  5
49
330
30
100
AcDbEntity
  8
LC-001-111-----0
 62
   253
370
    25
100
AcDbLine
 10
984.0
 20
220.0
 30
0.0
 11
984.0
 21
602.5
 31
0.0
  0
LINE
  5
4A
330
30
100
AcDbEntity
  8
LC-001-111-----0
 62
   253
370
    25
100
AcDbLine
 10
1686.0
 20
538.75
 30
0.0
 11
1686.0
 21
602.5
 31
0.0
  0
LINE
  5
4B
330
30
100
AcDbEntity
  8
LC-001-111-----0
 62
   253
370
    25
100
AcDbLine
 10
1608.0
 20
50.0
 30
0.0
 11
1608.0
 21
92.5
 31
0.0
  0
LINE
  5
4C
330
30
100
AcDbEntity
  8
LC-001-111-----0
 62
   253
370
    50
100
AcDbLine
 10
178.0
 20
50.0
 30
0.0
 11
178.0
 21
2920.0
 31
0.0
  0
LINE
  5
4D
330
30
100
AcDbEntity
  8
LC-001-111-----0
 62
   253
370
    50
100
AcDbLine
 10
178.0
 20
2920.0
 30
0.0
 11
2050.0
 21
2920.0
 31
0.0
  0
TEXT
  5
4E
330
30
100
AcDbEntity
  8
LC-001-111-----0
 62
     7
370
    25
100
AcDbText
 10
1471.410714
 20
558.125
 30
0.0
 40
25.0
  1
1:10
 41
0.75
  7
LCTX0-400-0-0pDIN-Schrift
 72
     1
 11
1504.0
 21
558.125
 31
0.0
100
AcDbText
  0
TEXT
  5
4F
330
30
100
AcDbEntity
  8
LC-001-111-----0
 62
     7
370
    25
100
AcDbText
 10
1946.071429
 20
101.25
 30
0.0
 40
25.0
  1
2
 41
0.75
  7
LCTX0-400-0-0pDIN-Schrift
 72
     1
 11
1955.0
 21
101.25
 31
0.0
100
AcDbText
  0
TEXT
  5
50
330
30
100
AcDbEntity
  8
LC-001-111-----0
 62
     7
370
    25
100
AcDbText
 10
740.285714
 20
398.75
 30
0.0
 40
25.0
  1
2010
 41
0.75
  7
LCTX0-400-0-0pDIN-Schrift
 72
     1
 11
776.0
 21
398.75
 31
0.0
100
AcDbText
  0
TEXT
  5
51
330
30
100
AcDbEntity
  8
LC-001-111-----0
 62
     7
370
    25
100
AcDbText
 10
860.464286
 20
356.25
 30
0.0
 40
25.0
  1
10.09.
 41
0.75
  7
LCTX0-400-0-0pDIN-Schrift
 72
     1
 11
906.0
 21
356.25
 31
0.0
100
AcDbText
  0
TEXT
  5
52
330
30
100
AcDbEntity
  8
LC-001-111-----0
 62
     7
370
    25
100
AcDbText
 10
1056.696429
 20
356.25
 30
0.0
 40
25.0
  1
HÄ
 41
0.75
  7
LCTX0-400-0-0pDIN-Schrift
 72
     1
 11
1075.0
 21
356.25
 31
0.0
100
AcDbText
  0
TEXT
  5
53
330
30
100
AcDbEntity
  8
LC-001-111-----0
 62
   253
370
    20
100
AcDbText
 10
1183.923077
 20
560.625
 30
0.0
 40
20.0
  1
Maßstab
 41
0.75
  7
LCTX0-400-0-0pDIN-Schrift
100
AcDbText
  0
TEXT
  5
54
330
30
100
AcDbEntity
  8
LC-001-111-----0
 62
   253
370
    20
100
AcDbText
 10
869.928571
 20
401.25
 30
0.0
 40
20.0
  1
Datum
 41
0.75
  7
LCTX0-400-0-0pDIN-Schrift
 72
     1
 11
906.0
 21
401.25
 31
0.0
100
AcDbText
  0
TEXT
  5
55
330
30
100
AcDbEntity
  8
LC-001-111-----0
 62
   253
370
    20
100
AcDbText
 10
1042.857143
 20
401.25
 30
0.0
 40
20.0
  1
Name
 41
0.75
  7
LCTX0-400-0-0pDIN-Schrift
 72
     1
 11
1075.0
 21
401.25
 31
0.0
100
AcDbText
  0
TEXT
  5
56
330
30
100
AcDbEntity
  8
LC-001-111-----0
 62
   253
370
    20
100
AcDbText
 10
741.923077
 20
358.75
 30
0.0
 40
20.0
  1
Bearb.
 41
0.75
  7
LCTX0-400-0-0pDIN-Schrift
100
AcDbText
  0
TEXT
  5
57
330
30
100
AcDbEntity
  8
LC-001-111-----0
 62
   253
370
    20
100
AcDbText
 10
741.923077
 20
316.25
 30
0.0
 40
20.0
  1
Gepr.
 41
0.75
  7
LCTX0-400-0-0pDIN-Schrift
100
AcDbText
  0
TEXT
  5
58
330
30
100
AcDbEntity
  8
LC-001-111-----0
 62
   253
370
    20
100
AcDbText
 10
741.923077
 20
273.75
 30
0.0
 40
20.0
  1
Norm
 41
0.75
  7
LCTX0-400-0-0pDIN-Schrift
100
AcDbText
  0
TEXT
  5
59
330
30
100
AcDbEntity
  8
LC-001-111-----0
 62
   253
370
    20
100
AcDbText
 10
1937.923077
 20
188.75
 30
0.0
 40
20.0
  1
Blatt
 41
0.75
  7
LCTX0-400-0-0pDIN-Schrift
100
AcDbText
  0
TEXT
  5
5A
330
30
100
AcDbEntity
  8
LC-001-111-----0
 62
   253
370
    20
100
AcDbText
 10
2012.076923
 20
103.75
 30
0.0
 40
20.0
  1
Bl.
 41
0.75
  7
LCTX0-400-0-0pDIN-Schrift
 72
     2
 11
2037.076923
 21
103.75
 31
0.0
100
AcDbText
  0
TEXT
  5
5B
330
30
100
AcDbEntity
  8
LC-001-111-----0
 62
   253
370
    20
100
AcDbText
 10
200.0
 20
61.25
 30
0.0
 40
20.0
  1
Zust.
 41
0.6
  7
LCTX0-400-0-0pDIN-Schrift
 72
     1
 11
222.0
 21
61.25
 31
0.0
100
AcDbText
  0
TEXT
  5
5C
330
30
100
AcDbEntity
  8
LC-001-111-----0
 62
   253
370
    20
100
AcDbText
 10
334.928571
 20
61.25
 30
0.0
 40
20.0
  1
Änderung
 41
0.75
  7
LCTX0-400-0-0pDIN-Schrift
 72
     1
 11
386.0
 21
61.25
 31
0.0
100
AcDbText
  0
TEXT
  5
5D
330
30
100
AcDbEntity
  8
LC-001-111-----0
 62
   253
370
    20
100
AcDbText
 10
544.928571
 20
61.25
 30
0.0
 40
20.0
  1
Datum
 41
0.75
  7
LCTX0-400-0-0pDIN-Schrift
 72
     1
 11
581.0
 21
61.25
 31
0.0
100
AcDbText
  0
TEXT
  5
5E
330
30
100
AcDbEntity
  8
LC-001-111-----0
 62
   253
370
    20
100
AcDbText
 10
652.857143
 20
61.25
 30
0.0
 40
20.0
  1
Name
 41
0.75
  7
LCTX0-400-0-0pDIN-Schrift
 72
     1
 11
685.0
 21
61.25
 31
0.0
100
AcDbText
  0
TEXT
  5
5F
330
30
100
AcDbEntity
  8
LC-001-111-----0
 62
     7
370
    50
100
AcDbText
 10
1369.517944
 20
343.75
 30
0.0
 40
50.0
  1
Mono N100LY 
 41
0.75
  7
LCTX0-400-0-0pDIN-Schrift
100
AcDbText
  0
TEXT
  5
60
330
30
100
AcDbEntity
  8
LC-001-111-----0
 62
     7
370
    35
100
AcDbText
 10
1725.407102
 20
351.25
 30
0.0
 40
35.0
  1
(Galaxy)
 41
0.75
  7
LCTX0-400-0-0pDIN-Schrift
100
AcDbText
  0
TEXT
  5
61
330
30
100
AcDbEntity
  8
LC-001-111-----0
 62
     7
370
    35
100
AcDbText
 10
1409.668156
 20
266.25
 30
0.0
 40
35.0
  1
Unterbau  undermount
 41
0.75
  7
LCTX0-400-0-0pDIN-Schrift
100
AcDbText
  0
TEXT
  5
62
330
30
100
AcDbEntity
  8
LC-001-111-----0
 62
     7
370
    50
100
AcDbText
 10
1334.071429
 20
131.25
 30
0.0
 40
50.0
  1
4.10.762.04.01
 41
0.75
  7
LCTX0-400-0-0pDIN-Schrift
 72
     1
 11
1543.0
 21
131.25
 31
0.0
100
AcDbText
  0
ARC
  5
63
330
30
100
AcDbEntity
  8
LC-001-111-----0
 62
   253
370
    25
100
AcDbCircle
 10
758.903191
 20
174.567744
 30
0.0
 40
20.81533311668208
100
AcDbArc
 50
62.408264
 51
94.48185
  0
LINE
  5
64
330
30
100
AcDbEntity
  8
LC-001-111-----0
 62
   253
370
    50
100
AcDbLine
 10
178.0
 20
50.0
 30
0.0
 11
2050.0
 21
50.0
 31
0.0
  0
LINE
  5
65
330
30
100
AcDbEntity
  8
LC-001-111-----0
 62
   253
370
    25
100
AcDbLine
 10
50.0
 20
1485.0
 30
0.0
 11
0.0
 21
1485.0
 31
0.0
  0
LINE
  5
66
330
30
100
AcDbEntity
  8
LC-001-111-----0
 62
   253
370
    25
100
AcDbLine
 10
1063.835603
 20
195.169147
 30
0.0
 11
1063.835603
 21
157.149147
 31
0.0
  0
LINE
  5
67
330
30
100
AcDbEntity
  8
LC-001-111-----0
 62
   253
370
    25
100
AcDbLine
 10
2100.0
 20
2970.0
 30
0.0
 11
2100.0
 21
0.0
 31
0.0
  0
LINE
  5
68
330
30
100
AcDbEntity
  8
LC-001-111-----0
 62
   253
370
    25
100
AcDbLine
 10
2100.0
 20
0.0
 30
0.0
 11
0.0
 21
0.0
 31
0.0
  0
LINE
  5
69
330
30
100
AcDbEntity
  8
LC-001-111-----0
 62
   253
370
    25
100
AcDbLine
 10
0.0
 20
0.0
 30
0.0
 11
0.0
 21
2970.0
 31
0.0
  0
LINE
  5
6A
330
30
100
AcDbEntity
  8
LC-001-111-----0
 62
   253
370
    25
100
AcDbLine
 10
2100.0
 20
2970.0
 30
0.0
 11
0.0
 21
2970.0
 31
0.0
  0
TEXT
  5
6B
330
30
100
AcDbEntity
  8
LC-001-111-----0
 62
   253
370
    20
100
AcDbText
 10
743.5
 20
111.159147
 30
0.0
 40
20.0
  1
Hofbauerstraße 1  ·  D-94209 REGEN
 41
0.65
  7
LCTX0-400-0-0pDIN-Schrift
 72
     1
 11
945.0
 21
111.159147
 31
0.0
100
AcDbText
  0
ARC
  5
6C
330
30
100
AcDbEntity
  8
LC-001-111-----0
 62
   253
370
    25
100
AcDbCircle
 10
758.032826
 20
185.671748
 30
0.0
 40
9.677270814709853
100
AcDbArc
 50
94.48185
 51
252.731329
  0
ARC
  5
6D
330
30
100
AcDbEntity
  8
LC-001-111-----0
 62
   253
370
    25
100
AcDbCircle
 10
823.845603
 20
176.159147
 30
0.0
 40
19.01000000000008
100
AcDbArc
 50
74.719456
 51
285.280544
  0
LINE
  5
6E
330
30
100
AcDbEntity
  8
LC-001-111-----0
 62
   253
370
    25
100
AcDbLine
 10
828.855603
 20
157.821208
 30
0.0
 11
828.855603
 21
163.204148
 31
0.0
  0
ARC
  5
6F
330
30
100
AcDbEntity
  8
LC-001-111-----0
 62
   253
370
    25
100
AcDbCircle
 10
823.845603
 20
176.159147
 30
0.0
 40
13.88999999999995
100
AcDbArc
 50
68.857352
 51
291.142648
  0
ARC
  5
70
330
30
100
AcDbEntity
  8
LC-001-111-----0
 62
   253
370
    25
100
AcDbCircle
 10
823.845603
 20
176.159147
 30
0.0
 40
12.39000000000002
100
AcDbArc
 50
58.303227
 51
301.696773
  0
ARC
  5
71
330
30
100
AcDbEntity
  8
LC-001-111-----0
 62
   253
370
    25
100
AcDbCircle
 10
1019.845603
 20
176.159147
 30
0.0
 40
19.01000000000008
100
AcDbArc
 50
74.719456
 51
285.280544
  0
LINE
  5
72
330
30
100
AcDbEntity
  8
LC-001-111-----0
 62
   253
370
    25
100
AcDbLine
 10
830.355603
 20
165.617231
 30
0.0
 11
830.355603
 21
156.709726
 31
0.0
  0
LINE
  5
73
330
30
100
AcDbEntity
  8
LC-001-111-----0
 62
   253
370
    25
100
AcDbLine
 10
755.160101
 20
176.430697
 30
0.0
 11
762.683613
 21
174.091896
 31
0.0
  0
ARC
  5
74
330
30
100
AcDbEntity
  8
LC-001-111-----0
 62
   253
370
    25
100
AcDbCircle
 10
823.845603
 20
176.159147
 30
0.0
 40
20.51000000000012
100
AcDbArc
 50
71.493868
 51
288.506132
  0
LINE
  5
75
330
30
100
AcDbEntity
  8
LC-001-111-----0
 62
   253
370
    25
100
AcDbLine
 10
1024.855603
 20
157.821208
 30
0.0
 11
1024.855603
 21
163.204148
 31
0.0
  0
LINE
  5
76
330
30
100
AcDbEntity
  8
LC-001-111-----0
 62
   253
370
    25
100
AcDbLine
 10
830.355603
 20
195.608569
 30
0.0
 11
830.355603
 21
186.701063
 31
0.0
  0
ARC
  5
77
330
30
100
AcDbEntity
  8
LC-001-111-----0
 62
   253
370
    25
100
AcDbCircle
 10
1019.845603
 20
176.159147
 30
0.0
 40
13.88999999999995
100
AcDbArc
 50
68.857352
 51
291.142648
  0
LINE
  5
78
330
30
100
AcDbEntity
  8
LC-001-111-----0
 62
   253
370
    25
100
AcDbLine
 10
862.835603
 20
155.649147
 30
0.0
 11
862.835603
 21
196.669147
 31
0.0
  0
LINE
  5
79
330
30
100
AcDbEntity
  8
LC-001-111-----0
 62
   253
370
    25
100
AcDbLine
 10
862.835603
 20
196.669147
 30
0.0
 11
872.355603
 21
196.669147
 31
0.0
  0
LINE
  5
7A
330
30
100
AcDbEntity
  8
LC-001-111-----0
 62
   253
370
    25
100
AcDbLine
 10
872.355603
 20
196.669147
 30
0.0
 11
872.355603
 21
179.519147
 31
0.0
  0
LINE
  5
7B
330
30
100
AcDbEntity
  8
LC-001-111-----0
 62
   253
370
    25
100
AcDbLine
 10
872.355603
 20
179.519147
 30
0.0
 11
887.335603
 21
179.519147
 31
0.0
  0
LINE
  5
7C
330
30
100
AcDbEntity
  8
LC-001-111-----0
 62
   253
370
    25
100
AcDbLine
 10
887.335603
 20
179.519147
 30
0.0
 11
887.335603
 21
196.669147
 31
0.0
  0
LINE
  5
7D
330
30
100
AcDbEntity
  8
LC-001-111-----0
 62
   253
370
    25
100
AcDbLine
 10
887.335603
 20
196.669147
 30
0.0
 11
896.855603
 21
196.669147
 31
0.0
  0
LINE
  5
7E
330
30
100
AcDbEntity
  8
LC-001-111-----0
 62
   253
370
    25
100
AcDbLine
 10
896.855603
 20
196.669147
 30
0.0
 11
896.855603
 21
155.649147
 31
0.0
  0
LINE
  5
7F
330
30
100
AcDbEntity
  8
LC-001-111-----0
 62
   253
370
    25
100
AcDbLine
 10
896.855603
 20
155.649147
 30
0.0
 11
887.335603
 21
155.649147
 31
0.0
  0
LINE
  5
80
330
30
100
AcDbEntity
  8
LC-001-111-----0
 62
   253
370
    25
100
AcDbLine
 10
887.335603
 20
155.649147
 30
0.0
 11
887.335603
 21
172.799147
 31
0.0
  0
LINE
  5
81
330
30
100
AcDbEntity
  8
LC-001-111-----0
 62
   253
370
    25
100
AcDbLine
 10
887.335603
 20
172.799147
 30
0.0
 11
872.355603
 21
172.799147
 31
0.0
  0
LINE
  5
82
330
30
100
AcDbEntity
  8
LC-001-111-----0
 62
   253
370
    25
100
AcDbLine
 10
872.355603
 20
172.799147
 30
0.0
 11
872.355603
 21
155.649147
 31
0.0
  0
LINE
  5
83
330
30
100
AcDbEntity
  8
LC-001-111-----0
 62
   253
370
    25
100
AcDbLine
 10
872.355603
 20
155.649147
 30
0.0
 11
862.835603
 21
155.649147
 31
0.0
  0
CIRCLE
  5
84
330
30
100
AcDbEntity
  8
LC-001-111-----0
 62
   253
370
    25
100
AcDbCircle
 10
946.345603
 20
176.159147
 30
0.0
 40
12.39000000000044
  0
CIRCLE
  5
85
330
30
100
AcDbEntity
  8
LC-001-111-----0
 62
   253
370
    25
100
AcDbCircle
 10
946.345603
 20
176.159147
 30
0.0
 40
20.51000000000049
  0
ARC
  5
86
330
30
100
AcDbEntity
  8
LC-001-111-----0
 62
   253
370
    25
100
AcDbCircle
 10
1019.845603
 20
176.159147
 30
0.0
 40
12.39000000000002
100
AcDbArc
 50
58.303227
 51
301.696773
  0
LINE
  5
87
330
30
100
AcDbEntity
  8
LC-001-111-----0
 62
   253
370
    25
100
AcDbLine
 10
864.335603
 20
195.169147
 30
0.0
 11
864.335603
 21
157.149147
 31
0.0
  0
LINE
  5
88
330
30
100
AcDbEntity
  8
LC-001-111-----0
 62
   253
370
    25
100
AcDbLine
 10
1026.355603
 20
165.617231
 30
0.0
 11
1026.355603
 21
156.709726
 31
0.0
  0
LINE
  5
89
330
30
100
AcDbEntity
  8
LC-001-111-----0
 62
   253
370
    25
100
AcDbLine
 10
864.335603
 20
157.149147
 30
0.0
 11
870.855603
 21
157.149147
 31
0.0
  0
LINE
  5
8A
330
30
100
AcDbEntity
  8
LC-001-111-----0
 62
   253
370
    25
100
AcDbLine
 10
870.855603
 20
157.149147
 30
0.0
 11
870.855603
 21
174.299147
 31
0.0
  0
LINE
  5
8B
330
30
100
AcDbEntity
  8
LC-001-111-----0
 62
   253
370
    25
100
AcDbLine
 10
870.855603
 20
174.299147
 30
0.0
 11
888.835603
 21
174.299147
 31
0.0
  0
LINE
  5
8C
330
30
100
AcDbEntity
  8
LC-001-111-----0
 62
   253
370
    25
100
AcDbLine
 10
888.835603
 20
174.299147
 30
0.0
 11
888.835603
 21
157.149147
 31
0.0
  0
LINE
  5
8D
330
30
100
AcDbEntity
  8
LC-001-111-----0
 62
   253
370
    25
100
AcDbLine
 10
888.835603
 20
157.149147
 30
0.0
 11
895.355603
 21
157.149147
 31
0.0
  0
LINE
  5
8E
330
30
100
AcDbEntity
  8
LC-001-111-----0
 62
   253
370
    25
100
AcDbLine
 10
895.355603
 20
157.149147
 30
0.0
 11
895.355603
 21
195.169147
 31
0.0
  0
LINE
  5
8F
330
30
100
AcDbEntity
  8
LC-001-111-----0
 62
   253
370
    25
100
AcDbLine
 10
895.355603
 20
195.169147
 30
0.0
 11
888.835603
 21
195.169147
 31
0.0
  0
LINE
  5
90
330
30
100
AcDbEntity
  8
LC-001-111-----0
 62
   253
370
    25
100
AcDbLine
 10
888.835603
 20
195.169147
 30
0.0
 11
888.835603
 21
178.019147
 31
0.0
  0
LINE
  5
91
330
30
100
AcDbEntity
  8
LC-001-111-----0
 62
   253
370
    25
100
AcDbLine
 10
888.835603
 20
178.019147
 30
0.0
 11
870.855603
 21
178.019147
 31
0.0
  0
LINE
  5
92
330
30
100
AcDbEntity
  8
LC-001-111-----0
 62
   253
370
    25
100
AcDbLine
 10
870.855603
 20
178.019147
 30
0.0
 11
870.855603
 21
195.169147
 31
0.0
  0
CIRCLE
  5
93
330
30
100
AcDbEntity
  8
LC-001-111-----0
 62
   253
370
    25
100
AcDbCircle
 10
946.345603
 20
176.159147
 30
0.0
 40
19.01000000000055
  0
ARC
  5
94
330
30
100
AcDbEntity
  8
LC-001-111-----0
 62
   253
370
    25
100
AcDbCircle
 10
760.836588
 20
168.15034
 30
0.0
 40
6.222024781007809
100
AcDbArc
 50
268.246912
 51
72.731329
  0
ARC
  5
95
330
30
100
AcDbEntity
  8
LC-001-111-----0
 62
   253
370
    25
100
AcDbCircle
 10
761.412387
 20
186.963179
 30
0.0
 40
25.04367341134793
100
AcDbArc
 50
239.19233
 51
268.246912
  0
LINE
  5
96
330
30
100
AcDbEntity
  8
LC-001-111-----0
 62
   253
370
    25
100
AcDbLine
 10
748.586073
 20
165.453385
 30
0.0
 11
748.586073
 21
160.350534
 31
0.0
  0
ARC
  5
97
330
30
100
AcDbEntity
  8
LC-001-111-----0
 62
   253
370
    25
100
AcDbCircle
 10
760.81067
 20
180.45076
 30
0.0
 40
23.52572762426598
100
AcDbArc
 50
238.692783
 51
274.343327
  0
ARC
  5
98
330
30
100
AcDbEntity
  8
LC-001-111-----0
 62
   253
370
    25
100
AcDbCircle
 10
1019.845603
 20
176.159147
 30
0.0
 40
20.51000000000012
100
AcDbArc
 50
71.493868
 51
288.506132
  0
ARC
  5
99
330
30
100
AcDbEntity
  8
LC-001-111-----0
 62
   253
370
    25
100
AcDbCircle
 10
761.779647
 20
167.692822
 30
0.0
 40
10.73104525444839
100
AcDbArc
 50
274.343327
 51
74.255463
  0
LINE
  5
9A
330
30
100
AcDbEntity
  8
LC-001-111-----0
 62
   253
370
    25
100
AcDbLine
 10
1026.355603
 20
195.608569
 30
0.0
 11
1026.355603
 21
186.701063
 31
0.0
  0
LINE
  5
9B
330
30
100
AcDbEntity
  8
LC-001-111-----0
 62
   253
370
    25
100
AcDbLine
 10
764.691502
 20
178.02125
 30
0.0
 11
757.135251
 21
180.151556
 31
0.0
  0
LINE
  5
9C
330
30
100
AcDbEntity
  8
LC-001-111-----0
 62
   253
370
    25
100
AcDbLine
 10
1024.855603
 20
189.114146
 30
0.0
 11
1024.855603
 21
194.497086
 31
0.0
  0
ARC
  5
9D
330
30
100
AcDbEntity
  8
LC-001-111-----0
 62
   253
370
    25
100
AcDbCircle
 10
758.632108
 20
185.460948
 30
0.0
 40
5.51636013010035
100
AcDbArc
 50
90.951212
 51
254.255463
  0
ARC
  5
9E
330
30
100
AcDbEntity
  8
LC-001-111-----0
 62
   253
370
    25
100
AcDbCircle
 10
758.906662
 20
168.924866
 30
0.0
 40
22.05472179307849
100
AcDbArc
 50
64.088485
 51
90.951212
  0
LINE
  5
9F
330
30
100
AcDbEntity
  8
LC-001-111-----0
 62
   253
370
    25
100
AcDbLine
 10
768.544191
 20
188.762426
 30
0.0
 11
768.544191
 21
193.015758
 31
0.0
  0
LINE
  5
A0
330
30
100
AcDbEntity
  8
LC-001-111-----0
 62
   253
370
    25
100
AcDbLine
 10
1071.855603
 20
177.513832
 30
0.0
 11
1087.818366
 21
196.669147
 31
0.0
  0
LINE
  5
A1
330
30
100
AcDbEntity
  8
LC-001-111-----0
 62
   253
370
    25
100
AcDbLine
 10
1087.818366
 20
196.669147
 30
0.0
 11
1099.299433
 21
196.669147
 31
0.0
  0
LINE
  5
A2
330
30
100
AcDbEntity
  8
LC-001-111-----0
 62
   253
370
    25
100
AcDbLine
 10
1099.299433
 20
196.669147
 30
0.0
 11
1082.207766
 21
176.159147
 31
0.0
  0
LINE
  5
A4
330
30
100
AcDbEntity
  8
LC-002-002-----0
 62
     1
370
    25
100
AcDbLine
 10
1143.855603
 20
159.963432
 30
0.0
 11
1143.855603
 21
192.354862
 31
0.0
  0
LINE
  5
A5
330
30
100
AcDbEntity
  8
LC-002-002-----0
 62
     1
370
    25
100
AcDbLine
 10
1143.855603
 20
192.354862
 30
0.0
 11
1127.659888
 21
176.159147
 31
0.0
  0
LINE
  5
A6
330
30
100
AcDbEntity
  8
LC-002-002-----0
 62
     1
370
    25
100
AcDbLine
 10
1127.659888
 20
176.159147
 30
0.0
 11
1143.855603
 21
159.963432
 31
0.0
  0
LINE
  5
A7
330
30
100
AcDbEntity
  8
LC-002-002-----0
 62
     1
370
    25
100
AcDbLine
 10
1142.355603
 20
163.584752
 30
0.0
 11
1142.355603
 21
188.733542
 31
0.0
  0
LINE
  5
A8
330
30
100
AcDbEntity
  8
LC-001-111-----0
 62
   253
370
    25
100
AcDbLine
 10
1082.207766
 20
176.159147
 30
0.0
 11
1099.299433
 21
155.649147
 31
0.0
  0
LINE
  5
A9
330
30
100
AcDbEntity
  8
LC-001-111-----0
 62
   253
370
    25
100
AcDbLine
 10
1099.299433
 20
155.649147
 30
0.0
 11
1087.818366
 21
155.649147
 31
0.0
  0
LINE
  5
AA
330
30
100
AcDbEntity
  8
LC-001-111-----0
 62
   253
370
    25
100
AcDbLine
 10
1087.818366
 20
155.649147
 30
0.0
 11
1071.855603
 21
174.804462
 31
0.0
  0
LINE
  5
AB
330
30
100
AcDbEntity
  8
LC-001-111-----0
 62
   253
370
    25
100
AcDbLine
 10
1062.335603
 20
155.649147
 30
0.0
 11
1062.335603
 21
196.669147
 31
0.0
  0
LINE
  5
AC
330
30
100
AcDbEntity
  8
LC-001-111-----0
 62
   253
370
    25
100
AcDbLine
 10
828.855603
 20
189.114146
 30
0.0
 11
828.855603
 21
194.497086
 31
0.0
  0
ARC
  5
AD
330
30
100
AcDbEntity
  8
LC-001-111-----0
 62
   253
370
    25
100
AcDbCircle
 10
758.903191
 20
174.567744
 30
0.0
 40
19.31533311668209
100
AcDbArc
 50
65.072024
 51
94.48185
  0
LINE
  5
AE
330
30
100
AcDbEntity
  8
LC-001-111-----0
 62
   253
370
    25
100
AcDbLine
 10
1063.835603
 20
157.149147
 30
0.0
 11
1070.355603
 21
157.149147
 31
0.0
  0
LINE
  5
AF
330
30
100
AcDbEntity
  8
LC-001-111-----0
 62
   253
370
    25
100
AcDbLine
 10
1070.355603
 20
157.149147
 30
0.0
 11
1070.355603
 21
195.169147
 31
0.0
  0
LINE
  5
B0
330
30
100
AcDbEntity
  8
LC-001-111-----0
 62
   253
370
    25
100
AcDbLine
 10
1070.355603
 20
195.169147
 30
0.0
 11
1063.835603
 21
195.169147
 31
0.0
  0
LINE
  5
B1
330
30
100
AcDbEntity
  8
LC-001-111-----0
 62
   253
370
    25
100
AcDbLine
 10
1065.335603
 20
193.669147
 30
0.0
 11
1065.335603
 21
158.649147
 31
0.0
  0
LINE
  5
B2
330
30
100
AcDbEntity
  8
LC-002-002-----0
 62
     1
370
    25
100
AcDbLine
 10
1142.355603
 20
188.733542
 30
0.0
 11
1129.781208
 21
176.159147
 31
0.0
  0
LINE
  5
B3
330
30
100
AcDbEntity
  8
LC-002-002-----0
 62
     1
370
    25
100
AcDbLine
 10
1129.781208
 20
176.159147
 30
0.0
 11
1142.355603
 21
163.584752
 31
0.0
  0
LINE
  5
B4
330
30
100
AcDbEntity
  8
LC-001-111-----0
 62
   253
370
    25
100
AcDbLine
 10
1062.335603
 20
196.669147
 30
0.0
 11
1071.855603
 21
196.669147
 31
0.0
  0
LINE
  5
B5
330
30
100
AcDbEntity
  8
LC-001-111-----0
 62
   253
370
    25
100
AcDbLine
 10
1071.855603
 20
196.669147
 30
0.0
 11
1071.855603
 21
155.649147
 31
0.0
  0
LINE
  5
B6
330
30
100
AcDbEntity
  8
LC-001-111-----0
 62
   253
370
    25
100
AcDbLine
 10
1071.855603
 20
155.649147
 30
0.0
 11
1062.335603
 21
155.649147
 31
0.0
  0
ARC
  5
B7
330
30
100
AcDbEntity
  8
LC-001-111-----0
 62
   253
370
    25
100
AcDbCircle
 10
758.032826
 20
185.671748
 30
0.0
 40
8.177270814709827
100
AcDbArc
 50
94.48185
 51
252.731329
  0
LINE
  5
B8
330
30
100
AcDbEntity
  8
LC-001-111-----0
 62
   253
370
    25
100
AcDbLine
 10
755.60538
 20
177.863082
 30
0.0
 11
763.128892
 21
175.524281
 31
0.0
  0
ARC
  5
B9
330
30
100
AcDbEntity
  8
LC-001-111-----0
 62
   253
370
    25
100
AcDbCircle
 10
760.836588
 20
168.15034
 30
0.0
 40
7.72202478100773
100
AcDbArc
 50
268.246912
 51
72.731329
  0
LINE
  5
BA
330
30
100
AcDbEntity
  8
LC-001-111-----0
 62
   253
370
    25
100
AcDbLine
 10
827.355603
 20
191.143539
 30
0.0
 11
827.355603
 21
193.313738
 31
0.0
  0
ARC
  5
BB
330
30
100
AcDbEntity
  8
LC-001-111-----0
 62
   253
370
    25
100
AcDbCircle
 10
823.845603
 20
176.159147
 30
0.0
 40
17.50999999999996
100
AcDbArc
 50
78.436322
 51
281.563678
  0
LINE
  5
BC
330
30
100
AcDbEntity
  8
LC-001-111-----0
 62
   253
370
    25
100
AcDbLine
 10
827.355603
 20
159.004556
 30
0.0
 11
827.355603
 21
161.174755
 31
0.0
  0
LINE
  5
BD
330
30
100
AcDbEntity
  8
LC-002-002-----0
 62
     1
370
    25
100
AcDbLine
 10
1145.355603
 20
195.976182
 30
0.0
 11
1145.355603
 21
156.342112
 31
0.0
  0
LINE
  5
BE
330
30
100
AcDbEntity
  8
LC-002-002-----0
 62
     1
370
    25
100
AcDbLine
 10
1145.355603
 20
156.342112
 30
0.0
 11
1125.538568
 21
176.159147
 31
0.0
  0
LINE
  5
BF
330
30
100
AcDbEntity
  8
LC-002-002-----0
 62
     1
370
    25
100
AcDbLine
 10
1125.538568
 20
176.159147
 30
0.0
 11
1145.355603
 21
195.976182
 31
0.0
  0
LINE
  5
C0
330
30
100
AcDbEntity
  8
LC-001-111-----0
 62
   253
370
    25
100
AcDbLine
 10
1065.335603
 20
158.649147
 30
0.0
 11
1068.855603
 21
158.649147
 31
0.0
  0
LINE
  5
C1
330
30
100
AcDbEntity
  8
LC-001-111-----0
 62
   253
370
    25
100
AcDbLine
 10
1068.855603
 20
158.649147
 30
0.0
 11
1068.855603
 21
193.669147
 31
0.0
  0
LINE
  5
C2
330
30
100
AcDbEntity
  8
LC-001-111-----0
 62
   253
370
    25
100
AcDbLine
 10
1068.855603
 20
193.669147
 30
0.0
 11
1065.335603
 21
193.669147
 31
0.0
  0
LINE
  5
C3
330
30
100
AcDbEntity
  8
LC-001-111-----0
 62
   253
370
    25
100
AcDbLine
 10
1067.095603
 20
192.169147
 30
0.0
 11
1067.095603
 21
160.149147
 31
0.0
  0
ARC
  5
C4
330
30
100
AcDbEntity
  8
LC-001-111-----0
 62
   253
370
    25
100
AcDbCircle
 10
823.845603
 20
176.159147
 30
0.0
 40
15.38999999999992
100
AcDbArc
 50
76.816519
 51
283.183481
  0
LINE
  5
C5
330
30
100
AcDbEntity
  8
LC-001-111-----0
 62
   253
370
    25
100
AcDbLine
 10
870.855603
 20
195.169147
 30
0.0
 11
864.335603
 21
195.169147
 31
0.0
  0
LINE
  5
C6
330
30
100
AcDbEntity
  8
LC-001-111-----0
 62
   253
370
    25
100
AcDbLine
 10
1096.09687
 20
195.169147
 30
0.0
 11
1088.520928
 21
195.169147
 31
0.0
  0
LINE
  5
C7
330
30
100
AcDbEntity
  8
LC-001-111-----0
 62
   253
370
    25
100
AcDbLine
 10
865.835603
 20
158.649147
 30
0.0
 11
869.355603
 21
158.649147
 31
0.0
  0
LINE
  5
C8
330
30
100
AcDbEntity
  8
LC-001-111-----0
 62
   253
370
    25
100
AcDbLine
 10
1023.355603
 20
191.143539
 30
0.0
 11
1023.355603
 21
193.313738
 31
0.0
  0
LINE
  5
C9
330
30
100
AcDbEntity
  8
LC-001-111-----0
 62
   253
370
    25
100
AcDbLine
 10
892.095603
 20
192.169147
 30
0.0
 11
892.095603
 21
160.149147
 31
0.0
  0
TEXT
  5
CA
330
30
100
AcDbEntity
  8
LC-001-111-----0
 62
     1
370
    15
100
AcDbText
 10
1105.196429
 20
21.25
 30
0.0
 40
15.0
  1
Mono-N100LY
 41
0.75
  7
LCTX0-400-0-0pDIN-Schrift
 72
     1
 11
1166.0
 21
21.25
 31
0.0
100
AcDbText
  0
CIRCLE
  5
CB
330
30
100
AcDbEntity
  8
LC-001-111-----0
 62
   253
370
    25
100
AcDbCircle
 10
946.345603
 20
176.159147
 30
0.0
 40
17.51000000000047
  0
LINE
  5
CC
330
30
100
AcDbEntity
  8
LC-001-111-----0
 62
   253
370
    25
100
AcDbLine
 10
1088.520928
 20
195.169147
 30
0.0
 11
1072.679261
 21
176.159147
 31
0.0
  0
ARC
  5
CD
330
30
100
AcDbEntity
  8
LC-001-111-----0
 62
   253
370
    25
100
AcDbCircle
 10
1019.845603
 20
176.159147
 30
0.0
 40
17.50999999999996
100
AcDbArc
 50
78.436322
 51
281.563678
  0
ARC
  5
CE
330
30
100
AcDbEntity
  8
LC-001-111-----0
 62
   253
370
    25
100
AcDbCircle
 10
761.412387
 20
186.963179
 30
0.0
 40
26.54367341134783
100
AcDbArc
 50
244.741378
 51
268.246912
  0
LINE
  5
CF
330
30
100
AcDbEntity
  8
LC-001-111-----0
 62
   253
370
    25
100
AcDbLine
 10
1023.355603
 20
159.004556
 30
0.0
 11
1023.355603
 21
161.174755
 31
0.0
  0
LINE
  5
D0
330
30
100
AcDbEntity
  8
LC-002-002-----0
 62
     1
370
    25
100
AcDbLine
 10
1140.855603
 20
167.206073
 30
0.0
 11
1140.855603
 21
185.112221
 31
0.0
  0
LINE
  5
D1
330
30
100
AcDbEntity
  8
LC-002-002-----0
 62
     1
370
    25
100
AcDbLine
 10
1140.855603
 20
185.112221
 30
0.0
 11
1131.902529
 21
176.159147
 31
0.0
  0
LINE
  5
D2
330
30
100
AcDbEntity
  8
LC-002-002-----0
 62
     1
370
    25
100
AcDbLine
 10
1131.902529
 20
176.159147
 30
0.0
 11
1140.855603
 21
167.206073
 31
0.0
  0
CIRCLE
  5
D3
330
30
100
AcDbEntity
  8
LC-001-111-----0
 62
   253
370
    25
100
AcDbCircle
 10
946.345603
 20
176.159147
 30
0.0
 40
13.89000000000002
  0
LINE
  5
D4
330
30
100
AcDbEntity
  8
LC-001-111-----0
 62
   253
370
    25
100
AcDbLine
 10
890.335603
 20
158.649147
 30
0.0
 11
893.855603
 21
158.649147
 31
0.0
  0
LINE
  5
D5
330
30
100
AcDbEntity
  8
LC-001-111-----0
 62
   253
370
    25
100
AcDbLine
 10
893.855603
 20
158.649147
 30
0.0
 11
893.855603
 21
193.669147
 31
0.0
  0
ARC
  5
D6
330
30
100
AcDbEntity
  8
LC-001-111-----0
 62
   253
370
    25
100
AcDbCircle
 10
758.906662
 20
168.924866
 30
0.0
 40
20.55472179307891
100
AcDbArc
 50
57.190491
 51
90.951212
  0
ARC
  5
D7
330
30
100
AcDbEntity
  8
LC-001-111-----0
 62
   253
370
    25
100
AcDbCircle
 10
761.779647
 20
167.692822
 30
0.0
 40
12.23104525444841
100
AcDbArc
 50
274.343327
 51
74.255463
  0
LINE
  5
D8
330
30
100
AcDbEntity
  8
LC-001-111-----0
 62
   253
370
    25
100
AcDbLine
 10
893.855603
 20
193.669147
 30
0.0
 11
890.335603
 21
193.669147
 31
0.0
  0
LINE
  5
D9
330
30
100
AcDbEntity
  8
LC-001-111-----0
 62
   253
370
    25
100
AcDbLine
 10
890.335603
 20
193.669147
 30
0.0
 11
890.335603
 21
158.649147
 31
0.0
  0
LINE
  5
DA
330
30
100
AcDbEntity
  8
LC-001-111-----0
 62
   253
370
    25
100
AcDbLine
 10
890.335603
 20
176.159147
 30
0.0
 11
869.355603
 21
176.159147
 31
0.0
  0
TEXT
  5
DB
330
30
100
AcDbEntity
  8
LC-001-111-----0
 62
     7
370
    25
100
AcDbText
 10
1977.410714
 20
143.75
 30
0.0
 40
25.0
  1
1
 41
0.75
  7
LCTX0-400-0-0pDIN-Schrift
 72
     1
 11
1985.0
 21
143.75
 31
0.0
100
AcDbText
  0
LINE
  5
DC
330
30
100
AcDbEntity
  8
LC-001-111-----0
 62
   253
370
    25
100
AcDbLine
 10
869.355603
 20
158.649147
 30
0.0
 11
869.355603
 21
193.669147
 31
0.0
  0
LINE
  5
DD
330
30
100
AcDbEntity
  8
LC-001-111-----0
 62
   253
370
    25
100
AcDbLine
 10
869.355603
 20
193.669147
 30
0.0
 11
865.835603
 21
193.669147
 31
0.0
  0
LINE
  5
DE
330
30
100
AcDbEntity
  8
LC-001-111-----0
 62
   253
370
    25
100
AcDbLine
 10
865.835603
 20
193.669147
 30
0.0
 11
865.835603
 21
158.649147
 31
0.0
  0
LINE
  5
DF
330
30
100
AcDbEntity
  8
LC-001-111-----0
 62
   253
370
    25
100
AcDbLine
 10
867.595603
 20
192.169147
 30
0.0
 11
867.595603
 21
160.149147
 31
0.0
  0
CIRCLE
  5
E0
330
30
100
AcDbEntity
  8
LC-001-111-----0
 62
   253
370
    25
100
AcDbCircle
 10
946.345603
 20
176.159147
 30
0.0
 40
15.38999999999984
  0
LINE
  5
E1
330
30
100
AcDbEntity
  8
LC-001-111-----0
 62
   253
370
    25
100
AcDbLine
 10
1072.679261
 20
176.159147
 30
0.0
 11
1088.520928
 21
157.149147
 31
0.0
  0
LINE
  5
E2
330
30
100
AcDbEntity
  8
LC-001-111-----0
 62
   253
370
    25
100
AcDbLine
 10
1088.520928
 20
157.149147
 30
0.0
 11
1096.09687
 21
157.149147
 31
0.0
  0
LINE
  5
E3
330
30
100
AcDbEntity
  8
LC-001-111-----0
 62
   253
370
    25
100
AcDbLine
 10
1096.09687
 20
157.149147
 30
0.0
 11
1080.255204
 21
176.159147
 31
0.0
  0
LINE
  5
E4
330
30
100
AcDbEntity
  8
LC-001-111-----0
 62
   253
370
    25
100
AcDbLine
 10
770.044191
 20
186.20063
 30
0.0
 11
770.044191
 21
193.903002
 31
0.0
  0
ARC
  5
E5
330
30
100
AcDbEntity
  8
LC-001-111-----0
 62
   253
370
    25
100
AcDbCircle
 10
761.412387
 20
186.963179
 30
0.0
 40
23.54367341134796
100
AcDbArc
 50
232.518913
 51
268.246912
  0
ARC
  5
E6
330
30
100
AcDbEntity
  8
LC-001-111-----0
 62
   253
370
    25
100
AcDbCircle
 10
760.836588
 20
168.15034
 30
0.0
 40
4.722024781007908
100
AcDbArc
 50
268.246912
 51
72.731329
  0
LINE
  5
E7
330
30
100
AcDbEntity
  8
LC-001-111-----0
 62
   253
370
    25
100
AcDbLine
 10
757.542274
 20
181.595277
 30
0.0
 11
765.098525
 21
179.464972
 31
0.0
  0
ARC
  5
E8
330
30
100
AcDbEntity
  8
LC-001-111-----0
 62
   253
370
    25
100
AcDbCircle
 10
758.632108
 20
185.460948
 30
0.0
 40
4.016360130100384
100
AcDbArc
 50
90.951212
 51
254.255463
  0
ARC
  5
E9
330
30
100
AcDbEntity
  8
LC-001-111-----0
 62
   253
370
    25
100
AcDbCircle
 10
758.032826
 20
185.671748
 30
0.0
 40
11.17727081470983
100
AcDbArc
 50
94.48185
 51
252.731329
  0
LINE
  5
EA
330
30
100
AcDbEntity
  8
LC-001-111-----0
 62
   253
370
    25
100
AcDbLine
 10
762.238334
 20
172.659511
 30
0.0
 11
754.714822
 21
174.998312
 31
0.0
  0
LINE
  5
EB
330
30
100
AcDbEntity
  8
LC-001-111-----0
 62
   253
370
    25
100
AcDbLine
 10
747.086073
 20
168.279997
 30
0.0
 11
747.086073
 21
159.524163
 31
0.0
  0
ARC
  5
EC
330
30
100
AcDbEntity
  8
LC-001-111-----0
 62
   253
370
    25
100
AcDbCircle
 10
758.903191
 20
174.567744
 30
0.0
 40
22.31533311668187
100
AcDbArc
 50
60.049399
 51
94.48185
  0
ARC
  5
ED
330
30
100
AcDbEntity
  8
LC-001-111-----0
 62
   253
370
    25
100
AcDbCircle
 10
760.81067
 20
180.45076
 30
0.0
 40
25.02572762426604
100
AcDbArc
 50
236.741348
 51
274.343327
  0
LINE
  5
EE
330
30
100
AcDbEntity
  8
LC-001-111-----0
 62
   253
370
    25
100
AcDbLine
 10
1080.255204
 20
176.159147
 30
0.0
 11
1096.09687
 21
195.169147
 31
0.0
  0
LINE
  5
EF
330
30
100
AcDbEntity
  8
LC-001-111-----0
 62
   253
370
    25
100
AcDbLine
 10
750.086073
 20
162.957321
 30
0.0
 11
750.086073
 21
161.212369
 31
0.0
  0
LINE
  5
F0
330
30
100
AcDbEntity
  8
LC-001-111-----0
 62
   253
370
    25
100
AcDbLine
 10
1078.302641
 20
176.159147
 30
0.0
 11
1092.894308
 21
193.669147
 31
0.0
  0
LINE
  5
F1
330
30
100
AcDbEntity
  8
LC-002-002-----0
 62
     1
370
    25
100
AcDbLine
 10
1139.355603
 20
170.827393
 30
0.0
 11
1139.355603
 21
181.490901
 31
0.0
  0
LINE
  5
F2
330
30
100
AcDbEntity
  8
LC-002-002-----0
 62
     1
370
    25
100
AcDbLine
 10
1139.355603
 20
181.490901
 30
0.0
 11
1134.023849
 21
176.159147
 31
0.0
  0
LINE
  5
F3
330
30
100
AcDbEntity
  8
LC-002-002-----0
 62
     1
370
    25
100
AcDbLine
 10
1134.023849
 20
176.159147
 30
0.0
 11
1139.355603
 21
170.827393
 31
0.0
  0
LINE
  5
F4
330
30
100
AcDbEntity
  8
LC-002-002-----0
 62
     1
370
    25
100
AcDbLine
 10
1137.855603
 20
174.448713
 30
0.0
 11
1137.855603
 21
177.869581
 31
0.0
  0
LINE
  5
F5
330
30
100
AcDbEntity
  8
LC-002-002-----0
 62
     1
370
    25
100
AcDbLine
 10
1137.855603
 20
177.869581
 30
0.0
 11
1136.145169
 21
176.159147
 31
0.0
  0
LINE
  5
F6
330
30
100
AcDbEntity
  8
LC-002-002-----0
 62
     1
370
    25
100
AcDbLine
 10
1136.145169
 20
176.159147
 30
0.0
 11
1137.855603
 21
174.448713
 31
0.0
  0
LINE
  5
F7
330
30
100
AcDbEntity
  8
LC-001-111-----0
 62
   253
370
    25
100
AcDbLine
 10
1092.894308
 20
193.669147
 30
0.0
 11
1089.22349
 21
193.669147
 31
0.0
  0
LINE
  5
F8
330
30
100
AcDbEntity
  8
LC-001-111-----0
 62
   253
370
    25
100
AcDbLine
 10
1089.22349
 20
193.669147
 30
0.0
 11
1074.631824
 21
176.159147
 31
0.0
  0
ARC
  5
F9
330
30
100
AcDbEntity
  8
LC-001-111-----0
 62
   253
370
    25
100
AcDbCircle
 10
1019.845603
 20
176.159147
 30
0.0
 40
15.38999999999992
100
AcDbArc
 50
76.816519
 51
283.183481
  0
LINE
  5
FA
330
30
100
AcDbEntity
  8
LC-001-111-----0
 62
   253
370
    25
100
AcDbLine
 10
1074.631824
 20
176.159147
 30
0.0
 11
1089.22349
 21
158.649147
 31
0.0
  0
LINE
  5
FB
330
30
100
AcDbEntity
  8
LC-001-111-----0
 62
   253
370
    25
100
AcDbLine
 10
1089.22349
 20
158.649147
 30
0.0
 11
1092.894308
 21
158.649147
 31
0.0
  0
LINE
  5
FC
330
30
100
AcDbEntity
  8
LC-001-111-----0
 62
   253
370
    25
100
AcDbLine
 10
1092.894308
 20
158.649147
 30
0.0
 11
1078.302641
 21
176.159147
 31
0.0
  0
LINE
  5
FD
330
30
100
AcDbEntity
  8
LC-001-111-----0
 62
   253
370
    25
100
AcDbLine
 10
1076.467232
 20
176.159147
 30
0.0
 11
1090.098623
 21
192.516815
 31
0.0
  0
LINE
  5
FE
330
30
100
AcDbEntity
  8
LC-001-111-----0
 62
   253
370
    25
100
AcDbLine
 10
1076.467232
 20
176.159147
 30
0.0
 11
1090.098623
 21
159.801479
 31
0.0
  0
ARC
  5
FF
330
30
100
AcDbEntity
  8
LC-001-111-----0
 62
   253
370
    25
100
AcDbCircle
 10
760.81067
 20
180.45076
 30
0.0
 40
22.02572762426587
100
AcDbArc
 50
240.862164
 51
274.343327
  0
ARC
  5
100
330
30
100
AcDbEntity
  8
LC-001-111-----0
 62
   253
370
    25
100
AcDbCircle
 10
761.779647
 20
167.692822
 30
0.0
 40
9.231045254448425
100
AcDbArc
 50
274.343327
 51
74.255463
  0
LINE
  5
101
330
30
100
AcDbEntity
  8
LC-001-111-----0
 62
   253
370
    25
100
AcDbLine
 10
764.284479
 20
176.577529
 30
0.0
 11
756.728228
 21
178.707834
 31
0.0
  0
ARC
  5
102
330
30
100
AcDbEntity
  8
LC-001-111-----0
 62
   253
370
    25
100
AcDbCircle
 10
758.632108
 20
185.460948
 30
0.0
 40
7.016360130100396
100
AcDbArc
 50
90.951212
 51
254.255463
  0
ARC
  5
103
330
30
100
AcDbEntity
  8
LC-001-111-----0
 62
   253
370
    25
100
AcDbCircle
 10
758.906662
 20
168.924866
 30
0.0
 40
23.55472179307856
100
AcDbArc
 50
69.789306
 51
90.951212
  0
LINE
  5
104
330
30
100
AcDbEntity
  8
LC-001-111-----0
 62
   253
370
    25
100
AcDbLine
 10
767.044191
 20
191.029289
 30
0.0
 11
767.044191
 21
192.083629
 31
0.0
  0
ENDBLK
  5
32
330
30
100
AcDbEntity
  8
0
100
AcDbBlockEnd
  0
BLOCK
  5
113
330
112
100
AcDbEntity
  8
0
100
AcDbBlockBegin
  2
*X12
 70
     1
 71
     0
 10
0.0
 20
0.0
 30
0.0
  3
*X12
  1

  4
*X1
  0
LINE
  5
116
330
112
100
AcDbEntity
  8
LC-006-005-----0
 62
     7
370
    18
100
AcDbLine
 10
451.020558
 20
2699.326017
 30
0.0
 11
454.100508
 21
2697.813722
 31
0.0
  0
LINE
  5
117
330
112
100
AcDbEntity
  8
LC-006-005-----0
 62
     7
370
    18
100
AcDbLine
 10
454.100508
 20
2697.813722
 30
0.0
 11
464.128828
 21
2700.122773
 31
0.0
  0
LINE
  5
118
330
112
100
AcDbEntity
  8
LC-006-005-----0
 62
     7
370
    18
100
AcDbLine
 10
460.617808
 20
2707.396868
 30
0.0
 11
463.467755
 21
2711.655069
 31
0.0
  0
LINE
  5
119
330
112
100
AcDbEntity
  8
LC-006-005-----0
 62
     7
370
    18
100
AcDbLine
 10
460.617808
 20
2707.396868
 30
0.0
 11
463.328978
 21
2698.216678
 31
0.0
  0
LINE
  5
11A
330
112
100
AcDbEntity
  8
LC-006-005-----0
 62
     7
370
    18
100
AcDbLine
 10
461.143656
 20
2692.292942
 30
0.0
 11
463.328978
 21
2698.216678
 31
0.0
  0
LINE
  5
11B
330
112
100
AcDbEntity
  8
LC-006-005-----0
 62
     7
370
    18
100
AcDbLine
 10
461.143656
 20
2692.292942
 30
0.0
 11
464.943516
 21
2681.246157
 31
0.0
  0
LINE
  5
11C
330
112
100
AcDbEntity
  8
LC-006-005-----0
 62
     7
370
    18
100
AcDbLine
 10
461.927622
 20
2674.88519
 30
0.0
 11
464.943516
 21
2681.246157
 31
0.0
  0
LINE
  5
11D
330
112
100
AcDbEntity
  8
LC-006-005-----0
 62
     7
370
    18
100
AcDbLine
 10
461.927622
 20
2674.88519
 30
0.0
 11
464.957519
 21
2670.540045
 31
0.0
  0
LINE
  5
11E
330
112
100
AcDbEntity
  8
LC-006-005-----0
 62
     7
370
    18
100
AcDbLine
 10
462.531845
 20
2716.253943
 30
0.0
 11
463.467755
 21
2711.655069
 31
0.0
  0
LINE
  5
11F
330
112
100
AcDbEntity
  8
LC-006-005-----0
 62
     7
370
    18
100
AcDbLine
 10
464.128828
 20
2700.122773
 30
0.0
 11
472.093882
 21
2700.709232
 31
0.0
  0
LINE
  5
120
330
112
100
AcDbEntity
  8
LC-006-005-----0
 62
     7
370
    18
100
AcDbLine
 10
464.957519
 20
2670.540045
 30
0.0
 11
470.085794
 21
2666.23879
 31
0.0
  0
LINE
  5
121
330
112
100
AcDbEntity
  8
LC-006-005-----0
 62
     7
370
    18
100
AcDbLine
 10
472.093882
 20
2700.709232
 30
0.0
 11
482.948386
 21
2703.665352
 31
0.0
  0
LINE
  5
122
330
112
100
AcDbEntity
  8
LC-006-005-----0
 62
     7
370
    18
100
AcDbLine
 10
477.999226
 20
2579.265239
 30
0.0
 11
485.296102
 21
2586.880007
 31
0.0
  0
LINE
  5
123
330
112
100
AcDbEntity
  8
LC-006-005-----0
 62
     7
370
    18
100
AcDbLine
 10
482.948386
 20
2703.665352
 30
0.0
 11
492.530696
 21
2707.224651
 31
0.0
  0
LINE
  5
124
330
112
100
AcDbEntity
  8
LC-006-005-----0
 62
     7
370
    18
100
AcDbLine
 10
485.296102
 20
2586.880007
 30
0.0
 11
496.059272
 21
2589.593894
 31
0.0
  0
LINE
  5
125
330
112
100
AcDbEntity
  8
LC-006-005-----0
 62
     7
370
    18
100
AcDbLine
 10
492.619313
 20
2692.951298
 30
0.0
 11
493.947728
 21
2699.696828
 31
0.0
  0
LINE
  5
126
330
112
100
AcDbEntity
  8
LC-006-005-----0
 62
     7
370
    18
100
AcDbLine
 10
492.619313
 20
2692.951298
 30
0.0
 11
494.687803
 21
2684.387453
 31
0.0
  0
LINE
  5
127
330
112
100
AcDbEntity
  8
LC-006-005-----0
 62
     7
370
    18
100
AcDbLine
 10
494.687803
 20
2684.387453
 30
0.0
 11
494.810696
 21
2678.511997
 31
0.0
  0
LINE
  5
128
330
112
100
AcDbEntity
  8
LC-006-005-----0
 62
     7
370
    18
100
AcDbLine
 10
494.810696
 20
2678.511997
 30
0.0
 11
494.964312
 21
2671.167677
 31
0.0
  0
LINE
  5
129
330
112
100
AcDbEntity
  8
LC-006-005-----0
 62
     7
370
    18
100
AcDbLine
 10
494.964312
 20
2671.167677
 30
0.0
 11
499.650966
 21
2667.906833
 31
0.0
  0
LINE
  5
12A
330
112
100
AcDbEntity
  8
LC-006-005-----0
 62
     7
370
    18
100
AcDbLine
 10
498.146085
 20
2661.837594
 30
0.0
 11
499.650966
 21
2667.906833
 31
0.0
  0
LINE
  5
12B
330
112
100
AcDbEntity
  8
LC-006-005-----0
 62
     7
370
    18
100
AcDbLine
 10
511.118612
 20
2658.429589
 30
0.0
 11
512.233287
 21
2658.513251
 31
0.0
  0
LINE
  5
12C
330
112
100
AcDbEntity
  8
LC-006-005-----0
 62
     7
370
    18
100
AcDbLine
 10
513.120568
 20
2591.087453
 30
0.0
 11
513.825253
 21
2585.863423
 31
0.0
  0
LINE
  5
12D
330
112
100
AcDbEntity
  8
LC-006-005-----0
 62
     7
370
    18
100
AcDbLine
 10
512.06922
 20
2686.430445
 30
0.0
 11
519.365261
 21
2688.892276
 31
0.0
  0
LINE
  5
12E
330
112
100
AcDbEntity
  8
LC-006-005-----0
 62
     7
370
    18
100
AcDbLine
 10
512.233287
 20
2658.513251
 30
0.0
 11
518.248356
 21
2661.997936
 31
0.0
  0
LINE
  5
12F
330
112
100
AcDbEntity
  8
LC-006-005-----0
 62
     7
370
    18
100
AcDbLine
 10
513.825253
 20
2585.863423
 30
0.0
 11
524.133635
 21
2586.907386
 31
0.0
  0
LINE
  5
130
330
112
100
AcDbEntity
  8
LC-006-005-----0
 62
     7
370
    18
100
AcDbLine
 10
519.365261
 20
2688.892276
 30
0.0
 11
525.22316
 21
2689.854519
 31
0.0
  0
LINE
  5
131
330
112
100
AcDbEntity
  8
LC-006-005-----0
 62
     7
370
    18
100
AcDbLine
 10
519.498813
 20
2712.617104
 30
0.0
 11
521.05901
 21
2718.317834
 31
0.0
  0
LINE
  5
132
330
112
100
AcDbEntity
  8
LC-006-005-----0
 62
     7
370
    18
100
AcDbLine
 10
519.498813
 20
2712.617104
 30
0.0
 11
522.935219
 21
2708.91025
 31
0.0
  0
LINE
  5
133
330
112
100
AcDbEntity
  8
LC-006-005-----0
 62
     7
370
    18
100
AcDbLine
 10
522.935219
 20
2708.91025
 30
0.0
 11
522.940444
 21
2698.623813
 31
0.0
  0
LINE
  5
134
330
112
100
AcDbEntity
  8
LC-006-005-----0
 62
     7
370
    18
100
AcDbLine
 10
522.940444
 20
2698.623813
 30
0.0
 11
527.189866
 21
2696.193541
 31
0.0
  0
LINE
  5
135
330
112
100
AcDbEntity
  8
LC-006-005-----0
 62
     7
370
    18
100
AcDbLine
 10
524.133635
 20
2586.907386
 30
0.0
 11
524.793871
 21
2588.363083
 31
0.0
  0
LINE
  5
136
330
112
100
AcDbEntity
  8
LC-006-005-----0
 62
     7
370
    18
100
AcDbLine
 10
525.171173
 20
2649.650239
 30
0.0
 11
528.931116
 21
2646.820894
 31
0.0
  0
LINE
  5
137
330
112
100
AcDbEntity
  8
LC-006-005-----0
 62
     7
370
    18
100
AcDbLine
 10
525.22316
 20
2689.854519
 30
0.0
 11
528.680676
 21
2695.175076
 31
0.0
  0
LINE
  5
138
330
112
100
AcDbEntity
  8
LC-006-005-----0
 62
     7
370
    18
100
AcDbLine
 10
527.189866
 20
2696.193541
 30
0.0
 11
529.372471
 21
2682.173916
 31
0.0
  0
LINE
  5
139
330
112
100
AcDbEntity
  8
LC-006-005-----0
 62
     7
370
    18
100
AcDbLine
 10
528.680676
 20
2695.175076
 30
0.0
 11
537.69053
 21
2695.993318
 31
0.0
  0
LINE
  5
13A
330
112
100
AcDbEntity
  8
LC-006-005-----0
 62
     7
370
    18
100
AcDbLine
 10
528.931116
 20
2646.820894
 30
0.0
 11
531.116125
 21
2639.219717
 31
0.0
  0
LINE
  5
13B
330
112
100
AcDbEntity
  8
LC-006-005-----0
 62
     7
370
    18
100
AcDbLine
 10
529.372471
 20
2682.173916
 30
0.0
 11
536.926629
 21
2682.331921
 31
0.0
  0
LINE
  5
13C
330
112
100
AcDbEntity
  8
LC-006-005-----0
 62
     7
370
    18
100
AcDbLine
 10
531.116125
 20
2639.219717
 30
0.0
 11
531.853559
 21
2631.801834
 31
0.0
  0
LINE
  5
13D
330
112
100
AcDbEntity
  8
LC-006-005-----0
 62
     7
370
    18
100
AcDbLine
 10
531.853559
 20
2631.801834
 30
0.0
 11
540.285704
 21
2626.456152
 31
0.0
  0
LINE
  5
13E
330
112
100
AcDbEntity
  8
LC-006-005-----0
 62
     7
370
    18
100
AcDbLine
 10
536.490233
 20
2673.085895
 30
0.0
 11
536.926629
 21
2682.331921
 31
0.0
  0
LINE
  5
13F
330
112
100
AcDbEntity
  8
LC-006-005-----0
 62
     7
370
    18
100
AcDbLine
 10
536.490233
 20
2673.085895
 30
0.0
 11
537.456866
 21
2667.018157
 31
0.0
  0
LINE
  5
140
330
112
100
AcDbEntity
  8
LC-006-005-----0
 62
     7
370
    18
100
AcDbLine
 10
537.456866
 20
2667.018157
 30
0.0
 11
542.868756
 21
2669.230649
 31
0.0
  0
LINE
  5
141
330
112
100
AcDbEntity
  8
LC-006-005-----0
 62
     7
370
    18
100
AcDbLine
 10
537.69053
 20
2695.993318
 30
0.0
 11
543.661709
 21
2701.57638
 31
0.0
  0
LINE
  5
142
330
112
100
AcDbEntity
  8
LC-006-005-----0
 62
     7
370
    18
100
AcDbLine
 10
540.285704
 20
2626.456152
 30
0.0
 11
548.481706
 21
2616.837893
 31
0.0
  0
LINE
  5
143
330
112
100
AcDbEntity
  8
LC-006-005-----0
 62
     7
370
    18
100
AcDbLine
 10
541.588621
 20
2660.176905
 30
0.0
 11
548.679213
 21
2662.424509
 31
0.0
  0
LINE
  5
144
330
112
100
AcDbEntity
  8
LC-006-005-----0
 62
     7
370
    18
100
AcDbLine
 10
543.661709
 20
2701.57638
 30
0.0
 11
552.470503
 21
2701.970557
 31
0.0
  0
LINE
  5
145
330
112
100
AcDbEntity
  8
LC-006-005-----0
 62
     7
370
    18
100
AcDbLine
 10
548.481706
 20
2616.837893
 30
0.0
 11
555.301014
 21
2611.65695
 31
0.0
  0
LINE
  5
146
330
112
100
AcDbEntity
  8
LC-006-005-----0
 62
     7
370
    18
100
AcDbLine
 10
548.679213
 20
2662.424509
 30
0.0
 11
555.131513
 21
2665.078622
 31
0.0
  0
LINE
  5
147
330
112
100
AcDbEntity
  8
LC-006-005-----0
 62
     7
370
    18
100
AcDbLine
 10
549.411555
 20
2687.631368
 30
0.0
 11
549.69517
 21
2694.145115
 31
0.0
  0
LINE
  5
148
330
112
100
AcDbEntity
  8
LC-006-005-----0
 62
     7
370
    18
100
AcDbLine
 10
549.411555
 20
2687.631368
 30
0.0
 11
552.192113
 21
2685.170373
 31
0.0
  0
LINE
  5
149
330
112
100
AcDbEntity
  8
LC-006-005-----0
 62
     7
370
    18
100
AcDbLine
 10
555.604146
 20
2592.169308
 30
0.0
 11
562.897389
 21
2593.444124
 31
0.0
  0
LINE
  5
14A
330
112
100
AcDbEntity
  8
LC-006-005-----0
 62
     7
370
    18
100
AcDbLine
 10
551.126205
 20
2675.91118
 30
0.0
 11
552.192113
 21
2685.170373
 31
0.0
  0
LINE
  5
14B
330
112
100
AcDbEntity
  8
LC-006-005-----0
 62
     7
370
    18
100
AcDbLine
 10
551.126205
 20
2675.91118
 30
0.0
 11
556.704878
 21
2670.149839
 31
0.0
  0
LINE
  5
14C
330
112
100
AcDbEntity
  8
LC-006-005-----0
 62
     7
370
    18
100
AcDbLine
 10
552.470503
 20
2701.970557
 30
0.0
 11
557.60672
 21
2707.326226
 31
0.0
  0
LINE
  5
14D
330
112
100
AcDbEntity
  8
LC-006-005-----0
 62
     7
370
    18
100
AcDbLine
 10
555.131513
 20
2665.078622
 30
0.0
 11
558.589028
 21
2670.399178
 31
0.0
  0
LINE
  5
14E
330
112
100
AcDbEntity
  8
LC-006-005-----0
 62
     7
370
    18
100
AcDbLine
 10
555.301014
 20
2611.65695
 30
0.0
 11
560.021944
 21
2606.519897
 31
0.0
  0
LINE
  5
14F
330
112
100
AcDbEntity
  8
LC-006-005-----0
 62
     7
370
    18
100
AcDbLine
 10
556.704878
 20
2670.149839
 30
0.0
 11
559.603941
 21
2662.023226
 31
0.0
  0
LINE
  5
150
330
112
100
AcDbEntity
  8
LC-006-005-----0
 62
     7
370
    18
100
AcDbLine
 10
558.589028
 20
2670.399178
 30
0.0
 11
568.65246
 21
2671.029527
 31
0.0
  0
LINE
  5
151
330
112
100
AcDbEntity
  8
LC-006-005-----0
 62
     7
370
    18
100
AcDbLine
 10
559.603941
 20
2662.023226
 30
0.0
 11
566.380194
 21
2659.225947
 31
0.0
  0
LINE
  5
152
330
112
100
AcDbEntity
  8
LC-006-005-----0
 62
     7
370
    18
100
AcDbLine
 10
560.021944
 20
2606.519897
 30
0.0
 11
571.40146
 21
2608.591104
 31
0.0
  0
LINE
  5
153
330
112
100
AcDbEntity
  8
LC-006-005-----0
 62
     7
370
    18
100
AcDbLine
 10
562.897389
 20
2593.444124
 30
0.0
 11
567.454045
 21
2610.563035
 31
0.0
  0
LINE
  5
154
330
112
100
AcDbEntity
  8
LC-006-005-----0
 62
     7
370
    18
100
AcDbLine
 10
566.380194
 20
2659.225947
 30
0.0
 11
570.101051
 21
2651.956241
 31
0.0
  0
LINE
  5
155
330
112
100
AcDbEntity
  8
LC-006-005-----0
 62
     7
370
    18
100
AcDbLine
 10
567.454045
 20
2610.563035
 30
0.0
 11
578.873062
 21
2614.522782
 31
0.0
  0
LINE
  5
156
330
112
100
AcDbEntity
  8
LC-006-005-----0
 62
     7
370
    18
100
AcDbLine
 10
567.634204
 20
2719.711876
 30
0.0
 11
569.444577
 21
2713.451857
 31
0.0
  0
LINE
  5
157
330
112
100
AcDbEntity
  8
LC-006-005-----0
 62
     7
370
    18
100
AcDbLine
 10
568.65246
 20
2671.029527
 30
0.0
 11
571.025675
 21
2678.00684
 31
0.0
  0
LINE
  5
158
330
112
100
AcDbEntity
  8
LC-006-005-----0
 62
     7
370
    18
100
AcDbLine
 10
569.444577
 20
2713.451857
 30
0.0
 11
574.515794
 21
2711.878492
 31
0.0
  0
LINE
  5
159
330
112
100
AcDbEntity
  8
LC-006-005-----0
 62
     7
370
    18
100
AcDbLine
 10
570.101051
 20
2651.956241
 30
0.0
 11
576.051121
 21
2648.511893
 31
0.0
  0
LINE
  5
15A
330
112
100
AcDbEntity
  8
LC-006-005-----0
 62
     7
370
    18
100
AcDbLine
 10
571.025675
 20
2678.00684
 30
0.0
 11
578.195269
 21
2676.477365
 31
0.0
  0
LINE
  5
15B
330
112
100
AcDbEntity
  8
LC-006-005-----0
 62
     7
370
    18
100
AcDbLine
 10
571.40146
 20
2608.591104
 30
0.0
 11
580.432423
 21
2598.745452
 31
0.0
  0
LINE
  5
15C
330
112
100
AcDbEntity
  8
LC-006-005-----0
 62
     7
370
    18
100
AcDbLine
 10
573.821282
 20
2704.936291
 30
0.0
 11
574.515794
 21
2711.878492
 31
0.0
  0
LINE
  5
15D
330
112
100
AcDbEntity
  8
LC-006-005-----0
 62
     7
370
    18
100
AcDbLine
 10
573.821282
 20
2704.936291
 30
0.0
 11
576.816067
 21
2702.269848
 31
0.0
  0
LINE
  5
15E
330
112
100
AcDbEntity
  8
LC-006-005-----0
 62
     7
370
    18
100
AcDbLine
 10
576.816067
 20
2702.269848
 30
0.0
 11
577.398137
 21
2694.51463
 31
0.0
  0
LINE
  5
15F
330
112
100
AcDbEntity
  8
LC-006-005-----0
 62
     7
370
    18
100
AcDbLine
 10
577.398137
 20
2694.51463
 30
0.0
 11
585.328915
 21
2686.703192
 31
0.0
  0
LINE
  5
160
330
112
100
AcDbEntity
  8
LC-006-005-----0
 62
     7
370
    18
100
AcDbLine
 10
578.195269
 20
2676.477365
 30
0.0
 11
580.358646
 21
2683.450289
 31
0.0
  0
LINE
  5
161
330
112
100
AcDbEntity
  8
LC-006-005-----0
 62
     7
370
    18
100
AcDbLine
 10
578.873062
 20
2614.522782
 30
0.0
 11
583.481549
 21
2624.083146
 31
0.0
  0
LINE
  5
162
330
112
100
AcDbEntity
  8
LC-006-005-----0
 62
     7
370
    18
100
AcDbLine
 10
580.358646
 20
2683.450289
 30
0.0
 11
591.243872
 21
2684.937545
 31
0.0
  0
LINE
  5
163
330
112
100
AcDbEntity
  8
LC-006-005-----0
 62
     7
370
    18
100
AcDbLine
 10
580.432423
 20
2598.745452
 30
0.0
 11
593.066576
 21
2600.580487
 31
0.0
  0
LINE
  5
164
330
112
100
AcDbEntity
  8
LC-006-005-----0
 62
     7
370
    18
100
AcDbLine
 10
583.481549
 20
2624.083146
 30
0.0
 11
594.429058
 21
2635.610217
 31
0.0
  0
LINE
  5
165
330
112
100
AcDbEntity
  8
LC-006-005-----0
 62
     7
370
    18
100
AcDbLine
 10
585.328915
 20
2686.703192
 30
0.0
 11
585.897818
 21
2679.577488
 31
0.0
  0
LINE
  5
166
330
112
100
AcDbEntity
  8
LC-006-005-----0
 62
     7
370
    18
100
AcDbLine
 10
585.897818
 20
2679.577488
 30
0.0
 11
591.034871
 21
2674.856557
 31
0.0
  0
LINE
  5
167
330
112
100
AcDbEntity
  8
LC-006-005-----0
 62
     7
370
    18
100
AcDbLine
 10
591.243872
 20
2684.937545
 30
0.0
 11
593.687311
 21
2688.557455
 31
0.0
  0
LINE
  5
168
330
112
100
AcDbEntity
  8
LC-006-005-----0
 62
     7
370
    18
100
AcDbLine
 10
593.066576
 20
2600.580487
 30
0.0
 11
604.375868
 21
2599.29429
 31
0.0
  0
LINE
  5
169
330
112
100
AcDbEntity
  8
LC-006-005-----0
 62
     7
370
    18
100
AcDbLine
 10
596.1203
 20
2575.954861
 30
0.0
 11
608.72373
 21
2576.321032
 31
0.0
  0
LINE
  5
16A
330
112
100
AcDbEntity
  8
LC-006-005-----0
 62
     7
370
    18
100
AcDbLine
 10
597.405661
 20
2711.517546
 30
0.0
 11
601.152016
 21
2713.065413
 31
0.0
  0
LINE
  5
16B
330
112
100
AcDbEntity
  8
LC-006-005-----0
 62
     7
370
    18
100
AcDbLine
 10
601.151977
 20
2647.559876
 30
0.0
 11
604.777981
 21
2640.188058
 31
0.0
  0
LINE
  5
16C
330
112
100
AcDbEntity
  8
LC-006-005-----0
 62
     7
370
    18
100
AcDbLine
 10
601.152016
 20
2713.065413
 30
0.0
 11
609.152183
 21
2711.97317
 31
0.0
  0
LINE
  5
16D
330
112
100
AcDbEntity
  8
LC-006-005-----0
 62
     7
370
    18
100
AcDbLine
 10
603.368688
 20
2657.270527
 30
0.0
 11
610.50317
 21
2657.419754
 31
0.0
  0
LINE
  5
16E
330
112
100
AcDbEntity
  8
LC-006-005-----0
 62
     7
370
    18
100
AcDbLine
 10
604.777981
 20
2640.188058
 30
0.0
 11
613.470018
 21
2638.675642
 31
0.0
  0
LINE
  5
16F
330
112
100
AcDbEntity
  8
LC-006-005-----0
 62
     7
370
    18
100
AcDbLine
 10
606.195018
 20
2682.731114
 30
0.0
 11
608.612959
 21
2677.533451
 31
0.0
  0
LINE
  5
170
330
112
100
AcDbEntity
  8
LC-006-005-----0
 62
     7
370
    18
100
AcDbLine
 10
607.092472
 20
2720.117339
 30
0.0
 11
610.398043
 21
2712.629017
 31
0.0
  0
LINE
  5
171
330
112
100
AcDbEntity
  8
LC-006-005-----0
 62
     7
370
    18
100
AcDbLine
 10
607.647162
 20
2615.18051
 30
0.0
 11
611.917694
 21
2608.583371
 31
0.0
  0
LINE
  5
172
330
112
100
AcDbEntity
  8
LC-006-005-----0
 62
     7
370
    18
100
AcDbLine
 10
608.612959
 20
2677.533451
 30
0.0
 11
610.418943
 21
2671.48327
 31
0.0
  0
LINE
  5
173
330
112
100
AcDbEntity
  8
LC-006-005-----0
 62
     7
370
    18
100
AcDbLine
 10
608.72373
 20
2576.321032
 30
0.0
 11
614.814249
 21
2586.480187
 31
0.0
  0
LINE
  5
174
330
112
100
AcDbEntity
  8
LC-006-005-----0
 62
     7
370
    18
100
AcDbLine
 10
609.152183
 20
2711.97317
 30
0.0
 11
616.041716
 21
2713.79671
 31
0.0
  0
LINE
  5
175
330
112
100
AcDbEntity
  8
LC-006-005-----0
 62
     7
370
    18
100
AcDbLine
 10
610.398043
 20
2712.629017
 30
0.0
 11
616.737064
 21
2710.662311
 31
0.0
  0
LINE
  5
176
330
112
100
AcDbEntity
  8
LC-006-005-----0
 62
     7
370
    18
100
AcDbLine
 10
610.418943
 20
2671.48327
 30
0.0
 11
617.155695
 21
2670.57453
 31
0.0
  0
LINE
  5
177
330
112
100
AcDbEntity
  8
LC-006-005-----0
 62
     7
370
    18
100
AcDbLine
 10
610.50317
 20
2657.419754
 30
0.0
 11
616.041507
 21
2663.623552
 31
0.0
  0
LINE
  5
178
330
112
100
AcDbEntity
  8
LC-006-005-----0
 62
     7
370
    18
100
AcDbLine
 10
611.917694
 20
2608.583371
 30
0.0
 11
618.851116
 21
2608.858208
 31
0.0
  0
LINE
  5
179
330
112
100
AcDbEntity
  8
LC-006-005-----0
 62
     7
370
    18
100
AcDbLine
 10
613.470018
 20
2638.675642
 30
0.0
 11
617.279424
 21
2634.082624
 31
0.0
  0
LINE
  5
17A
330
112
100
AcDbEntity
  8
LC-006-005-----0
 62
     7
370
    18
100
AcDbLine
 10
614.814249
 20
2586.480187
 30
0.0
 11
626.005872
 21
2589.604971
 31
0.0
  0
LINE
  5
17B
330
112
100
AcDbEntity
  8
LC-006-005-----0
 62
     7
370
    18
100
AcDbLine
 10
615.669275
 20
2671.383158
 30
0.0
 11
623.442048
 21
2671.125877
 31
0.0
  0
LINE
  5
17C
330
112
100
AcDbEntity
  8
LC-006-005-----0
 62
     7
370
    18
100
AcDbLine
 10
615.669275
 20
2671.383158
 30
0.0
 11
616.041507
 21
2663.623552
 31
0.0
  0
LINE
  5
17D
330
112
100
AcDbEntity
  8
LC-006-005-----0
 62
     7
370
    18
100
AcDbLine
 10
616.041716
 20
2713.79671
 30
0.0
 11
624.234164
 21
2713.548207
 31
0.0
  0
LINE
  5
17E
330
112
100
AcDbEntity
  8
LC-006-005-----0
 62
     7
370
    18
100
AcDbLine
 10
616.737064
 20
2710.662311
 30
0.0
 11
617.974981
 21
2701.661235
 31
0.0
  0
LINE
  5
17F
330
112
100
AcDbEntity
  8
LC-006-005-----0
 62
     7
370
    18
100
AcDbLine
 10
617.155695
 20
2670.57453
 30
0.0
 11
619.114459
 21
2667.256628
 31
0.0
  0
LINE
  5
180
330
112
100
AcDbEntity
  8
LC-006-005-----0
 62
     7
370
    18
100
AcDbLine
 10
617.279424
 20
2634.082624
 30
0.0
 11
629.860908
 21
2633.399606
 31
0.0
  0
LINE
  5
181
330
112
100
AcDbEntity
  8
LC-006-005-----0
 62
     7
370
    18
100
AcDbLine
 10
617.974981
 20
2701.661235
 30
0.0
 11
624.795125
 21
2696.765579
 31
0.0
  0
LINE
  5
182
330
112
100
AcDbEntity
  8
LC-006-005-----0
 62
     7
370
    18
100
AcDbLine
 10
618.851116
 20
2608.858208
 30
0.0
 11
626.264825
 21
2601.985396
 31
0.0
  0
LINE
  5
183
330
112
100
AcDbEntity
  8
LC-006-005-----0
 62
     7
370
    18
100
AcDbLine
 10
619.114459
 20
2667.256628
 30
0.0
 11
627.975922
 21
2665.132753
 31
0.0
  0
LINE
  5
184
330
112
100
AcDbEntity
  8
LC-006-005-----0
 62
     7
370
    18
100
AcDbLine
 10
623.442048
 20
2671.125877
 30
0.0
 11
624.757296
 21
2678.50092
 31
0.0
  0
LINE
  5
185
330
112
100
AcDbEntity
  8
LC-006-005-----0
 62
     7
370
    18
100
AcDbLine
 10
624.234164
 20
2713.548207
 30
0.0
 11
625.217517
 21
2716.717717
 31
0.0
  0
LINE
  5
186
330
112
100
AcDbEntity
  8
LC-006-005-----0
 62
     7
370
    18
100
AcDbLine
 10
624.757296
 20
2678.50092
 30
0.0
 11
631.196429
 21
2681.784546
 31
0.0
  0
LINE
  5
187
330
112
100
AcDbEntity
  8
LC-006-005-----0
 62
     7
370
    18
100
AcDbLine
 10
624.795125
 20
2696.765579
 30
0.0
 11
625.070798
 21
2693.622402
 31
0.0
  0
LINE
  5
188
330
112
100
AcDbEntity
  8
LC-006-005-----0
 62
     7
370
    18
100
AcDbLine
 10
625.217517
 20
2716.717717
 30
0.0
 11
629.851503
 21
2715.974925
 31
0.0
  0
LINE
  5
189
330
112
100
AcDbEntity
  8
LC-006-005-----0
 62
     7
370
    18
100
AcDbLine
 10
625.337693
 20
2597.806198
 30
0.0
 11
634.414219
 21
2610.212121
 31
0.0
  0
LINE
  5
18A
330
112
100
AcDbEntity
  8
LC-006-005-----0
 62
     7
370
    18
100
AcDbLine
 10
625.337693
 20
2597.806198
 30
0.0
 11
626.005872
 21
2589.604971
 31
0.0
  0
LINE
  5
18B
330
112
100
AcDbEntity
  8
LC-006-005-----0
 62
     7
370
    18
100
AcDbLine
 10
626.264825
 20
2601.985396
 30
0.0
 11
637.329166
 21
2599.024887
 31
0.0
  0
LINE
  5
18C
330
112
100
AcDbEntity
  8
LC-006-005-----0
 62
     7
370
    18
100
AcDbLine
 10
627.975922
 20
2665.132753
 30
0.0
 11
632.483462
 21
2660.398655
 31
0.0
  0
LINE
  5
18D
330
112
100
AcDbEntity
  8
LC-006-005-----0
 62
     7
370
    18
100
AcDbLine
 10
629.851503
 20
2715.974925
 30
0.0
 11
636.124689
 21
2717.155785
 31
0.0
  0
LINE
  5
18E
330
112
100
AcDbEntity
  8
LC-006-005-----0
 62
     7
370
    18
100
AcDbLine
 10
629.860908
 20
2633.399606
 30
0.0
 11
634.48528
 21
2623.646124
 31
0.0
  0
LINE
  5
18F
330
112
100
AcDbEntity
  8
LC-006-005-----0
 62
     7
370
    18
100
AcDbLine
 10
631.196429
 20
2681.784546
 30
0.0
 11
632.127114
 21
2687.472109
 31
0.0
  0
LINE
  5
190
330
112
100
AcDbEntity
  8
LC-006-005-----0
 62
     7
370
    18
100
AcDbLine
 10
632.127114
 20
2687.472109
 30
0.0
 11
639.851608
 21
2689.523043
 31
0.0
  0
LINE
  5
191
330
112
100
AcDbEntity
  8
LC-006-005-----0
 62
     7
370
    18
100
AcDbLine
 10
632.483462
 20
2660.398655
 30
0.0
 11
640.028841
 21
2660.976336
 31
0.0
  0
LINE
  5
192
330
112
100
AcDbEntity
  8
LC-006-005-----0
 62
     7
370
    18
100
AcDbLine
 10
634.48528
 20
2623.646124
 30
0.0
 11
644.859497
 21
2627.837653
 31
0.0
  0
LINE
  5
193
330
112
100
AcDbEntity
  8
LC-006-005-----0
 62
     7
370
    18
100
AcDbLine
 10
635.630306
 20
2723.822857
 30
0.0
 11
636.657644
 21
2721.785382
 31
0.0
  0
LINE
  5
194
330
112
100
AcDbEntity
  8
LC-006-005-----0
 62
     7
370
    18
100
AcDbLine
 10
636.124689
 20
2717.155785
 30
0.0
 11
644.701701
 21
2718.594762
 31
0.0
  0
LINE
  5
195
330
112
100
AcDbEntity
  8
LC-006-005-----0
 62
     7
370
    18
100
AcDbLine
 10
636.657644
 20
2721.785382
 30
0.0
 11
643.075668
 21
2716.041597
 31
0.0
  0
LINE
  5
196
330
112
100
AcDbEntity
  8
LC-006-005-----0
 62
     7
370
    18
100
AcDbLine
 10
637.329166
 20
2599.024887
 30
0.0
 11
647.143259
 21
2596.510388
 31
0.0
  0
LINE
  5
197
330
112
100
AcDbEntity
  8
LC-006-005-----0
 62
     7
370
    18
100
AcDbLine
 10
639.851608
 20
2689.523043
 30
0.0
 11
642.010595
 21
2696.705804
 31
0.0
  0
LINE
  5
198
330
112
100
AcDbEntity
  8
LC-006-005-----0
 62
     7
370
    18
100
AcDbLine
 10
640.028841
 20
2660.976336
 30
0.0
 11
648.960529
 21
2655.495057
 31
0.0
  0
LINE
  5
199
330
112
100
AcDbEntity
  8
LC-006-005-----0
 62
     7
370
    18
100
AcDbLine
 10
641.108962
 20
2709.702575
 30
0.0
 11
643.075668
 21
2716.041597
 31
0.0
  0
LINE
  5
19A
330
112
100
AcDbEntity
  8
LC-006-005-----0
 62
     7
370
    18
100
AcDbLine
 10
641.108962
 20
2709.702575
 30
0.0
 11
646.849194
 21
2706.253838
 31
0.0
  0
LINE
  5
19B
330
112
100
AcDbEntity
  8
LC-006-005-----0
 62
     7
370
    18
100
AcDbLine
 10
644.701701
 20
2718.594762
 30
0.0
 11
647.796598
 21
2721.17865
 31
0.0
  0
LINE
  5
19C
330
112
100
AcDbEntity
  8
LC-006-005-----0
 62
     7
370
    18
100
AcDbLine
 10
644.859497
 20
2627.837653
 30
0.0
 11
658.481392
 21
2626.713015
 31
0.0
  0
LINE
  5
19D
330
112
100
AcDbEntity
  8
LC-006-005-----0
 62
     7
370
    18
100
AcDbLine
 10
646.442267
 20
2683.435868
 30
0.0
 11
650.573186
 21
2680.200522
 31
0.0
  0
LINE
  5
19E
330
112
100
AcDbEntity
  8
LC-006-005-----0
 62
     7
370
    18
100
AcDbLine
 10
647.143259
 20
2596.510388
 30
0.0
 11
654.999424
 21
2600.754585
 31
0.0
  0
LINE
  5
19F
330
112
100
AcDbEntity
  8
LC-006-005-----0
 62
     7
370
    18
100
AcDbLine
 10
650.573186
 20
2680.200522
 30
0.0
 11
655.893742
 21
2683.658037
 31
0.0
  0
LINE
  5
1A0
330
112
100
AcDbEntity
  8
LC-006-005-----0
 62
     7
370
    18
100
AcDbLine
 10
654.376808
 20
2631.207388
 30
0.0
 11
662.088971
 21
2638.60354
 31
0.0
  0
LINE
  5
1A1
330
112
100
AcDbEntity
  8
LC-006-005-----0
 62
     7
370
    18
100
AcDbLine
 10
654.376808
 20
2631.207388
 30
0.0
 11
663.451662
 21
2623.460112
 31
0.0
  0
LINE
  5
1A2
330
112
100
AcDbEntity
  8
LC-006-005-----0
 62
     7
370
    18
100
AcDbLine
 10
655.428296
 20
2711.588398
 30
0.0
 11
663.782303
 21
2709.524297
 31
0.0
  0
LINE
  5
1A3
330
112
100
AcDbEntity
  8
LC-006-005-----0
 62
     7
370
    18
100
AcDbLine
 10
655.572716
 20
2608.090127
 30
0.0
 11
657.977489
 21
2612.658277
 31
0.0
  0
LINE
  5
1A4
330
112
100
AcDbEntity
  8
LC-006-005-----0
 62
     7
370
    18
100
AcDbLine
 10
655.647956
 20
2671.907125
 30
0.0
 11
656.676036
 21
2680.912591
 31
0.0
  0
LINE
  5
1A5
330
112
100
AcDbEntity
  8
LC-006-005-----0
 62
     7
370
    18
100
AcDbLine
 10
655.647956
 20
2671.907125
 30
0.0
 11
662.261815
 21
2666.940409
 31
0.0
  0
LINE
  5
1A6
330
112
100
AcDbEntity
  8
LC-006-005-----0
 62
     7
370
    18
100
AcDbLine
 10
655.893742
 20
2683.658037
 30
0.0
 11
658.359126
 21
2681.087316
 31
0.0
  0
LINE
  5
1A7
330
112
100
AcDbEntity
  8
LC-006-005-----0
 62
     7
370
    18
100
AcDbLine
 10
655.942858
 20
2696.042851
 30
0.0
 11
660.892018
 21
2701.817359
 31
0.0
  0
LINE
  5
1A8
330
112
100
AcDbEntity
  8
LC-006-005-----0
 62
     7
370
    18
100
AcDbLine
 10
655.942858
 20
2696.042851
 30
0.0
 11
661.214299
 21
2687.115552
 31
0.0
  0
LINE
  5
1A9
330
112
100
AcDbEntity
  8
LC-006-005-----0
 62
     7
370
    18
100
AcDbLine
 10
656.676036
 20
2680.912591
 30
0.0
 11
661.214299
 21
2687.115552
 31
0.0
  0
LINE
  5
1AA
330
112
100
AcDbEntity
  8
LC-006-005-----0
 62
     7
370
    18
100
AcDbLine
 10
657.977489
 20
2612.658277
 30
0.0
 11
663.451662
 21
2623.460112
 31
0.0
  0
LINE
  5
1AB
330
112
100
AcDbEntity
  8
LC-006-005-----0
 62
     7
370
    18
100
AcDbLine
 10
658.359126
 20
2681.087316
 30
0.0
 11
662.573437
 21
2681.838886
 31
0.0
  0
LINE
  5
1AC
330
112
100
AcDbEntity
  8
LC-006-005-----0
 62
     7
370
    18
100
AcDbLine
 10
658.481392
 20
2626.713015
 30
0.0
 11
670.061968
 21
2628.360157
 31
0.0
  0
LINE
  5
1AD
330
112
100
AcDbEntity
  8
LC-006-005-----0
 62
     7
370
    18
100
AcDbLine
 10
661.441693
 20
2600.754585
 30
0.0
 11
669.297858
 21
2596.510388
 31
0.0
  0
LINE
  5
1AE
330
112
100
AcDbEntity
  8
LC-006-005-----0
 62
     7
370
    18
100
AcDbLine
 10
662.573437
 20
2681.838886
 30
0.0
 11
668.475227
 21
2682.975019
 31
0.0
  0
LINE
  5
1AF
330
112
100
AcDbEntity
  8
LC-006-005-----0
 62
     7
370
    18
100
AcDbLine
 10
668.475227
 20
2682.975019
 30
0.0
 11
671.32601
 21
2688.793418
 31
0.0
  0
LINE
  5
1B0
330
112
100
AcDbEntity
  8
LC-006-005-----0
 62
     7
370
    18
100
AcDbLine
 10
668.644518
 20
2721.17865
 30
0.0
 11
671.739416
 21
2718.594762
 31
0.0
  0
LINE
  5
1B1
330
112
100
AcDbEntity
  8
LC-006-005-----0
 62
     7
370
    18
100
AcDbLine
 10
669.591923
 20
2706.253838
 30
0.0
 11
675.332155
 21
2709.702575
 31
0.0
  0
LINE
  5
1B2
330
112
100
AcDbEntity
  8
LC-006-005-----0
 62
     7
370
    18
100
AcDbLine
 10
670.061968
 20
2628.360157
 30
0.0
 11
673.349983
 21
2635.009128
 31
0.0
  0
LINE
  5
1B3
330
112
100
AcDbEntity
  8
LC-006-005-----0
 62
     7
370
    18
100
AcDbLine
 10
673.365449
 20
2716.041597
 30
0.0
 11
675.332155
 21
2709.702575
 31
0.0
  0
LINE
  5
1B4
330
112
100
AcDbEntity
  8
LC-006-005-----0
 62
     7
370
    18
100
AcDbLine
 10
607.092472
 20
2720.117339
 30
0.0
 11
607.394371
 21
2723.822857
 31
0.0
  0
LINE
  5
1B5
330
112
100
AcDbEntity
  8
LC-006-005-----0
 62
     7
370
    18
100
AcDbLine
 10
456.612512
 20
2639.269847
 30
0.0
 11
458.591577
 21
2645.875303
 31
0.0
  0
LINE
  5
1B6
330
112
100
AcDbEntity
  8
LC-006-005-----0
 62
     7
370
    18
100
AcDbLine
 10
456.612512
 20
2639.269847
 30
0.0
 11
458.591577
 21
2638.614681
 31
0.0
  0
LINE
  5
1B7
330
112
100
AcDbEntity
  8
LC-006-005-----0
 62
     7
370
    18
100
AcDbLine
 10
496.059272
 20
2589.593894
 30
0.0
 11
496.126106
 21
2591.087453
 31
0.0
  0
LINE
  5
1B8
330
112
100
AcDbEntity
  8
LC-006-005-----0
 62
     7
370
    18
100
AcDbLine
 10
667.480588
 20
2655.495057
 30
0.0
 11
675.655057
 21
2660.51164
 31
0.0
  0
LINE
  5
1B9
330
112
100
AcDbEntity
  8
LC-006-005-----0
 62
     7
370
    18
100
AcDbLine
 10
669.297858
 20
2596.510388
 30
0.0
 11
675.655057
 21
2598.139186
 31
0.0
  0
LINE
  5
1BA
330
112
100
AcDbEntity
  8
LC-006-005-----0
 62
     7
370
    18
100
AcDbLine
 10
671.739416
 20
2718.594762
 30
0.0
 11
675.655057
 21
2717.937829
 31
0.0
  0
LINE
  5
1BB
330
112
100
AcDbEntity
  8
LC-006-005-----0
 62
     7
370
    18
100
AcDbLine
 10
673.349983
 20
2635.009128
 30
0.0
 11
675.655057
 21
2633.954588
 31
0.0
  0
LINE
  5
1BC
330
112
100
AcDbEntity
  8
LC-006-005-----0
 62
     7
370
    18
100
AcDbLine
 10
673.365449
 20
2716.041597
 30
0.0
 11
675.655057
 21
2718.090673
 31
0.0
  0
LINE
  5
1BD
330
112
100
AcDbEntity
  8
LC-006-005-----0
 62
     7
370
    18
100
AcDbLine
 10
674.430521
 20
2696.705804
 30
0.0
 11
675.655057
 21
2692.631881
 31
0.0
  0
LINE
  5
1BE
330
112
100
AcDbEntity
  8
LC-006-005-----0
 62
     7
370
    18
100
AcDbLine
 10
451.020558
 20
2548.943744
 30
0.0
 11
454.100508
 21
2547.431449
 31
0.0
  0
LINE
  5
1BF
330
112
100
AcDbEntity
  8
LC-006-005-----0
 62
     7
370
    18
100
AcDbLine
 10
454.100508
 20
2547.431449
 30
0.0
 11
464.128828
 21
2549.7405
 31
0.0
  0
LINE
  5
1C0
330
112
100
AcDbEntity
  8
LC-006-005-----0
 62
     7
370
    18
100
AcDbLine
 10
460.617808
 20
2557.014595
 30
0.0
 11
463.467755
 21
2561.272796
 31
0.0
  0
LINE
  5
1C1
330
112
100
AcDbEntity
  8
LC-006-005-----0
 62
     7
370
    18
100
AcDbLine
 10
460.617808
 20
2557.014595
 30
0.0
 11
463.328978
 21
2547.834404
 31
0.0
  0
LINE
  5
1C2
330
112
100
AcDbEntity
  8
LC-006-005-----0
 62
     7
370
    18
100
AcDbLine
 10
461.143656
 20
2541.910669
 30
0.0
 11
463.328978
 21
2547.834404
 31
0.0
  0
LINE
  5
1C3
330
112
100
AcDbEntity
  8
LC-006-005-----0
 62
     7
370
    18
100
AcDbLine
 10
462.531845
 20
2565.871669
 30
0.0
 11
463.467755
 21
2561.272796
 31
0.0
  0
LINE
  5
1C4
330
112
100
AcDbEntity
  8
LC-006-005-----0
 62
     7
370
    18
100
AcDbLine
 10
464.128828
 20
2549.7405
 30
0.0
 11
472.093882
 21
2550.326958
 31
0.0
  0
LINE
  5
1C5
330
112
100
AcDbEntity
  8
LC-006-005-----0
 62
     7
370
    18
100
AcDbLine
 10
472.093882
 20
2550.326958
 30
0.0
 11
482.948386
 21
2553.283078
 31
0.0
  0
LINE
  5
1C6
330
112
100
AcDbEntity
  8
LC-006-005-----0
 62
     7
370
    18
100
AcDbLine
 10
482.948386
 20
2553.283078
 30
0.0
 11
492.530696
 21
2556.842377
 31
0.0
  0
LINE
  5
1C7
330
112
100
AcDbEntity
  8
LC-006-005-----0
 62
     7
370
    18
100
AcDbLine
 10
492.619313
 20
2542.569024
 30
0.0
 11
493.947728
 21
2549.314554
 31
0.0
  0
LINE
  5
1C8
330
112
100
AcDbEntity
  8
LC-006-005-----0
 62
     7
370
    18
100
AcDbLine
 10
492.619313
 20
2542.569024
 30
0.0
 11
494.687803
 21
2534.005179
 31
0.0
  0
LINE
  5
1C9
330
112
100
AcDbEntity
  8
LC-006-005-----0
 62
     7
370
    18
100
AcDbLine
 10
512.06922
 20
2536.048171
 30
0.0
 11
519.365261
 21
2538.510002
 31
0.0
  0
LINE
  5
1CA
330
112
100
AcDbEntity
  8
LC-006-005-----0
 62
     7
370
    18
100
AcDbLine
 10
519.365261
 20
2538.510002
 30
0.0
 11
525.22316
 21
2539.472246
 31
0.0
  0
LINE
  5
1CB
330
112
100
AcDbEntity
  8
LC-006-005-----0
 62
     7
370
    18
100
AcDbLine
 10
519.498813
 20
2562.23483
 30
0.0
 11
521.05901
 21
2567.935561
 31
0.0
  0
LINE
  5
1CC
330
112
100
AcDbEntity
  8
LC-006-005-----0
 62
     7
370
    18
100
AcDbLine
 10
519.498813
 20
2562.23483
 30
0.0
 11
522.935219
 21
2558.527976
 31
0.0
  0
LINE
  5
1CD
330
112
100
AcDbEntity
  8
LC-006-005-----0
 62
     7
370
    18
100
AcDbLine
 10
522.935219
 20
2558.527976
 30
0.0
 11
522.940444
 21
2548.241539
 31
0.0
  0
LINE
  5
1CE
330
112
100
AcDbEntity
  8
LC-006-005-----0
 62
     7
370
    18
100
AcDbLine
 10
522.940444
 20
2548.241539
 30
0.0
 11
527.189866
 21
2545.811268
 31
0.0
  0
LINE
  5
1CF
330
112
100
AcDbEntity
  8
LC-006-005-----0
 62
     7
370
    18
100
AcDbLine
 10
525.22316
 20
2539.472246
 30
0.0
 11
528.680676
 21
2544.792802
 31
0.0
  0
LINE
  5
1D0
330
112
100
AcDbEntity
  8
LC-006-005-----0
 62
     7
370
    18
100
AcDbLine
 10
528.680676
 20
2544.792802
 30
0.0
 11
537.69053
 21
2545.611044
 31
0.0
  0
LINE
  5
1D1
330
112
100
AcDbEntity
  8
LC-006-005-----0
 62
     7
370
    18
100
AcDbLine
 10
537.69053
 20
2545.611044
 30
0.0
 11
543.661709
 21
2551.194106
 31
0.0
  0
LINE
  5
1D2
330
112
100
AcDbEntity
  8
LC-006-005-----0
 62
     7
370
    18
100
AcDbLine
 10
543.661709
 20
2551.194106
 30
0.0
 11
552.470503
 21
2551.588284
 31
0.0
  0
LINE
  5
1D3
330
112
100
AcDbEntity
  8
LC-006-005-----0
 62
     7
370
    18
100
AcDbLine
 10
549.411555
 20
2537.249095
 30
0.0
 11
549.69517
 21
2543.762842
 31
0.0
  0
LINE
  5
1D4
330
112
100
AcDbEntity
  8
LC-006-005-----0
 62
     7
370
    18
100
AcDbLine
 10
549.411555
 20
2537.249095
 30
0.0
 11
552.192113
 21
2534.7881
 31
0.0
  0
LINE
  5
1D5
330
112
100
AcDbEntity
  8
LC-006-005-----0
 62
     7
370
    18
100
AcDbLine
 10
552.080995
 20
2533.822857
 30
0.0
 11
552.192113
 21
2534.7881
 31
0.0
  0
LINE
  5
1D6
330
112
100
AcDbEntity
  8
LC-006-005-----0
 62
     7
370
    18
100
AcDbLine
 10
552.470503
 20
2551.588284
 30
0.0
 11
557.60672
 21
2556.943952
 31
0.0
  0
LINE
  5
1D7
330
112
100
AcDbEntity
  8
LC-006-005-----0
 62
     7
370
    18
100
AcDbLine
 10
567.634204
 20
2569.329602
 30
0.0
 11
569.444577
 21
2563.069583
 31
0.0
  0
LINE
  5
1D8
330
112
100
AcDbEntity
  8
LC-006-005-----0
 62
     7
370
    18
100
AcDbLine
 10
569.444577
 20
2563.069583
 30
0.0
 11
574.515794
 21
2561.496218
 31
0.0
  0
LINE
  5
1D9
330
112
100
AcDbEntity
  8
LC-006-005-----0
 62
     7
370
    18
100
AcDbLine
 10
573.821282
 20
2554.554018
 30
0.0
 11
574.515794
 21
2561.496218
 31
0.0
  0
LINE
  5
1DA
330
112
100
AcDbEntity
  8
LC-006-005-----0
 62
     7
370
    18
100
AcDbLine
 10
573.821282
 20
2554.554018
 30
0.0
 11
576.816067
 21
2551.887574
 31
0.0
  0
LINE
  5
1DB
330
112
100
AcDbEntity
  8
LC-006-005-----0
 62
     7
370
    18
100
AcDbLine
 10
576.816067
 20
2551.887574
 30
0.0
 11
577.398137
 21
2544.132357
 31
0.0
  0
LINE
  5
1DC
330
112
100
AcDbEntity
  8
LC-006-005-----0
 62
     7
370
    18
100
AcDbLine
 10
577.398137
 20
2544.132357
 30
0.0
 11
585.328915
 21
2536.320918
 31
0.0
  0
LINE
  5
1DD
330
112
100
AcDbEntity
  8
LC-006-005-----0
 62
     7
370
    18
100
AcDbLine
 10
585.883327
 20
2533.822857
 30
0.0
 11
591.243872
 21
2534.555272
 31
0.0
  0
LINE
  5
1DE
330
112
100
AcDbEntity
  8
LC-006-005-----0
 62
     7
370
    18
100
AcDbLine
 10
591.243872
 20
2534.555272
 30
0.0
 11
593.687311
 21
2538.175181
 31
0.0
  0
LINE
  5
1DF
330
112
100
AcDbEntity
  8
LC-006-005-----0
 62
     7
370
    18
100
AcDbLine
 10
597.405661
 20
2561.135272
 30
0.0
 11
601.152016
 21
2562.683139
 31
0.0
  0
LINE
  5
1E0
330
112
100
AcDbEntity
  8
LC-006-005-----0
 62
     7
370
    18
100
AcDbLine
 10
601.152016
 20
2562.683139
 30
0.0
 11
609.152183
 21
2561.590896
 31
0.0
  0
LINE
  5
1E1
330
112
100
AcDbEntity
  8
LC-006-005-----0
 62
     7
370
    18
100
AcDbLine
 10
607.092472
 20
2569.735066
 30
0.0
 11
610.398043
 21
2562.246744
 31
0.0
  0
LINE
  5
1E2
330
112
100
AcDbEntity
  8
LC-006-005-----0
 62
     7
370
    18
100
AcDbLine
 10
607.092472
 20
2569.735066
 30
0.0
 11
607.437527
 21
2573.970276
 31
0.0
  0
LINE
  5
1E3
330
112
100
AcDbEntity
  8
LC-006-005-----0
 62
     7
370
    18
100
AcDbLine
 10
609.152183
 20
2561.590896
 30
0.0
 11
616.041716
 21
2563.414436
 31
0.0
  0
LINE
  5
1E4
330
112
100
AcDbEntity
  8
LC-006-005-----0
 62
     7
370
    18
100
AcDbLine
 10
610.398043
 20
2562.246744
 30
0.0
 11
616.737064
 21
2560.280038
 31
0.0
  0
LINE
  5
1E5
330
112
100
AcDbEntity
  8
LC-006-005-----0
 62
     7
370
    18
100
AcDbLine
 10
616.041716
 20
2563.414436
 30
0.0
 11
624.234164
 21
2563.165933
 31
0.0
  0
LINE
  5
1E6
330
112
100
AcDbEntity
  8
LC-006-005-----0
 62
     7
370
    18
100
AcDbLine
 10
616.737064
 20
2560.280038
 30
0.0
 11
617.974981
 21
2551.278961
 31
0.0
  0
LINE
  5
1E7
330
112
100
AcDbEntity
  8
LC-006-005-----0
 62
     7
370
    18
100
AcDbLine
 10
617.974981
 20
2551.278961
 30
0.0
 11
624.795125
 21
2546.383305
 31
0.0
  0
LINE
  5
1E8
330
112
100
AcDbEntity
  8
LC-006-005-----0
 62
     7
370
    18
100
AcDbLine
 10
624.234164
 20
2563.165933
 30
0.0
 11
625.217517
 21
2566.335444
 31
0.0
  0
LINE
  5
1E9
330
112
100
AcDbEntity
  8
LC-006-005-----0
 62
     7
370
    18
100
AcDbLine
 10
624.795125
 20
2546.383305
 30
0.0
 11
625.070798
 21
2543.240129
 31
0.0
  0
LINE
  5
1EA
330
112
100
AcDbEntity
  8
LC-006-005-----0
 62
     7
370
    18
100
AcDbLine
 10
625.217517
 20
2566.335444
 30
0.0
 11
629.851503
 21
2565.592652
 31
0.0
  0
LINE
  5
1EB
330
112
100
AcDbEntity
  8
LC-006-005-----0
 62
     7
370
    18
100
AcDbLine
 10
629.851503
 20
2565.592652
 30
0.0
 11
636.124689
 21
2566.773511
 31
0.0
  0
LINE
  5
1EC
330
112
100
AcDbEntity
  8
LC-006-005-----0
 62
     7
370
    18
100
AcDbLine
 10
631.592522
 20
2533.822857
 30
0.0
 11
632.127114
 21
2537.089836
 31
0.0
  0
LINE
  5
1ED
330
112
100
AcDbEntity
  8
LC-006-005-----0
 62
     7
370
    18
100
AcDbLine
 10
632.127114
 20
2537.089836
 30
0.0
 11
639.851608
 21
2539.140769
 31
0.0
  0
LINE
  5
1EE
330
112
100
AcDbEntity
  8
LC-006-005-----0
 62
     7
370
    18
100
AcDbLine
 10
635.363223
 20
2573.970276
 30
0.0
 11
636.657644
 21
2571.403108
 31
0.0
  0
LINE
  5
1EF
330
112
100
AcDbEntity
  8
LC-006-005-----0
 62
     7
370
    18
100
AcDbLine
 10
636.124689
 20
2566.773511
 30
0.0
 11
644.701701
 21
2568.212488
 31
0.0
  0
LINE
  5
1F0
330
112
100
AcDbEntity
  8
LC-006-005-----0
 62
     7
370
    18
100
AcDbLine
 10
636.657644
 20
2571.403108
 30
0.0
 11
643.075668
 21
2565.659323
 31
0.0
  0
LINE
  5
1F1
330
112
100
AcDbEntity
  8
LC-006-005-----0
 62
     7
370
    18
100
AcDbLine
 10
639.851608
 20
2539.140769
 30
0.0
 11
642.010595
 21
2546.323531
 31
0.0
  0
LINE
  5
1F2
330
112
100
AcDbEntity
  8
LC-006-005-----0
 62
     7
370
    18
100
AcDbLine
 10
641.108962
 20
2559.320302
 30
0.0
 11
643.075668
 21
2565.659323
 31
0.0
  0
LINE
  5
1F3
330
112
100
AcDbEntity
  8
LC-006-005-----0
 62
     7
370
    18
100
AcDbLine
 10
641.108962
 20
2559.320302
 30
0.0
 11
646.849194
 21
2555.871565
 31
0.0
  0
LINE
  5
1F4
330
112
100
AcDbEntity
  8
LC-006-005-----0
 62
     7
370
    18
100
AcDbLine
 10
644.701701
 20
2568.212488
 30
0.0
 11
647.796598
 21
2570.796376
 31
0.0
  0
LINE
  5
1F5
330
112
100
AcDbEntity
  8
LC-006-005-----0
 62
     7
370
    18
100
AcDbLine
 10
655.428296
 20
2561.206124
 30
0.0
 11
663.782303
 21
2559.142023
 31
0.0
  0
LINE
  5
1F6
330
112
100
AcDbEntity
  8
LC-006-005-----0
 62
     7
370
    18
100
AcDbLine
 10
655.942858
 20
2545.660577
 30
0.0
 11
660.892018
 21
2551.435085
 31
0.0
  0
LINE
  5
1F7
330
112
100
AcDbEntity
  8
LC-006-005-----0
 62
     7
370
    18
100
AcDbLine
 10
655.942858
 20
2545.660577
 30
0.0
 11
661.214299
 21
2536.733279
 31
0.0
  0
LINE
  5
1F8
330
112
100
AcDbEntity
  8
LC-006-005-----0
 62
     7
370
    18
100
AcDbLine
 10
659.084951
 20
2533.822857
 30
0.0
 11
661.214299
 21
2536.733279
 31
0.0
  0
LINE
  5
1F9
330
112
100
AcDbEntity
  8
LC-006-005-----0
 62
     7
370
    18
100
AcDbLine
 10
669.077932
 20
2533.822857
 30
0.0
 11
671.32601
 21
2538.411144
 31
0.0
  0
LINE
  5
1FA
330
112
100
AcDbEntity
  8
LC-006-005-----0
 62
     7
370
    18
100
AcDbLine
 10
668.644518
 20
2570.796376
 30
0.0
 11
671.739416
 21
2568.212488
 31
0.0
  0
LINE
  5
1FB
330
112
100
AcDbEntity
  8
LC-006-005-----0
 62
     7
370
    18
100
AcDbLine
 10
669.591923
 20
2555.871565
 30
0.0
 11
675.332155
 21
2559.320302
 31
0.0
  0
LINE
  5
1FC
330
112
100
AcDbEntity
  8
LC-006-005-----0
 62
     7
370
    18
100
AcDbLine
 10
673.365449
 20
2565.659323
 30
0.0
 11
675.332155
 21
2559.320302
 31
0.0
  0
LINE
  5
1FD
330
112
100
AcDbEntity
  8
LC-006-005-----0
 62
     7
370
    18
100
AcDbLine
 10
461.143656
 20
2541.910669
 30
0.0
 11
463.925692
 21
2533.822857
 31
0.0
  0
LINE
  5
1FE
330
112
100
AcDbEntity
  8
LC-006-005-----0
 62
     7
370
    18
100
AcDbLine
 10
494.687803
 20
2534.005179
 30
0.0
 11
494.691616
 21
2533.822857
 31
0.0
  0
LINE
  5
1FF
330
112
100
AcDbEntity
  8
LC-006-005-----0
 62
     7
370
    18
100
AcDbLine
 10
527.189866
 20
2545.811268
 30
0.0
 11
529.056247
 21
2533.822857
 31
0.0
  0
LINE
  5
200
330
112
100
AcDbEntity
  8
LC-006-005-----0
 62
     7
370
    18
100
AcDbLine
 10
585.328915
 20
2536.320918
 30
0.0
 11
585.528356
 21
2533.822857
 31
0.0
  0
LINE
  5
201
330
112
100
AcDbEntity
  8
LC-006-005-----0
 62
     7
370
    18
100
AcDbLine
 10
671.739416
 20
2568.212488
 30
0.0
 11
675.655057
 21
2567.555556
 31
0.0
  0
LINE
  5
202
330
112
100
AcDbEntity
  8
LC-006-005-----0
 62
     7
370
    18
100
AcDbLine
 10
673.365449
 20
2565.659323
 30
0.0
 11
675.655057
 21
2567.708399
 31
0.0
  0
LINE
  5
203
330
112
100
AcDbEntity
  8
LC-006-005-----0
 62
     7
370
    18
100
AcDbLine
 10
674.430521
 20
2546.323531
 30
0.0
 11
675.655057
 21
2542.249608
 31
0.0
  0
ENDBLK
  5
114
330
112
100
AcDbEntity
  8
0
100
AcDbBlockEnd
  0
BLOCK
  5
2C5
330
2BB
100
AcDbEntity
  8
0
100
AcDbBlockBegin
  2
*D3
 70
     1
 71
     0
 10
0.0
 20
0.0
 30
0.0
  3
*D3
  1

  0
LINE
  5
2BC
330
2BB
100
AcDbEntity
  8
LC-009-003-----0
 62
     2
370
    -2
100
AcDbLine
 10
1045.053309
 20
1498.81002
 30
0.0
 11
1045.053309
 21
1382.0
 31
0.0
  0
LINE
  5
2BD
330
2BB
100
AcDbEntity
  8
LC-009-003-----0
 62
     2
370
    -2
100
AcDbLine
 10
1645.053309
 20
1498.81002
 30
0.0
 11
1645.053309
 21
1382.0
 31
0.0
  0
LINE
  5
2BE
330
2BB
100
AcDbEntity
  8
LC-009-003-----0
 62
     2
370
    -2
100
AcDbLine
 10
1070.053309
 20
1400.0
 30
0.0
 11
1620.053309
 21
1400.0
 31
0.0
  0
SOLID
  5
2BF
330
2BB
100
AcDbEntity
  8
LC-009-003-----0
 62
     2
100
AcDbTrace
 10
1070.053309
 20
1404.166667
 30
0.0
 11
1070.053309
 21
1395.833333
 31
0.0
 12
1045.053309
 22
1400.0
 32
0.0
 13
1045.053309
 23
1400.0
 33
0.0
  0
SOLID
  5
2C0
330
2BB
100
AcDbEntity
  8
LC-009-003-----0
 62
     2
100
AcDbTrace
 10
1620.053309
 20
1395.833333
 30
0.0
 11
1620.053309
 21
1404.166667
 31
0.0
 12
1645.053309
 22
1400.0
 32
0.0
 13
1645.053309
 23
1400.0
 33
0.0
  0
MTEXT
  5
2C1
330
2BB
100
AcDbEntity
  8
LC-009-003-----0
 62
     2
100
AcDbMText
 10
1345.053309
 20
1430.0
 30
0.0
 40
25.0
 41
0.0
 71
     5
 72
     1
  1
\A1;600
  7
LCTX0-400-0-0pDIN-Schrift
 73
     1
 44
1.0
  0
POINT
  5
2C2
330
2BB
100
AcDbEntity
  8
Defpoints
 62
     0
100
AcDbPoint
 10
1045.053309
 20
1498.81002
 30
0.0
  0
POINT
  5
2C3
330
2BB
100
AcDbEntity
  8
Defpoints
 62
     0
100
AcDbPoint
 10
1645.053309
 20
1498.81002
 30
0.0
  0
POINT
  5
2C4
330
2BB
100
AcDbEntity
  8
Defpoints
 62
     0
100
AcDbPoint
 10
1645.053309
 20
1400.0
 30
0.0
  0
ENDBLK
  5
2C6
330
2BB
100
AcDbEntity
  8
0
100
AcDbBlockEnd
  0
BLOCK
  5
2D9
330
2CF
100
AcDbEntity
  8
0
100
AcDbBlockBegin
  2
*D4
 70
     1
 71
     0
 10
0.0
 20
0.0
 30
0.0
  3
*D4
  1

  0
LINE
  5
2D0
330
2CF
100
AcDbEntity
  8
LC-009-003-----0
 62
     2
370
    -2
100
AcDbLine
 10
1345.053309
 20
2450.03
 30
0.0
 11
1282.0
 21
2450.03
 31
0.0
  0
LINE
  5
2D1
330
2CF
100
AcDbEntity
  8
LC-009-003-----0
 62
     2
370
    -2
100
AcDbLine
 10
1345.053309
 20
2670.03
 30
0.0
 11
1282.0
 21
2670.03
 31
0.0
  0
LINE
  5
2D2
330
2CF
100
AcDbEntity
  8
LC-009-003-----0
 62
     2
370
    -2
100
AcDbLine
 10
1300.0
 20
2475.03
 30
0.0
 11
1300.0
 21
2645.03
 31
0.0
  0
SOLID
  5
2D3
330
2CF
100
AcDbEntity
  8
LC-009-003-----0
 62
     2
100
AcDbTrace
 10
1295.833333
 20
2475.03
 30
0.0
 11
1304.166667
 21
2475.03
 31
0.0
 12
1300.0
 22
2450.03
 32
0.0
 13
1300.0
 23
2450.03
 33
0.0
  0
SOLID
  5
2D4
330
2CF
100
AcDbEntity
  8
LC-009-003-----0
 62
     2
100
AcDbTrace
 10
1304.166667
 20
2645.03
 30
0.0
 11
1295.833333
 21
2645.03
 31
0.0
 12
1300.0
 22
2670.03
 32
0.0
 13
1300.0
 23
2670.03
 33
0.0
  0
MTEXT
  5
2D5
330
2CF
100
AcDbEntity
  8
LC-009-003-----0
 62
     2
100
AcDbMText
 10
1270.0
 20
2560.03
 30
0.0
 40
25.0
 41
0.0
 71
     5
 72
     1
  1
\A1;220
  7
LCTX0-400-0-0pDIN-Schrift
 11
6.123031769111886E-17
 21
1.0
 31
0.0
 73
     1
 44
1.0
  0
POINT
  5
2D6
330
2CF
100
AcDbEntity
  8
Defpoints
 62
     0
100
AcDbPoint
 10
1345.053309
 20
2450.03
 30
0.0
  0
POINT
  5
2D7
330
2CF
100
AcDbEntity
  8
Defpoints
 62
     0
100
AcDbPoint
 10
1345.053309
 20
2670.03
 30
0.0
  0
POINT
  5
2D8
330
2CF
100
AcDbEntity
  8
Defpoints
 62
     0
100
AcDbPoint
 10
1300.0
 20
2670.03
 30
0.0
  0
ENDBLK
  5
2DA
330
2CF
100
AcDbEntity
  8
0
100
AcDbBlockEnd
  0
BLOCK
  5
2E2
330
2E1
100
AcDbEntity
  8
0
100
AcDbBlockBegin
  2
*X25
 70
     1
 71
     0
 10
0.0
 20
0.0
 30
0.0
  3
*X25
  1

  4
*X2
  0
LINE
  5
2E4
330
2E1
100
AcDbEntity
  8
LC-006-005-----0
 62
     7
370
    18
100
AcDbLine
 10
1703.443935
 20
2670.03
 30
0.0
 11
1703.848606
 21
2672.755102
 31
0.0
  0
LINE
  5
2E5
330
2E1
100
AcDbEntity
  8
LC-006-005-----0
 62
     7
370
    18
100
AcDbLine
 10
1703.848606
 20
2672.755102
 30
0.0
 11
1701.356738
 21
2677.752787
 31
0.0
  0
LINE
  5
2E6
330
2E1
100
AcDbEntity
  8
LC-006-005-----0
 62
     7
370
    18
100
AcDbLine
 10
1717.053309
 20
2690.643756
 30
0.0
 11
1713.351683
 21
2690.564843
 31
0.0
  0
LINE
  5
2E7
330
2E1
100
AcDbEntity
  8
LC-006-005-----0
 62
     7
370
    18
100
AcDbLine
 10
1701.356738
 20
2677.752787
 30
0.0
 11
1699.978481
 21
2682.828662
 31
0.0
  0
LINE
  5
2E8
330
2E1
100
AcDbEntity
  8
LC-006-005-----0
 62
     7
370
    18
100
AcDbLine
 10
1713.351683
 20
2690.564843
 30
0.0
 11
1708.586824
 21
2693.410695
 31
0.0
  0
LINE
  5
2E9
330
2E1
100
AcDbEntity
  8
LC-006-005-----0
 62
     7
370
    18
100
AcDbLine
 10
1689.989368
 20
2670.03
 30
0.0
 11
1687.475815
 21
2671.535925
 31
0.0
  0
LINE
  5
2EA
330
2E1
100
AcDbEntity
  8
LC-006-005-----0
 62
     7
370
    18
100
AcDbLine
 10
1703.207395
 20
2684.616658
 30
0.0
 11
1699.978481
 21
2682.828662
 31
0.0
  0
LINE
  5
2EB
330
2E1
100
AcDbEntity
  8
LC-006-005-----0
 62
     7
370
    18
100
AcDbLine
 10
1703.207395
 20
2684.616658
 30
0.0
 11
1701.682016
 21
2686.20721
 31
0.0
  0
LINE
  5
2EC
330
2E1
100
AcDbEntity
  8
LC-006-005-----0
 62
     7
370
    18
100
AcDbLine
 10
1687.475815
 20
2671.535925
 30
0.0
 11
1684.053818
 21
2671.909677
 31
0.0
  0
LINE
  5
2ED
330
2E1
100
AcDbEntity
  8
LC-006-005-----0
 62
     7
370
    18
100
AcDbLine
 10
1701.682016
 20
2686.20721
 30
0.0
 11
1703.132245
 21
2691.669252
 31
0.0
  0
LINE
  5
2EE
330
2E1
100
AcDbEntity
  8
LC-006-005-----0
 62
     7
370
    18
100
AcDbLine
 10
1708.586824
 20
2693.410695
 30
0.0
 11
1705.333082
 21
2690.435678
 31
0.0
  0
LINE
  5
2EF
330
2E1
100
AcDbEntity
  8
LC-006-005-----0
 62
     7
370
    18
100
AcDbLine
 10
1705.333082
 20
2690.435678
 30
0.0
 11
1698.957793
 21
2694.354312
 31
0.0
  0
LINE
  5
2F0
330
2E1
100
AcDbEntity
  8
LC-006-005-----0
 62
     7
370
    18
100
AcDbLine
 10
1682.717966
 20
2670.03
 30
0.0
 11
1681.736895
 21
2672.67765
 31
0.0
  0
LINE
  5
2F1
330
2E1
100
AcDbEntity
  8
LC-006-005-----0
 62
     7
370
    18
100
AcDbLine
 10
1684.053818
 20
2671.909677
 30
0.0
 11
1681.44945
 21
2672.22631
 31
0.0
  0
LINE
  5
2F2
330
2E1
100
AcDbEntity
  8
LC-006-005-----0
 62
     7
370
    18
100
AcDbLine
 10
1703.132245
 20
2691.669252
 30
0.0
 11
1699.503495
 21
2695.604659
 31
0.0
  0
LINE
  5
2F3
330
2E1
100
AcDbEntity
  8
LC-006-005-----0
 62
     7
370
    18
100
AcDbLine
 10
1681.44945
 20
2672.22631
 30
0.0
 11
1678.501774
 21
2674.7624
 31
0.0
  0
LINE
  5
2F4
330
2E1
100
AcDbEntity
  8
LC-006-005-----0
 62
     7
370
    18
100
AcDbLine
 10
1681.736895
 20
2672.67765
 30
0.0
 11
1683.891179
 21
2676.136889
 31
0.0
  0
LINE
  5
2F5
330
2E1
100
AcDbEntity
  8
LC-006-005-----0
 62
     7
370
    18
100
AcDbLine
 10
1683.891179
 20
2676.136889
 30
0.0
 11
1682.193851
 21
2679.218681
 31
0.0
  0
LINE
  5
2F6
330
2E1
100
AcDbEntity
  8
LC-006-005-----0
 62
     7
370
    18
100
AcDbLine
 10
1698.957793
 20
2694.354312
 30
0.0
 11
1694.665408
 21
2691.40102
 31
0.0
  0
LINE
  5
2F7
330
2E1
100
AcDbEntity
  8
LC-006-005-----0
 62
     7
370
    18
100
AcDbLine
 10
1699.503495
 20
2695.604659
 30
0.0
 11
1703.624522
 21
2701.010838
 31
0.0
  0
LINE
  5
2F8
330
2E1
100
AcDbEntity
  8
LC-006-005-----0
 62
     7
370
    18
100
AcDbLine
 10
1678.501774
 20
2674.7624
 30
0.0
 11
1675.143104
 21
2675.657026
 31
0.0
  0
LINE
  5
2F9
330
2E1
100
AcDbEntity
  8
LC-006-005-----0
 62
     7
370
    18
100
AcDbLine
 10
1694.665408
 20
2691.40102
 30
0.0
 11
1688.082774
 21
2692.503581
 31
0.0
  0
LINE
  5
2FA
330
2E1
100
AcDbEntity
  8
LC-006-005-----0
 62
     7
370
    18
100
AcDbLine
 10
1703.624522
 20
2701.010838
 30
0.0
 11
1699.610862
 21
2704.286305
 31
0.0
  0
LINE
  5
2FB
330
2E1
100
AcDbEntity
  8
LC-006-005-----0
 62
     7
370
    18
100
AcDbLine
 10
1699.610862
 20
2704.286305
 30
0.0
 11
1698.862767
 21
2704.005067
 31
0.0
  0
LINE
  5
2FC
330
2E1
100
AcDbEntity
  8
LC-006-005-----0
 62
     7
370
    18
100
AcDbLine
 10
1677.061088
 20
2682.470182
 30
0.0
 11
1676.732072
 21
2684.799847
 31
0.0
  0
LINE
  5
2FD
330
2E1
100
AcDbEntity
  8
LC-006-005-----0
 62
     7
370
    18
100
AcDbLine
 10
1662.303945
 20
2670.03
 30
0.0
 11
1664.076849
 21
2672.456709
 31
0.0
  0
LINE
  5
2FE
330
2E1
100
AcDbEntity
  8
LC-006-005-----0
 62
     7
370
    18
100
AcDbLine
 10
1656.827995
 20
2670.03
 30
0.0
 11
1656.250075
 21
2670.51169
 31
0.0
  0
LINE
  5
2FF
330
2E1
100
AcDbEntity
  8
LC-006-005-----0
 62
     7
370
    18
100
AcDbLine
 10
1676.732072
 20
2684.799847
 30
0.0
 11
1678.646977
 21
2688.259786
 31
0.0
  0
LINE
  5
300
330
2E1
100
AcDbEntity
  8
LC-006-005-----0
 62
     7
370
    18
100
AcDbLine
 10
1664.076849
 20
2672.456709
 30
0.0
 11
1661.350188
 21
2675.071643
 31
0.0
  0
LINE
  5
301
330
2E1
100
AcDbEntity
  8
LC-006-005-----0
 62
     7
370
    18
100
AcDbLine
 10
1678.646977
 20
2688.259786
 30
0.0
 11
1681.008872
 21
2691.143126
 31
0.0
  0
LINE
  5
302
330
2E1
100
AcDbEntity
  8
LC-006-005-----0
 62
     7
370
    18
100
AcDbLine
 10
1681.008872
 20
2691.143126
 30
0.0
 11
1679.917643
 21
2696.014324
 31
0.0
  0
LINE
  5
303
330
2E1
100
AcDbEntity
  8
LC-006-005-----0
 62
     7
370
    18
100
AcDbLine
 10
1664.773441
 20
2678.186318
 30
0.0
 11
1661.350188
 21
2675.071643
 31
0.0
  0
LINE
  5
304
330
2E1
100
AcDbEntity
  8
LC-006-005-----0
 62
     7
370
    18
100
AcDbLine
 10
1664.773441
 20
2678.186318
 30
0.0
 11
1666.576954
 21
2680.673344
 31
0.0
  0
LINE
  5
305
330
2E1
100
AcDbEntity
  8
LC-006-005-----0
 62
     7
370
    18
100
AcDbLine
 10
1666.576954
 20
2680.673344
 30
0.0
 11
1663.881327
 21
2681.804502
 31
0.0
  0
LINE
  5
306
330
2E1
100
AcDbEntity
  8
LC-006-005-----0
 62
     7
370
    18
100
AcDbLine
 10
1656.250075
 20
2670.51169
 30
0.0
 11
1652.165034
 21
2670.64891
 31
0.0
  0
LINE
  5
307
330
2E1
100
AcDbEntity
  8
LC-006-005-----0
 62
     7
370
    18
100
AcDbLine
 10
1679.917643
 20
2696.014324
 30
0.0
 11
1680.420487
 21
2702.312616
 31
0.0
  0
LINE
  5
308
330
2E1
100
AcDbEntity
  8
LC-006-005-----0
 62
     7
370
    18
100
AcDbLine
 10
1667.534906
 20
2684.552888
 30
0.0
 11
1664.233355
 21
2686.265142
 31
0.0
  0
LINE
  5
309
330
2E1
100
AcDbEntity
  8
LC-006-005-----0
 62
     7
370
    18
100
AcDbLine
 10
1652.165034
 20
2670.64891
 30
0.0
 11
1648.911292
 21
2673.623927
 31
0.0
  0
LINE
  5
30A
330
2E1
100
AcDbEntity
  8
LC-006-005-----0
 62
     7
370
    18
100
AcDbLine
 10
1680.420487
 20
2702.312616
 30
0.0
 11
1679.841237
 21
2706.555345
 31
0.0
  0
LINE
  5
30B
330
2E1
100
AcDbEntity
  8
LC-006-005-----0
 62
     7
370
    18
100
AcDbLine
 10
1664.233355
 20
2686.265142
 30
0.0
 11
1661.013752
 21
2687.608005
 31
0.0
  0
LINE
  5
30C
330
2E1
100
AcDbEntity
  8
LC-006-005-----0
 62
     7
370
    18
100
AcDbLine
 10
1655.062462
 20
2677.612094
 30
0.0
 11
1652.659232
 21
2675.40941
 31
0.0
  0
LINE
  5
30D
330
2E1
100
AcDbEntity
  8
LC-006-005-----0
 62
     7
370
    18
100
AcDbLine
 10
1655.062462
 20
2677.612094
 30
0.0
 11
1654.94948
 21
2679.465263
 31
0.0
  0
LINE
  5
30E
330
2E1
100
AcDbEntity
  8
LC-006-005-----0
 62
     7
370
    18
100
AcDbLine
 10
1658.599954
 20
2682.362026
 30
0.0
 11
1654.94948
 21
2679.465263
 31
0.0
  0
LINE
  5
30F
330
2E1
100
AcDbEntity
  8
LC-006-005-----0
 62
     7
370
    18
100
AcDbLine
 10
1658.599954
 20
2682.362026
 30
0.0
 11
1658.664537
 21
2686.371327
 31
0.0
  0
LINE
  5
310
330
2E1
100
AcDbEntity
  8
LC-006-005-----0
 62
     7
370
    18
100
AcDbLine
 10
1648.911292
 20
2673.623927
 30
0.0
 11
1645.20185
 21
2673.546339
 31
0.0
  0
LINE
  5
311
330
2E1
100
AcDbEntity
  8
LC-006-005-----0
 62
     7
370
    18
100
AcDbLine
 10
1661.013752
 20
2687.608005
 30
0.0
 11
1657.910235
 21
2686.94932
 31
0.0
  0
LINE
  5
312
330
2E1
100
AcDbEntity
  8
LC-006-005-----0
 62
     7
370
    18
100
AcDbLine
 10
1658.664537
 20
2686.371327
 30
0.0
 11
1660.512755
 21
2690.269492
 31
0.0
  0
LINE
  5
313
330
2E1
100
AcDbEntity
  8
LC-006-005-----0
 62
     7
370
    18
100
AcDbLine
 10
1657.910235
 20
2686.94932
 30
0.0
 11
1654.129412
 21
2690.284419
 31
0.0
  0
LINE
  5
314
330
2E1
100
AcDbEntity
  8
LC-006-005-----0
 62
     7
370
    18
100
AcDbLine
 10
1660.512755
 20
2690.269492
 30
0.0
 11
1659.105975
 21
2693.654247
 31
0.0
  0
LINE
  5
315
330
2E1
100
AcDbEntity
  8
LC-006-005-----0
 62
     7
370
    18
100
AcDbLine
 10
1659.105975
 20
2693.654247
 30
0.0
 11
1660.360683
 21
2697.539998
 31
0.0
  0
LINE
  5
316
330
2E1
100
AcDbEntity
  8
LC-006-005-----0
 62
     7
370
    18
100
AcDbLine
 10
1637.277611
 20
2672.712601
 30
0.0
 11
1638.850798
 21
2675.565916
 31
0.0
  0
LINE
  5
317
330
2E1
100
AcDbEntity
  8
LC-006-005-----0
 62
     7
370
    18
100
AcDbLine
 10
1654.129412
 20
2690.284419
 30
0.0
 11
1650.823502
 21
2688.656624
 31
0.0
  0
LINE
  5
318
330
2E1
100
AcDbEntity
  8
LC-006-005-----0
 62
     7
370
    18
100
AcDbLine
 10
1638.850798
 20
2675.565916
 30
0.0
 11
1637.614121
 21
2677.91513
 31
0.0
  0
LINE
  5
319
330
2E1
100
AcDbEntity
  8
LC-006-005-----0
 62
     7
370
    18
100
AcDbLine
 10
1660.360683
 20
2697.539998
 30
0.0
 11
1659.474777
 21
2700.861426
 31
0.0
  0
LINE
  5
31A
330
2E1
100
AcDbEntity
  8
LC-006-005-----0
 62
     7
370
    18
100
AcDbLine
 10
1650.823502
 20
2688.656624
 30
0.0
 11
1648.829418
 21
2691.732209
 31
0.0
  0
LINE
  5
31B
330
2E1
100
AcDbEntity
  8
LC-006-005-----0
 62
     7
370
    18
100
AcDbLine
 10
1640.314106
 20
2680.124021
 30
0.0
 11
1637.614121
 21
2677.91513
 31
0.0
  0
LINE
  5
31C
330
2E1
100
AcDbEntity
  8
LC-006-005-----0
 62
     7
370
    18
100
AcDbLine
 10
1640.314106
 20
2680.124021
 30
0.0
 11
1640.19802
 21
2682.125568
 31
0.0
  0
LINE
  5
31D
330
2E1
100
AcDbEntity
  8
LC-006-005-----0
 62
     7
370
    18
100
AcDbLine
 10
1640.19802
 20
2682.125568
 30
0.0
 11
1642.734111
 21
2685.073244
 31
0.0
  0
LINE
  5
31E
330
2E1
100
AcDbEntity
  8
LC-006-005-----0
 62
     7
370
    18
100
AcDbLine
 10
1642.734111
 20
2685.073244
 30
0.0
 11
1642.691918
 21
2690.638958
 31
0.0
  0
LINE
  5
31F
330
2E1
100
AcDbEntity
  8
LC-006-005-----0
 62
     7
370
    18
100
AcDbLine
 10
1648.829418
 20
2691.732209
 30
0.0
 11
1645.599248
 21
2690.031778
 31
0.0
  0
LINE
  5
320
330
2E1
100
AcDbEntity
  8
LC-006-005-----0
 62
     7
370
    18
100
AcDbLine
 10
1645.599248
 20
2690.031778
 30
0.0
 11
1641.224915
 21
2693.354462
 31
0.0
  0
LINE
  5
321
330
2E1
100
AcDbEntity
  8
LC-006-005-----0
 62
     7
370
    18
100
AcDbLine
 10
1642.691918
 20
2690.638958
 30
0.0
 11
1645.010097
 21
2693.359413
 31
0.0
  0
LINE
  5
322
330
2E1
100
AcDbEntity
  8
LC-006-005-----0
 62
     7
370
    18
100
AcDbLine
 10
1645.010097
 20
2693.359413
 30
0.0
 11
1644.862976
 21
2696.844736
 31
0.0
  0
LINE
  5
323
330
2E1
100
AcDbEntity
  8
LC-006-005-----0
 62
     7
370
    18
100
AcDbLine
 10
1641.224915
 20
2693.354462
 30
0.0
 11
1639.081197
 21
2692.938517
 31
0.0
  0
LINE
  5
324
330
2E1
100
AcDbEntity
  8
LC-006-005-----0
 62
     7
370
    18
100
AcDbLine
 10
1637.053309
 20
2700.336549
 30
0.0
 11
1637.701758
 21
2702.113104
 31
0.0
  0
LINE
  5
325
330
2E1
100
AcDbEntity
  8
LC-006-005-----0
 62
     7
370
    18
100
AcDbLine
 10
1637.701758
 20
2702.113104
 30
0.0
 11
1639.202308
 21
2704.890678
 31
0.0
  0
LINE
  5
326
330
2E1
100
AcDbEntity
  8
LC-006-005-----0
 62
     7
370
    18
100
AcDbLine
 10
1639.202308
 20
2704.890678
 30
0.0
 11
1637.141795
 21
2707.593767
 31
0.0
  0
LINE
  5
327
330
2E1
100
AcDbEntity
  8
LC-006-005-----0
 62
     7
370
    18
100
AcDbLine
 10
1679.841237
 20
2706.555345
 30
0.0
 11
1679.903485
 21
2708.03
 31
0.0
  0
LINE
  5
328
330
2E1
100
AcDbEntity
  8
LC-006-005-----0
 62
     7
370
    18
100
AcDbLine
 10
1646.719913
 20
2707.423
 30
0.0
 11
1646.086978
 21
2708.03
 31
0.0
  0
LINE
  5
329
330
2E1
100
AcDbEntity
  8
LC-006-005-----0
 62
     7
370
    18
100
AcDbLine
 10
1637.381431
 20
2706.782345
 30
0.0
 11
1638.514864
 21
2708.03
 31
0.0
  0
LINE
  5
32A
330
2E1
100
AcDbEntity
  8
LC-006-005-----0
 62
     7
370
    18
100
AcDbLine
 10
1637.141795
 20
2707.593767
 30
0.0
 11
1637.254158
 21
2708.03
 31
0.0
  0
LINE
  5
32B
330
2E1
100
AcDbEntity
  8
LC-006-005-----0
 62
     7
370
    18
100
AcDbLine
 10
1637.381431
 20
2706.782345
 30
0.0
 11
1637.053309
 21
2707.132932
 31
0.0
  0
ENDBLK
  5
2E3
330
2E1
100
AcDbEntity
  8
0
100
AcDbBlockEnd
  0
BLOCK
  5
32E
330
32D
100
AcDbEntity
  8
0
100
AcDbBlockBegin
  2
*X36
 70
     1
 71
     0
 10
0.0
 20
0.0
 30
0.0
  3
*X36
  1

  4
*X3
  0
LINE
  5
330
330
32D
100
AcDbEntity
  8
LC-006-005-----0
 62
     7
370
    18
100
AcDbLine
 10
1039.443935
 20
2670.03
 30
0.0
 11
1039.848606
 21
2672.755102
 31
0.0
  0
LINE
  5
331
330
32D
100
AcDbEntity
  8
LC-006-005-----0
 62
     7
370
    18
100
AcDbLine
 10
1039.848606
 20
2672.755102
 30
0.0
 11
1037.356738
 21
2677.752787
 31
0.0
  0
LINE
  5
332
330
32D
100
AcDbEntity
  8
LC-006-005-----0
 62
     7
370
    18
100
AcDbLine
 10
1053.053309
 20
2690.643756
 30
0.0
 11
1049.351683
 21
2690.564843
 31
0.0
  0
LINE
  5
333
330
32D
100
AcDbEntity
  8
LC-006-005-----0
 62
     7
370
    18
100
AcDbLine
 10
1037.356738
 20
2677.752787
 30
0.0
 11
1035.978481
 21
2682.828662
 31
0.0
  0
LINE
  5
334
330
32D
100
AcDbEntity
  8
LC-006-005-----0
 62
     7
370
    18
100
AcDbLine
 10
1049.351683
 20
2690.564843
 30
0.0
 11
1044.586824
 21
2693.410695
 31
0.0
  0
LINE
  5
335
330
32D
100
AcDbEntity
  8
LC-006-005-----0
 62
     7
370
    18
100
AcDbLine
 10
1025.989368
 20
2670.03
 30
0.0
 11
1023.475815
 21
2671.535925
 31
0.0
  0
LINE
  5
336
330
32D
100
AcDbEntity
  8
LC-006-005-----0
 62
     7
370
    18
100
AcDbLine
 10
1039.207395
 20
2684.616658
 30
0.0
 11
1035.978481
 21
2682.828662
 31
0.0
  0
LINE
  5
337
330
32D
100
AcDbEntity
  8
LC-006-005-----0
 62
     7
370
    18
100
AcDbLine
 10
1039.207395
 20
2684.616658
 30
0.0
 11
1037.682016
 21
2686.20721
 31
0.0
  0
LINE
  5
338
330
32D
100
AcDbEntity
  8
LC-006-005-----0
 62
     7
370
    18
100
AcDbLine
 10
1023.475815
 20
2671.535925
 30
0.0
 11
1020.053818
 21
2671.909677
 31
0.0
  0
LINE
  5
339
330
32D
100
AcDbEntity
  8
LC-006-005-----0
 62
     7
370
    18
100
AcDbLine
 10
1037.682016
 20
2686.20721
 30
0.0
 11
1039.132245
 21
2691.669252
 31
0.0
  0
LINE
  5
33A
330
32D
100
AcDbEntity
  8
LC-006-005-----0
 62
     7
370
    18
100
AcDbLine
 10
1044.586824
 20
2693.410695
 30
0.0
 11
1041.333082
 21
2690.435678
 31
0.0
  0
LINE
  5
33B
330
32D
100
AcDbEntity
  8
LC-006-005-----0
 62
     7
370
    18
100
AcDbLine
 10
1041.333082
 20
2690.435678
 30
0.0
 11
1034.957793
 21
2694.354312
 31
0.0
  0
LINE
  5
33C
330
32D
100
AcDbEntity
  8
LC-006-005-----0
 62
     7
370
    18
100
AcDbLine
 10
1018.717966
 20
2670.03
 30
0.0
 11
1017.736895
 21
2672.67765
 31
0.0
  0
LINE
  5
33D
330
32D
100
AcDbEntity
  8
LC-006-005-----0
 62
     7
370
    18
100
AcDbLine
 10
1020.053818
 20
2671.909677
 30
0.0
 11
1017.44945
 21
2672.22631
 31
0.0
  0
LINE
  5
33E
330
32D
100
AcDbEntity
  8
LC-006-005-----0
 62
     7
370
    18
100
AcDbLine
 10
1039.132245
 20
2691.669252
 30
0.0
 11
1035.503495
 21
2695.604659
 31
0.0
  0
LINE
  5
33F
330
32D
100
AcDbEntity
  8
LC-006-005-----0
 62
     7
370
    18
100
AcDbLine
 10
1017.44945
 20
2672.22631
 30
0.0
 11
1014.501774
 21
2674.7624
 31
0.0
  0
LINE
  5
340
330
32D
100
AcDbEntity
  8
LC-006-005-----0
 62
     7
370
    18
100
AcDbLine
 10
1017.736895
 20
2672.67765
 30
0.0
 11
1019.891179
 21
2676.136889
 31
0.0
  0
LINE
  5
341
330
32D
100
AcDbEntity
  8
LC-006-005-----0
 62
     7
370
    18
100
AcDbLine
 10
1019.891179
 20
2676.136889
 30
0.0
 11
1018.193851
 21
2679.218681
 31
0.0
  0
LINE
  5
342
330
32D
100
AcDbEntity
  8
LC-006-005-----0
 62
     7
370
    18
100
AcDbLine
 10
1034.957793
 20
2694.354312
 30
0.0
 11
1030.665408
 21
2691.40102
 31
0.0
  0
LINE
  5
343
330
32D
100
AcDbEntity
  8
LC-006-005-----0
 62
     7
370
    18
100
AcDbLine
 10
1035.503495
 20
2695.604659
 30
0.0
 11
1039.624522
 21
2701.010838
 31
0.0
  0
LINE
  5
344
330
32D
100
AcDbEntity
  8
LC-006-005-----0
 62
     7
370
    18
100
AcDbLine
 10
1014.501774
 20
2674.7624
 30
0.0
 11
1011.143104
 21
2675.657026
 31
0.0
  0
LINE
  5
345
330
32D
100
AcDbEntity
  8
LC-006-005-----0
 62
     7
370
    18
100
AcDbLine
 10
1030.665408
 20
2691.40102
 30
0.0
 11
1024.082774
 21
2692.503581
 31
0.0
  0
LINE
  5
346
330
32D
100
AcDbEntity
  8
LC-006-005-----0
 62
     7
370
    18
100
AcDbLine
 10
1039.624522
 20
2701.010838
 30
0.0
 11
1035.610862
 21
2704.286305
 31
0.0
  0
LINE
  5
347
330
32D
100
AcDbEntity
  8
LC-006-005-----0
 62
     7
370
    18
100
AcDbLine
 10
1035.610862
 20
2704.286305
 30
0.0
 11
1034.862767
 21
2704.005067
 31
0.0
  0
LINE
  5
348
330
32D
100
AcDbEntity
  8
LC-006-005-----0
 62
     7
370
    18
100
AcDbLine
 10
1013.061088
 20
2682.470182
 30
0.0
 11
1012.732072
 21
2684.799847
 31
0.0
  0
LINE
  5
349
330
32D
100
AcDbEntity
  8
LC-006-005-----0
 62
     7
370
    18
100
AcDbLine
 10
998.303945
 20
2670.03
 30
0.0
 11
1000.076849
 21
2672.456709
 31
0.0
  0
LINE
  5
34A
330
32D
100
AcDbEntity
  8
LC-006-005-----0
 62
     7
370
    18
100
AcDbLine
 10
992.827995
 20
2670.03
 30
0.0
 11
992.250075
 21
2670.51169
 31
0.0
  0
LINE
  5
34B
330
32D
100
AcDbEntity
  8
LC-006-005-----0
 62
     7
370
    18
100
AcDbLine
 10
1012.732072
 20
2684.799847
 30
0.0
 11
1014.646977
 21
2688.259786
 31
0.0
  0
LINE
  5
34C
330
32D
100
AcDbEntity
  8
LC-006-005-----0
 62
     7
370
    18
100
AcDbLine
 10
1000.076849
 20
2672.456709
 30
0.0
 11
997.350188
 21
2675.071643
 31
0.0
  0
LINE
  5
34D
330
32D
100
AcDbEntity
  8
LC-006-005-----0
 62
     7
370
    18
100
AcDbLine
 10
1014.646977
 20
2688.259786
 30
0.0
 11
1017.008872
 21
2691.143126
 31
0.0
  0
LINE
  5
34E
330
32D
100
AcDbEntity
  8
LC-006-005-----0
 62
     7
370
    18
100
AcDbLine
 10
1017.008872
 20
2691.143126
 30
0.0
 11
1015.917643
 21
2696.014324
 31
0.0
  0
LINE
  5
34F
330
32D
100
AcDbEntity
  8
LC-006-005-----0
 62
     7
370
    18
100
AcDbLine
 10
1000.773441
 20
2678.186318
 30
0.0
 11
997.350188
 21
2675.071643
 31
0.0
  0
LINE
  5
350
330
32D
100
AcDbEntity
  8
LC-006-005-----0
 62
     7
370
    18
100
AcDbLine
 10
1000.773441
 20
2678.186318
 30
0.0
 11
1002.576954
 21
2680.673344
 31
0.0
  0
LINE
  5
351
330
32D
100
AcDbEntity
  8
LC-006-005-----0
 62
     7
370
    18
100
AcDbLine
 10
1002.576954
 20
2680.673344
 30
0.0
 11
999.881327
 21
2681.804502
 31
0.0
  0
LINE
  5
352
330
32D
100
AcDbEntity
  8
LC-006-005-----0
 62
     7
370
    18
100
AcDbLine
 10
992.250075
 20
2670.51169
 30
0.0
 11
988.165034
 21
2670.64891
 31
0.0
  0
LINE
  5
353
330
32D
100
AcDbEntity
  8
LC-006-005-----0
 62
     7
370
    18
100
AcDbLine
 10
1015.917643
 20
2696.014324
 30
0.0
 11
1016.420487
 21
2702.312616
 31
0.0
  0
LINE
  5
354
330
32D
100
AcDbEntity
  8
LC-006-005-----0
 62
     7
370
    18
100
AcDbLine
 10
1003.534906
 20
2684.552888
 30
0.0
 11
1000.233355
 21
2686.265142
 31
0.0
  0
LINE
  5
355
330
32D
100
AcDbEntity
  8
LC-006-005-----0
 62
     7
370
    18
100
AcDbLine
 10
988.165034
 20
2670.64891
 30
0.0
 11
984.911292
 21
2673.623927
 31
0.0
  0
LINE
  5
356
330
32D
100
AcDbEntity
  8
LC-006-005-----0
 62
     7
370
    18
100
AcDbLine
 10
1016.420487
 20
2702.312616
 30
0.0
 11
1015.841237
 21
2706.555345
 31
0.0
  0
LINE
  5
357
330
32D
100
AcDbEntity
  8
LC-006-005-----0
 62
     7
370
    18
100
AcDbLine
 10
1000.233355
 20
2686.265142
 30
0.0
 11
997.013752
 21
2687.608005
 31
0.0
  0
LINE
  5
358
330
32D
100
AcDbEntity
  8
LC-006-005-----0
 62
     7
370
    18
100
AcDbLine
 10
991.062462
 20
2677.612094
 30
0.0
 11
988.659232
 21
2675.40941
 31
0.0
  0
LINE
  5
359
330
32D
100
AcDbEntity
  8
LC-006-005-----0
 62
     7
370
    18
100
AcDbLine
 10
991.062462
 20
2677.612094
 30
0.0
 11
990.94948
 21
2679.465263
 31
0.0
  0
LINE
  5
35A
330
32D
100
AcDbEntity
  8
LC-006-005-----0
 62
     7
370
    18
100
AcDbLine
 10
994.599954
 20
2682.362026
 30
0.0
 11
990.94948
 21
2679.465263
 31
0.0
  0
LINE
  5
35B
330
32D
100
AcDbEntity
  8
LC-006-005-----0
 62
     7
370
    18
100
AcDbLine
 10
994.599954
 20
2682.362026
 30
0.0
 11
994.664537
 21
2686.371327
 31
0.0
  0
LINE
  5
35C
330
32D
100
AcDbEntity
  8
LC-006-005-----0
 62
     7
370
    18
100
AcDbLine
 10
984.911292
 20
2673.623927
 30
0.0
 11
981.20185
 21
2673.546339
 31
0.0
  0
LINE
  5
35D
330
32D
100
AcDbEntity
  8
LC-006-005-----0
 62
     7
370
    18
100
AcDbLine
 10
997.013752
 20
2687.608005
 30
0.0
 11
993.910235
 21
2686.94932
 31
0.0
  0
LINE
  5
35E
330
32D
100
AcDbEntity
  8
LC-006-005-----0
 62
     7
370
    18
100
AcDbLine
 10
994.664537
 20
2686.371327
 30
0.0
 11
996.512755
 21
2690.269492
 31
0.0
  0
LINE
  5
35F
330
32D
100
AcDbEntity
  8
LC-006-005-----0
 62
     7
370
    18
100
AcDbLine
 10
993.910235
 20
2686.94932
 30
0.0
 11
990.129412
 21
2690.284419
 31
0.0
  0
LINE
  5
360
330
32D
100
AcDbEntity
  8
LC-006-005-----0
 62
     7
370
    18
100
AcDbLine
 10
996.512755
 20
2690.269492
 30
0.0
 11
995.105975
 21
2693.654247
 31
0.0
  0
LINE
  5
361
330
32D
100
AcDbEntity
  8
LC-006-005-----0
 62
     7
370
    18
100
AcDbLine
 10
995.105975
 20
2693.654247
 30
0.0
 11
996.360683
 21
2697.539998
 31
0.0
  0
LINE
  5
362
330
32D
100
AcDbEntity
  8
LC-006-005-----0
 62
     7
370
    18
100
AcDbLine
 10
973.277611
 20
2672.712601
 30
0.0
 11
974.850798
 21
2675.565916
 31
0.0
  0
LINE
  5
363
330
32D
100
AcDbEntity
  8
LC-006-005-----0
 62
     7
370
    18
100
AcDbLine
 10
990.129412
 20
2690.284419
 30
0.0
 11
986.823502
 21
2688.656624
 31
0.0
  0
LINE
  5
364
330
32D
100
AcDbEntity
  8
LC-006-005-----0
 62
     7
370
    18
100
AcDbLine
 10
974.850798
 20
2675.565916
 30
0.0
 11
973.614121
 21
2677.91513
 31
0.0
  0
LINE
  5
365
330
32D
100
AcDbEntity
  8
LC-006-005-----0
 62
     7
370
    18
100
AcDbLine
 10
996.360683
 20
2697.539998
 30
0.0
 11
995.474777
 21
2700.861426
 31
0.0
  0
LINE
  5
366
330
32D
100
AcDbEntity
  8
LC-006-005-----0
 62
     7
370
    18
100
AcDbLine
 10
986.823502
 20
2688.656624
 30
0.0
 11
984.829418
 21
2691.732209
 31
0.0
  0
LINE
  5
367
330
32D
100
AcDbEntity
  8
LC-006-005-----0
 62
     7
370
    18
100
AcDbLine
 10
976.314106
 20
2680.124021
 30
0.0
 11
973.614121
 21
2677.91513
 31
0.0
  0
LINE
  5
368
330
32D
100
AcDbEntity
  8
LC-006-005-----0
 62
     7
370
    18
100
AcDbLine
 10
976.314106
 20
2680.124021
 30
0.0
 11
976.19802
 21
2682.125568
 31
0.0
  0
LINE
  5
369
330
32D
100
AcDbEntity
  8
LC-006-005-----0
 62
     7
370
    18
100
AcDbLine
 10
976.19802
 20
2682.125568
 30
0.0
 11
978.734111
 21
2685.073244
 31
0.0
  0
LINE
  5
36A
330
32D
100
AcDbEntity
  8
LC-006-005-----0
 62
     7
370
    18
100
AcDbLine
 10
978.734111
 20
2685.073244
 30
0.0
 11
978.691918
 21
2690.638958
 31
0.0
  0
LINE
  5
36B
330
32D
100
AcDbEntity
  8
LC-006-005-----0
 62
     7
370
    18
100
AcDbLine
 10
984.829418
 20
2691.732209
 30
0.0
 11
981.599248
 21
2690.031778
 31
0.0
  0
LINE
  5
36C
330
32D
100
AcDbEntity
  8
LC-006-005-----0
 62
     7
370
    18
100
AcDbLine
 10
981.599248
 20
2690.031778
 30
0.0
 11
977.224915
 21
2693.354462
 31
0.0
  0
LINE
  5
36D
330
32D
100
AcDbEntity
  8
LC-006-005-----0
 62
     7
370
    18
100
AcDbLine
 10
978.691918
 20
2690.638958
 30
0.0
 11
981.010097
 21
2693.359413
 31
0.0
  0
LINE
  5
36E
330
32D
100
AcDbEntity
  8
LC-006-005-----0
 62
     7
370
    18
100
AcDbLine
 10
981.010097
 20
2693.359413
 30
0.0
 11
980.862976
 21
2696.844736
 31
0.0
  0
LINE
  5
36F
330
32D
100
AcDbEntity
  8
LC-006-005-----0
 62
     7
370
    18
100
AcDbLine
 10
977.224915
 20
2693.354462
 30
0.0
 11
975.081197
 21
2692.938517
 31
0.0
  0
LINE
  5
370
330
32D
100
AcDbEntity
  8
LC-006-005-----0
 62
     7
370
    18
100
AcDbLine
 10
973.053309
 20
2700.336549
 30
0.0
 11
973.701758
 21
2702.113104
 31
0.0
  0
LINE
  5
371
330
32D
100
AcDbEntity
  8
LC-006-005-----0
 62
     7
370
    18
100
AcDbLine
 10
973.701758
 20
2702.113104
 30
0.0
 11
975.202308
 21
2704.890678
 31
0.0
  0
LINE
  5
372
330
32D
100
AcDbEntity
  8
LC-006-005-----0
 62
     7
370
    18
100
AcDbLine
 10
975.202308
 20
2704.890678
 30
0.0
 11
973.141795
 21
2707.593767
 31
0.0
  0
LINE
  5
373
330
32D
100
AcDbEntity
  8
LC-006-005-----0
 62
     7
370
    18
100
AcDbLine
 10
1015.841237
 20
2706.555345
 30
0.0
 11
1015.903485
 21
2708.03
 31
0.0
  0
LINE
  5
374
330
32D
100
AcDbEntity
  8
LC-006-005-----0
 62
     7
370
    18
100
AcDbLine
 10
982.719913
 20
2707.423
 30
0.0
 11
982.086978
 21
2708.03
 31
0.0
  0
LINE
  5
375
330
32D
100
AcDbEntity
  8
LC-006-005-----0
 62
     7
370
    18
100
AcDbLine
 10
973.381431
 20
2706.782345
 30
0.0
 11
974.514864
 21
2708.03
 31
0.0
  0
LINE
  5
376
330
32D
100
AcDbEntity
  8
LC-006-005-----0
 62
     7
370
    18
100
AcDbLine
 10
973.141795
 20
2707.593767
 30
0.0
 11
973.254158
 21
2708.03
 31
0.0
  0
LINE
  5
377
330
32D
100
AcDbEntity
  8
LC-006-005-----0
 62
     7
370
    18
100
AcDbLine
 10
973.381431
 20
2706.782345
 30
0.0
 11
973.053309
 21
2707.132932
 31
0.0
  0
ENDBLK
  5
32F
330
32D
100
AcDbEntity
  8
0
100
AcDbBlockEnd
  0
BLOCK
  5
385
330
37B
100
AcDbEntity
  8
0
100
AcDbBlockBegin
  2
*D7
 70
     1
 71
     0
 10
0.0
 20
0.0
 30
0.0
  3
*D7
  1

  0
LINE
  5
37C
330
37B
100
AcDbEntity
  8
LC-009-003-----0
 62
     2
370
    -2
100
AcDbLine
 10
584.039381
 20
1955.81002
 30
0.0
 11
482.0
 21
1955.81002
 31
0.0
  0
LINE
  5
37D
330
37B
100
AcDbEntity
  8
LC-009-003-----0
 62
     2
370
    -2
100
AcDbLine
 10
584.039381
 20
1538.81002
 30
0.0
 11
482.0
 21
1538.81002
 31
0.0
  0
LINE
  5
37E
330
37B
100
AcDbEntity
  8
LC-009-003-----0
 62
     2
370
    -2
100
AcDbLine
 10
500.0
 20
1930.81002
 30
0.0
 11
500.0
 21
1563.81002
 31
0.0
  0
SOLID
  5
37F
330
37B
100
AcDbEntity
  8
LC-009-003-----0
 62
     2
100
AcDbTrace
 10
504.166667
 20
1930.81002
 30
0.0
 11
495.833333
 21
1930.81002
 31
0.0
 12
500.0
 22
1955.81002
 32
0.0
 13
500.0
 23
1955.81002
 33
0.0
  0
SOLID
  5
380
330
37B
100
AcDbEntity
  8
LC-009-003-----0
 62
     2
100
AcDbTrace
 10
495.833333
 20
1563.81002
 30
0.0
 11
504.166667
 21
1563.81002
 31
0.0
 12
500.0
 22
1538.81002
 32
0.0
 13
500.0
 23
1538.81002
 33
0.0
  0
MTEXT
  5
381
330
37B
100
AcDbEntity
  8
LC-009-003-----0
 62
     2
100
AcDbMText
 10
470.0
 20
1747.31002
 30
0.0
 40
25.0
 41
0.0
 71
     5
 72
     1
  1
\A1;417
  7
LCTX0-400-0-0pDIN-Schrift
 11
6.123031769111886E-17
 21
1.0
 31
0.0
 73
     1
 44
1.0
  0
POINT
  5
382
330
37B
100
AcDbEntity
  8
Defpoints
 62
     0
100
AcDbPoint
 10
584.039381
 20
1955.81002
 30
0.0
  0
POINT
  5
383
330
37B
100
AcDbEntity
  8
Defpoints
 62
     0
100
AcDbPoint
 10
584.039381
 20
1538.81002
 30
0.0
  0
POINT
  5
384
330
37B
100
AcDbEntity
  8
Defpoints
 62
     0
100
AcDbPoint
 10
500.0
 20
1538.81002
 30
0.0
  0
ENDBLK
  5
386
330
37B
100
AcDbEntity
  8
0
100
AcDbBlockEnd
  0
BLOCK
  5
392
330
388
100
AcDbEntity
  8
0
100
AcDbBlockBegin
  2
*D8
 70
     1
 71
     0
 10
0.0
 20
0.0
 30
0.0
  3
*D8
  1

  0
LINE
  5
389
330
388
100
AcDbEntity
  8
LC-009-003-----0
 62
     2
370
    -2
100
AcDbLine
 10
1081.798097
 20
2690.03
 30
0.0
 11
1081.798097
 21
2768.0
 31
0.0
  0
LINE
  5
38A
330
388
100
AcDbEntity
  8
LC-009-003-----0
 62
     2
370
    -2
100
AcDbLine
 10
1608.308521
 20
2690.03
 30
0.0
 11
1608.308521
 21
2768.0
 31
0.0
  0
LINE
  5
38B
330
388
100
AcDbEntity
  8
LC-009-003-----0
 62
     2
370
    -2
100
AcDbLine
 10
1106.798097
 20
2750.0
 30
0.0
 11
1583.308521
 21
2750.0
 31
0.0
  0
SOLID
  5
38C
330
388
100
AcDbEntity
  8
LC-009-003-----0
 62
     2
100
AcDbTrace
 10
1106.798097
 20
2754.166667
 30
0.0
 11
1106.798097
 21
2745.833333
 31
0.0
 12
1081.798097
 22
2750.0
 32
0.0
 13
1081.798097
 23
2750.0
 33
0.0
  0
SOLID
  5
38D
330
388
100
AcDbEntity
  8
LC-009-003-----0
 62
     2
100
AcDbTrace
 10
1583.308521
 20
2745.833333
 30
0.0
 11
1583.308521
 21
2754.166667
 31
0.0
 12
1608.308521
 22
2750.0
 32
0.0
 13
1608.308521
 23
2750.0
 33
0.0
  0
MTEXT
  5
38E
330
388
100
AcDbEntity
  8
LC-009-003-----0
 62
     2
100
AcDbMText
 10
1345.053309
 20
2780.0
 30
0.0
 40
25.0
 41
0.0
 71
     5
 72
     1
  1
\A1;527
  7
LCTX0-400-0-0pDIN-Schrift
 73
     1
 44
1.0
  0
POINT
  5
38F
330
388
100
AcDbEntity
  8
Defpoints
 62
     0
100
AcDbPoint
 10
1081.798097
 20
2690.03
 30
0.0
  0
POINT
  5
390
330
388
100
AcDbEntity
  8
Defpoints
 62
     0
100
AcDbPoint
 10
1608.308521
 20
2690.03
 30
0.0
  0
POINT
  5
391
330
388
100
AcDbEntity
  8
Defpoints
 62
     0
100
AcDbPoint
 10
1608.308521
 20
2750.0
 30
0.0
  0
ENDBLK
  5
393
330
388
100
AcDbEntity
  8
0
100
AcDbBlockEnd
  0
BLOCK
  5
3C0
330
3BF
100
AcDbEntity
  8
0
100
AcDbBlockBegin
  2
*X49
 70
     1
 71
     0
 10
0.0
 20
0.0
 30
0.0
  3
*X49
  1

  4
*X4
  0
LINE
  5
3C2
330
3BF
100
AcDbEntity
  8
LC-006-005-----0
 62
     7
370
    25
100
AcDbLine
 10
275.547573
 20
2227.162289
 30
0.0
 11
319.952801
 21
2271.567518
 31
0.0
  0
LINE
  5
3C3
330
3BF
100
AcDbEntity
  8
LC-006-005-----0
 62
     7
370
    25
100
AcDbLine
 10
279.991571
 20
2274.032694
 30
0.0
 11
326.533938
 21
2320.575061
 31
0.0
  0
LINE
  5
3C4
330
3BF
100
AcDbEntity
  8
LC-006-005-----0
 62
     7
370
    25
100
AcDbLine
 10
286.307097
 20
2322.774626
 30
0.0
 11
338.822615
 21
2375.290145
 31
0.0
  0
LINE
  5
3C5
330
3BF
100
AcDbEntity
  8
LC-006-005-----0
 62
     7
370
    25
100
AcDbLine
 10
462.355327
 20
2498.822857
 30
0.0
 11
487.284198
 21
2523.751728
 31
0.0
  0
LINE
  5
3C6
330
3BF
100
AcDbEntity
  8
LC-006-005-----0
 62
     7
370
    25
100
AcDbLine
 10
297.588567
 20
2376.482503
 30
0.0
 11
369.837173
 21
2448.73111
 31
0.0
  0
LINE
  5
3C7
330
3BF
100
AcDbEntity
  8
LC-006-005-----0
 62
     7
370
    25
100
AcDbLine
 10
408.795224
 20
2487.68916
 30
0.0
 11
454.92892
 21
2533.822857
 31
0.0
  0
LINE
  5
3C8
330
3BF
100
AcDbEntity
  8
LC-006-005-----0
 62
     7
370
    25
100
AcDbLine
 10
321.047054
 20
2442.367397
 30
0.0
 11
409.859881
 21
2531.180225
 31
0.0
  0
ENDBLK
  5
3C1
330
3BF
100
AcDbEntity
  8
0
100
AcDbBlockEnd
  0
BLOCK
  5
414
330
413
100
AcDbEntity
  8
0
100
AcDbBlockBegin
  2
POLY1
 70
     0
 71
     0
 10
0.0
 20
0.0
 30
0.0
  3
POLY1
  1

  4
POLY1
  0
LINE
  5
416
330
413
100
AcDbEntity
  8
LC-002-002-----0
 62
     7
370
    25
100
AcDbLine
 10
1158.539743
 20
2341.397918
 30
0.0
 11
1158.564784
 21
2341.372903
 31
0.0
  0
ENDBLK
  5
415
330
413
100
AcDbEntity
  8
0
100
AcDbBlockEnd
  0
BLOCK
  5
429
330
428
100
AcDbEntity
  8
0
100
AcDbBlockBegin
  2
POLY2
 70
     0
 71
     0
 10
0.0
 20
0.0
 30
0.0
  3
POLY2
  1

  4
POLY2
  0
LINE
  5
42B
330
428
100
AcDbEntity
  8
LC-002-002-----0
 62
     7
370
    25
100
AcDbLine
 10
1273.053309
 20
2384.585384
 30
0.0
 11
1273.053309
 21
2384.585384
 31
0.0
  0
LINE
  5
42C
330
428
100
AcDbEntity
  8
LC-002-002-----0
 62
     7
370
    25
100
AcDbLine
 10
1273.053309
 20
2384.585384
 30
0.0
 11
1272.538536
 21
2384.526446
 31
0.0
  0
LINE
  5
42D
330
428
100
AcDbEntity
  8
LC-002-002-----0
 62
     7
370
    25
100
AcDbLine
 10
1272.538536
 20
2384.526446
 30
0.0
 11
1272.538536
 21
2384.526446
 31
0.0
  0
LINE
  5
42E
330
428
100
AcDbEntity
  8
LC-002-002-----0
 62
     7
370
    25
100
AcDbLine
 10
1272.538536
 20
2384.526446
 30
0.0
 11
1272.057178
 21
2384.3529
 31
0.0
  0
LINE
  5
42F
330
428
100
AcDbEntity
  8
LC-002-002-----0
 62
     7
370
    25
100
AcDbLine
 10
1272.057178
 20
2384.3529
 30
0.0
 11
1272.057178
 21
2384.3529
 31
0.0
  0
LINE
  5
430
330
428
100
AcDbEntity
  8
LC-002-002-----0
 62
     7
370
    25
100
AcDbLine
 10
1272.057178
 20
2384.3529
 30
0.0
 11
1271.643611
 21
2384.076765
 31
0.0
  0
LINE
  5
431
330
428
100
AcDbEntity
  8
LC-002-002-----0
 62
     7
370
    25
100
AcDbLine
 10
1271.643611
 20
2384.076765
 30
0.0
 11
1271.643611
 21
2384.076765
 31
0.0
  0
LINE
  5
432
330
428
100
AcDbEntity
  8
LC-002-002-----0
 62
     7
370
    25
100
AcDbLine
 10
1271.643611
 20
2384.076765
 30
0.0
 11
1271.324666
 21
2383.715419
 31
0.0
  0
LINE
  5
433
330
428
100
AcDbEntity
  8
LC-002-002-----0
 62
     7
370
    25
100
AcDbLine
 10
1271.324666
 20
2383.715419
 30
0.0
 11
1271.324666
 21
2383.715419
 31
0.0
  0
LINE
  5
434
330
428
100
AcDbEntity
  8
LC-002-002-----0
 62
     7
370
    25
100
AcDbLine
 10
1271.324666
 20
2383.715419
 30
0.0
 11
1271.122702
 21
2383.292032
 31
0.0
  0
LINE
  5
435
330
428
100
AcDbEntity
  8
LC-002-002-----0
 62
     7
370
    25
100
AcDbLine
 10
1271.122702
 20
2383.292032
 30
0.0
 11
1271.122702
 21
2383.292032
 31
0.0
  0
LINE
  5
436
330
428
100
AcDbEntity
  8
LC-002-002-----0
 62
     7
370
    25
100
AcDbLine
 10
1271.122702
 20
2383.292032
 30
0.0
 11
1271.053309
 21
2382.83455
 31
0.0
  0
ENDBLK
  5
42A
330
428
100
AcDbEntity
  8
0
100
AcDbBlockEnd
  0
BLOCK
  5
43A
330
439
100
AcDbEntity
  8
0
100
AcDbBlockBegin
  2
POLY3
 70
     0
 71
     0
 10
0.0
 20
0.0
 30
0.0
  3
POLY3
  1

  4
POLY3
  0
LINE
  5
43C
330
439
100
AcDbEntity
  8
LC-002-002-----0
 62
     7
370
    25
100
AcDbLine
 10
1273.053309
 20
2361.372903
 30
0.0
 11
1273.053309
 21
2361.372903
 31
0.0
  0
LINE
  5
43D
330
439
100
AcDbEntity
  8
LC-002-002-----0
 62
     7
370
    25
100
AcDbLine
 10
1273.053309
 20
2361.372903
 30
0.0
 11
1272.538521
 21
2361.372936
 31
0.0
  0
LINE
  5
43E
330
439
100
AcDbEntity
  8
LC-002-002-----0
 62
     7
370
    25
100
AcDbLine
 10
1272.538521
 20
2361.372936
 30
0.0
 11
1272.538521
 21
2361.372936
 31
0.0
  0
LINE
  5
43F
330
439
100
AcDbEntity
  8
LC-002-002-----0
 62
     7
370
    25
100
AcDbLine
 10
1272.538521
 20
2361.372936
 30
0.0
 11
1272.057151
 21
2361.3729
 31
0.0
  0
LINE
  5
440
330
439
100
AcDbEntity
  8
LC-002-002-----0
 62
     7
370
    25
100
AcDbLine
 10
1272.057151
 20
2361.3729
 30
0.0
 11
1272.057151
 21
2361.3729
 31
0.0
  0
LINE
  5
441
330
439
100
AcDbEntity
  8
LC-002-002-----0
 62
     7
370
    25
100
AcDbLine
 10
1272.057151
 20
2361.3729
 30
0.0
 11
1271.643581
 21
2361.372906
 31
0.0
  0
LINE
  5
442
330
439
100
AcDbEntity
  8
LC-002-002-----0
 62
     7
370
    25
100
AcDbLine
 10
1271.643581
 20
2361.372906
 30
0.0
 11
1271.643581
 21
2361.372906
 31
0.0
  0
LINE
  5
443
330
439
100
AcDbEntity
  8
LC-002-002-----0
 62
     7
370
    25
100
AcDbLine
 10
1271.643581
 20
2361.372906
 30
0.0
 11
1271.324645
 21
2361.372881
 31
0.0
  0
LINE
  5
444
330
439
100
AcDbEntity
  8
LC-002-002-----0
 62
     7
370
    25
100
AcDbLine
 10
1271.324645
 20
2361.372881
 30
0.0
 11
1271.324645
 21
2361.372881
 31
0.0
  0
LINE
  5
445
330
439
100
AcDbEntity
  8
LC-002-002-----0
 62
     7
370
    25
100
AcDbLine
 10
1271.324645
 20
2361.372881
 30
0.0
 11
1271.122688
 21
2361.37293
 31
0.0
  0
LINE
  5
446
330
439
100
AcDbEntity
  8
LC-002-002-----0
 62
     7
370
    25
100
AcDbLine
 10
1271.122688
 20
2361.37293
 30
0.0
 11
1271.122688
 21
2361.37293
 31
0.0
  0
LINE
  5
447
330
439
100
AcDbEntity
  8
LC-002-002-----0
 62
     7
370
    25
100
AcDbLine
 10
1271.122688
 20
2361.37293
 30
0.0
 11
1271.053309
 21
2361.372911
 31
0.0
  0
ENDBLK
  5
43B
330
439
100
AcDbEntity
  8
0
100
AcDbBlockEnd
  0
BLOCK
  5
44B
330
44A
100
AcDbEntity
  8
0
100
AcDbBlockBegin
  2
POLY4
 70
     0
 71
     0
 10
0.0
 20
0.0
 30
0.0
  3
POLY4
  1

  4
POLY4
  0
LINE
  5
44D
330
44A
100
AcDbEntity
  8
LC-002-002-----0
 62
     7
370
    25
100
AcDbLine
 10
1273.053309
 20
2338.160422
 30
0.0
 11
1273.053309
 21
2338.160422
 31
0.0
  0
LINE
  5
44E
330
44A
100
AcDbEntity
  8
LC-002-002-----0
 62
     7
370
    25
100
AcDbLine
 10
1273.053309
 20
2338.160422
 30
0.0
 11
1272.538536
 21
2338.21936
 31
0.0
  0
LINE
  5
44F
330
44A
100
AcDbEntity
  8
LC-002-002-----0
 62
     7
370
    25
100
AcDbLine
 10
1272.538536
 20
2338.21936
 30
0.0
 11
1272.538536
 21
2338.21936
 31
0.0
  0
LINE
  5
450
330
44A
100
AcDbEntity
  8
LC-002-002-----0
 62
     7
370
    25
100
AcDbLine
 10
1272.538536
 20
2338.21936
 30
0.0
 11
1272.057178
 21
2338.392905
 31
0.0
  0
LINE
  5
451
330
44A
100
AcDbEntity
  8
LC-002-002-----0
 62
     7
370
    25
100
AcDbLine
 10
1272.057178
 20
2338.392905
 30
0.0
 11
1272.057178
 21
2338.392905
 31
0.0
  0
LINE
  5
452
330
44A
100
AcDbEntity
  8
LC-002-002-----0
 62
     7
370
    25
100
AcDbLine
 10
1272.057178
 20
2338.392905
 30
0.0
 11
1271.643611
 21
2338.669041
 31
0.0
  0
LINE
  5
453
330
44A
100
AcDbEntity
  8
LC-002-002-----0
 62
     7
370
    25
100
AcDbLine
 10
1271.643611
 20
2338.669041
 30
0.0
 11
1271.643611
 21
2338.669041
 31
0.0
  0
LINE
  5
454
330
44A
100
AcDbEntity
  8
LC-002-002-----0
 62
     7
370
    25
100
AcDbLine
 10
1271.643611
 20
2338.669041
 30
0.0
 11
1271.324666
 21
2339.030386
 31
0.0
  0
LINE
  5
455
330
44A
100
AcDbEntity
  8
LC-002-002-----0
 62
     7
370
    25
100
AcDbLine
 10
1271.324666
 20
2339.030386
 30
0.0
 11
1271.324666
 21
2339.030386
 31
0.0
  0
LINE
  5
456
330
44A
100
AcDbEntity
  8
LC-002-002-----0
 62
     7
370
    25
100
AcDbLine
 10
1271.324666
 20
2339.030386
 30
0.0
 11
1271.122702
 21
2339.453773
 31
0.0
  0
LINE
  5
457
330
44A
100
AcDbEntity
  8
LC-002-002-----0
 62
     7
370
    25
100
AcDbLine
 10
1271.122702
 20
2339.453773
 30
0.0
 11
1271.122702
 21
2339.453773
 31
0.0
  0
LINE
  5
458
330
44A
100
AcDbEntity
  8
LC-002-002-----0
 62
     7
370
    25
100
AcDbLine
 10
1271.122702
 20
2339.453773
 30
0.0
 11
1271.053309
 21
2339.911255
 31
0.0
  0
ENDBLK
  5
44C
330
44A
100
AcDbEntity
  8
0
100
AcDbBlockEnd
  0
BLOCK
  5
485
330
484
100
AcDbEntity
  8
0
100
AcDbBlockBegin
  2
POLY5
 70
     0
 71
     0
 10
0.0
 20
0.0
 30
0.0
  3
POLY5
  1

  4
POLY5
  0
LINE
  5
487
330
484
100
AcDbEntity
  8
LC-002-002-----0
 62
     7
370
    25
100
AcDbLine
 10
867.7003
 20
1901.442808
 30
0.0
 11
867.7003
 21
1901.442808
 31
0.0
  0
LINE
  5
488
330
484
100
AcDbEntity
  8
LC-002-002-----0
 62
     7
370
    25
100
AcDbLine
 10
867.7003
 20
1901.442808
 30
0.0
 11
865.347037
 21
1901.123013
 31
0.0
  0
LINE
  5
489
330
484
100
AcDbEntity
  8
LC-002-002-----0
 62
     7
370
    25
100
AcDbLine
 10
865.347037
 20
1901.123013
 30
0.0
 11
865.347037
 21
1901.123013
 31
0.0
  0
LINE
  5
48A
330
484
100
AcDbEntity
  8
LC-002-002-----0
 62
     7
370
    25
100
AcDbLine
 10
865.347037
 20
1901.123013
 30
0.0
 11
862.86865
 21
1900.916731
 31
0.0
  0
LINE
  5
48B
330
484
100
AcDbEntity
  8
LC-002-002-----0
 62
     7
370
    25
100
AcDbLine
 10
862.86865
 20
1900.916731
 30
0.0
 11
862.86865
 21
1900.916731
 31
0.0
  0
LINE
  5
48C
330
484
100
AcDbEntity
  8
LC-002-002-----0
 62
     7
370
    25
100
AcDbLine
 10
862.86865
 20
1900.916731
 30
0.0
 11
860.34425
 21
1900.846006
 31
0.0
  0
ENDBLK
  5
486
330
484
100
AcDbEntity
  8
0
100
AcDbBlockEnd
  0
BLOCK
  5
48F
330
48E
100
AcDbEntity
  8
0
100
AcDbBlockBegin
  2
POLY6
 70
     0
 71
     0
 10
0.0
 20
0.0
 30
0.0
  3
POLY6
  1

  4
POLY6
  0
LINE
  5
491
330
48E
100
AcDbEntity
  8
LC-002-002-----0
 62
     7
370
    25
100
AcDbLine
 10
872.896441
 20
1899.511251
 30
0.0
 11
872.896441
 21
1899.511251
 31
0.0
  0
LINE
  5
492
330
48E
100
AcDbEntity
  8
LC-002-002-----0
 62
     7
370
    25
100
AcDbLine
 10
872.896441
 20
1899.511251
 30
0.0
 11
873.262853
 21
1898.973071
 31
0.0
  0
LINE
  5
493
330
48E
100
AcDbEntity
  8
LC-002-002-----0
 62
     7
370
    25
100
AcDbLine
 10
873.262853
 20
1898.973071
 30
0.0
 11
873.262853
 21
1898.973071
 31
0.0
  0
LINE
  5
494
330
48E
100
AcDbEntity
  8
LC-002-002-----0
 62
     7
370
    25
100
AcDbLine
 10
873.262853
 20
1898.973071
 30
0.0
 11
873.599941
 21
1898.483093
 31
0.0
  0
LINE
  5
495
330
48E
100
AcDbEntity
  8
LC-002-002-----0
 62
     7
370
    25
100
AcDbLine
 10
873.599941
 20
1898.483093
 30
0.0
 11
873.599941
 21
1898.483093
 31
0.0
  0
LINE
  5
496
330
48E
100
AcDbEntity
  8
LC-002-002-----0
 62
     7
370
    25
100
AcDbLine
 10
873.599941
 20
1898.483093
 30
0.0
 11
873.906825
 21
1898.041471
 31
0.0
  0
ENDBLK
  5
490
330
48E
100
AcDbEntity
  8
0
100
AcDbBlockEnd
  0
BLOCK
  5
499
330
498
100
AcDbEntity
  8
0
100
AcDbBlockBegin
  2
POLY7
 70
     0
 71
     0
 10
0.0
 20
0.0
 30
0.0
  3
POLY7
  1

  4
POLY7
  0
LINE
  5
49B
330
498
100
AcDbEntity
  8
LC-002-002-----0
 62
     7
370
    25
100
AcDbLine
 10
867.7003
 20
1901.442808
 30
0.0
 11
867.7003
 21
1901.442808
 31
0.0
  0
LINE
  5
49C
330
498
100
AcDbEntity
  8
LC-002-002-----0
 62
     7
370
    25
100
AcDbLine
 10
867.7003
 20
1901.442808
 30
0.0
 11
868.995446
 21
1901.522847
 31
0.0
  0
LINE
  5
49D
330
498
100
AcDbEntity
  8
LC-002-002-----0
 62
     7
370
    25
100
AcDbLine
 10
868.995446
 20
1901.522847
 30
0.0
 11
868.995446
 21
1901.522847
 31
0.0
  0
LINE
  5
49E
330
498
100
AcDbEntity
  8
LC-002-002-----0
 62
     7
370
    25
100
AcDbLine
 10
868.995446
 20
1901.522847
 30
0.0
 11
870.191688
 21
1901.351782
 31
0.0
  0
LINE
  5
49F
330
498
100
AcDbEntity
  8
LC-002-002-----0
 62
     7
370
    25
100
AcDbLine
 10
870.191688
 20
1901.351782
 30
0.0
 11
870.191688
 21
1901.351782
 31
0.0
  0
LINE
  5
4A0
330
498
100
AcDbEntity
  8
LC-002-002-----0
 62
     7
370
    25
100
AcDbLine
 10
870.191688
 20
1901.351782
 30
0.0
 11
871.25275
 21
1900.953777
 31
0.0
  0
LINE
  5
4A1
330
498
100
AcDbEntity
  8
LC-002-002-----0
 62
     7
370
    25
100
AcDbLine
 10
871.25275
 20
1900.953777
 30
0.0
 11
871.25275
 21
1900.953777
 31
0.0
  0
LINE
  5
4A2
330
498
100
AcDbEntity
  8
LC-002-002-----0
 62
     7
370
    25
100
AcDbLine
 10
871.25275
 20
1900.953777
 30
0.0
 11
872.160275
 21
1900.342379
 31
0.0
  0
LINE
  5
4A3
330
498
100
AcDbEntity
  8
LC-002-002-----0
 62
     7
370
    25
100
AcDbLine
 10
872.160275
 20
1900.342379
 30
0.0
 11
872.160275
 21
1900.342379
 31
0.0
  0
LINE
  5
4A4
330
498
100
AcDbEntity
  8
LC-002-002-----0
 62
     7
370
    25
100
AcDbLine
 10
872.160275
 20
1900.342379
 30
0.0
 11
872.896441
 21
1899.511251
 31
0.0
  0
ENDBLK
  5
49A
330
498
100
AcDbEntity
  8
0
100
AcDbBlockEnd
  0
BLOCK
  5
4A7
330
4A6
100
AcDbEntity
  8
0
100
AcDbBlockBegin
  2
POLY8
 70
     0
 71
     0
 10
0.0
 20
0.0
 30
0.0
  3
POLY8
  1

  4
POLY8
  0
LINE
  5
4A9
330
4A6
100
AcDbEntity
  8
LC-002-002-----0
 62
     7
370
    25
100
AcDbLine
 10
873.907565
 20
1898.040442
 30
0.0
 11
873.907565
 21
1898.040442
 31
0.0
  0
LINE
  5
4AA
330
4A6
100
AcDbEntity
  8
LC-002-002-----0
 62
     7
370
    25
100
AcDbLine
 10
873.907565
 20
1898.040442
 30
0.0
 11
874.314298
 21
1897.568215
 31
0.0
  0
LINE
  5
4AB
330
4A6
100
AcDbEntity
  8
LC-002-002-----0
 62
     7
370
    25
100
AcDbLine
 10
874.314298
 20
1897.568215
 30
0.0
 11
874.314298
 21
1897.568215
 31
0.0
  0
LINE
  5
4AC
330
4A6
100
AcDbEntity
  8
LC-002-002-----0
 62
     7
370
    25
100
AcDbLine
 10
874.314298
 20
1897.568215
 30
0.0
 11
874.730487
 21
1897.242563
 31
0.0
  0
LINE
  5
4AD
330
4A6
100
AcDbEntity
  8
LC-002-002-----0
 62
     7
370
    25
100
AcDbLine
 10
874.730487
 20
1897.242563
 30
0.0
 11
874.730487
 21
1897.242563
 31
0.0
  0
LINE
  5
4AE
330
4A6
100
AcDbEntity
  8
LC-002-002-----0
 62
     7
370
    25
100
AcDbLine
 10
874.730487
 20
1897.242563
 30
0.0
 11
875.092339
 21
1897.045534
 31
0.0
  0
LINE
  5
4AF
330
4A6
100
AcDbEntity
  8
LC-002-002-----0
 62
     7
370
    25
100
AcDbLine
 10
875.092339
 20
1897.045534
 30
0.0
 11
875.092339
 21
1897.045534
 31
0.0
  0
LINE
  5
4B0
330
4A6
100
AcDbEntity
  8
LC-002-002-----0
 62
     7
370
    25
100
AcDbLine
 10
875.092339
 20
1897.045534
 30
0.0
 11
875.347171
 21
1896.944007
 31
0.0
  0
LINE
  5
4B1
330
4A6
100
AcDbEntity
  8
LC-002-002-----0
 62
     7
370
    25
100
AcDbLine
 10
875.347171
 20
1896.944007
 30
0.0
 11
875.347171
 21
1896.944007
 31
0.0
  0
LINE
  5
4B2
330
4A6
100
AcDbEntity
  8
LC-002-002-----0
 62
     7
370
    25
100
AcDbLine
 10
875.347171
 20
1896.944007
 30
0.0
 11
875.444093
 21
1896.912726
 31
0.0
  0
ENDBLK
  5
4A8
330
4A6
100
AcDbEntity
  8
0
100
AcDbBlockEnd
  0
BLOCK
  5
4B5
330
4B4
100
AcDbEntity
  8
0
100
AcDbBlockBegin
  2
POLY9
 70
     0
 71
     0
 10
0.0
 20
0.0
 30
0.0
  3
POLY9
  1

  4
POLY9
  0
LINE
  5
4B7
330
4B4
100
AcDbEntity
  8
LC-002-002-----0
 62
     7
370
    25
100
AcDbLine
 10
842.554473
 20
1908.696597
 30
0.0
 11
842.554473
 21
1908.696597
 31
0.0
  0
LINE
  5
4B8
330
4B4
100
AcDbEntity
  8
LC-002-002-----0
 62
     7
370
    25
100
AcDbLine
 10
842.554473
 20
1908.696597
 30
0.0
 11
843.840714
 21
1908.551517
 31
0.0
  0
LINE
  5
4B9
330
4B4
100
AcDbEntity
  8
LC-002-002-----0
 62
     7
370
    25
100
AcDbLine
 10
843.840714
 20
1908.551517
 30
0.0
 11
843.840714
 21
1908.551517
 31
0.0
  0
LINE
  5
4BA
330
4B4
100
AcDbEntity
  8
LC-002-002-----0
 62
     7
370
    25
100
AcDbLine
 10
843.840714
 20
1908.551517
 30
0.0
 11
845.070492
 21
1908.121244
 31
0.0
  0
LINE
  5
4BB
330
4B4
100
AcDbEntity
  8
LC-002-002-----0
 62
     7
370
    25
100
AcDbLine
 10
845.070492
 20
1908.121244
 30
0.0
 11
845.070492
 21
1908.121244
 31
0.0
  0
LINE
  5
4BC
330
4B4
100
AcDbEntity
  8
LC-002-002-----0
 62
     7
370
    25
100
AcDbLine
 10
845.070492
 20
1908.121244
 30
0.0
 11
846.189247
 21
1907.420126
 31
0.0
  0
LINE
  5
4BD
330
4B4
100
AcDbEntity
  8
LC-002-002-----0
 62
     7
370
    25
100
AcDbLine
 10
846.189247
 20
1907.420126
 30
0.0
 11
846.189247
 21
1907.420126
 31
0.0
  0
LINE
  5
4BE
330
4B4
100
AcDbEntity
  8
LC-002-002-----0
 62
     7
370
    25
100
AcDbLine
 10
846.189247
 20
1907.420126
 30
0.0
 11
847.143569
 21
1906.472878
 31
0.0
  0
LINE
  5
4BF
330
4B4
100
AcDbEntity
  8
LC-002-002-----0
 62
     7
370
    25
100
AcDbLine
 10
847.143569
 20
1906.472878
 30
0.0
 11
847.143569
 21
1906.472878
 31
0.0
  0
LINE
  5
4C0
330
4B4
100
AcDbEntity
  8
LC-002-002-----0
 62
     7
370
    25
100
AcDbLine
 10
847.143569
 20
1906.472878
 30
0.0
 11
847.883157
 21
1905.316118
 31
0.0
  0
LINE
  5
4C1
330
4B4
100
AcDbEntity
  8
LC-002-002-----0
 62
     7
370
    25
100
AcDbLine
 10
847.883157
 20
1905.316118
 30
0.0
 11
847.883157
 21
1905.316118
 31
0.0
  0
LINE
  5
4C2
330
4B4
100
AcDbEntity
  8
LC-002-002-----0
 62
     7
370
    25
100
AcDbLine
 10
847.883157
 20
1905.316118
 30
0.0
 11
848.363948
 21
1903.999646
 31
0.0
  0
ENDBLK
  5
4B6
330
4B4
100
AcDbEntity
  8
0
100
AcDbBlockEnd
  0
BLOCK
  5
4C5
330
4C4
100
AcDbEntity
  8
0
100
AcDbBlockBegin
  2
POLY10
 70
     0
 71
     0
 10
0.0
 20
0.0
 30
0.0
  3
POLY10
  1

  4
POLY10
  0
LINE
  5
4C7
330
4C4
100
AcDbEntity
  8
LC-002-002-----0
 62
     7
370
    25
100
AcDbLine
 10
848.363948
 20
1903.999646
 30
0.0
 11
848.363948
 21
1903.999646
 31
0.0
  0
LINE
  5
4C8
330
4C4
100
AcDbEntity
  8
LC-002-002-----0
 62
     7
370
    25
100
AcDbLine
 10
848.363948
 20
1903.999646
 30
0.0
 11
848.773696
 21
1902.948997
 31
0.0
  0
LINE
  5
4C9
330
4C4
100
AcDbEntity
  8
LC-002-002-----0
 62
     7
370
    25
100
AcDbLine
 10
848.773696
 20
1902.948997
 30
0.0
 11
848.773696
 21
1902.948997
 31
0.0
  0
LINE
  5
4CA
330
4C4
100
AcDbEntity
  8
LC-002-002-----0
 62
     7
370
    25
100
AcDbLine
 10
848.773696
 20
1902.948997
 30
0.0
 11
849.427013
 21
1902.060668
 31
0.0
  0
LINE
  5
4CB
330
4C4
100
AcDbEntity
  8
LC-002-002-----0
 62
     7
370
    25
100
AcDbLine
 10
849.427013
 20
1902.060668
 30
0.0
 11
849.427013
 21
1902.060668
 31
0.0
  0
LINE
  5
4CC
330
4C4
100
AcDbEntity
  8
LC-002-002-----0
 62
     7
370
    25
100
AcDbLine
 10
849.427013
 20
1902.060668
 30
0.0
 11
850.265139
 21
1901.393875
 31
0.0
  0
LINE
  5
4CD
330
4C4
100
AcDbEntity
  8
LC-002-002-----0
 62
     7
370
    25
100
AcDbLine
 10
850.265139
 20
1901.393875
 30
0.0
 11
850.265139
 21
1901.393875
 31
0.0
  0
LINE
  5
4CE
330
4C4
100
AcDbEntity
  8
LC-002-002-----0
 62
     7
370
    25
100
AcDbLine
 10
850.265139
 20
1901.393875
 30
0.0
 11
851.222929
 21
1900.983792
 31
0.0
  0
LINE
  5
4CF
330
4C4
100
AcDbEntity
  8
LC-002-002-----0
 62
     7
370
    25
100
AcDbLine
 10
851.222929
 20
1900.983792
 30
0.0
 11
851.222929
 21
1900.983792
 31
0.0
  0
LINE
  5
4D0
330
4C4
100
AcDbEntity
  8
LC-002-002-----0
 62
     7
370
    25
100
AcDbLine
 10
851.222929
 20
1900.983792
 30
0.0
 11
852.236931
 21
1900.846006
 31
0.0
  0
ENDBLK
  5
4C6
330
4C4
100
AcDbEntity
  8
0
100
AcDbBlockEnd
  0
BLOCK
  5
50D
330
50C
100
AcDbEntity
  8
0
100
AcDbBlockBegin
  2
POLY11
 70
     0
 71
     0
 10
0.0
 20
0.0
 30
0.0
  3
POLY11
  1

  4
POLY11
  0
LINE
  5
50F
330
50C
100
AcDbEntity
  8
LC-002-002-----0
 62
     7
370
    25
100
AcDbLine
 10
932.671463
 20
1833.457394
 30
0.0
 11
932.696478
 21
1833.432353
 31
0.0
  0
ENDBLK
  5
50E
330
50C
100
AcDbEntity
  8
0
100
AcDbBlockEnd
  0
BLOCK
  5
51F
330
515
100
AcDbEntity
  8
0
100
AcDbBlockBegin
  2
*D21
 70
     1
 71
     0
 10
0.0
 20
0.0
 30
0.0
  3
*D21
  1

  0
LINE
  5
516
330
515
100
AcDbEntity
  8
LC-009-003-----0
 62
     2
370
    -2
100
AcDbLine
 10
611.039381
 20
1500.81002
 30
0.0
 11
611.039381
 21
1382.0
 31
0.0
  0
LINE
  5
517
330
515
100
AcDbEntity
  8
LC-009-003-----0
 62
     2
370
    -2
100
AcDbLine
 10
940.401271
 20
1815.81002
 30
0.0
 11
940.401271
 21
1382.0
 31
0.0
  0
LINE
  5
518
330
515
100
AcDbEntity
  8
LC-009-003-----0
 62
     2
370
    -2
100
AcDbLine
 10
636.039381
 20
1400.0
 30
0.0
 11
915.401271
 21
1400.0
 31
0.0
  0
SOLID
  5
519
330
515
100
AcDbEntity
  8
LC-009-003-----0
 62
     2
100
AcDbTrace
 10
636.039381
 20
1404.166667
 30
0.0
 11
636.039381
 21
1395.833333
 31
0.0
 12
611.039381
 22
1400.0
 32
0.0
 13
611.039381
 23
1400.0
 33
0.0
  0
SOLID
  5
51A
330
515
100
AcDbEntity
  8
LC-009-003-----0
 62
     2
100
AcDbTrace
 10
915.401271
 20
1395.833333
 30
0.0
 11
915.401271
 21
1404.166667
 31
0.0
 12
940.401271
 22
1400.0
 32
0.0
 13
940.401271
 23
1400.0
 33
0.0
  0
MTEXT
  5
51B
330
515
100
AcDbEntity
  8
LC-009-003-----0
 62
     2
100
AcDbMText
 10
775.720326
 20
1430.0
 30
0.0
 40
25.0
 41
0.0
 71
     5
 72
     1
  1
\A1;329
  7
LCTX0-400-0-0pDIN-Schrift
 73
     1
 44
1.0
  0
POINT
  5
51C
330
515
100
AcDbEntity
  8
Defpoints
 62
     0
100
AcDbPoint
 10
611.039381
 20
1500.81002
 30
0.0
  0
POINT
  5
51D
330
515
100
AcDbEntity
  8
Defpoints
 62
     0
100
AcDbPoint
 10
940.401271
 20
1815.81002
 30
0.0
  0
POINT
  5
51E
330
515
100
AcDbEntity
  8
Defpoints
 62
     0
100
AcDbPoint
 10
940.401271
 20
1400.0
 30
0.0
  0
ENDBLK
  5
520
330
515
100
AcDbEntity
  8
0
100
AcDbBlockEnd
  0
BLOCK
  5
52F
330
525
100
AcDbEntity
  8
0
100
AcDbBlockBegin
  2
*D22
 70
     1
 71
     0
 10
0.0
 20
0.0
 30
0.0
  3
*D22
  1

  0
LINE
  5
526
330
525
100
AcDbEntity
  8
LC-009-003-----0
 62
     2
370
    -2
100
AcDbLine
 10
1645.053309
 20
1510.81002
 30
0.0
 11
1768.0
 21
1510.81002
 31
0.0
  0
LINE
  5
527
330
525
100
AcDbEntity
  8
LC-009-003-----0
 62
     2
370
    -2
100
AcDbLine
 10
1645.053309
 20
1975.81002
 30
0.0
 11
1768.0
 21
1975.81002
 31
0.0
  0
LINE
  5
528
330
525
100
AcDbEntity
  8
LC-009-003-----0
 62
     2
370
    -2
100
AcDbLine
 10
1750.0
 20
1535.81002
 30
0.0
 11
1750.0
 21
1950.81002
 31
0.0
  0
SOLID
  5
529
330
525
100
AcDbEntity
  8
LC-009-003-----0
 62
     2
100
AcDbTrace
 10
1745.833333
 20
1535.81002
 30
0.0
 11
1754.166667
 21
1535.81002
 31
0.0
 12
1750.0
 22
1510.81002
 32
0.0
 13
1750.0
 23
1510.81002
 33
0.0
  0
SOLID
  5
52A
330
525
100
AcDbEntity
  8
LC-009-003-----0
 62
     2
100
AcDbTrace
 10
1754.166667
 20
1950.81002
 30
0.0
 11
1745.833333
 21
1950.81002
 31
0.0
 12
1750.0
 22
1975.81002
 32
0.0
 13
1750.0
 23
1975.81002
 33
0.0
  0
MTEXT
  5
52B
330
525
100
AcDbEntity
  8
LC-009-003-----0
 62
     2
100
AcDbMText
 10
1720.0
 20
1728.258777
 30
0.0
 40
25.0
 41
0.0
 71
     5
 72
     1
  1
\A1;465
  7
LCTX0-400-0-0pDIN-Schrift
 11
6.123031769111886E-17
 21
1.0
 31
0.0
 73
     1
 44
1.0
  0
POINT
  5
52C
330
525
100
AcDbEntity
  8
Defpoints
 62
     0
100
AcDbPoint
 10
1645.053309
 20
1510.81002
 30
0.0
  0
POINT
  5
52D
330
525
100
AcDbEntity
  8
Defpoints
 62
     0
100
AcDbPoint
 10
1645.053309
 20
1975.81002
 30
0.0
  0
POINT
  5
52E
330
525
100
AcDbEntity
  8
Defpoints
 62
     0
100
AcDbPoint
 10
1750.0
 20
1975.81002
 30
0.0
  0
ENDBLK
  5
530
330
525
100
AcDbEntity
  8
0
100
AcDbBlockEnd
  0
BLOCK
  5
53E
330
538
100
AcDbEntity
  8
0
100
AcDbBlockBegin
  2
*D23
 70
     1
 71
     0
 10
0.0
 20
0.0
 30
0.0
  3
*D23
  1

  0
LINE
  5
539
330
538
100
AcDbEntity
  8
LC-009-003-----0
 62
     2
370
    -2
100
AcDbLine
 10
1222.684585
 20
906.365923
 30
0.0
 11
1224.877951
 21
908.070547
 31
0.0
  0
MTEXT
  5
53A
330
538
100
AcDbEntity
  8
LC-009-003-----0
 62
     2
100
AcDbMText
 10
1262.818091
 20
921.074023
 30
0.0
 40
25.0
 41
0.0
 71
     5
 72
     1
  1
\A1;R18
  7
LCTX0-400-0-0pDIN-Schrift
 11
0.7895838380123197
 21
0.613642699581552
 31
0.0
 73
     1
 44
1.0
  0
SOLID
  5
53B
330
538
100
AcDbEntity
  8
LC-009-003-----0
 62
     2
100
AcDbTrace
 10
1187.955604
 20
874.098479
 30
0.0
 11
1182.841915
 21
880.678344
 31
0.0
 12
1205.138355
 22
892.729479
 32
0.0
 13
1205.138355
 23
892.729479
 33
0.0
  0
POINT
  5
53C
330
538
100
AcDbEntity
  8
Defpoints
 62
     0
100
AcDbPoint
 10
1205.138355
 20
892.729479
 30
0.0
  0
POINT
  5
53D
330
538
100
AcDbEntity
  8
Defpoints
 62
     0
100
AcDbPoint
 10
1198.032101
 20
887.206695
 30
0.0
  0
ENDBLK
  5
53F
330
538
100
AcDbEntity
  8
0
100
AcDbBlockEnd
  0
BLOCK
  5
54B
330
541
100
AcDbEntity
  8
0
100
AcDbBlockBegin
  2
*D24
 70
     1
 71
     0
 10
0.0
 20
0.0
 30
0.0
  3
*D24
  1

  0
LINE
  5
542
330
541
100
AcDbEntity
  8
LC-009-003-----0
 62
     2
370
    -2
100
AcDbLine
 10
1481.032101
 20
1101.206695
 30
0.0
 11
1618.0
 21
1101.206695
 31
0.0
  0
LINE
  5
543
330
541
100
AcDbEntity
  8
LC-009-003-----0
 62
     2
370
    -2
100
AcDbLine
 10
1481.032101
 20
878.206695
 30
0.0
 11
1618.0
 21
878.206695
 31
0.0
  0
LINE
  5
544
330
541
100
AcDbEntity
  8
LC-009-003-----0
 62
     2
370
    -2
100
AcDbLine
 10
1600.0
 20
1076.206695
 30
0.0
 11
1600.0
 21
903.206695
 31
0.0
  0
SOLID
  5
545
330
541
100
AcDbEntity
  8
LC-009-003-----0
 62
     2
100
AcDbTrace
 10
1604.166667
 20
1076.206695
 30
0.0
 11
1595.833333
 21
1076.206695
 31
0.0
 12
1600.0
 22
1101.206695
 32
0.0
 13
1600.0
 23
1101.206695
 33
0.0
  0
SOLID
  5
546
330
541
100
AcDbEntity
  8
LC-009-003-----0
 62
     2
100
AcDbTrace
 10
1595.833333
 20
903.206695
 30
0.0
 11
1604.166667
 21
903.206695
 31
0.0
 12
1600.0
 22
878.206695
 32
0.0
 13
1600.0
 23
878.206695
 33
0.0
  0
MTEXT
  5
547
330
541
100
AcDbEntity
  8
LC-009-003-----0
 62
     2
100
AcDbMText
 10
1570.0
 20
987.527842
 30
0.0
 40
25.0
 41
0.0
 71
     5
 72
     1
  1
\A1;446
  7
LCTX0-400-0-0pDIN-Schrift
 11
6.123031769111886E-17
 21
1.0
 31
0.0
 73
     1
 44
1.0
  0
POINT
  5
548
330
541
100
AcDbEntity
  8
Defpoints
 62
     0
100
AcDbPoint
 10
1481.032101
 20
1101.206695
 30
0.0
  0
POINT
  5
549
330
541
100
AcDbEntity
  8
Defpoints
 62
     0
100
AcDbPoint
 10
1481.032101
 20
878.206695
 30
0.0
  0
POINT
  5
54A
330
541
100
AcDbEntity
  8
Defpoints
 62
     0
100
AcDbPoint
 10
1600.0
 20
878.206695
 30
0.0
  0
ENDBLK
  5
54C
330
541
100
AcDbEntity
  8
0
100
AcDbBlockEnd
  0
BLOCK
  5
558
330
54E
100
AcDbEntity
  8
0
100
AcDbBlockBegin
  2
*D25
 70
     1
 71
     0
 10
0.0
 20
0.0
 30
0.0
  3
*D25
  1

  0
LINE
  5
54F
330
54E
100
AcDbEntity
  8
LC-009-003-----0
 62
     2
370
    -2
100
AcDbLine
 10
1189.032101
 20
878.206695
 30
0.0
 11
1189.032101
 21
782.0
 31
0.0
  0
LINE
  5
550
330
54E
100
AcDbEntity
  8
LC-009-003-----0
 62
     2
370
    -2
100
AcDbLine
 10
1481.032101
 20
878.206695
 30
0.0
 11
1481.032101
 21
782.0
 31
0.0
  0
LINE
  5
551
330
54E
100
AcDbEntity
  8
LC-009-003-----0
 62
     2
370
    -2
100
AcDbLine
 10
1214.032101
 20
800.0
 30
0.0
 11
1456.032101
 21
800.0
 31
0.0
  0
SOLID
  5
552
330
54E
100
AcDbEntity
  8
LC-009-003-----0
 62
     2
100
AcDbTrace
 10
1214.032101
 20
804.166667
 30
0.0
 11
1214.032101
 21
795.833333
 31
0.0
 12
1189.032101
 22
800.0
 32
0.0
 13
1189.032101
 23
800.0
 33
0.0
  0
SOLID
  5
553
330
54E
100
AcDbEntity
  8
LC-009-003-----0
 62
     2
100
AcDbTrace
 10
1456.032101
 20
795.833333
 30
0.0
 11
1456.032101
 21
804.166667
 31
0.0
 12
1481.032101
 22
800.0
 32
0.0
 13
1481.032101
 23
800.0
 33
0.0
  0
MTEXT
  5
554
330
54E
100
AcDbEntity
  8
LC-009-003-----0
 62
     2
100
AcDbMText
 10
1333.796663
 20
830.0
 30
0.0
 40
25.0
 41
0.0
 71
     5
 72
     1
  1
\A1;584
  7
LCTX0-400-0-0pDIN-Schrift
 73
     1
 44
1.0
  0
POINT
  5
555
330
54E
100
AcDbEntity
  8
Defpoints
 62
     0
100
AcDbPoint
 10
1189.032101
 20
878.206695
 30
0.0
  0
POINT
  5
556
330
54E
100
AcDbEntity
  8
Defpoints
 62
     0
100
AcDbPoint
 10
1481.032101
 20
878.206695
 30
0.0
  0
POINT
  5
557
330
54E
100
AcDbEntity
  8
Defpoints
 62
     0
100
AcDbPoint
 10
1481.032101
 20
800.0
 30
0.0
  0
ENDBLK
  5
559
330
54E
100
AcDbEntity
  8
0
100
AcDbBlockEnd
  0
BLOCK
  5
569
330
55D
100
AcDbEntity
  8
0
100
AcDbBlockBegin
  2
*D26
 70
     1
 71
     0
 10
0.0
 20
0.0
 30
0.0
  3
*D26
  1

  0
LINE
  5
55E
330
55D
100
AcDbEntity
  8
LC-009-003-----0
 62
     2
370
    -2
100
AcDbLine
 10
431.020558
 20
2533.822857
 30
0.0
 11
431.020558
 21
2668.0
 31
0.0
  0
LINE
  5
55F
330
55D
100
AcDbEntity
  8
LC-009-003-----0
 62
     2
370
    -2
100
AcDbLine
 10
451.020558
 20
2533.822857
 30
0.0
 11
451.020558
 21
2668.0
 31
0.0
  0
LINE
  5
560
330
55D
100
AcDbEntity
  8
LC-009-003-----0
 62
     2
370
    -2
100
AcDbLine
 10
476.020558
 20
2650.0
 30
0.0
 11
501.020558
 21
2650.0
 31
0.0
  0
LINE
  5
561
330
55D
100
AcDbEntity
  8
LC-009-003-----0
 62
     2
370
    -2
100
AcDbLine
 10
406.020558
 20
2650.0
 30
0.0
 11
369.307174
 21
2650.0
 31
0.0
  0
LINE
  5
562
330
55D
100
AcDbEntity
  8
LC-009-003-----0
 62
     2
370
    -2
100
AcDbLine
 10
431.020558
 20
2650.0
 30
0.0
 11
451.020558
 21
2650.0
 31
0.0
  0
SOLID
  5
563
330
55D
100
AcDbEntity
  8
LC-009-003-----0
 62
     2
100
AcDbTrace
 10
406.020558
 20
2645.833333
 30
0.0
 11
406.020558
 21
2654.166667
 31
0.0
 12
431.020558
 22
2650.0
 32
0.0
 13
431.020558
 23
2650.0
 33
0.0
  0
SOLID
  5
564
330
55D
100
AcDbEntity
  8
LC-009-003-----0
 62
     2
100
AcDbTrace
 10
476.020558
 20
2654.166667
 30
0.0
 11
476.020558
 21
2645.833333
 31
0.0
 12
451.020558
 22
2650.0
 32
0.0
 13
451.020558
 23
2650.0
 33
0.0
  0
MTEXT
  5
565
330
55D
100
AcDbEntity
  8
LC-009-003-----0
 62
     2
100
AcDbMText
 10
391.450031
 20
2680.0
 30
0.0
 40
25.0
 41
0.0
 71
     5
 72
     1
  1
\A1;4
  7
LCTX0-400-0-0pDIN-Schrift
 73
     1
 44
1.0
  0
POINT
  5
566
330
55D
100
AcDbEntity
  8
Defpoints
 62
     0
100
AcDbPoint
 10
431.020558
 20
2533.822857
 30
0.0
  0
POINT
  5
567
330
55D
100
AcDbEntity
  8
Defpoints
 62
     0
100
AcDbPoint
 10
451.020558
 20
2533.822857
 30
0.0
  0
POINT
  5
568
330
55D
100
AcDbEntity
  8
Defpoints
 62
     0
100
AcDbPoint
 10
451.020558
 20
2650.0
 30
0.0
  0
ENDBLK
  5
56A
330
55D
100
AcDbEntity
  8
0
100
AcDbBlockEnd
  0
ENDSEC
  0
SECTION
  2
ENTITIES
  0
INSERT
  5
106
330
1F
100
AcDbEntity
  8
LC-003-230-ZVN-0
 62
     7
370
    50
100
AcDbBlockReference
  2
SYM1
 10
0.0
 20
0.0
 30
0.0
  0
LINE
  5
107
330
1F
100
AcDbEntity
  8
LC-002-002-----0
 62
     7
370
    50
100
AcDbLine
 10
604.039381
 20
1975.81002
 30
0.0
 11
613.039381
 21
1975.81002
 31
0.0
  0
LINE
  5
108
330
1F
100
AcDbEntity
  8
LC-002-002-----0
 62
     7
370
    50
100
AcDbLine
 10
1198.032101
 20
1101.206695
 30
0.0
 11
1472.032101
 21
1101.206695
 31
0.0
  0
ARC
  5
10A
330
1F
100
AcDbEntity
  8
LC-004-002-RND-0
 62
     7
370
    50
100
AcDbCircle
 10
1198.032101
 20
1092.206695
 30
0.0
 40
9.0
100
AcDbArc
 50
90.0
 51
180.0
  0
ARC
  5
10B
330
1F
100
AcDbEntity
  8
LC-004-002-RND-0
 62
     7
370
    50
100
AcDbCircle
 10
1472.032101
 20
1092.206695
 30
0.0
 40
9.0
100
AcDbArc
 50
0.0
 51
90.0
  0
LINE
  5
10C
102
{ACAD_REACTORS
330
56B
102
}
330
1F
100
AcDbEntity
  8
LC-002-002-----0
 62
     7
370
    50
100
AcDbLine
 10
469.922818
 20
2533.822857
 30
0.0
 11
275.065293
 21
2533.822857
 31
0.0
  0
LINE
  5
10D
102
{ACAD_REACTORS
330
56D
102
}
330
1F
100
AcDbEntity
  8
LC-002-002-----0
 62
     7
370
    50
100
AcDbLine
 10
451.020558
 20
2723.822857
 30
0.0
 11
451.020558
 21
2533.822857
 31
0.0
  0
LINE
  5
10E
102
{ACAD_REACTORS
330
56D
102
}
330
1F
100
AcDbEntity
  8
LC-002-002-----0
 62
     7
370
    50
100
AcDbLine
 10
451.020558
 20
2723.822857
 30
0.0
 11
675.655057
 21
2723.822857
 31
0.0
  0
LINE
  5
10F
102
{ACAD_REACTORS
330
56D
102
}
330
1F
100
AcDbEntity
  8
LC-002-002-----0
 62
     7
370
    50
100
AcDbLine
 10
451.020558
 20
2533.822857
 30
0.0
 11
675.655057
 21
2533.822857
 31
0.0
  0
TEXT
  5
111
330
1F
100
AcDbEntity
  8
LC-005-004-----0
 62
     7
370
    35
100
AcDbText
 10
296.52659
 20
2778.455631
 30
0.0
 40
35.0
  1
Z 1:2
 41
0.8
  7
LCTX0-400-0-0pDIN-Schrift
100
AcDbText
  0
INSERT
  5
204
330
1F
100
AcDbEntity
  8
LC-006-005-----0
 62
     7
370
    18
100
AcDbBlockReference
  2
*X12
 10
0.0
 20
0.0
 30
0.0
  0
TEXT
  5
205
330
1F
100
AcDbEntity
  8
LC-005-004-----0
 62
     7
370
    35
100
AcDbText
 10
1198.61352
 20
1157.127236
 30
0.0
 40
35.0
  1
Ausschnitt Unterbau 1:20
 41
0.7
  7
LCTX0-400-0-0pDIN-Schrift
100
AcDbText
  0
TEXT
  5
206
330
1F
100
AcDbEntity
  8
LC-005-004-----0
 62
     7
370
    25
100
AcDbText
 10
1200.44429
 20
1122.377235
 30
0.0
 40
24.5
  1
cutout undermount
 41
0.7
  7
LCTX0-400-0-0pDIN-Schrift
100
AcDbText
  0
TEXT
  5
207
330
1F
100
AcDbEntity
  8
LC-005-004-----0
 62
     7
370
    25
100
AcDbText
 10
1257.518666
 20
477.939631
 30
0.0
 40
25.0
  1
Art. Nr. 268
 41
0.8
  7
LCTX0-400-0-0pDIN-Schrift
100
AcDbText
  0
LINE
  5
208
102
{ACAD_REACTORS
330
570
102
}
330
1F
100
AcDbEntity
  8
LC-002-002-----0
 62
     7
370
    50
100
AcDbLine
 10
1045.053309
 20
2663.03
 30
0.0
 11
1057.053309
 21
2663.03
 31
0.0
  0
LINE
  5
209
102
{ACAD_REACTORS
330
570
102
}
330
1F
100
AcDbEntity
  8
LC-002-002-----0
 62
     7
370
    50
100
AcDbLine
 10
1057.053309
 20
2663.03
 30
0.0
 11
1057.053309
 21
2661.03
 31
0.0
  0
LINE
  5
20A
102
{ACAD_REACTORS
330
570
102
}
330
1F
100
AcDbEntity
  8
LC-002-002-----0
 62
     7
370
    50
100
AcDbLine
 10
1633.053309
 20
2663.03
 30
0.0
 11
1633.053309
 21
2661.03
 31
0.0
  0
LINE
  5
20B
102
{ACAD_REACTORS
330
56F
102
}
330
1F
100
AcDbEntity
  8
LC-002-002-----0
 62
     7
370
    50
100
AcDbLine
 10
838.09425
 20
1810.81002
 30
0.0
 11
828.212615
 21
1810.81002
 31
0.0
  0
LINE
  5
20C
102
{ACAD_REACTORS
330
56F
102
}
330
1F
100
AcDbEntity
  8
LC-002-002-----0
 62
     7
370
    25
100
AcDbLine
 10
824.039381
 20
1798.31002
 30
0.0
 11
824.039381
 21
1913.31002
 31
0.0
  0
LINE
  5
20D
102
{ACAD_REACTORS
330
56F
102
}
330
1F
100
AcDbEntity
  8
LC-002-002-----0
 62
     7
370
    50
100
AcDbLine
 10
838.09425
 20
1900.81002
 30
0.0
 11
828.212615
 21
1900.81002
 31
0.0
  0
LINE
  5
20E
102
{ACAD_REACTORS
330
56F
102
}
330
1F
100
AcDbEntity
  8
LC-002-002-----0
 62
     7
370
    50
100
AcDbLine
 10
828.212615
 20
1900.81002
 30
0.0
 11
828.212615
 21
1810.81002
 31
0.0
  0
LINE
  5
211
102
{ACAD_REACTORS
330
570
102
}
330
1F
100
AcDbEntity
  8
LC-007-006-MLN-0
 62
     7
370
    25
100
AcDbLine
 10
1345.053309
 20
2432.975131
 30
0.0
 11
1345.053309
 21
2453.03
 31
0.0
  0
ARC
  5
212
102
{ACAD_REACTORS
330
571
102
}
330
1F
100
AcDbEntity
  8
LC-004-002-RND-0
 62
     7
370
    50
100
AcDbCircle
 10
1619.053309
 20
1537.863313
 30
0.0
 40
14.0
100
AcDbArc
 50
270.0
 51
0.0
  0
ARC
  5
213
102
{ACAD_REACTORS
330
571
102
}
330
1F
100
AcDbEntity
  8
LC-004-002-RND-0
 62
     7
370
    50
100
AcDbCircle
 10
1071.053309
 20
1946.312041
 30
0.0
 40
14.0
100
AcDbArc
 50
90.0
 51
180.0
  0
ARC
  5
214
102
{ACAD_REACTORS
330
571
102
}
330
1F
100
AcDbEntity
  8
LC-004-002-RND-0
 62
     7
370
    50
100
AcDbCircle
 10
1619.053309
 20
1946.312041
 30
0.0
 40
14.0
100
AcDbArc
 50
0.0
 51
90.0
  0
ARC
  5
215
102
{ACAD_REACTORS
330
571
102
}
330
1F
100
AcDbEntity
  8
LC-004-002-RND-0
 62
     7
370
    50
100
AcDbCircle
 10
1071.053309
 20
1537.863313
 30
0.0
 40
14.0
100
AcDbArc
 50
180.0
 51
270.0
  0
CIRCLE
  5
216
102
{ACAD_REACTORS
330
571
102
}
330
1F
100
AcDbEntity
  8
LC-002-002-----0
 62
     7
370
    50
100
AcDbCircle
 10
1345.053309
 20
1855.81002
 30
0.0
 40
45.0
  0
CIRCLE
  5
217
102
{ACAD_REACTORS
330
571
102
}
330
1F
100
AcDbEntity
  8
LC-002-002-----0
 62
     7
370
    50
100
AcDbCircle
 10
1345.053309
 20
1855.81002
 30
0.0
 40
57.49999999992588
  0
LINE
  5
218
102
{ACAD_REACTORS
330
570
102
}
330
1F
100
AcDbEntity
  8
LC-002-002-----0
 62
     7
370
    50
100
AcDbLine
 10
1087.053309
 20
2620.03
 30
0.0
 11
1102.794397
 21
2470.263549
 31
0.0
  0
LINE
  5
219
102
{ACAD_REACTORS
330
570
102
}
330
1F
100
AcDbEntity
  8
LC-002-002-----0
 62
     7
370
    50
100
AcDbLine
 10
1587.312221
 20
2470.263549
 30
0.0
 11
1603.053309
 21
2620.03
 31
0.0
  0
LINE
  5
21A
102
{ACAD_REACTORS
330
570
102
}
330
1F
100
AcDbEntity
  8
LC-002-002-----0
 62
     7
370
    50
100
AcDbLine
 10
1049.272857
 20
2670.03
 30
0.0
 11
1640.833761
 21
2670.03
 31
0.0
  0
LINE
  5
21B
102
{ACAD_REACTORS
330
570
102
}
330
1F
100
AcDbEntity
  8
LC-002-002-----0
 62
     7
370
    50
100
AcDbLine
 10
1045.053309
 20
2663.03
 30
0.0
 11
1045.282601
 21
2666.309026
 31
0.0
  0
ARC
  5
21C
102
{ACAD_REACTORS
330
570
102
}
330
1F
100
AcDbEntity
  8
LC-002-002-----0
 62
     7
370
    50
100
AcDbCircle
 10
1414.421857
 20
2435.435316
 30
0.0
 40
5.999999999999986
100
AcDbArc
 50
92.0
 51
155.0
  0
LINE
  5
21D
102
{ACAD_REACTORS
330
570
102
}
330
1F
100
AcDbEntity
  8
LC-002-002-----0
 62
     7
370
    50
100
AcDbLine
 10
1645.053309
 20
2663.03
 30
0.0
 11
1644.824017
 21
2666.309026
 31
0.0
  0
ARC
  5
21E
102
{ACAD_REACTORS
330
570
102
}
330
1F
100
AcDbEntity
  8
LC-002-002-----0
 62
     7
370
    50
100
AcDbCircle
 10
1118.706748
 20
2471.936005
 30
0.0
 40
15.99999999994112
100
AcDbArc
 50
186.0
 51
268.0
  0
ARC
  5
21F
102
{ACAD_REACTORS
330
570
102
}
330
1F
100
AcDbEntity
  8
LC-002-002-----0
 62
     7
370
    50
100
AcDbCircle
 10
1571.399871
 20
2471.936005
 30
0.0
 40
16.0000000014888
100
AcDbArc
 50
272.0
 51
354.0
  0
LINE
  5
220
102
{ACAD_REACTORS
330
570
102
}
330
1F
100
AcDbEntity
  8
LC-002-002-----0
 62
     7
370
    50
100
AcDbLine
 10
1283.96452
 20
2435.975131
 30
0.0
 11
1406.142098
 21
2435.975131
 31
0.0
  0
LINE
  5
221
102
{ACAD_REACTORS
330
570
102
}
330
1F
100
AcDbEntity
  8
LC-002-002-----0
 62
     7
370
    50
100
AcDbLine
 10
1079.097134
 20
2619.193772
 30
0.0
 11
1095.269204
 21
2465.326803
 31
0.0
  0
LINE
  5
222
102
{ACAD_REACTORS
330
570
102
}
330
1F
100
AcDbEntity
  8
LC-002-002-----0
 62
     7
370
    50
100
AcDbLine
 10
1594.837414
 20
2465.326803
 30
0.0
 11
1611.009484
 21
2619.193772
 31
0.0
  0
ARC
  5
223
102
{ACAD_REACTORS
330
570
102
}
330
1F
100
AcDbEntity
  8
LC-002-002-----0
 62
     7
370
    50
100
AcDbCircle
 10
1571.399871
 20
2471.936005
 30
0.0
 40
25.00000000152652
100
AcDbArc
 50
272.0
 51
326.733956
  0
ARC
  5
224
102
{ACAD_REACTORS
330
570
102
}
330
1F
100
AcDbEntity
  8
LC-002-002-----0
 62
     7
370
    50
100
AcDbCircle
 10
1118.706748
 20
2471.936005
 30
0.0
 40
24.99999999847794
100
AcDbArc
 50
213.266044
 51
268.0
  0
ARC
  5
225
102
{ACAD_REACTORS
330
570
102
}
330
1F
100
AcDbEntity
  8
LC-002-002-----0
 62
     7
370
    50
100
AcDbCircle
 10
1578.925064
 20
2466.999258
 30
0.0
 40
15.99999999999994
100
AcDbArc
 50
326.733956
 51
354.0
  0
ARC
  5
226
102
{ACAD_REACTORS
330
570
102
}
330
1F
100
AcDbEntity
  8
LC-002-002-----0
 62
     7
370
    50
100
AcDbCircle
 10
1111.181555
 20
2466.999258
 30
0.0
 40
16.00000000000901
100
AcDbArc
 50
186.0
 51
213.266044
  0
LINE
  5
227
102
{ACAD_REACTORS
330
570
102
}
330
1F
100
AcDbEntity
  8
LC-002-002-----0
 62
     7
370
    50
100
AcDbLine
 10
1408.861022
 20
2437.707276
 30
0.0
 11
1408.98401
 21
2437.971025
 31
0.0
  0
ARC
  5
228
102
{ACAD_REACTORS
330
570
102
}
330
1F
100
AcDbEntity
  8
LC-002-002-----0
 62
     7
370
    50
100
AcDbCircle
 10
1049.272857
 20
2666.03
 30
0.0
 40
4.0
100
AcDbArc
 50
90.0
 51
176.0
  0
ARC
  5
229
102
{ACAD_REACTORS
330
570
102
}
330
1F
100
AcDbEntity
  8
LC-002-002-----0
 62
     7
370
    50
100
AcDbCircle
 10
1060.009759
 20
2656.03
 30
0.0
 40
4.999999999999563
100
AcDbArc
 50
56.693398
 51
90.0
  0
LINE
  5
22A
102
{ACAD_REACTORS
330
570
102
}
330
1F
100
AcDbEntity
  8
LC-002-002-----0
 62
     7
370
    50
100
AcDbLine
 10
1275.894159
 20
2441.431661
 30
0.0
 11
1117.83426
 21
2446.951234
 31
0.0
  0
LINE
  5
22B
102
{ACAD_REACTORS
330
570
102
}
330
1F
100
AcDbEntity
  8
LC-002-002-----0
 62
     7
370
    50
100
AcDbLine
 10
1057.053309
 20
2661.03
 30
0.0
 11
1060.009759
 21
2661.03
 31
0.0
  0
LINE
  5
22C
102
{ACAD_REACTORS
330
570
102
}
330
1F
100
AcDbEntity
  8
LC-002-002-----0
 62
     7
370
    50
100
AcDbLine
 10
1630.09686
 20
2661.03
 30
0.0
 11
1633.053309
 21
2661.03
 31
0.0
  0
ARC
  5
22D
102
{ACAD_REACTORS
330
570
102
}
330
1F
100
AcDbEntity
  8
LC-002-002-----0
 62
     7
370
    50
100
AcDbCircle
 10
1406.142098
 20
2438.975131
 30
0.0
 40
3.0
100
AcDbArc
 50
270.0
 51
335.0
  0
LINE
  5
22E
102
{ACAD_REACTORS
330
570
102
}
330
1F
100
AcDbEntity
  8
LC-002-002-----0
 62
     7
370
    50
100
AcDbLine
 10
1414.21246
 20
2441.431661
 30
0.0
 11
1572.272358
 21
2446.951234
 31
0.0
  0
ARC
  5
22F
102
{ACAD_REACTORS
330
570
102
}
330
1F
100
AcDbEntity
  8
LC-002-002-----0
 62
     7
370
    50
100
AcDbCircle
 10
1630.09686
 20
2656.03
 30
0.0
 40
5.0
100
AcDbArc
 50
90.0
 51
123.306602
  0
ARC
  5
230
102
{ACAD_REACTORS
330
570
102
}
330
1F
100
AcDbEntity
  8
LC-002-002-----0
 62
     7
370
    50
100
AcDbCircle
 10
1640.833761
 20
2666.03
 30
0.0
 40
3.999999999999987
100
AcDbArc
 50
4.0
 51
90.0
  0
LINE
  5
231
102
{ACAD_REACTORS
330
570
102
}
330
1F
100
AcDbEntity
  8
LC-002-002-----0
 62
     7
370
    50
100
AcDbLine
 10
1403.614333
 20
2450.067052
 30
0.0
 11
1571.958263
 21
2455.945751
 31
0.0
  0
ARC
  5
232
102
{ACAD_REACTORS
330
570
102
}
330
1F
100
AcDbEntity
  8
LC-002-002-----0
 62
     7
370
    50
100
AcDbCircle
 10
1401.449014
 20
2448.881563
 30
0.0
 40
0.9999999999997198
100
AcDbArc
 50
280.0
 51
355.0
  0
LINE
  5
233
102
{ACAD_REACTORS
330
570
102
}
330
1F
100
AcDbEntity
  8
LC-002-002-----0
 62
     7
370
    50
100
AcDbLine
 10
1286.492286
 20
2450.067052
 30
0.0
 11
1118.148356
 21
2455.945751
 31
0.0
  0
ARC
  5
234
102
{ACAD_REACTORS
330
570
102
}
330
1F
100
AcDbEntity
  8
LC-002-002-----0
 62
     7
370
    50
100
AcDbCircle
 10
1403.656212
 20
2448.867783
 30
0.0
 40
1.2000000000004
100
AcDbArc
 50
92.0
 51
175.0
  0
LINE
  5
235
102
{ACAD_REACTORS
330
570
102
}
330
1F
100
AcDbEntity
  8
LC-002-002-----0
 62
     7
370
    50
100
AcDbLine
 10
1402.445209
 20
2448.794407
 30
0.0
 11
1402.460779
 21
2448.97237
 31
0.0
  0
LINE
  5
236
102
{ACAD_REACTORS
330
570
102
}
330
1F
100
AcDbEntity
  8
LC-002-002-----0
 62
     7
370
    50
100
AcDbLine
 10
1390.053309
 20
2445.856766
 30
0.0
 11
1401.622662
 21
2447.896755
 31
0.0
  0
LINE
  5
237
102
{ACAD_REACTORS
330
570
102
}
330
1F
100
AcDbEntity
  8
LC-002-002-----0
 62
     7
370
    50
100
AcDbLine
 10
1633.053309
 20
2670.03
 30
0.0
 11
1631.564721
 21
2669.967013
 31
0.0
  0
LINE
  5
238
102
{ACAD_REACTORS
330
570
102
}
330
1F
100
AcDbEntity
  8
LC-002-002-----0
 62
     7
370
    50
100
AcDbLine
 10
1631.564721
 20
2669.967013
 30
0.0
 11
1630.118345
 21
2669.782469
 31
0.0
  0
LINE
  5
239
102
{ACAD_REACTORS
330
570
102
}
330
1F
100
AcDbEntity
  8
LC-002-002-----0
 62
     7
370
    50
100
AcDbLine
 10
1630.118345
 20
2669.782469
 30
0.0
 11
1628.6116
 21
2669.456075
 31
0.0
  0
LINE
  5
23A
102
{ACAD_REACTORS
330
570
102
}
330
1F
100
AcDbEntity
  8
LC-002-002-----0
 62
     7
370
    50
100
AcDbLine
 10
1628.6116
 20
2669.456075
 30
0.0
 11
1627.105249
 21
2668.987003
 31
0.0
  0
LINE
  5
23B
102
{ACAD_REACTORS
330
570
102
}
330
1F
100
AcDbEntity
  8
LC-002-002-----0
 62
     7
370
    50
100
AcDbLine
 10
1627.105249
 20
2668.987003
 30
0.0
 11
1625.578811
 21
2668.358734
 31
0.0
  0
LINE
  5
23C
102
{ACAD_REACTORS
330
570
102
}
330
1F
100
AcDbEntity
  8
LC-002-002-----0
 62
     7
370
    50
100
AcDbLine
 10
1625.578811
 20
2668.358734
 30
0.0
 11
1624.067583
 21
2667.576373
 31
0.0
  0
LINE
  5
23D
102
{ACAD_REACTORS
330
570
102
}
330
1F
100
AcDbEntity
  8
LC-002-002-----0
 62
     7
370
    50
100
AcDbLine
 10
1624.067583
 20
2667.576373
 30
0.0
 11
1622.585231
 21
2666.643936
 31
0.0
  0
LINE
  5
23E
102
{ACAD_REACTORS
330
570
102
}
330
1F
100
AcDbEntity
  8
LC-002-002-----0
 62
     7
370
    50
100
AcDbLine
 10
1622.585231
 20
2666.643936
 30
0.0
 11
1621.099763
 21
2665.533707
 31
0.0
  0
LINE
  5
23F
102
{ACAD_REACTORS
330
570
102
}
330
1F
100
AcDbEntity
  8
LC-002-002-----0
 62
     7
370
    50
100
AcDbLine
 10
1621.099763
 20
2665.533707
 30
0.0
 11
1619.589155
 21
2664.209344
 31
0.0
  0
LINE
  5
240
102
{ACAD_REACTORS
330
570
102
}
330
1F
100
AcDbEntity
  8
LC-002-002-----0
 62
     7
370
    50
100
AcDbLine
 10
1619.589155
 20
2664.209344
 30
0.0
 11
1618.061168
 21
2662.650434
 31
0.0
  0
LINE
  5
241
102
{ACAD_REACTORS
330
570
102
}
330
1F
100
AcDbEntity
  8
LC-002-002-----0
 62
     7
370
    50
100
AcDbLine
 10
1618.061168
 20
2662.650434
 30
0.0
 11
1616.529381
 21
2660.842121
 31
0.0
  0
LINE
  5
242
102
{ACAD_REACTORS
330
570
102
}
330
1F
100
AcDbEntity
  8
LC-002-002-----0
 62
     7
370
    50
100
AcDbLine
 10
1616.529381
 20
2660.842121
 30
0.0
 11
1614.981966
 21
2658.734134
 31
0.0
  0
LINE
  5
243
102
{ACAD_REACTORS
330
570
102
}
330
1F
100
AcDbEntity
  8
LC-002-002-----0
 62
     7
370
    50
100
AcDbLine
 10
1614.981966
 20
2658.734134
 30
0.0
 11
1613.46203
 21
2656.347946
 31
0.0
  0
LINE
  5
244
102
{ACAD_REACTORS
330
570
102
}
330
1F
100
AcDbEntity
  8
LC-002-002-----0
 62
     7
370
    50
100
AcDbLine
 10
1613.46203
 20
2656.347946
 30
0.0
 11
1611.9646
 21
2653.638679
 31
0.0
  0
LINE
  5
245
102
{ACAD_REACTORS
330
570
102
}
330
1F
100
AcDbEntity
  8
LC-002-002-----0
 62
     7
370
    50
100
AcDbLine
 10
1611.9646
 20
2653.638679
 30
0.0
 11
1610.450851
 21
2650.464505
 31
0.0
  0
LINE
  5
246
102
{ACAD_REACTORS
330
570
102
}
330
1F
100
AcDbEntity
  8
LC-002-002-----0
 62
     7
370
    50
100
AcDbLine
 10
1610.450851
 20
2650.464505
 30
0.0
 11
1608.935109
 21
2646.737707
 31
0.0
  0
LINE
  5
247
102
{ACAD_REACTORS
330
570
102
}
330
1F
100
AcDbEntity
  8
LC-002-002-----0
 62
     7
370
    50
100
AcDbLine
 10
1608.935109
 20
2646.737707
 30
0.0
 11
1607.554857
 21
2642.720203
 31
0.0
  0
LINE
  5
248
102
{ACAD_REACTORS
330
570
102
}
330
1F
100
AcDbEntity
  8
LC-002-002-----0
 62
     7
370
    50
100
AcDbLine
 10
1607.554857
 20
2642.720203
 30
0.0
 11
1606.210973
 21
2638.016088
 31
0.0
  0
LINE
  5
249
102
{ACAD_REACTORS
330
570
102
}
330
1F
100
AcDbEntity
  8
LC-002-002-----0
 62
     7
370
    50
100
AcDbLine
 10
1606.210973
 20
2638.016088
 30
0.0
 11
1604.976957
 21
2632.662424
 31
0.0
  0
LINE
  5
24A
102
{ACAD_REACTORS
330
570
102
}
330
1F
100
AcDbEntity
  8
LC-002-002-----0
 62
     7
370
    50
100
AcDbLine
 10
1604.976957
 20
2632.662424
 30
0.0
 11
1603.930698
 21
2626.814767
 31
0.0
  0
LINE
  5
24B
102
{ACAD_REACTORS
330
570
102
}
330
1F
100
AcDbEntity
  8
LC-002-002-----0
 62
     7
370
    50
100
AcDbLine
 10
1603.930698
 20
2626.814767
 30
0.0
 11
1603.053309
 21
2620.03
 31
0.0
  0
LINE
  5
24C
102
{ACAD_REACTORS
330
570
102
}
330
1F
100
AcDbEntity
  8
LC-002-002-----0
 62
     7
370
    50
100
AcDbLine
 10
1627.351264
 20
2660.20872
 30
0.0
 11
1626.278996
 21
2659.432549
 31
0.0
  0
LINE
  5
24D
102
{ACAD_REACTORS
330
570
102
}
330
1F
100
AcDbEntity
  8
LC-002-002-----0
 62
     7
370
    50
100
AcDbLine
 10
1626.278996
 20
2659.432549
 30
0.0
 11
1625.129617
 21
2658.438025
 31
0.0
  0
LINE
  5
24E
102
{ACAD_REACTORS
330
570
102
}
330
1F
100
AcDbEntity
  8
LC-002-002-----0
 62
     7
370
    50
100
AcDbLine
 10
1625.129617
 20
2658.438025
 30
0.0
 11
1623.99263
 21
2657.281978
 31
0.0
  0
LINE
  5
24F
102
{ACAD_REACTORS
330
570
102
}
330
1F
100
AcDbEntity
  8
LC-002-002-----0
 62
     7
370
    50
100
AcDbLine
 10
1623.99263
 20
2657.281978
 30
0.0
 11
1622.782003
 21
2655.851409
 31
0.0
  0
LINE
  5
250
102
{ACAD_REACTORS
330
570
102
}
330
1F
100
AcDbEntity
  8
LC-002-002-----0
 62
     7
370
    50
100
AcDbLine
 10
1622.782003
 20
2655.851409
 30
0.0
 11
1621.616428
 21
2654.262983
 31
0.0
  0
LINE
  5
251
102
{ACAD_REACTORS
330
570
102
}
330
1F
100
AcDbEntity
  8
LC-002-002-----0
 62
     7
370
    50
100
AcDbLine
 10
1621.616428
 20
2654.262983
 30
0.0
 11
1620.380173
 21
2652.328782
 31
0.0
  0
LINE
  5
252
102
{ACAD_REACTORS
330
570
102
}
330
1F
100
AcDbEntity
  8
LC-002-002-----0
 62
     7
370
    50
100
AcDbLine
 10
1620.380173
 20
2652.328782
 30
0.0
 11
1619.056701
 21
2649.936296
 31
0.0
  0
LINE
  5
253
102
{ACAD_REACTORS
330
570
102
}
330
1F
100
AcDbEntity
  8
LC-002-002-----0
 62
     7
370
    50
100
AcDbLine
 10
1619.056701
 20
2649.936296
 30
0.0
 11
1617.768524
 21
2647.232146
 31
0.0
  0
LINE
  5
254
102
{ACAD_REACTORS
330
570
102
}
330
1F
100
AcDbEntity
  8
LC-002-002-----0
 62
     7
370
    50
100
AcDbLine
 10
1617.768524
 20
2647.232146
 30
0.0
 11
1616.496765
 21
2644.118309
 31
0.0
  0
LINE
  5
255
102
{ACAD_REACTORS
330
570
102
}
330
1F
100
AcDbEntity
  8
LC-002-002-----0
 62
     7
370
    50
100
AcDbLine
 10
1616.496765
 20
2644.118309
 30
0.0
 11
1615.188239
 21
2640.326127
 31
0.0
  0
LINE
  5
256
102
{ACAD_REACTORS
330
570
102
}
330
1F
100
AcDbEntity
  8
LC-002-002-----0
 62
     7
370
    50
100
AcDbLine
 10
1615.188239
 20
2640.326127
 30
0.0
 11
1614.004484
 21
2636.199768
 31
0.0
  0
LINE
  5
257
102
{ACAD_REACTORS
330
570
102
}
330
1F
100
AcDbEntity
  8
LC-002-002-----0
 62
     7
370
    50
100
AcDbLine
 10
1614.004484
 20
2636.199768
 30
0.0
 11
1612.849686
 21
2631.22981
 31
0.0
  0
LINE
  5
258
102
{ACAD_REACTORS
330
570
102
}
330
1F
100
AcDbEntity
  8
LC-002-002-----0
 62
     7
370
    50
100
AcDbLine
 10
1612.849686
 20
2631.22981
 30
0.0
 11
1611.854331
 21
2625.706551
 31
0.0
  0
LINE
  5
259
102
{ACAD_REACTORS
330
570
102
}
330
1F
100
AcDbEntity
  8
LC-002-002-----0
 62
     7
370
    50
100
AcDbLine
 10
1611.854331
 20
2625.706551
 30
0.0
 11
1611.009484
 21
2619.193772
 31
0.0
  0
ARC
  5
25A
102
{ACAD_REACTORS
330
570
102
}
330
1F
100
AcDbEntity
  8
LC-002-002-----0
 62
     7
370
    50
100
AcDbCircle
 10
1275.684762
 20
2435.435316
 30
0.0
 40
5.999999999999765
100
AcDbArc
 50
25.0
 51
88.0
  0
LINE
  5
25B
102
{ACAD_REACTORS
330
570
102
}
330
1F
100
AcDbEntity
  8
LC-002-002-----0
 62
     7
370
    50
100
AcDbLine
 10
1281.245597
 20
2437.707276
 30
0.0
 11
1281.122608
 21
2437.971025
 31
0.0
  0
ARC
  5
25C
102
{ACAD_REACTORS
330
570
102
}
330
1F
100
AcDbEntity
  8
LC-002-002-----0
 62
     7
370
    50
100
AcDbCircle
 10
1283.96452
 20
2438.975131
 30
0.0
 40
2.999999999999883
100
AcDbArc
 50
205.0
 51
270.0
  0
ARC
  5
25D
102
{ACAD_REACTORS
330
570
102
}
330
1F
100
AcDbEntity
  8
LC-002-002-----0
 62
     7
370
    50
100
AcDbCircle
 10
1288.657604
 20
2448.881563
 30
0.0
 40
0.9999999999999
100
AcDbArc
 50
185.0
 51
260.0
  0
ARC
  5
25E
102
{ACAD_REACTORS
330
570
102
}
330
1F
100
AcDbEntity
  8
LC-002-002-----0
 62
     7
370
    50
100
AcDbCircle
 10
1286.450406
 20
2448.867783
 30
0.0
 40
1.199999999999928
100
AcDbArc
 50
5.0
 51
88.0
  0
LINE
  5
25F
102
{ACAD_REACTORS
330
570
102
}
330
1F
100
AcDbEntity
  8
LC-002-002-----0
 62
     7
370
    50
100
AcDbLine
 10
1287.66141
 20
2448.794407
 30
0.0
 11
1287.64584
 21
2448.97237
 31
0.0
  0
LINE
  5
260
102
{ACAD_REACTORS
330
570
102
}
330
1F
100
AcDbEntity
  8
LC-002-002-----0
 62
     7
370
    50
100
AcDbLine
 10
1300.053309
 20
2445.856766
 30
0.0
 11
1288.483956
 21
2447.896755
 31
0.0
  0
LINE
  5
261
102
{ACAD_REACTORS
330
570
102
}
330
1F
100
AcDbEntity
  8
LC-002-002-----0
 62
     7
370
    50
100
AcDbLine
 10
1057.053309
 20
2670.03
 30
0.0
 11
1058.541897
 21
2669.967013
 31
0.0
  0
LINE
  5
262
102
{ACAD_REACTORS
330
570
102
}
330
1F
100
AcDbEntity
  8
LC-002-002-----0
 62
     7
370
    50
100
AcDbLine
 10
1058.541897
 20
2669.967013
 30
0.0
 11
1059.988274
 21
2669.782469
 31
0.0
  0
LINE
  5
263
102
{ACAD_REACTORS
330
570
102
}
330
1F
100
AcDbEntity
  8
LC-002-002-----0
 62
     7
370
    50
100
AcDbLine
 10
1059.988274
 20
2669.782469
 30
0.0
 11
1061.495019
 21
2669.456075
 31
0.0
  0
LINE
  5
264
102
{ACAD_REACTORS
330
570
102
}
330
1F
100
AcDbEntity
  8
LC-002-002-----0
 62
     7
370
    50
100
AcDbLine
 10
1061.495019
 20
2669.456075
 30
0.0
 11
1063.00137
 21
2668.987003
 31
0.0
  0
LINE
  5
265
102
{ACAD_REACTORS
330
570
102
}
330
1F
100
AcDbEntity
  8
LC-002-002-----0
 62
     7
370
    50
100
AcDbLine
 10
1063.00137
 20
2668.987003
 30
0.0
 11
1064.527807
 21
2668.358734
 31
0.0
  0
LINE
  5
266
102
{ACAD_REACTORS
330
570
102
}
330
1F
100
AcDbEntity
  8
LC-002-002-----0
 62
     7
370
    50
100
AcDbLine
 10
1064.527807
 20
2668.358734
 30
0.0
 11
1066.039035
 21
2667.576373
 31
0.0
  0
LINE
  5
267
102
{ACAD_REACTORS
330
570
102
}
330
1F
100
AcDbEntity
  8
LC-002-002-----0
 62
     7
370
    50
100
AcDbLine
 10
1066.039035
 20
2667.576373
 30
0.0
 11
1067.521388
 21
2666.643936
 31
0.0
  0
LINE
  5
268
102
{ACAD_REACTORS
330
570
102
}
330
1F
100
AcDbEntity
  8
LC-002-002-----0
 62
     7
370
    50
100
AcDbLine
 10
1067.521388
 20
2666.643936
 30
0.0
 11
1069.006856
 21
2665.533707
 31
0.0
  0
LINE
  5
269
102
{ACAD_REACTORS
330
570
102
}
330
1F
100
AcDbEntity
  8
LC-002-002-----0
 62
     7
370
    50
100
AcDbLine
 10
1069.006856
 20
2665.533707
 30
0.0
 11
1070.517463
 21
2664.209344
 31
0.0
  0
LINE
  5
26A
102
{ACAD_REACTORS
330
570
102
}
330
1F
100
AcDbEntity
  8
LC-002-002-----0
 62
     7
370
    50
100
AcDbLine
 10
1070.517463
 20
2664.209344
 30
0.0
 11
1072.04545
 21
2662.650434
 31
0.0
  0
LINE
  5
26B
102
{ACAD_REACTORS
330
570
102
}
330
1F
100
AcDbEntity
  8
LC-002-002-----0
 62
     7
370
    50
100
AcDbLine
 10
1072.04545
 20
2662.650434
 30
0.0
 11
1073.577237
 21
2660.842121
 31
0.0
  0
LINE
  5
26C
102
{ACAD_REACTORS
330
570
102
}
330
1F
100
AcDbEntity
  8
LC-002-002-----0
 62
     7
370
    50
100
AcDbLine
 10
1073.577237
 20
2660.842121
 30
0.0
 11
1075.124652
 21
2658.734134
 31
0.0
  0
LINE
  5
26D
102
{ACAD_REACTORS
330
570
102
}
330
1F
100
AcDbEntity
  8
LC-002-002-----0
 62
     7
370
    50
100
AcDbLine
 10
1075.124652
 20
2658.734134
 30
0.0
 11
1076.644589
 21
2656.347946
 31
0.0
  0
LINE
  5
26E
102
{ACAD_REACTORS
330
570
102
}
330
1F
100
AcDbEntity
  8
LC-002-002-----0
 62
     7
370
    50
100
AcDbLine
 10
1076.644589
 20
2656.347946
 30
0.0
 11
1078.142018
 21
2653.638679
 31
0.0
  0
LINE
  5
26F
102
{ACAD_REACTORS
330
570
102
}
330
1F
100
AcDbEntity
  8
LC-002-002-----0
 62
     7
370
    50
100
AcDbLine
 10
1078.142018
 20
2653.638679
 30
0.0
 11
1079.655767
 21
2650.464505
 31
0.0
  0
LINE
  5
270
102
{ACAD_REACTORS
330
570
102
}
330
1F
100
AcDbEntity
  8
LC-002-002-----0
 62
     7
370
    50
100
AcDbLine
 10
1079.655767
 20
2650.464505
 30
0.0
 11
1081.171509
 21
2646.737707
 31
0.0
  0
LINE
  5
271
102
{ACAD_REACTORS
330
570
102
}
330
1F
100
AcDbEntity
  8
LC-002-002-----0
 62
     7
370
    50
100
AcDbLine
 10
1081.171509
 20
2646.737707
 30
0.0
 11
1082.551761
 21
2642.720203
 31
0.0
  0
LINE
  5
272
102
{ACAD_REACTORS
330
570
102
}
330
1F
100
AcDbEntity
  8
LC-002-002-----0
 62
     7
370
    50
100
AcDbLine
 10
1082.551761
 20
2642.720203
 30
0.0
 11
1083.895645
 21
2638.016088
 31
0.0
  0
LINE
  5
273
102
{ACAD_REACTORS
330
570
102
}
330
1F
100
AcDbEntity
  8
LC-002-002-----0
 62
     7
370
    50
100
AcDbLine
 10
1083.895645
 20
2638.016088
 30
0.0
 11
1085.129662
 21
2632.662424
 31
0.0
  0
LINE
  5
274
102
{ACAD_REACTORS
330
570
102
}
330
1F
100
AcDbEntity
  8
LC-002-002-----0
 62
     7
370
    50
100
AcDbLine
 10
1085.129662
 20
2632.662424
 30
0.0
 11
1086.17592
 21
2626.814767
 31
0.0
  0
LINE
  5
275
102
{ACAD_REACTORS
330
570
102
}
330
1F
100
AcDbEntity
  8
LC-002-002-----0
 62
     7
370
    50
100
AcDbLine
 10
1086.17592
 20
2626.814767
 30
0.0
 11
1087.053309
 21
2620.03
 31
0.0
  0
LINE
  5
276
102
{ACAD_REACTORS
330
570
102
}
330
1F
100
AcDbEntity
  8
LC-002-002-----0
 62
     7
370
    50
100
AcDbLine
 10
1062.755354
 20
2660.20872
 30
0.0
 11
1063.827622
 21
2659.432549
 31
0.0
  0
LINE
  5
277
102
{ACAD_REACTORS
330
570
102
}
330
1F
100
AcDbEntity
  8
LC-002-002-----0
 62
     7
370
    50
100
AcDbLine
 10
1063.827622
 20
2659.432549
 30
0.0
 11
1064.977001
 21
2658.438025
 31
0.0
  0
LINE
  5
278
102
{ACAD_REACTORS
330
570
102
}
330
1F
100
AcDbEntity
  8
LC-002-002-----0
 62
     7
370
    50
100
AcDbLine
 10
1064.977001
 20
2658.438025
 30
0.0
 11
1066.113988
 21
2657.281978
 31
0.0
  0
LINE
  5
279
102
{ACAD_REACTORS
330
570
102
}
330
1F
100
AcDbEntity
  8
LC-002-002-----0
 62
     7
370
    50
100
AcDbLine
 10
1066.113988
 20
2657.281978
 30
0.0
 11
1067.324616
 21
2655.851409
 31
0.0
  0
LINE
  5
27A
102
{ACAD_REACTORS
330
570
102
}
330
1F
100
AcDbEntity
  8
LC-002-002-----0
 62
     7
370
    50
100
AcDbLine
 10
1067.324616
 20
2655.851409
 30
0.0
 11
1068.49019
 21
2654.262983
 31
0.0
  0
LINE
  5
27B
102
{ACAD_REACTORS
330
570
102
}
330
1F
100
AcDbEntity
  8
LC-002-002-----0
 62
     7
370
    50
100
AcDbLine
 10
1068.49019
 20
2654.262983
 30
0.0
 11
1069.726446
 21
2652.328782
 31
0.0
  0
LINE
  5
27C
102
{ACAD_REACTORS
330
570
102
}
330
1F
100
AcDbEntity
  8
LC-002-002-----0
 62
     7
370
    50
100
AcDbLine
 10
1069.726446
 20
2652.328782
 30
0.0
 11
1071.049918
 21
2649.936296
 31
0.0
  0
LINE
  5
27D
102
{ACAD_REACTORS
330
570
102
}
330
1F
100
AcDbEntity
  8
LC-002-002-----0
 62
     7
370
    50
100
AcDbLine
 10
1071.049918
 20
2649.936296
 30
0.0
 11
1072.338094
 21
2647.232146
 31
0.0
  0
LINE
  5
27E
102
{ACAD_REACTORS
330
570
102
}
330
1F
100
AcDbEntity
  8
LC-002-002-----0
 62
     7
370
    50
100
AcDbLine
 10
1072.338094
 20
2647.232146
 30
0.0
 11
1073.609853
 21
2644.118309
 31
0.0
  0
LINE
  5
27F
102
{ACAD_REACTORS
330
570
102
}
330
1F
100
AcDbEntity
  8
LC-002-002-----0
 62
     7
370
    50
100
AcDbLine
 10
1073.609853
 20
2644.118309
 30
0.0
 11
1074.918379
 21
2640.326127
 31
0.0
  0
LINE
  5
280
102
{ACAD_REACTORS
330
570
102
}
330
1F
100
AcDbEntity
  8
LC-002-002-----0
 62
     7
370
    50
100
AcDbLine
 10
1074.918379
 20
2640.326127
 30
0.0
 11
1076.102134
 21
2636.199768
 31
0.0
  0
LINE
  5
281
102
{ACAD_REACTORS
330
570
102
}
330
1F
100
AcDbEntity
  8
LC-002-002-----0
 62
     7
370
    50
100
AcDbLine
 10
1076.102134
 20
2636.199768
 30
0.0
 11
1077.256932
 21
2631.22981
 31
0.0
  0
LINE
  5
282
102
{ACAD_REACTORS
330
570
102
}
330
1F
100
AcDbEntity
  8
LC-002-002-----0
 62
     7
370
    50
100
AcDbLine
 10
1077.256932
 20
2631.22981
 30
0.0
 11
1078.252288
 21
2625.706551
 31
0.0
  0
LINE
  5
283
102
{ACAD_REACTORS
330
570
102
}
330
1F
100
AcDbEntity
  8
LC-002-002-----0
 62
     7
370
    50
100
AcDbLine
 10
1078.252288
 20
2625.706551
 30
0.0
 11
1079.097134
 21
2619.193772
 31
0.0
  0
LINE
  5
284
102
{ACAD_REACTORS
330
571
102
}
330
1F
100
AcDbEntity
  8
LC-002-002-----0
 62
     7
370
    50
100
AcDbLine
 10
1619.053309
 20
1523.863313
 30
0.0
 11
1071.053309
 21
1523.863313
 31
0.0
  0
LINE
  5
285
102
{ACAD_REACTORS
330
571
102
}
330
1F
100
AcDbEntity
  8
LC-002-002-----0
 62
     7
370
    50
100
AcDbLine
 10
1071.053309
 20
1960.312041
 30
0.0
 11
1619.053309
 21
1960.312041
 31
0.0
  0
LINE
  5
286
102
{ACAD_REACTORS
330
571
102
}
330
1F
100
AcDbEntity
  8
LC-002-002-----0
 62
     7
370
    50
100
AcDbLine
 10
1633.053309
 20
1537.863313
 30
0.0
 11
1633.053309
 21
1946.312041
 31
0.0
  0
LINE
  5
287
102
{ACAD_REACTORS
330
571
102
}
330
1F
100
AcDbEntity
  8
LC-002-002-----0
 62
     7
370
    50
100
AcDbLine
 10
1057.053309
 20
1946.312041
 30
0.0
 11
1057.053309
 21
1537.863313
 31
0.0
  0
LINE
  5
288
102
{ACAD_REACTORS
330
571
102
}
330
1F
100
AcDbEntity
  8
LC-002-002-----0
 62
     7
370
    50
100
AcDbLine
 10
1645.053309
 20
1528.81002
 30
0.0
 11
1645.053309
 21
1975.81002
 31
0.0
  0
ARC
  5
289
102
{ACAD_REACTORS
330
571
102
}
330
1F
100
AcDbEntity
  8
LC-002-002-----0
 62
     7
370
    50
100
AcDbCircle
 10
1627.053309
 20
1528.81002
 30
0.0
 40
18.0
100
AcDbArc
 50
270.0
 51
0.0
  0
LINE
  5
28A
102
{ACAD_REACTORS
330
571
102
}
330
1F
100
AcDbEntity
  8
LC-002-002-----0
 62
     7
370
    50
100
AcDbLine
 10
1063.053309
 20
1510.81002
 30
0.0
 11
1627.053309
 21
1510.81002
 31
0.0
  0
ARC
  5
28B
102
{ACAD_REACTORS
330
571
102
}
330
1F
100
AcDbEntity
  8
LC-002-002-----0
 62
     7
370
    50
100
AcDbCircle
 10
1063.053309
 20
1528.81002
 30
0.0
 40
18.0
100
AcDbArc
 50
180.0
 51
270.0
  0
LINE
  5
28C
102
{ACAD_REACTORS
330
571
102
}
330
1F
100
AcDbEntity
  8
LC-002-002-----0
 62
     7
370
    50
100
AcDbLine
 10
1045.053309
 20
1975.81002
 30
0.0
 11
1045.053309
 21
1528.81002
 31
0.0
  0
LINE
  5
28D
102
{ACAD_REACTORS
330
56F
102
}
330
1F
100
AcDbEntity
  8
LC-007-006-MLN-0
 62
     7
370
    25
100
AcDbLine
 10
841.09425
 20
1855.81002
 30
0.0
 11
821.039381
 21
1855.81002
 31
0.0
  0
ARC
  5
28E
102
{ACAD_REACTORS
330
56F
102
}
330
1F
100
AcDbEntity
  8
LC-002-002-----0
 62
     7
370
    50
100
AcDbCircle
 10
807.855575
 20
1918.299181
 30
0.0
 40
25.00000000000031
100
AcDbArc
 50
13.368906
 51
56.744488
  0
ARC
  5
28F
102
{ACAD_REACTORS
330
56F
102
}
330
1F
100
AcDbEntity
  8
LC-004-002-RND-0
 62
     7
370
    50
100
AcDbCircle
 10
838.015522
 20
1925.466999
 30
0.0
 40
6.000000000000365
100
AcDbArc
 50
193.368906
 51
245.0
  0
LINE
  5
290
102
{ACAD_REACTORS
330
56F
102
}
330
1F
100
AcDbEntity
  8
LC-002-002-----0
 62
     7
370
    50
100
AcDbLine
 10
608.516739
 20
1955.339431
 30
0.0
 11
809.527831
 21
1934.212314
 31
0.0
  0
LINE
  5
291
102
{ACAD_REACTORS
330
56F
102
}
330
1F
100
AcDbEntity
  8
LC-002-002-----0
 62
     7
370
    50
100
AcDbLine
 10
618.904208
 20
1540.372377
 30
0.0
 11
801.922108
 21
1559.608333
 31
0.0
  0
LINE
  5
292
102
{ACAD_REACTORS
330
56F
102
}
330
1F
100
AcDbEntity
  8
LC-002-002-----0
 62
     7
370
    50
100
AcDbLine
 10
604.039381
 20
1515.029569
 30
0.0
 11
604.039381
 21
1975.81002
 31
0.0
  0
LINE
  5
293
102
{ACAD_REACTORS
330
56F
102
}
330
1F
100
AcDbEntity
  8
LC-002-002-----0
 62
     7
370
    50
100
AcDbLine
 10
611.039381
 20
1510.81002
 30
0.0
 11
607.760355
 21
1511.039312
 31
0.0
  0
ARC
  5
294
102
{ACAD_REACTORS
330
56F
102
}
330
1F
100
AcDbEntity
  8
LC-002-002-----0
 62
     7
370
    50
100
AcDbCircle
 10
835.09425
 20
1794.721231
 30
0.0
 40
2.999999999999993
100
AcDbArc
 50
295.0
 51
0.0
  0
ARC
  5
295
102
{ACAD_REACTORS
330
56F
102
}
330
1F
100
AcDbEntity
  8
LC-002-002-----0
 62
     7
370
    50
100
AcDbCircle
 10
835.09425
 20
1916.89881
 30
0.0
 40
2.999999999981355
100
AcDbArc
 50
0.0
 51
65.0
  0
LINE
  5
296
102
{ACAD_REACTORS
330
56F
102
}
330
1F
100
AcDbEntity
  8
LC-002-002-----0
 62
     7
370
    50
100
AcDbLine
 10
836.362105
 20
1792.002308
 30
0.0
 11
836.098356
 21
1791.87932
 31
0.0
  0
ARC
  5
297
102
{ACAD_REACTORS
330
56F
102
}
330
1F
100
AcDbEntity
  8
LC-002-002-----0
 62
     7
370
    50
100
AcDbCircle
 10
807.855375
 20
1918.299964
 30
0.0
 40
16.00000000000898
100
AcDbArc
 50
2.0
 51
84.0
  0
ARC
  5
298
102
{ACAD_REACTORS
330
56F
102
}
330
1F
100
AcDbEntity
  8
LC-002-002-----0
 62
     7
370
    50
100
AcDbCircle
 10
800.249653
 20
1575.520684
 30
0.0
 40
15.99999999999299
100
AcDbArc
 50
276.0
 51
358.0
  0
ARC
  5
299
102
{ACAD_REACTORS
330
56F
102
}
330
1F
100
AcDbEntity
  8
LC-002-002-----0
 62
     7
370
    50
100
AcDbCircle
 10
609.039381
 20
1960.312041
 30
0.0
 40
4.999999999999545
100
AcDbArc
 50
180.0
 51
264.0
  0
ARC
  5
29A
102
{ACAD_REACTORS
330
56F
102
}
330
1F
100
AcDbEntity
  8
LC-002-002-----0
 62
     7
370
    50
100
AcDbCircle
 10
618.039381
 20
1967.410169
 30
0.0
 40
5.0
100
AcDbArc
 50
180.0
 51
264.0
  0
LINE
  5
29B
102
{ACAD_REACTORS
330
56F
102
}
330
1F
100
AcDbEntity
  8
LC-002-002-----0
 62
     7
370
    50
100
AcDbLine
 10
836.362105
 20
1919.617733
 30
0.0
 11
835.479812
 21
1920.029153
 31
0.0
  0
ARC
  5
29D
102
{ACAD_REACTORS
330
56F
102
}
330
1F
100
AcDbEntity
  8
LC-008-100-D00-0
 62
     7
370
    13
100
AcDbCircle
 10
835.09425
 20
1794.721231
 30
0.0
 40
2.999999999999993
100
AcDbArc
 50
295.0
 51
0.0
  0
LINE
  5
29E
102
{ACAD_REACTORS
330
56F
102
}
330
1F
100
AcDbEntity
  8
LC-008-100-D00-0
 62
     7
370
    13
100
AcDbLine
 10
836.362105
 20
1792.002308
 30
0.0
 11
836.098356
 21
1791.87932
 31
0.0
  0
ARC
  5
29F
102
{ACAD_REACTORS
330
56F
102
}
330
1F
100
AcDbEntity
  8
LC-002-002-----0
 62
     7
370
    50
100
AcDbCircle
 10
838.634065
 20
1786.441473
 30
0.0
 40
5.999999999999985
100
AcDbArc
 50
115.0
 51
178.0
  0
LINE
  5
2A0
102
{ACAD_REACTORS
330
56F
102
}
330
1F
100
AcDbEntity
  8
LC-002-002-----0
 62
     7
370
    50
100
AcDbLine
 10
838.09425
 20
1794.721231
 30
0.0
 11
838.09425
 21
1916.89881
 31
0.0
  0
LINE
  5
2A1
102
{ACAD_REACTORS
330
56F
102
}
330
1F
100
AcDbEntity
  8
LC-002-002-----0
 62
     7
370
    50
100
AcDbLine
 10
832.63772
 20
1786.65087
 30
0.0
 11
825.234424
 21
1574.648196
 31
0.0
  0
LINE
  5
2A2
102
{ACAD_REACTORS
330
56F
102
}
330
1F
100
AcDbEntity
  8
LC-002-002-----0
 62
     7
370
    50
100
AcDbLine
 10
617.516739
 20
1962.437559
 30
0.0
 11
814.463394
 21
1941.737632
 31
0.0
  0
LINE
  5
2A3
102
{ACAD_REACTORS
330
56F
102
}
330
1F
100
AcDbEntity
  8
LC-002-002-----0
 62
     7
370
    50
100
AcDbLine
 10
619.740436
 20
1532.416202
 30
0.0
 11
806.858855
 21
1552.08314
 31
0.0
  0
ARC
  5
2A4
102
{ACAD_REACTORS
330
56F
102
}
330
1F
100
AcDbEntity
  8
LC-002-002-----0
 62
     7
370
    50
100
AcDbCircle
 10
620.639381
 20
1523.863313
 30
0.0
 40
8.599999999999737
100
AcDbArc
 50
96.0
 51
136.238257
  0
ARC
  5
2A5
102
{ACAD_REACTORS
330
56F
102
}
330
1F
100
AcDbEntity
  8
LC-002-002-----0
 62
     7
370
    50
100
AcDbCircle
 10
618.039381
 20
1526.353293
 30
0.0
 40
4.999999999999975
100
AcDbArc
 50
136.238257
 51
180.0
  0
ARC
  5
2A6
102
{ACAD_REACTORS
330
56F
102
}
330
1F
100
AcDbEntity
  8
LC-002-002-----0
 62
     7
370
    50
100
AcDbCircle
 10
608.039381
 20
1515.029569
 30
0.0
 40
4.0
100
AcDbArc
 50
180.0
 51
266.0
  0
ARC
  5
2A7
102
{ACAD_REACTORS
330
56F
102
}
330
1F
100
AcDbEntity
  8
LC-002-002-----0
 62
     7
370
    50
100
AcDbCircle
 10
620.639381
 20
1523.863313
 30
0.0
 40
16.6000000000004
100
AcDbArc
 50
96.0
 51
180.0
  0
LINE
  5
2A8
102
{ACAD_REACTORS
330
56F
102
}
330
1F
100
AcDbEntity
  8
LC-002-002-----0
 62
     7
370
    50
100
AcDbLine
 10
824.002329
 20
1797.248997
 30
0.0
 11
816.239906
 21
1574.962292
 31
0.0
  0
LINE
  5
2A9
102
{ACAD_REACTORS
330
56F
102
}
330
1F
100
AcDbEntity
  8
LC-002-002-----0
 62
     7
370
    50
100
AcDbLine
 10
828.212615
 20
1900.81002
 30
0.0
 11
826.172626
 21
1912.379374
 31
0.0
  0
ARC
  5
2AA
102
{ACAD_REACTORS
330
56F
102
}
330
1F
100
AcDbEntity
  8
LC-002-002-----0
 62
     7
370
    50
100
AcDbCircle
 10
825.187818
 20
1912.205725
 30
0.0
 40
1.000000000000046
100
AcDbArc
 50
10.0
 51
85.0
  0
LINE
  5
2AB
102
{ACAD_REACTORS
330
56F
102
}
330
1F
100
AcDbEntity
  8
LC-002-002-----0
 62
     7
370
    50
100
AcDbLine
 10
825.274974
 20
1913.20192
 30
0.0
 11
825.097011
 21
1913.21749
 31
0.0
  0
ARC
  5
2AC
102
{ACAD_REACTORS
330
56F
102
}
330
1F
100
AcDbEntity
  8
LC-002-002-----0
 62
     7
370
    50
100
AcDbCircle
 10
825.201598
 20
1914.412923
 30
0.0
 40
1.199999999999815
100
AcDbArc
 50
182.0
 51
265.0
  0
LINE
  5
2AD
102
{ACAD_REACTORS
330
56F
102
}
330
1F
100
AcDbEntity
  8
LC-002-002-----0
 62
     7
370
    50
100
AcDbLine
 10
824.002329
 20
1914.371044
 30
0.0
 11
823.845629
 21
1918.858356
 31
0.0
  0
ARC
  5
2AE
102
{ACAD_REACTORS
330
56F
102
}
330
1F
100
AcDbEntity
  8
LC-002-002-----0
 62
     7
370
    50
100
AcDbCircle
 10
800.249653
 20
1575.520684
 30
0.0
 40
25.00000000001962
100
AcDbArc
 50
303.266044
 51
358.0
  0
ARC
  5
2AF
102
{ACAD_REACTORS
330
56F
102
}
330
1F
100
AcDbEntity
  8
LC-002-002-----0
 62
     7
370
    50
100
AcDbCircle
 10
812.790938
 20
1925.825281
 30
0.0
 40
16.00000000000957
100
AcDbArc
 50
56.744488
 51
84.0
  0
LINE
  5
2B0
102
{ACAD_REACTORS
330
56F
102
}
330
1F
100
AcDbEntity
  8
LC-002-002-----0
 62
     7
370
    50
100
AcDbLine
 10
613.039381
 20
1967.410169
 30
0.0
 11
613.039381
 21
1975.81002
 31
0.0
  0
LINE
  5
2B1
102
{ACAD_REACTORS
330
56F
102
}
330
1F
100
AcDbEntity
  8
LC-002-002-----0
 62
     7
370
    50
100
AcDbLine
 10
613.039381
 20
1522.81002
 30
0.0
 11
613.039381
 21
1526.353293
 31
0.0
  0
ARC
  5
2B2
102
{ACAD_REACTORS
330
56F
102
}
330
1F
100
AcDbEntity
  8
LC-002-002-----0
 62
     7
370
    50
100
AcDbCircle
 10
805.1864
 20
1567.99549
 30
0.0
 40
15.99999999999996
100
AcDbArc
 50
276.0
 51
303.266044
  0
ARC
  5
2B3
102
{ACAD_REACTORS
330
56F
102
}
330
1F
100
AcDbEntity
  8
LC-002-002-----0
 62
     7
370
    50
100
AcDbCircle
 10
825.201598
 20
1797.207118
 30
0.0
 40
1.200000000000687
100
AcDbArc
 50
95.0
 51
178.0
  0
LINE
  5
2B4
102
{ACAD_REACTORS
330
56F
102
}
330
1F
100
AcDbEntity
  8
LC-002-002-----0
 62
     7
370
    50
100
AcDbLine
 10
825.274974
 20
1798.418121
 30
0.0
 11
825.097011
 21
1798.402551
 31
0.0
  0
ARC
  5
2B5
102
{ACAD_REACTORS
330
56F
102
}
330
1F
100
AcDbEntity
  8
LC-002-002-----0
 62
     7
370
    50
100
AcDbCircle
 10
825.187818
 20
1799.414316
 30
0.0
 40
1.000000000000106
100
AcDbArc
 50
275.0
 51
350.0
  0
LINE
  5
2B6
102
{ACAD_REACTORS
330
56F
102
}
330
1F
100
AcDbEntity
  8
LC-002-002-----0
 62
     7
370
    50
100
AcDbLine
 10
828.212615
 20
1810.81002
 30
0.0
 11
826.172626
 21
1799.240667
 31
0.0
  0
DIMENSION
  5
2B9
330
1F
100
AcDbEntity
  8
LC-009-003-----0
 62
     7
370
    25
100
AcDbDimension
  2
*D3
 10
1645.053309
 20
1400.0
 30
0.0
 11
1345.053309
 21
1430.0
 31
0.0
 70
   160
 71
     5
 42
600.0
  3
LC-DIM-L-0025-00-02
100
AcDbAlignedDimension
 13
1045.053309
 23
1498.81002
 33
0.0
 14
1645.053309
 24
1498.81002
 34
0.0
100
AcDbRotatedDimension
  0
LINE
  5
2C7
102
{ACAD_REACTORS
330
570
102
}
330
1F
100
AcDbEntity
  8
LC-002-002-----0
 62
     7
370
    50
100
AcDbLine
 10
1645.053309
 20
2663.03
 30
0.0
 11
1633.053309
 21
2663.03
 31
0.0
  0
LINE
  5
2C8
102
{ACAD_REACTORS
330
56F
102
}
330
1F
100
AcDbEntity
  8
LC-002-002-----0
 62
     7
370
    50
100
AcDbLine
 10
611.039381
 20
1510.81002
 30
0.0
 11
611.039381
 21
1522.81002
 31
0.0
  0
LINE
  5
2C9
102
{ACAD_REACTORS
330
56F
102
}
330
1F
100
AcDbEntity
  8
LC-002-002-----0
 62
     7
370
    50
100
AcDbLine
 10
611.039381
 20
1522.81002
 30
0.0
 11
613.039381
 21
1522.81002
 31
0.0
  0
LINE
  5
2CA
102
{ACAD_REACTORS
330
570
102
}
330
1F
100
AcDbEntity
  8
LC-002-002-----0
 62
     7
370
    25
100
AcDbLine
 10
1402.553309
 20
2450.03
 30
0.0
 11
1287.553309
 21
2450.03
 31
0.0
  0
LINE
  5
2CB
102
{ACAD_REACTORS
330
570
102
}
330
1F
100
AcDbEntity
  8
LC-002-002-----0
 62
     7
370
    50
100
AcDbLine
 10
1300.053309
 20
2445.856766
 30
0.0
 11
1390.053309
 21
2445.856766
 31
0.0
  0
LINE
  5
2CC
102
{ACAD_REACTORS
330
570
102
}
330
1F
100
AcDbEntity
  8
LC-002-002-----0
 62
     7
370
    50
100
AcDbLine
 10
1300.053309
 20
2435.975131
 30
0.0
 11
1300.053309
 21
2445.856766
 31
0.0
  0
LINE
  5
2CD
102
{ACAD_REACTORS
330
570
102
}
330
1F
100
AcDbEntity
  8
LC-002-002-----0
 62
     7
370
    50
100
AcDbLine
 10
1390.053309
 20
2435.975131
 30
0.0
 11
1390.053309
 21
2445.856766
 31
0.0
  0
DIMENSION
  5
2CE
330
1F
100
AcDbEntity
  8
LC-009-003-----0
 62
     7
370
    25
100
AcDbDimension
  2
*D4
 10
1300.0
 20
2670.03
 30
0.0
 11
1270.0
 21
2560.03
 31
0.0
 70
   160
 71
     5
 42
220.0
 53
90.0
  3
LC-DIM-L-0025-00-02
100
AcDbAlignedDimension
 13
1345.053309
 23
2450.03
 33
0.0
 14
1345.053309
 24
2670.03
 34
0.0
 50
90.0
100
AcDbRotatedDimension
  0
LINE
  5
2DB
102
{ACAD_REACTORS
330
56E
102
}
330
1F
100
AcDbEntity
  8
LC-002-002-----0
 62
     7
370
    50
100
AcDbLine
 10
1053.053309
 20
2708.03
 30
0.0
 11
1053.053309
 21
2670.03
 31
0.0
  0
LINE
  5
2DC
102
{ACAD_REACTORS
330
56E
102
}
330
1F
100
AcDbEntity
  8
LC-002-002-----0
 62
     7
370
    50
100
AcDbLine
 10
1053.053309
 20
2708.03
 30
0.0
 11
973.053309
 21
2708.03
 31
0.0
  0
LINE
  5
2DD
102
{ACAD_REACTORS
330
56E
102
}
330
1F
100
AcDbEntity
  8
LC-002-002-----0
 62
     7
370
    50
100
AcDbLine
 10
1053.053309
 20
2670.03
 30
0.0
 11
973.053309
 21
2670.03
 31
0.0
  0
LINE
  5
2DE
102
{ACAD_REACTORS
330
56E
102
}
330
1F
100
AcDbEntity
  8
LC-002-002-----0
 62
     7
370
    50
100
AcDbLine
 10
1637.053309
 20
2708.03
 30
0.0
 11
1637.053309
 21
2670.03
 31
0.0
  0
LINE
  5
2DF
102
{ACAD_REACTORS
330
56E
102
}
330
1F
100
AcDbEntity
  8
LC-002-002-----0
 62
     7
370
    50
100
AcDbLine
 10
1637.053309
 20
2708.03
 30
0.0
 11
1717.053309
 21
2708.03
 31
0.0
  0
LINE
  5
2E0
102
{ACAD_REACTORS
330
56E
102
}
330
1F
100
AcDbEntity
  8
LC-002-002-----0
 62
     7
370
    50
100
AcDbLine
 10
1637.053309
 20
2670.03
 30
0.0
 11
1717.053309
 21
2670.03
 31
0.0
  0
INSERT
  5
32C
102
{ACAD_REACTORS
330
56E
102
}
330
1F
100
AcDbEntity
  8
LC-006-005-----0
 62
     7
370
    18
100
AcDbBlockReference
  2
*X25
 10
0.0
 20
0.0
 30
0.0
  0
INSERT
  5
378
102
{ACAD_REACTORS
330
56E
102
}
330
1F
100
AcDbEntity
  8
LC-006-005-----0
 62
     7
370
    18
100
AcDbBlockReference
  2
*X36
 10
0.0
 20
0.0
 30
0.0
  0
DIMENSION
  5
37A
330
1F
100
AcDbEntity
  8
LC-009-003-----0
 62
     7
370
    25
100
AcDbDimension
  2
*D7
 10
500.0
 20
1538.81002
 30
0.0
 11
470.0
 21
1747.31002
 31
0.0
 70
   160
 71
     5
 42
417.0
 53
90.0
  3
LC-DIM-L-0025-02-02
100
AcDbAlignedDimension
 13
584.039381
 23
1955.81002
 33
0.0
 14
584.039381
 24
1538.81002
 34
0.0
 50
90.0
100
AcDbRotatedDimension
  0
DIMENSION
  5
387
330
1F
100
AcDbEntity
  8
LC-009-003-----0
 62
     7
370
    25
100
AcDbDimension
  2
*D8
 10
1608.308521
 20
2750.0
 30
0.0
 11
1345.053309
 21
2780.0
 31
0.0
 70
   160
 71
     5
 42
526.510424
  3
LC-DIM-L-0025-00-02
100
AcDbAlignedDimension
 13
1081.798097
 23
2690.03
 33
0.0
 14
1608.308521
 24
2690.03
 34
0.0
100
AcDbRotatedDimension
  0
LINE
  5
394
102
{ACAD_REACTORS
330
56B
102
}
330
1F
100
AcDbEntity
  8
LC-002-002-----0
 62
     7
370
    50
100
AcDbLine
 10
431.020558
 20
2498.822857
 30
0.0
 11
431.020558
 21
2488.822857
 31
0.0
  0
LINE
  5
395
102
{ACAD_REACTORS
330
56B
102
}
330
1F
100
AcDbEntity
  8
LC-002-002-----0
 62
     7
370
    50
100
AcDbLine
 10
491.020558
 20
2498.822857
 30
0.0
 11
489.874099
 21
2515.217986
 31
0.0
  0
LINE
  5
396
102
{ACAD_REACTORS
330
56B
102
}
330
1F
100
AcDbEntity
  8
LC-002-002-----0
 62
     7
370
    50
100
AcDbLine
 10
416.238311
 20
2488.822857
 30
0.0
 11
431.020558
 21
2488.822857
 31
0.0
  0
ARC
  5
397
102
{ACAD_REACTORS
330
56B
102
}
330
1F
100
AcDbEntity
  8
LC-002-002-----0
 62
     7
370
    50
100
AcDbCircle
 10
416.238311
 20
2463.822857
 30
0.0
 40
25.0
100
AcDbArc
 50
90.0
 51
123.306602
  0
ARC
  5
398
102
{ACAD_REACTORS
330
56B
102
}
330
1F
100
AcDbEntity
  8
LC-002-002-----0
 62
     7
370
    50
100
AcDbCircle
 10
469.922818
 20
2513.822857
 30
0.0
 40
20.0
100
AcDbArc
 50
4.0
 51
90.0
  0
LINE
  5
399
102
{ACAD_REACTORS
330
56B
102
}
330
1F
100
AcDbEntity
  8
LC-002-002-----0
 62
     7
370
    50
100
AcDbLine
 10
431.020558
 20
2533.822857
 30
0.0
 11
423.57762
 21
2533.507924
 31
0.0
  0
LINE
  5
39A
102
{ACAD_REACTORS
330
56B
102
}
330
1F
100
AcDbEntity
  8
LC-002-002-----0
 62
     7
370
    50
100
AcDbLine
 10
423.57762
 20
2533.507924
 30
0.0
 11
416.345737
 21
2532.585202
 31
0.0
  0
LINE
  5
39B
102
{ACAD_REACTORS
330
56B
102
}
330
1F
100
AcDbEntity
  8
LC-002-002-----0
 62
     7
370
    50
100
AcDbLine
 10
416.345737
 20
2532.585202
 30
0.0
 11
408.812012
 21
2530.953233
 31
0.0
  0
LINE
  5
39C
102
{ACAD_REACTORS
330
56B
102
}
330
1F
100
AcDbEntity
  8
LC-002-002-----0
 62
     7
370
    50
100
AcDbLine
 10
408.812012
 20
2530.953233
 30
0.0
 11
401.280256
 21
2528.607873
 31
0.0
  0
LINE
  5
39D
102
{ACAD_REACTORS
330
56B
102
}
330
1F
100
AcDbEntity
  8
LC-002-002-----0
 62
     7
370
    50
100
AcDbLine
 10
401.280256
 20
2528.607873
 30
0.0
 11
393.648069
 21
2525.466528
 31
0.0
  0
LINE
  5
39E
102
{ACAD_REACTORS
330
56B
102
}
330
1F
100
AcDbEntity
  8
LC-002-002-----0
 62
     7
370
    50
100
AcDbLine
 10
393.648069
 20
2525.466528
 30
0.0
 11
386.091929
 21
2521.554719
 31
0.0
  0
LINE
  5
39F
102
{ACAD_REACTORS
330
56B
102
}
330
1F
100
AcDbEntity
  8
LC-002-002-----0
 62
     7
370
    50
100
AcDbLine
 10
386.091929
 20
2521.554719
 30
0.0
 11
378.680167
 21
2516.892539
 31
0.0
  0
LINE
  5
3A0
102
{ACAD_REACTORS
330
56B
102
}
330
1F
100
AcDbEntity
  8
LC-002-002-----0
 62
     7
370
    50
100
AcDbLine
 10
378.680167
 20
2516.892539
 30
0.0
 11
371.252826
 21
2511.341391
 31
0.0
  0
LINE
  5
3A1
102
{ACAD_REACTORS
330
56B
102
}
330
1F
100
AcDbEntity
  8
LC-002-002-----0
 62
     7
370
    50
100
AcDbLine
 10
371.252826
 20
2511.341391
 30
0.0
 11
363.699787
 21
2504.719576
 31
0.0
  0
LINE
  5
3A2
102
{ACAD_REACTORS
330
56B
102
}
330
1F
100
AcDbEntity
  8
LC-002-002-----0
 62
     7
370
    50
100
AcDbLine
 10
363.699787
 20
2504.719576
 30
0.0
 11
356.059855
 21
2496.925026
 31
0.0
  0
LINE
  5
3A3
102
{ACAD_REACTORS
330
56B
102
}
330
1F
100
AcDbEntity
  8
LC-002-002-----0
 62
     7
370
    50
100
AcDbLine
 10
356.059855
 20
2496.925026
 30
0.0
 11
348.400917
 21
2487.883461
 31
0.0
  0
LINE
  5
3A4
102
{ACAD_REACTORS
330
56B
102
}
330
1F
100
AcDbEntity
  8
LC-002-002-----0
 62
     7
370
    50
100
AcDbLine
 10
348.400917
 20
2487.883461
 30
0.0
 11
340.663844
 21
2477.343529
 31
0.0
  0
LINE
  5
3A5
102
{ACAD_REACTORS
330
56B
102
}
330
1F
100
AcDbEntity
  8
LC-002-002-----0
 62
     7
370
    50
100
AcDbLine
 10
340.663844
 20
2477.343529
 30
0.0
 11
333.064161
 21
2465.412587
 31
0.0
  0
LINE
  5
3A6
102
{ACAD_REACTORS
330
56B
102
}
330
1F
100
AcDbEntity
  8
LC-002-002-----0
 62
     7
370
    50
100
AcDbLine
 10
333.064161
 20
2465.412587
 30
0.0
 11
325.577013
 21
2451.866253
 31
0.0
  0
LINE
  5
3A7
102
{ACAD_REACTORS
330
56B
102
}
330
1F
100
AcDbEntity
  8
LC-002-002-----0
 62
     7
370
    50
100
AcDbLine
 10
325.577013
 20
2451.866253
 30
0.0
 11
318.008269
 21
2435.995381
 31
0.0
  0
LINE
  5
3A8
102
{ACAD_REACTORS
330
56B
102
}
330
1F
100
AcDbEntity
  8
LC-002-002-----0
 62
     7
370
    50
100
AcDbLine
 10
318.008269
 20
2435.995381
 30
0.0
 11
310.429558
 21
2417.361393
 31
0.0
  0
LINE
  5
3A9
102
{ACAD_REACTORS
330
56B
102
}
330
1F
100
AcDbEntity
  8
LC-002-002-----0
 62
     7
370
    50
100
AcDbLine
 10
310.429558
 20
2417.361393
 30
0.0
 11
303.5283
 21
2397.273871
 31
0.0
  0
LINE
  5
3AA
102
{ACAD_REACTORS
330
56B
102
}
330
1F
100
AcDbEntity
  8
LC-002-002-----0
 62
     7
370
    50
100
AcDbLine
 10
303.5283
 20
2397.273871
 30
0.0
 11
296.808879
 21
2373.753295
 31
0.0
  0
LINE
  5
3AB
102
{ACAD_REACTORS
330
56B
102
}
330
1F
100
AcDbEntity
  8
LC-002-002-----0
 62
     7
370
    50
100
AcDbLine
 10
296.808879
 20
2373.753295
 30
0.0
 11
290.638795
 21
2346.984979
 31
0.0
  0
LINE
  5
3AC
102
{ACAD_REACTORS
330
56B
102
}
330
1F
100
AcDbEntity
  8
LC-002-002-----0
 62
     7
370
    50
100
AcDbLine
 10
290.638795
 20
2346.984979
 30
0.0
 11
285.407502
 21
2317.746691
 31
0.0
  0
LINE
  5
3AD
102
{ACAD_REACTORS
330
56B
102
}
330
1F
100
AcDbEntity
  8
LC-002-002-----0
 62
     7
370
    50
100
AcDbLine
 10
285.407502
 20
2317.746691
 30
0.0
 11
281.020558
 21
2283.822857
 31
0.0
  0
LINE
  5
3AE
102
{ACAD_REACTORS
330
56B
102
}
330
1F
100
AcDbEntity
  8
LC-002-002-----0
 62
     7
370
    50
100
AcDbLine
 10
402.510333
 20
2484.716459
 30
0.0
 11
397.148992
 21
2480.835601
 31
0.0
  0
LINE
  5
3AF
102
{ACAD_REACTORS
330
56B
102
}
330
1F
100
AcDbEntity
  8
LC-002-002-----0
 62
     7
370
    50
100
AcDbLine
 10
397.148992
 20
2480.835601
 30
0.0
 11
391.4021
 21
2475.862983
 31
0.0
  0
LINE
  5
3B0
102
{ACAD_REACTORS
330
56B
102
}
330
1F
100
AcDbEntity
  8
LC-002-002-----0
 62
     7
370
    50
100
AcDbLine
 10
391.4021
 20
2475.862983
 30
0.0
 11
385.717164
 21
2470.082748
 31
0.0
  0
LINE
  5
3B1
102
{ACAD_REACTORS
330
56B
102
}
330
1F
100
AcDbEntity
  8
LC-002-002-----0
 62
     7
370
    50
100
AcDbLine
 10
385.717164
 20
2470.082748
 30
0.0
 11
379.664025
 21
2462.929902
 31
0.0
  0
LINE
  5
3B2
102
{ACAD_REACTORS
330
56B
102
}
330
1F
100
AcDbEntity
  8
LC-002-002-----0
 62
     7
370
    50
100
AcDbLine
 10
379.664025
 20
2462.929902
 30
0.0
 11
373.836154
 21
2454.987771
 31
0.0
  0
LINE
  5
3B3
102
{ACAD_REACTORS
330
56B
102
}
330
1F
100
AcDbEntity
  8
LC-002-002-----0
 62
     7
370
    50
100
AcDbLine
 10
373.836154
 20
2454.987771
 30
0.0
 11
367.654876
 21
2445.316767
 31
0.0
  0
LINE
  5
3B4
102
{ACAD_REACTORS
330
56B
102
}
330
1F
100
AcDbEntity
  8
LC-002-002-----0
 62
     7
370
    50
100
AcDbLine
 10
367.654876
 20
2445.316767
 30
0.0
 11
361.037516
 21
2433.354335
 31
0.0
  0
LINE
  5
3B5
102
{ACAD_REACTORS
330
56B
102
}
330
1F
100
AcDbEntity
  8
LC-002-002-----0
 62
     7
370
    50
100
AcDbLine
 10
361.037516
 20
2433.354335
 30
0.0
 11
354.596632
 21
2419.833588
 31
0.0
  0
LINE
  5
3B6
102
{ACAD_REACTORS
330
56B
102
}
330
1F
100
AcDbEntity
  8
LC-002-002-----0
 62
     7
370
    50
100
AcDbLine
 10
354.596632
 20
2419.833588
 30
0.0
 11
348.237837
 21
2404.264401
 31
0.0
  0
LINE
  5
3B7
102
{ACAD_REACTORS
330
56B
102
}
330
1F
100
AcDbEntity
  8
LC-002-002-----0
 62
     7
370
    50
100
AcDbLine
 10
348.237837
 20
2404.264401
 30
0.0
 11
341.695208
 21
2385.303493
 31
0.0
  0
LINE
  5
3B8
102
{ACAD_REACTORS
330
56B
102
}
330
1F
100
AcDbEntity
  8
LC-002-002-----0
 62
     7
370
    50
100
AcDbLine
 10
341.695208
 20
2385.303493
 30
0.0
 11
335.776433
 21
2364.671695
 31
0.0
  0
LINE
  5
3B9
102
{ACAD_REACTORS
330
56B
102
}
330
1F
100
AcDbEntity
  8
LC-002-002-----0
 62
     7
370
    50
100
AcDbLine
 10
335.776433
 20
2364.671695
 30
0.0
 11
330.002442
 21
2339.821906
 31
0.0
  0
LINE
  5
3BA
102
{ACAD_REACTORS
330
56B
102
}
330
1F
100
AcDbEntity
  8
LC-002-002-----0
 62
     7
370
    50
100
AcDbLine
 10
330.002442
 20
2339.821906
 30
0.0
 11
325.025667
 21
2312.205611
 31
0.0
  0
LINE
  5
3BB
102
{ACAD_REACTORS
330
56B
102
}
330
1F
100
AcDbEntity
  8
LC-002-002-----0
 62
     7
370
    50
100
AcDbLine
 10
325.025667
 20
2312.205611
 30
0.0
 11
320.801434
 21
2279.641718
 31
0.0
  0
LINE
  5
3BC
102
{ACAD_REACTORS
330
56B
102
}
330
1F
100
AcDbEntity
  8
LC-002-002-----0
 62
     7
370
    50
100
AcDbLine
 10
491.020558
 20
2498.822857
 30
0.0
 11
431.020558
 21
2498.822857
 31
0.0
  0
LINE
  5
3BD
102
{ACAD_REACTORS
330
56B
102
}
330
1F
100
AcDbEntity
  8
LC-002-002-----0
 62
     7
370
    50
100
AcDbLine
 10
275.065293
 20
2227.162289
 30
0.0
 11
281.020558
 21
2283.822857
 31
0.0
  0
LINE
  5
3BE
102
{ACAD_REACTORS
330
56B
102
}
330
1F
100
AcDbEntity
  8
LC-002-002-----0
 62
     7
370
    50
100
AcDbLine
 10
315.285624
 20
2227.162289
 30
0.0
 11
320.801434
 21
2279.641718
 31
0.0
  0
INSERT
  5
3C9
102
{ACAD_REACTORS
330
56B
102
}
330
1F
100
AcDbEntity
  8
LC-006-005-----0
 62
     7
370
    25
100
AcDbBlockReference
  2
*X49
 10
0.0
 20
0.0
 30
0.0
  0
LINE
  5
3CA
102
{ACAD_REACTORS
330
56C
102
}
330
1F
100
AcDbEntity
  8
LC-002-002-----0
 62
     7
370
    25
100
AcDbLine
 10
1380.551447
 20
2393.33245
 30
0.0
 11
1309.555172
 21
2393.33245
 31
0.0
  0
LINE
  5
3CB
102
{ACAD_REACTORS
330
56C
102
}
330
1F
100
AcDbEntity
  8
LC-002-002-----0
 62
     7
370
    25
100
AcDbLine
 10
1113.616904
 20
2311.15387
 30
0.0
 11
1112.479443
 21
2311.745995
 31
0.0
  0
LINE
  5
3CC
102
{ACAD_REACTORS
330
56C
102
}
330
1F
100
AcDbEntity
  8
LC-002-002-----0
 62
     7
370
    25
100
AcDbLine
 10
1113.616904
 20
2313.46287
 30
0.0
 11
1112.479443
 21
2314.054995
 31
0.0
  0
LINE
  5
3CD
102
{ACAD_REACTORS
330
56C
102
}
330
1F
100
AcDbEntity
  8
LC-002-002-----0
 62
     7
370
    25
100
AcDbLine
 10
1113.616904
 20
2315.77187
 30
0.0
 11
1112.479443
 21
2316.363995
 31
0.0
  0
LINE
  5
3CE
102
{ACAD_REACTORS
330
56C
102
}
330
1F
100
AcDbEntity
  8
LC-002-002-----0
 62
     7
370
    25
100
AcDbLine
 10
1113.616904
 20
2318.08087
 30
0.0
 11
1112.479443
 21
2318.672995
 31
0.0
  0
LINE
  5
3CF
102
{ACAD_REACTORS
330
56C
102
}
330
1F
100
AcDbEntity
  8
LC-002-002-----0
 62
     7
370
    25
100
AcDbLine
 10
1159.89479
 20
2312.308811
 30
0.0
 11
1158.75733
 21
2312.900935
 31
0.0
  0
LINE
  5
3D0
102
{ACAD_REACTORS
330
56C
102
}
330
1F
100
AcDbEntity
  8
LC-002-002-----0
 62
     7
370
    25
100
AcDbLine
 10
1159.89479
 20
2314.617811
 30
0.0
 11
1158.75733
 21
2315.209935
 31
0.0
  0
LINE
  5
3D1
102
{ACAD_REACTORS
330
56C
102
}
330
1F
100
AcDbEntity
  8
LC-002-002-----0
 62
     7
370
    25
100
AcDbLine
 10
1159.89479
 20
2316.926811
 30
0.0
 11
1158.75733
 21
2317.518935
 31
0.0
  0
LINE
  5
3D2
102
{ACAD_REACTORS
330
56C
102
}
330
1F
100
AcDbEntity
  8
LC-002-002-----0
 62
     7
370
    25
100
AcDbLine
 10
1159.89479
 20
2319.235811
 30
0.0
 11
1158.75733
 21
2319.827935
 31
0.0
  0
LINE
  5
3D3
102
{ACAD_REACTORS
330
56C
102
}
330
1F
100
AcDbEntity
  8
LC-002-002-----0
 62
     7
370
    25
100
AcDbLine
 10
1113.787117
 20
2341.372903
 30
0.0
 11
1113.787117
 21
2320.108903
 31
0.0
  0
LINE
  5
3D4
102
{ACAD_REACTORS
330
56C
102
}
330
1F
100
AcDbEntity
  8
LC-002-002-----0
 62
     7
370
    25
100
AcDbLine
 10
1113.787117
 20
2310.872903
 30
0.0
 11
1113.787117
 21
2310.372903
 31
0.0
  0
LINE
  5
3D5
102
{ACAD_REACTORS
330
56C
102
}
330
1F
100
AcDbEntity
  8
LC-002-002-----0
 62
     7
370
    25
100
AcDbLine
 10
1158.587117
 20
2310.372903
 30
0.0
 11
1113.787117
 21
2310.372903
 31
0.0
  0
LINE
  5
3D6
102
{ACAD_REACTORS
330
56C
102
}
330
1F
100
AcDbEntity
  8
LC-002-002-----0
 62
     7
370
    25
100
AcDbLine
 10
1158.564633
 20
2341.372903
 30
0.0
 11
1158.564633
 21
2337.372903
 31
0.0
  0
LINE
  5
3D7
102
{ACAD_REACTORS
330
56C
102
}
330
1F
100
AcDbEntity
  8
LC-002-002-----0
 62
     7
370
    25
100
AcDbLine
 10
1158.587117
 20
2337.372903
 30
0.0
 11
1158.587117
 21
2320.108903
 31
0.0
  0
LINE
  5
3D8
102
{ACAD_REACTORS
330
56C
102
}
330
1F
100
AcDbEntity
  8
LC-002-002-----0
 62
     7
370
    25
100
AcDbLine
 10
1158.587117
 20
2310.872903
 30
0.0
 11
1158.587117
 21
2310.372903
 31
0.0
  0
LINE
  5
3D9
102
{ACAD_REACTORS
330
56C
102
}
330
1F
100
AcDbEntity
  8
LC-002-002-----0
 62
     7
370
    25
100
AcDbLine
 10
1294.209706
 20
2383.956457
 30
0.0
 11
1294.209706
 21
2338.421407
 31
0.0
  0
LINE
  5
3DA
102
{ACAD_REACTORS
330
56C
102
}
330
1F
100
AcDbEntity
  8
LC-002-002-----0
 62
     7
370
    25
100
AcDbLine
 10
1318.553309
 20
2338.972903
 30
0.0
 11
1294.209657
 21
2338.972903
 31
0.0
  0
LINE
  5
3DB
102
{ACAD_REACTORS
330
56C
102
}
330
1F
100
AcDbEntity
  8
LC-002-002-----0
 62
     7
370
    25
100
AcDbLine
 10
1345.053309
 20
2339.372903
 30
0.0
 11
1318.953309
 21
2339.372903
 31
0.0
  0
ARC
  5
3DC
102
{ACAD_REACTORS
330
56C
102
}
330
1F
100
AcDbEntity
  8
LC-004-002-RND-0
 62
     7
370
    25
100
AcDbCircle
 10
1345.053309
 20
2361.372903
 30
0.0
 40
22.0
100
AcDbArc
 50
270.0
 51
0.0
  0
LINE
  5
3DD
102
{ACAD_REACTORS
330
56C
102
}
330
1F
100
AcDbEntity
  8
LC-002-002-----0
 62
     7
370
    25
100
AcDbLine
 10
1271.053309
 20
2381.372903
 30
0.0
 11
1154.187117
 21
2381.372903
 31
0.0
  0
LINE
  5
3DE
102
{ACAD_REACTORS
330
56C
102
}
330
1F
100
AcDbEntity
  8
LC-002-002-----0
 62
     7
370
    25
100
AcDbLine
 10
1316.60016
 20
2383.772903
 30
0.0
 11
1294.209657
 21
2383.772903
 31
0.0
  0
LINE
  5
3DF
102
{ACAD_REACTORS
330
56C
102
}
330
1F
100
AcDbEntity
  8
LC-002-002-----0
 62
     7
370
    25
100
AcDbLine
 10
1116.189244
 20
2343.77503
 30
0.0
 11
1113.787377
 21
2341.373163
 31
0.0
  0
LINE
  5
3E0
102
{ACAD_REACTORS
330
56C
102
}
330
1F
100
AcDbEntity
  8
LC-002-002-----0
 62
     7
370
    25
100
AcDbLine
 10
1291.611528
 20
2336.921412
 30
0.0
 11
1290.745506
 21
2338.421407
 31
0.0
  0
LINE
  5
3E1
102
{ACAD_REACTORS
330
56C
102
}
330
1F
100
AcDbEntity
  8
LC-002-002-----0
 62
     7
370
    25
100
AcDbLine
 10
1293.343579
 20
2336.921412
 30
0.0
 11
1292.477557
 21
2338.421407
 31
0.0
  0
LINE
  5
3E2
102
{ACAD_REACTORS
330
56C
102
}
330
1F
100
AcDbEntity
  8
LC-002-002-----0
 62
     7
370
    25
100
AcDbLine
 10
1290.745604
 20
2383.956457
 30
0.0
 11
1290.053309
 21
2385.155547
 31
0.0
  0
LINE
  5
3E3
102
{ACAD_REACTORS
330
56C
102
}
330
1F
100
AcDbEntity
  8
LC-002-002-----0
 62
     7
370
    25
100
AcDbLine
 10
1292.477655
 20
2383.956457
 30
0.0
 11
1291.611633
 21
2385.456451
 31
0.0
  0
LINE
  5
3E4
102
{ACAD_REACTORS
330
56C
102
}
330
1F
100
AcDbEntity
  8
LC-002-002-----0
 62
     7
370
    25
100
AcDbLine
 10
1294.209706
 20
2383.956457
 30
0.0
 11
1293.343684
 21
2385.456451
 31
0.0
  0
LINE
  5
3E5
102
{ACAD_REACTORS
330
56C
102
}
330
1F
100
AcDbEntity
  8
LC-002-002-----0
 62
     7
370
    25
100
AcDbLine
 10
1112.479443
 20
2319.235811
 30
0.0
 11
1113.616904
 21
2319.827935
 31
0.0
  0
LINE
  5
3E6
102
{ACAD_REACTORS
330
56C
102
}
330
1F
100
AcDbEntity
  8
LC-002-002-----0
 62
     7
370
    25
100
AcDbLine
 10
1112.479443
 20
2316.926811
 30
0.0
 11
1113.616904
 21
2317.518935
 31
0.0
  0
LINE
  5
3E7
102
{ACAD_REACTORS
330
56C
102
}
330
1F
100
AcDbEntity
  8
LC-002-002-----0
 62
     7
370
    25
100
AcDbLine
 10
1112.479443
 20
2314.617811
 30
0.0
 11
1113.616904
 21
2315.209935
 31
0.0
  0
LINE
  5
3E8
102
{ACAD_REACTORS
330
56C
102
}
330
1F
100
AcDbEntity
  8
LC-002-002-----0
 62
     7
370
    25
100
AcDbLine
 10
1112.479443
 20
2312.308811
 30
0.0
 11
1113.616904
 21
2312.900935
 31
0.0
  0
LINE
  5
3E9
102
{ACAD_REACTORS
330
56C
102
}
330
1F
100
AcDbEntity
  8
LC-002-002-----0
 62
     7
370
    25
100
AcDbLine
 10
1158.75733
 20
2318.08087
 30
0.0
 11
1159.89479
 21
2318.672995
 31
0.0
  0
LINE
  5
3EA
102
{ACAD_REACTORS
330
56C
102
}
330
1F
100
AcDbEntity
  8
LC-002-002-----0
 62
     7
370
    25
100
AcDbLine
 10
1158.75733
 20
2315.77187
 30
0.0
 11
1159.89479
 21
2316.363995
 31
0.0
  0
LINE
  5
3EB
102
{ACAD_REACTORS
330
56C
102
}
330
1F
100
AcDbEntity
  8
LC-002-002-----0
 62
     7
370
    25
100
AcDbLine
 10
1158.75733
 20
2313.46287
 30
0.0
 11
1159.89479
 21
2314.054995
 31
0.0
  0
LINE
  5
3EC
102
{ACAD_REACTORS
330
56C
102
}
330
1F
100
AcDbEntity
  8
LC-002-002-----0
 62
     7
370
    25
100
AcDbLine
 10
1158.75733
 20
2311.15387
 30
0.0
 11
1159.89479
 21
2311.745995
 31
0.0
  0
LINE
  5
3ED
102
{ACAD_REACTORS
330
56C
102
}
330
1F
100
AcDbEntity
  8
LC-002-002-----0
 62
     7
370
    25
100
AcDbLine
 10
1316.60016
 20
2383.772903
 30
0.0
 11
1316.285924
 21
2385.492933
 31
0.0
  0
LINE
  5
3EE
102
{ACAD_REACTORS
330
56C
102
}
330
1F
100
AcDbEntity
  8
LC-002-002-----0
 62
     7
370
    25
100
AcDbLine
 10
1309.555172
 20
2392.629205
 30
0.0
 11
1309.555172
 21
2393.33245
 31
0.0
  0
LINE
  5
3EF
102
{ACAD_REACTORS
330
56C
102
}
330
1F
100
AcDbEntity
  8
LC-002-002-----0
 62
     7
370
    25
100
AcDbLine
 10
1291.611528
 20
2385.456451
 30
0.0
 11
1290.745506
 21
2383.956457
 31
0.0
  0
LINE
  5
3F0
102
{ACAD_REACTORS
330
56C
102
}
330
1F
100
AcDbEntity
  8
LC-002-002-----0
 62
     7
370
    25
100
AcDbLine
 10
1293.343579
 20
2385.456451
 30
0.0
 11
1292.477557
 21
2383.956457
 31
0.0
  0
LINE
  5
3F1
102
{ACAD_REACTORS
330
56C
102
}
330
1F
100
AcDbEntity
  8
LC-002-002-----0
 62
     7
370
    25
100
AcDbLine
 10
1290.745604
 20
2338.421407
 30
0.0
 11
1290.053309
 21
2337.222317
 31
0.0
  0
LINE
  5
3F2
102
{ACAD_REACTORS
330
56C
102
}
330
1F
100
AcDbEntity
  8
LC-002-002-----0
 62
     7
370
    25
100
AcDbLine
 10
1292.477655
 20
2338.421407
 30
0.0
 11
1291.611633
 21
2336.921412
 31
0.0
  0
LINE
  5
3F3
102
{ACAD_REACTORS
330
56C
102
}
330
1F
100
AcDbEntity
  8
LC-002-002-----0
 62
     7
370
    25
100
AcDbLine
 10
1294.209706
 20
2338.421407
 30
0.0
 11
1293.343684
 21
2336.921412
 31
0.0
  0
LINE
  5
3F4
102
{ACAD_REACTORS
330
56C
102
}
330
1F
100
AcDbEntity
  8
LC-002-002-----0
 62
     7
370
    25
100
AcDbLine
 10
1367.053309
 20
2361.372903
 30
0.0
 11
1367.053309
 21
2375.064087
 31
0.0
  0
LINE
  5
3F5
102
{ACAD_REACTORS
330
56C
102
}
330
1F
100
AcDbEntity
  8
LC-002-002-----0
 62
     7
370
    25
100
AcDbLine
 10
1380.551447
 20
2392.629205
 30
0.0
 11
1380.551447
 21
2393.33245
 31
0.0
  0
LINE
  5
3F6
102
{ACAD_REACTORS
330
56C
102
}
330
1F
100
AcDbEntity
  8
LC-002-002-----0
 62
     7
370
    25
100
AcDbLine
 10
1373.342248
 20
2382.874069
 30
0.0
 11
1373.820694
 21
2385.492933
 31
0.0
  0
LINE
  5
3F7
102
{ACAD_REACTORS
330
56C
102
}
330
1F
100
AcDbEntity
  8
LC-002-002-----0
 62
     7
370
    25
100
AcDbLine
 10
1318.553336
 20
2338.97293
 30
0.0
 11
1318.953417
 21
2339.37301
 31
0.0
  0
ARC
  5
3F8
102
{ACAD_REACTORS
330
56C
102
}
330
1F
100
AcDbEntity
  8
LC-002-002-----0
 62
     7
370
    25
100
AcDbCircle
 10
1158.904117
 20
2320.108903
 30
0.0
 40
0.3170000000000073
100
AcDbArc
 50
180.0
 51
242.36046
  0
ARC
  5
3F9
102
{ACAD_REACTORS
330
56C
102
}
330
1F
100
AcDbEntity
  8
LC-002-002-----0
 62
     7
370
    25
100
AcDbCircle
 10
1113.470117
 20
2320.108903
 30
0.0
 40
0.3169999999997534
100
AcDbArc
 50
297.567177
 51
0.0
  0
ARC
  5
3FA
102
{ACAD_REACTORS
330
56C
102
}
330
1F
100
AcDbEntity
  8
LC-002-002-----0
 62
     7
370
    25
100
AcDbCircle
 10
1159.748849
 20
2318.954403
 30
0.0
 40
0.3169999999997454
100
AcDbArc
 50
297.317979
 51
62.682021
  0
ARC
  5
3FB
102
{ACAD_REACTORS
330
56C
102
}
330
1F
100
AcDbEntity
  8
LC-002-002-----0
 62
     7
370
    25
100
AcDbCircle
 10
1112.625384
 20
2318.954403
 30
0.0
 40
0.3170000000004072
100
AcDbArc
 50
117.394588
 51
242.605412
  0
ARC
  5
3FC
102
{ACAD_REACTORS
330
56C
102
}
330
1F
100
AcDbEntity
  8
LC-002-002-----0
 62
     7
370
    25
100
AcDbCircle
 10
1113.470117
 20
2317.799903
 30
0.0
 40
0.3170000000001564
100
AcDbArc
 50
297.567177
 51
62.432823
  0
ARC
  5
3FD
102
{ACAD_REACTORS
330
56C
102
}
330
1F
100
AcDbEntity
  8
LC-002-002-----0
 62
     7
370
    25
100
AcDbCircle
 10
1158.904117
 20
2317.799903
 30
0.0
 40
0.3169999999998827
100
AcDbArc
 50
117.63954
 51
242.36046
  0
ARC
  5
3FE
102
{ACAD_REACTORS
330
56C
102
}
330
1F
100
AcDbEntity
  8
LC-002-002-----0
 62
     7
370
    25
100
AcDbCircle
 10
1159.748849
 20
2316.645403
 30
0.0
 40
0.3169999999999542
100
AcDbArc
 50
297.317979
 51
62.682021
  0
ARC
  5
3FF
102
{ACAD_REACTORS
330
56C
102
}
330
1F
100
AcDbEntity
  8
LC-002-002-----0
 62
     7
370
    25
100
AcDbCircle
 10
1112.625384
 20
2316.645403
 30
0.0
 40
0.3169999999999887
100
AcDbArc
 50
117.394588
 51
242.605412
  0
ARC
  5
400
102
{ACAD_REACTORS
330
56C
102
}
330
1F
100
AcDbEntity
  8
LC-002-002-----0
 62
     7
370
    25
100
AcDbCircle
 10
1113.470117
 20
2315.490903
 30
0.0
 40
0.3170000000001386
100
AcDbArc
 50
297.567177
 51
62.432823
  0
ARC
  5
401
102
{ACAD_REACTORS
330
56C
102
}
330
1F
100
AcDbEntity
  8
LC-002-002-----0
 62
     7
370
    25
100
AcDbCircle
 10
1158.904117
 20
2315.490903
 30
0.0
 40
0.3169999999998827
100
AcDbArc
 50
117.63954
 51
242.36046
  0
ARC
  5
402
102
{ACAD_REACTORS
330
56C
102
}
330
1F
100
AcDbEntity
  8
LC-002-002-----0
 62
     7
370
    25
100
AcDbCircle
 10
1159.748849
 20
2314.336403
 30
0.0
 40
0.3169999999999542
100
AcDbArc
 50
297.317979
 51
62.682021
  0
ARC
  5
403
102
{ACAD_REACTORS
330
56C
102
}
330
1F
100
AcDbEntity
  8
LC-002-002-----0
 62
     7
370
    25
100
AcDbCircle
 10
1112.625384
 20
2314.336403
 30
0.0
 40
0.3170000000000035
100
AcDbArc
 50
117.394588
 51
242.605412
  0
ARC
  5
404
102
{ACAD_REACTORS
330
56C
102
}
330
1F
100
AcDbEntity
  8
LC-002-002-----0
 62
     7
370
    25
100
AcDbCircle
 10
1113.470117
 20
2313.181903
 30
0.0
 40
0.3169999999997356
100
AcDbArc
 50
297.567177
 51
62.432823
  0
ARC
  5
405
102
{ACAD_REACTORS
330
56C
102
}
330
1F
100
AcDbEntity
  8
LC-002-002-----0
 62
     7
370
    25
100
AcDbCircle
 10
1158.904117
 20
2313.181903
 30
0.0
 40
0.3170000000002856
100
AcDbArc
 50
117.63954
 51
242.36046
  0
ARC
  5
406
102
{ACAD_REACTORS
330
56C
102
}
330
1F
100
AcDbEntity
  8
LC-002-002-----0
 62
     7
370
    25
100
AcDbCircle
 10
1159.748849
 20
2312.027403
 30
0.0
 40
0.3170000000001494
100
AcDbArc
 50
297.317979
 51
62.682021
  0
ARC
  5
407
102
{ACAD_REACTORS
330
56C
102
}
330
1F
100
AcDbEntity
  8
LC-002-002-----0
 62
     7
370
    25
100
AcDbCircle
 10
1112.625384
 20
2312.027403
 30
0.0
 40
0.3170000000000035
100
AcDbArc
 50
117.394588
 51
242.605412
  0
ARC
  5
408
102
{ACAD_REACTORS
330
56C
102
}
330
1F
100
AcDbEntity
  8
LC-002-002-----0
 62
     7
370
    25
100
AcDbCircle
 10
1158.904117
 20
2310.872903
 30
0.0
 40
0.3170000000000937
100
AcDbArc
 50
117.63954
 51
180.0
  0
ARC
  5
409
102
{ACAD_REACTORS
330
56C
102
}
330
1F
100
AcDbEntity
  8
LC-002-002-----0
 62
     7
370
    25
100
AcDbCircle
 10
1113.470117
 20
2310.872903
 30
0.0
 40
0.3170000000000073
100
AcDbArc
 50
0.0
 51
62.432823
  0
ARC
  5
40A
102
{ACAD_REACTORS
330
56C
102
}
330
1F
100
AcDbEntity
  8
LC-002-002-----0
 62
     7
370
    25
100
AcDbCircle
 10
1154.187117
 20
2343.372903
 30
0.0
 40
38.00000000000019
100
AcDbArc
 50
90.000006
 51
179.393653
  0
ARC
  5
40B
102
{ACAD_REACTORS
330
56C
102
}
330
1F
100
AcDbEntity
  8
LC-002-002-----0
 62
     7
370
    25
100
AcDbCircle
 10
1366.948084
 20
2384.04226
 30
0.0
 40
6.500000000000005
100
AcDbArc
 50
289.07704
 51
349.645823
  0
ARC
  5
40C
102
{ACAD_REACTORS
330
56C
102
}
330
1F
100
AcDbEntity
  8
LC-002-002-----0
 62
     7
370
    25
100
AcDbCircle
 10
1370.053309
 20
2375.064087
 30
0.0
 40
3.000000000000295
100
AcDbArc
 50
109.055448
 51
180.0
  0
ARC
  5
40D
102
{ACAD_REACTORS
330
56C
102
}
330
1F
100
AcDbEntity
  8
LC-002-002-----0
 62
     7
370
    25
100
AcDbCircle
 10
1378.551447
 20
2392.629205
 30
0.0
 40
1.999999999999766
100
AcDbArc
 50
334.152631
 51
0.0
  0
ARC
  5
40E
102
{ACAD_REACTORS
330
56C
102
}
330
1F
100
AcDbEntity
  8
LC-002-002-----0
 62
     7
370
    25
100
AcDbCircle
 10
1311.555172
 20
2392.629205
 30
0.0
 40
2.0
100
AcDbArc
 50
180.0
 51
205.847369
  0
ARC
  5
40F
102
{ACAD_REACTORS
330
56C
102
}
330
1F
100
AcDbEntity
  8
LC-002-002-----0
 62
     7
370
    25
100
AcDbCircle
 10
1374.951513
 20
2394.372903
 30
0.0
 40
5.999999999999846
100
AcDbArc
 50
286.283517
 51
334.155028
  0
ARC
  5
410
102
{ACAD_REACTORS
330
56C
102
}
330
1F
100
AcDbEntity
  8
LC-002-002-----0
 62
     7
370
    25
100
AcDbCircle
 10
1315.155105
 20
2394.372903
 30
0.0
 40
6.000000000000001
100
AcDbArc
 50
205.844972
 51
253.716483
  0
ARC
  5
411
102
{ACAD_REACTORS
330
56C
102
}
330
1F
100
AcDbEntity
  8
LC-002-002-----0
 62
     7
370
    25
100
AcDbCircle
 10
1377.755572
 20
2384.774087
 30
0.0
 40
3.999999999999806
100
AcDbArc
 50
106.281751
 51
169.647048
  0
ARC
  5
412
102
{ACAD_REACTORS
330
56C
102
}
330
1F
100
AcDbEntity
  8
LC-002-002-----0
 62
     7
370
    25
100
AcDbCircle
 10
1312.351046
 20
2384.774087
 30
0.0
 40
4.00000000000002
100
AcDbArc
 50
10.352952
 51
73.718249
  0
INSERT
  5
417
102
{ACAD_REACTORS
330
56C
102
}
330
1F
100
AcDbEntity
  8
LC-002-002-----0
 62
     7
370
    25
100
AcDbBlockReference
  2
POLY1
 10
0.0
 20
0.0
 30
0.0
  0
LINE
  5
418
102
{ACAD_REACTORS
330
56C
102
}
330
1F
100
AcDbEntity
  8
LC-002-002-----0
 62
     7
370
    25
100
AcDbLine
 10
1158.587117
 20
2341.372903
 30
0.0
 11
1271.053309
 21
2341.372903
 31
0.0
  0
LINE
  5
419
102
{ACAD_REACTORS
330
56C
102
}
330
1F
100
AcDbEntity
  8
LC-002-002-----0
 62
     7
370
    25
100
AcDbLine
 10
1287.553309
 20
2333.668109
 30
0.0
 11
1290.053309
 21
2333.668109
 31
0.0
  0
LINE
  5
41A
102
{ACAD_REACTORS
330
56C
102
}
330
1F
100
AcDbEntity
  8
LC-002-002-----0
 62
     7
370
    25
100
AcDbLine
 10
1286.553309
 20
2334.418109
 30
0.0
 11
1286.803309
 21
2334.418109
 31
0.0
  0
LINE
  5
41B
102
{ACAD_REACTORS
330
56C
102
}
330
1F
100
AcDbEntity
  8
LC-002-002-----0
 62
     7
370
    25
100
AcDbLine
 10
1286.553309
 20
2335.572903
 30
0.0
 11
1273.053309
 21
2335.572903
 31
0.0
  0
LINE
  5
41C
102
{ACAD_REACTORS
330
56C
102
}
330
1F
100
AcDbEntity
  8
LC-002-002-----0
 62
     7
370
    25
100
AcDbLine
 10
1286.553309
 20
2387.172903
 30
0.0
 11
1273.053309
 21
2387.172903
 31
0.0
  0
LINE
  5
41D
102
{ACAD_REACTORS
330
56C
102
}
330
1F
100
AcDbEntity
  8
LC-002-002-----0
 62
     7
370
    25
100
AcDbLine
 10
1286.553309
 20
2388.327696
 30
0.0
 11
1286.803309
 21
2388.327696
 31
0.0
  0
LINE
  5
41E
102
{ACAD_REACTORS
330
56C
102
}
330
1F
100
AcDbEntity
  8
LC-002-002-----0
 62
     7
370
    25
100
AcDbLine
 10
1287.553309
 20
2389.077696
 30
0.0
 11
1290.053309
 21
2389.077696
 31
0.0
  0
LINE
  5
41F
102
{ACAD_REACTORS
330
56C
102
}
330
1F
100
AcDbEntity
  8
LC-002-002-----0
 62
     7
370
    25
100
AcDbLine
 10
1286.803308
 20
2334.418111
 30
0.0
 11
1287.553308
 21
2333.66811
 31
0.0
  0
LINE
  5
420
102
{ACAD_REACTORS
330
56C
102
}
330
1F
100
AcDbEntity
  8
LC-002-002-----0
 62
     7
370
    25
100
AcDbLine
 10
1271.053309
 20
2385.172903
 30
0.0
 11
1271.053309
 21
2337.572903
 31
0.0
  0
LINE
  5
421
102
{ACAD_REACTORS
330
56C
102
}
330
1F
100
AcDbEntity
  8
LC-002-002-----0
 62
     7
370
    25
100
AcDbLine
 10
1286.553309
 20
2388.327678
 30
0.0
 11
1286.553309
 21
2387.172903
 31
0.0
  0
LINE
  5
422
102
{ACAD_REACTORS
330
56C
102
}
330
1F
100
AcDbEntity
  8
LC-002-002-----0
 62
     7
370
    25
100
AcDbLine
 10
1287.553175
 20
2389.077562
 30
0.0
 11
1287.553175
 21
2333.668244
 31
0.0
  0
LINE
  5
423
102
{ACAD_REACTORS
330
56C
102
}
330
1F
100
AcDbEntity
  8
LC-002-002-----0
 62
     7
370
    25
100
AcDbLine
 10
1290.053309
 20
2389.077696
 30
0.0
 11
1290.053309
 21
2333.668109
 31
0.0
  0
LINE
  5
424
102
{ACAD_REACTORS
330
56C
102
}
330
1F
100
AcDbEntity
  8
LC-002-002-----0
 62
     7
370
    25
100
AcDbLine
 10
1286.803308
 20
2388.327695
 30
0.0
 11
1287.553308
 21
2389.077695
 31
0.0
  0
ARC
  5
425
102
{ACAD_REACTORS
330
56C
102
}
330
1F
100
AcDbEntity
  8
LC-002-002-----0
 62
     7
370
    25
100
AcDbCircle
 10
1273.053309
 20
2385.172903
 30
0.0
 40
2.0
100
AcDbArc
 50
90.0
 51
180.0
  0
ARC
  5
426
102
{ACAD_REACTORS
330
56C
102
}
330
1F
100
AcDbEntity
  8
LC-002-002-----0
 62
     7
370
    25
100
AcDbCircle
 10
1273.053309
 20
2337.572903
 30
0.0
 40
2.0
100
AcDbArc
 50
180.0
 51
270.0
  0
LINE
  5
427
102
{ACAD_REACTORS
330
56C
102
}
330
1F
100
AcDbEntity
  8
LC-002-002-----0
 62
     7
370
    25
100
AcDbLine
 10
1286.553309
 20
2384.585289
 30
0.0
 11
1273.053309
 21
2384.585289
 31
0.0
  0
INSERT
  5
437
102
{ACAD_REACTORS
330
56C
102
}
330
1F
100
AcDbEntity
  8
LC-002-002-----0
 62
     7
370
    25
100
AcDbBlockReference
  2
POLY2
 10
0.0
 20
0.0
 30
0.0
  0
LINE
  5
438
102
{ACAD_REACTORS
330
56C
102
}
330
1F
100
AcDbEntity
  8
LC-002-002-----0
 62
     7
370
    25
100
AcDbLine
 10
1286.553309
 20
2361.37145
 30
0.0
 11
1273.053309
 21
2361.37145
 31
0.0
  0
INSERT
  5
448
102
{ACAD_REACTORS
330
56C
102
}
330
1F
100
AcDbEntity
  8
LC-002-002-----0
 62
     7
370
    25
100
AcDbBlockReference
  2
POLY3
 10
0.0
 20
0.0
 30
0.0
  0
LINE
  5
449
102
{ACAD_REACTORS
330
56C
102
}
330
1F
100
AcDbEntity
  8
LC-002-002-----0
 62
     7
370
    25
100
AcDbLine
 10
1273.053309
 20
2338.160408
 30
0.0
 11
1286.553309
 21
2338.160408
 31
0.0
  0
INSERT
  5
459
102
{ACAD_REACTORS
330
56C
102
}
330
1F
100
AcDbEntity
  8
LC-002-002-----0
 62
     7
370
    25
100
AcDbBlockReference
  2
POLY4
 10
0.0
 20
0.0
 30
0.0
  0
LINE
  5
45A
102
{ACAD_REACTORS
330
56C
102
}
330
1F
100
AcDbEntity
  8
LC-002-002-----0
 62
     7
370
    25
100
AcDbLine
 10
1290.053309
 20
2435.975131
 30
0.0
 11
1400.053309
 21
2435.975131
 31
0.0
  0
LINE
  5
45B
102
{ACAD_REACTORS
330
56C
102
}
330
1F
100
AcDbEntity
  8
LC-002-002-----0
 62
     7
370
    25
100
AcDbLine
 10
1400.053309
 20
2431.975131
 30
0.0
 11
1400.053309
 21
2435.975131
 31
0.0
  0
LINE
  5
45C
102
{ACAD_REACTORS
330
56C
102
}
330
1F
100
AcDbEntity
  8
LC-002-002-----0
 62
     7
370
    25
100
AcDbLine
 10
1382.553309
 20
2393.33245
 30
0.0
 11
1307.553309
 21
2393.33245
 31
0.0
  0
LINE
  5
45D
102
{ACAD_REACTORS
330
56C
102
}
330
1F
100
AcDbEntity
  8
LC-002-002-----0
 62
     7
370
    25
100
AcDbLine
 10
1384.558273
 20
2395.83245
 30
0.0
 11
1382.553309
 21
2395.83245
 31
0.0
  0
LINE
  5
45E
102
{ACAD_REACTORS
330
56C
102
}
330
1F
100
AcDbEntity
  8
LC-002-002-----0
 62
     7
370
    25
100
AcDbLine
 10
1387.802699
 20
2400.162225
 30
0.0
 11
1389.552674
 21
2401.172573
 31
0.0
  0
LINE
  5
45F
102
{ACAD_REACTORS
330
56C
102
}
330
1F
100
AcDbEntity
  8
LC-002-002-----0
 62
     7
370
    25
100
AcDbLine
 10
1382.553309
 20
2395.83245
 30
0.0
 11
1382.553309
 21
2393.33245
 31
0.0
  0
LINE
  5
460
102
{ACAD_REACTORS
330
56C
102
}
330
1F
100
AcDbEntity
  8
LC-002-002-----0
 62
     7
370
    25
100
AcDbLine
 10
1392.553309
 20
2406.369092
 30
0.0
 11
1392.553309
 21
2421.83245
 31
0.0
  0
LINE
  5
461
102
{ACAD_REACTORS
330
56C
102
}
330
1F
100
AcDbEntity
  8
LC-002-002-----0
 62
     7
370
    25
100
AcDbLine
 10
1400.053309
 20
2431.514908
 30
0.0
 11
1400.053309
 21
2431.975131
 31
0.0
  0
ARC
  5
462
102
{ACAD_REACTORS
330
56C
102
}
330
1F
100
AcDbEntity
  8
LC-002-002-----0
 62
     7
370
    25
100
AcDbCircle
 10
1396.553309
 20
2421.83245
 30
0.0
 40
3.999999999999869
100
AcDbArc
 50
104.492147
 51
180.0
  0
ARC
  5
463
102
{ACAD_REACTORS
330
56C
102
}
330
1F
100
AcDbEntity
  8
LC-002-002-----0
 62
     7
370
    25
100
AcDbCircle
 10
1394.053309
 20
2431.514908
 30
0.0
 40
6.000000000000098
100
AcDbArc
 50
284.469452
 51
0.0
  0
ARC
  5
464
102
{ACAD_REACTORS
330
56C
102
}
330
1F
100
AcDbEntity
  8
LC-002-002-----0
 62
     7
370
    25
100
AcDbCircle
 10
1386.553309
 20
2406.369092
 30
0.0
 40
5.999999999999863
100
AcDbArc
 50
299.988476
 51
0.0
  0
ARC
  5
465
102
{ACAD_REACTORS
330
56C
102
}
330
1F
100
AcDbEntity
  8
LC-002-002-----0
 62
     7
370
    25
100
AcDbCircle
 10
1390.303309
 20
2395.83245
 30
0.0
 40
5.00000000000002
100
AcDbArc
 50
120.016153
 51
172.072225
  0
ARC
  5
466
102
{ACAD_REACTORS
330
56C
102
}
330
1F
100
AcDbEntity
  8
LC-002-002-----0
 62
     7
370
    25
100
AcDbCircle
 10
1384.558747
 20
2396.63245
 30
0.0
 40
0.7999999999997272
100
AcDbArc
 50
270.0
 51
352.062606
  0
LINE
  5
467
102
{ACAD_REACTORS
330
56C
102
}
330
1F
100
AcDbEntity
  8
LC-002-002-----0
 62
     7
370
    25
100
AcDbLine
 10
1290.053309
 20
2431.975131
 30
0.0
 11
1290.053309
 21
2435.975131
 31
0.0
  0
LINE
  5
468
102
{ACAD_REACTORS
330
56C
102
}
330
1F
100
AcDbEntity
  8
LC-002-002-----0
 62
     7
370
    25
100
AcDbLine
 10
1302.303919
 20
2400.162225
 30
0.0
 11
1300.553944
 21
2401.172573
 31
0.0
  0
LINE
  5
469
102
{ACAD_REACTORS
330
56C
102
}
330
1F
100
AcDbEntity
  8
LC-002-002-----0
 62
     7
370
    25
100
AcDbLine
 10
1307.553309
 20
2395.83245
 30
0.0
 11
1307.553309
 21
2393.33245
 31
0.0
  0
LINE
  5
46A
102
{ACAD_REACTORS
330
56C
102
}
330
1F
100
AcDbEntity
  8
LC-002-002-----0
 62
     7
370
    25
100
AcDbLine
 10
1297.553309
 20
2406.369092
 30
0.0
 11
1297.553309
 21
2421.83245
 31
0.0
  0
LINE
  5
46B
102
{ACAD_REACTORS
330
56C
102
}
330
1F
100
AcDbEntity
  8
LC-002-002-----0
 62
     7
370
    25
100
AcDbLine
 10
1290.053309
 20
2431.514908
 30
0.0
 11
1290.053309
 21
2431.975131
 31
0.0
  0
ARC
  5
46C
102
{ACAD_REACTORS
330
56C
102
}
330
1F
100
AcDbEntity
  8
LC-002-002-----0
 62
     7
370
    25
100
AcDbCircle
 10
1293.553309
 20
2421.83245
 30
0.0
 40
4.0
100
AcDbArc
 50
0.0
 51
75.507853
  0
ARC
  5
46D
102
{ACAD_REACTORS
330
56C
102
}
330
1F
100
AcDbEntity
  8
LC-002-002-----0
 62
     7
370
    25
100
AcDbCircle
 10
1296.053309
 20
2431.514908
 30
0.0
 40
6.0
100
AcDbArc
 50
180.0
 51
255.530548
  0
ARC
  5
46E
102
{ACAD_REACTORS
330
56C
102
}
330
1F
100
AcDbEntity
  8
LC-002-002-----0
 62
     7
370
    25
100
AcDbCircle
 10
1303.553309
 20
2406.369092
 30
0.0
 40
6.0
100
AcDbArc
 50
180.0
 51
240.011524
  0
ARC
  5
46F
102
{ACAD_REACTORS
330
56C
102
}
330
1F
100
AcDbEntity
  8
LC-002-002-----0
 62
     7
370
    25
100
AcDbCircle
 10
1299.803309
 20
2395.83245
 30
0.0
 40
5.000000000000194
100
AcDbArc
 50
7.927775
 51
59.983847
  0
ARC
  5
470
102
{ACAD_REACTORS
330
56C
102
}
330
1F
100
AcDbEntity
  8
LC-002-002-----0
 62
     7
370
    25
100
AcDbCircle
 10
1305.547872
 20
2396.63245
 30
0.0
 40
0.7999999999998813
100
AcDbArc
 50
187.937394
 51
270.0
  0
LINE
  5
471
102
{ACAD_REACTORS
330
56C
102
}
330
1F
100
AcDbEntity
  8
LC-002-002-----0
 62
     7
370
    25
100
AcDbLine
 10
1286.553309
 20
2335.572903
 30
0.0
 11
1286.553309
 21
2334.418127
 31
0.0
  0
LINE
  5
472
102
{ACAD_REACTORS
330
56C
102
}
330
1F
100
AcDbEntity
  8
LC-002-002-----0
 62
     7
370
    25
100
AcDbLine
 10
1307.553309
 20
2395.83245
 30
0.0
 11
1305.547872
 21
2395.83245
 31
0.0
  0
LINE
  5
473
102
{ACAD_REACTORS
330
572
102
}
330
1F
100
AcDbEntity
  8
LC-002-002-----0
 62
     7
370
    25
100
AcDbLine
 10
838.09425
 20
1910.81002
 30
0.0
 11
838.09425
 21
1800.81002
 31
0.0
  0
LINE
  5
474
102
{ACAD_REACTORS
330
572
102
}
330
1F
100
AcDbEntity
  8
LC-002-002-----0
 62
     7
370
    25
100
AcDbLine
 10
842.09425
 20
1800.81002
 30
0.0
 11
838.09425
 21
1800.81002
 31
0.0
  0
LINE
  5
475
102
{ACAD_REACTORS
330
572
102
}
330
1F
100
AcDbEntity
  8
LC-002-002-----0
 62
     7
370
    25
100
AcDbLine
 10
880.736931
 20
1818.31002
 30
0.0
 11
880.736931
 21
1893.31002
 31
0.0
  0
LINE
  5
476
102
{ACAD_REACTORS
330
572
102
}
330
1F
100
AcDbEntity
  8
LC-002-002-----0
 62
     7
370
    25
100
AcDbLine
 10
878.236931
 20
1816.305057
 30
0.0
 11
878.236931
 21
1895.314984
 31
0.0
  0
LINE
  5
477
102
{ACAD_REACTORS
330
572
102
}
330
1F
100
AcDbEntity
  8
LC-002-002-----0
 62
     7
370
    25
100
AcDbLine
 10
842.09425
 20
1800.81002
 30
0.0
 11
842.09425
 21
1910.81002
 31
0.0
  0
LINE
  5
478
102
{ACAD_REACTORS
330
572
102
}
330
1F
100
AcDbEntity
  8
LC-002-002-----0
 62
     7
370
    25
100
AcDbLine
 10
878.236931
 20
1893.31002
 30
0.0
 11
880.736931
 21
1893.31002
 31
0.0
  0
LINE
  5
479
102
{ACAD_REACTORS
330
572
102
}
330
1F
100
AcDbEntity
  8
LC-002-002-----0
 62
     7
370
    25
100
AcDbLine
 10
873.907156
 20
1813.060631
 30
0.0
 11
872.896808
 21
1811.310656
 31
0.0
  0
LINE
  5
47A
102
{ACAD_REACTORS
330
572
102
}
330
1F
100
AcDbEntity
  8
LC-002-002-----0
 62
     7
370
    25
100
AcDbLine
 10
878.236931
 20
1818.31002
 30
0.0
 11
880.736931
 21
1818.31002
 31
0.0
  0
LINE
  5
47B
102
{ACAD_REACTORS
330
572
102
}
330
1F
100
AcDbEntity
  8
LC-002-002-----0
 62
     7
370
    25
100
AcDbLine
 10
867.700289
 20
1808.31002
 30
0.0
 11
852.236931
 21
1808.31002
 31
0.0
  0
LINE
  5
47C
102
{ACAD_REACTORS
330
572
102
}
330
1F
100
AcDbEntity
  8
LC-002-002-----0
 62
     7
370
    25
100
AcDbLine
 10
842.554473
 20
1800.81002
 30
0.0
 11
842.09425
 21
1800.81002
 31
0.0
  0
ARC
  5
47D
102
{ACAD_REACTORS
330
572
102
}
330
1F
100
AcDbEntity
  8
LC-002-002-----0
 62
     7
370
    25
100
AcDbCircle
 10
852.236931
 20
1804.31002
 30
0.0
 40
4.0
100
AcDbArc
 50
90.0
 51
165.507853
  0
ARC
  5
47E
102
{ACAD_REACTORS
330
572
102
}
330
1F
100
AcDbEntity
  8
LC-002-002-----0
 62
     7
370
    25
100
AcDbCircle
 10
842.554473
 20
1806.81002
 30
0.0
 40
6.0
100
AcDbArc
 50
270.0
 51
345.530548
  0
ARC
  5
47F
102
{ACAD_REACTORS
330
572
102
}
330
1F
100
AcDbEntity
  8
LC-002-002-----0
 62
     7
370
    25
100
AcDbCircle
 10
867.700289
 20
1814.31002
 30
0.0
 40
6.0
100
AcDbArc
 50
270.0
 51
330.011524
  0
ARC
  5
480
102
{ACAD_REACTORS
330
572
102
}
330
1F
100
AcDbEntity
  8
LC-002-002-----0
 62
     7
370
    25
100
AcDbCircle
 10
878.236931
 20
1810.56002
 30
0.0
 40
5.000000000000481
100
AcDbArc
 50
97.927775
 51
149.983847
  0
ARC
  5
481
102
{ACAD_REACTORS
330
572
102
}
330
1F
100
AcDbEntity
  8
LC-002-002-----0
 62
     7
370
    25
100
AcDbCircle
 10
878.236931
 20
1901.06002
 30
0.0
 40
5.000000000000038
100
AcDbArc
 50
236.045368
 51
262.072225
  0
ARC
  5
482
102
{ACAD_REACTORS
330
572
102
}
330
1F
100
AcDbEntity
  8
LC-002-002-----0
 62
     7
370
    25
100
AcDbCircle
 10
877.436931
 20
1816.304583
 30
0.0
 40
0.8000000000001064
100
AcDbArc
 50
277.937394
 51
0.0
  0
ARC
  5
483
102
{ACAD_REACTORS
330
572
102
}
330
1F
100
AcDbEntity
  8
LC-002-002-----0
 62
     7
370
    25
100
AcDbCircle
 10
877.436931
 20
1895.315458
 30
0.0
 40
0.8000000000000682
100
AcDbArc
 50
0.0
 51
82.062606
  0
INSERT
  5
48D
102
{ACAD_REACTORS
330
572
102
}
330
1F
100
AcDbEntity
  8
LC-002-002-----0
 62
     7
370
    25
100
AcDbBlockReference
  2
POLY5
 10
0.0
 20
0.0
 30
0.0
  0
INSERT
  5
497
102
{ACAD_REACTORS
330
572
102
}
330
1F
100
AcDbEntity
  8
LC-002-002-----0
 62
     7
370
    25
100
AcDbBlockReference
  2
POLY6
 10
0.0
 20
0.0
 30
0.0
  0
INSERT
  5
4A5
102
{ACAD_REACTORS
330
572
102
}
330
1F
100
AcDbEntity
  8
LC-002-002-----0
 62
     7
370
    25
100
AcDbBlockReference
  2
POLY7
 10
0.0
 20
0.0
 30
0.0
  0
INSERT
  5
4B3
102
{ACAD_REACTORS
330
572
102
}
330
1F
100
AcDbEntity
  8
LC-002-002-----0
 62
     7
370
    25
100
AcDbBlockReference
  2
POLY8
 10
0.0
 20
0.0
 30
0.0
  0
INSERT
  5
4C3
102
{ACAD_REACTORS
330
572
102
}
330
1F
100
AcDbEntity
  8
LC-002-002-----0
 62
     7
370
    25
100
AcDbBlockReference
  2
POLY9
 10
0.0
 20
0.0
 30
0.0
  0
INSERT
  5
4D1
102
{ACAD_REACTORS
330
572
102
}
330
1F
100
AcDbEntity
  8
LC-002-002-----0
 62
     7
370
    25
100
AcDbBlockReference
  2
POLY10
 10
0.0
 20
0.0
 30
0.0
  0
LINE
  5
4D2
102
{ACAD_REACTORS
330
572
102
}
330
1F
100
AcDbEntity
  8
LC-002-002-----0
 62
     7
370
    25
100
AcDbLine
 10
852.236931
 20
1900.845633
 30
0.0
 11
860.34425
 21
1900.845633
 31
0.0
  0
LINE
  5
4D3
102
{ACAD_REACTORS
330
572
102
}
330
1F
100
AcDbEntity
  8
LC-002-002-----0
 62
     7
370
    25
100
AcDbLine
 10
842.09425
 20
1910.81002
 30
0.0
 11
838.09425
 21
1910.81002
 31
0.0
  0
ARC
  5
4D4
102
{ACAD_REACTORS
330
572
102
}
330
1F
100
AcDbEntity
  8
LC-002-002-----0
 62
     7
370
    25
100
AcDbCircle
 10
912.696478
 20
1855.81002
 30
0.0
 40
22.0
100
AcDbArc
 50
270.0
 51
90.0
  0
LINE
  5
4D5
102
{ACAD_REACTORS
330
572
102
}
330
1F
100
AcDbEntity
  8
LC-002-002-----0
 62
     7
370
    25
100
AcDbLine
 10
912.696478
 20
1877.81002
 30
0.0
 11
899.005294
 21
1877.81002
 31
0.0
  0
LINE
  5
4D6
102
{ACAD_REACTORS
330
572
102
}
330
1F
100
AcDbEntity
  8
LC-002-002-----0
 62
     7
370
    25
100
AcDbLine
 10
912.696478
 20
1833.81002
 30
0.0
 11
899.005294
 21
1833.81002
 31
0.0
  0
LINE
  5
4D7
102
{ACAD_REACTORS
330
572
102
}
330
1F
100
AcDbEntity
  8
LC-002-002-----0
 62
     7
370
    25
100
AcDbLine
 10
891.195311
 20
1827.521081
 30
0.0
 11
888.576448
 21
1827.042635
 31
0.0
  0
ARC
  5
4D8
102
{ACAD_REACTORS
330
572
102
}
330
1F
100
AcDbEntity
  8
LC-002-002-----0
 62
     7
370
    25
100
AcDbCircle
 10
890.027121
 20
1833.915245
 30
0.0
 40
6.500000000000338
100
AcDbArc
 50
280.354177
 51
340.92296
  0
ARC
  5
4D9
102
{ACAD_REACTORS
330
572
102
}
330
1F
100
AcDbEntity
  8
LC-002-002-----0
 62
     7
370
    25
100
AcDbCircle
 10
899.005294
 20
1830.81002
 30
0.0
 40
3.0
100
AcDbArc
 50
90.0
 51
160.944552
  0
ARC
  5
4DA
102
{ACAD_REACTORS
330
572
102
}
330
1F
100
AcDbEntity
  8
LC-002-002-----0
 62
     7
370
    25
100
AcDbCircle
 10
881.440176
 20
1822.311883
 30
0.0
 40
2.0
100
AcDbArc
 50
270.0
 51
295.847369
  0
ARC
  5
4DB
102
{ACAD_REACTORS
330
572
102
}
330
1F
100
AcDbEntity
  8
LC-002-002-----0
 62
     7
370
    25
100
AcDbCircle
 10
879.696478
 20
1825.911816
 30
0.0
 40
6.000000000000063
100
AcDbArc
 50
295.844972
 51
343.716483
  0
ARC
  5
4DC
102
{ACAD_REACTORS
330
572
102
}
330
1F
100
AcDbEntity
  8
LC-002-002-----0
 62
     7
370
    25
100
AcDbCircle
 10
889.295294
 20
1823.107758
 30
0.0
 40
3.99999999999998
100
AcDbArc
 50
100.352952
 51
163.718249
  0
LINE
  5
4DD
102
{ACAD_REACTORS
330
572
102
}
330
1F
100
AcDbEntity
  8
LC-002-002-----0
 62
     7
370
    25
100
AcDbLine
 10
891.195311
 20
1884.09896
 30
0.0
 11
888.576448
 21
1884.577406
 31
0.0
  0
ARC
  5
4DE
102
{ACAD_REACTORS
330
572
102
}
330
1F
100
AcDbEntity
  8
LC-002-002-----0
 62
     7
370
    25
100
AcDbCircle
 10
890.027121
 20
1877.704796
 30
0.0
 40
6.499999999999535
100
AcDbArc
 50
19.07704
 51
79.645823
  0
ARC
  5
4DF
102
{ACAD_REACTORS
330
572
102
}
330
1F
100
AcDbEntity
  8
LC-002-002-----0
 62
     7
370
    25
100
AcDbCircle
 10
899.005294
 20
1880.81002
 30
0.0
 40
2.999999995699995
100
AcDbArc
 50
199.055448
 51
270.0
  0
ARC
  5
4E0
102
{ACAD_REACTORS
330
572
102
}
330
1F
100
AcDbEntity
  8
LC-002-002-----0
 62
     7
370
    25
100
AcDbCircle
 10
881.440176
 20
1889.308158
 30
0.0
 40
1.999999999999977
100
AcDbArc
 50
64.152631
 51
90.0
  0
ARC
  5
4E1
102
{ACAD_REACTORS
330
572
102
}
330
1F
100
AcDbEntity
  8
LC-002-002-----0
 62
     7
370
    25
100
AcDbCircle
 10
879.696478
 20
1885.708225
 30
0.0
 40
5.999999999999518
100
AcDbArc
 50
16.283517
 51
64.155028
  0
ARC
  5
4E2
102
{ACAD_REACTORS
330
572
102
}
330
1F
100
AcDbEntity
  8
LC-002-002-----0
 62
     7
370
    25
100
AcDbCircle
 10
889.295294
 20
1888.512283
 30
0.0
 40
4.000000000000497
100
AcDbArc
 50
196.281751
 51
259.647048
  0
LINE
  5
4E3
102
{ACAD_REACTORS
330
572
102
}
330
1F
100
AcDbEntity
  8
LC-002-002-----0
 62
     7
370
    25
100
AcDbLine
 10
962.915511
 20
1878.380234
 30
0.0
 11
962.323386
 21
1879.517694
 31
0.0
  0
LINE
  5
4E4
102
{ACAD_REACTORS
330
572
102
}
330
1F
100
AcDbEntity
  8
LC-002-002-----0
 62
     7
370
    25
100
AcDbLine
 10
960.606511
 20
1878.380234
 30
0.0
 11
960.014386
 21
1879.517694
 31
0.0
  0
LINE
  5
4E5
102
{ACAD_REACTORS
330
572
102
}
330
1F
100
AcDbEntity
  8
LC-002-002-----0
 62
     7
370
    25
100
AcDbLine
 10
958.297511
 20
1878.380234
 30
0.0
 11
957.705386
 21
1879.517694
 31
0.0
  0
LINE
  5
4E6
102
{ACAD_REACTORS
330
572
102
}
330
1F
100
AcDbEntity
  8
LC-002-002-----0
 62
     7
370
    25
100
AcDbLine
 10
955.988511
 20
1878.380234
 30
0.0
 11
955.396386
 21
1879.517694
 31
0.0
  0
LINE
  5
4E7
102
{ACAD_REACTORS
330
572
102
}
330
1F
100
AcDbEntity
  8
LC-002-002-----0
 62
     7
370
    25
100
AcDbLine
 10
961.76057
 20
1832.102347
 30
0.0
 11
961.168446
 21
1833.239807
 31
0.0
  0
LINE
  5
4E8
102
{ACAD_REACTORS
330
572
102
}
330
1F
100
AcDbEntity
  8
LC-002-002-----0
 62
     7
370
    25
100
AcDbLine
 10
959.45157
 20
1832.102347
 30
0.0
 11
958.859446
 21
1833.239807
 31
0.0
  0
LINE
  5
4E9
102
{ACAD_REACTORS
330
572
102
}
330
1F
100
AcDbEntity
  8
LC-002-002-----0
 62
     7
370
    25
100
AcDbLine
 10
957.14257
 20
1832.102347
 30
0.0
 11
956.550446
 21
1833.239807
 31
0.0
  0
LINE
  5
4EA
102
{ACAD_REACTORS
330
572
102
}
330
1F
100
AcDbEntity
  8
LC-002-002-----0
 62
     7
370
    25
100
AcDbLine
 10
954.83357
 20
1832.102347
 30
0.0
 11
954.241446
 21
1833.239807
 31
0.0
  0
LINE
  5
4EB
102
{ACAD_REACTORS
330
572
102
}
330
1F
100
AcDbEntity
  8
LC-002-002-----0
 62
     7
370
    25
100
AcDbLine
 10
932.696478
 20
1878.21002
 30
0.0
 11
953.960478
 21
1878.21002
 31
0.0
  0
LINE
  5
4EC
102
{ACAD_REACTORS
330
572
102
}
330
1F
100
AcDbEntity
  8
LC-002-002-----0
 62
     7
370
    25
100
AcDbLine
 10
963.196478
 20
1878.21002
 30
0.0
 11
963.696478
 21
1878.21002
 31
0.0
  0
LINE
  5
4ED
102
{ACAD_REACTORS
330
572
102
}
330
1F
100
AcDbEntity
  8
LC-002-002-----0
 62
     7
370
    25
100
AcDbLine
 10
963.696478
 20
1833.41002
 30
0.0
 11
963.696478
 21
1878.21002
 31
0.0
  0
LINE
  5
4EE
102
{ACAD_REACTORS
330
572
102
}
330
1F
100
AcDbEntity
  8
LC-002-002-----0
 62
     7
370
    25
100
AcDbLine
 10
932.696478
 20
1833.41002
 30
0.0
 11
953.960478
 21
1833.41002
 31
0.0
  0
LINE
  5
4EF
102
{ACAD_REACTORS
330
572
102
}
330
1F
100
AcDbEntity
  8
LC-002-002-----0
 62
     7
370
    25
100
AcDbLine
 10
963.196478
 20
1833.41002
 30
0.0
 11
963.696478
 21
1833.41002
 31
0.0
  0
LINE
  5
4F0
102
{ACAD_REACTORS
330
572
102
}
330
1F
100
AcDbEntity
  8
LC-002-002-----0
 62
     7
370
    25
100
AcDbLine
 10
932.696478
 20
1878.21002
 30
0.0
 11
932.696478
 21
1874.981759
 31
0.0
  0
LINE
  5
4F1
102
{ACAD_REACTORS
330
572
102
}
330
1F
100
AcDbEntity
  8
LC-002-002-----0
 62
     7
370
    25
100
AcDbLine
 10
931.049938
 20
1876.56348
 30
0.0
 11
932.696218
 21
1878.20976
 31
0.0
  0
LINE
  5
4F2
102
{ACAD_REACTORS
330
572
102
}
330
1F
100
AcDbEntity
  8
LC-002-002-----0
 62
     7
370
    25
100
AcDbLine
 10
954.83357
 20
1879.517694
 30
0.0
 11
954.241446
 21
1878.380234
 31
0.0
  0
LINE
  5
4F3
102
{ACAD_REACTORS
330
572
102
}
330
1F
100
AcDbEntity
  8
LC-002-002-----0
 62
     7
370
    25
100
AcDbLine
 10
957.14257
 20
1879.517694
 30
0.0
 11
956.550446
 21
1878.380234
 31
0.0
  0
LINE
  5
4F4
102
{ACAD_REACTORS
330
572
102
}
330
1F
100
AcDbEntity
  8
LC-002-002-----0
 62
     7
370
    25
100
AcDbLine
 10
959.45157
 20
1879.517694
 30
0.0
 11
958.859446
 21
1878.380234
 31
0.0
  0
LINE
  5
4F5
102
{ACAD_REACTORS
330
572
102
}
330
1F
100
AcDbEntity
  8
LC-002-002-----0
 62
     7
370
    25
100
AcDbLine
 10
961.76057
 20
1879.517694
 30
0.0
 11
961.168446
 21
1878.380234
 31
0.0
  0
LINE
  5
4F6
102
{ACAD_REACTORS
330
572
102
}
330
1F
100
AcDbEntity
  8
LC-002-002-----0
 62
     7
370
    25
100
AcDbLine
 10
955.988511
 20
1833.239807
 30
0.0
 11
955.396386
 21
1832.102347
 31
0.0
  0
LINE
  5
4F7
102
{ACAD_REACTORS
330
572
102
}
330
1F
100
AcDbEntity
  8
LC-002-002-----0
 62
     7
370
    25
100
AcDbLine
 10
958.297511
 20
1833.239807
 30
0.0
 11
957.705386
 21
1832.102347
 31
0.0
  0
LINE
  5
4F8
102
{ACAD_REACTORS
330
572
102
}
330
1F
100
AcDbEntity
  8
LC-002-002-----0
 62
     7
370
    25
100
AcDbLine
 10
960.606511
 20
1833.239807
 30
0.0
 11
960.014386
 21
1832.102347
 31
0.0
  0
LINE
  5
4F9
102
{ACAD_REACTORS
330
572
102
}
330
1F
100
AcDbEntity
  8
LC-002-002-----0
 62
     7
370
    25
100
AcDbLine
 10
962.915511
 20
1833.239807
 30
0.0
 11
962.323386
 21
1832.102347
 31
0.0
  0
ARC
  5
4FA
102
{ACAD_REACTORS
330
572
102
}
330
1F
100
AcDbEntity
  8
LC-002-002-----0
 62
     7
370
    25
100
AcDbCircle
 10
953.960478
 20
1833.09302
 30
0.0
 40
0.3169999999999834
100
AcDbArc
 50
27.63954
 51
90.0
  0
ARC
  5
4FB
102
{ACAD_REACTORS
330
572
102
}
330
1F
100
AcDbEntity
  8
LC-002-002-----0
 62
     7
370
    25
100
AcDbCircle
 10
953.960478
 20
1878.52702
 30
0.0
 40
0.3170000000000073
100
AcDbArc
 50
270.0
 51
332.432823
  0
ARC
  5
4FC
102
{ACAD_REACTORS
330
572
102
}
330
1F
100
AcDbEntity
  8
LC-002-002-----0
 62
     7
370
    25
100
AcDbCircle
 10
955.114978
 20
1832.248288
 30
0.0
 40
0.3170000000000652
100
AcDbArc
 50
207.317979
 51
332.682021
  0
ARC
  5
4FD
102
{ACAD_REACTORS
330
572
102
}
330
1F
100
AcDbEntity
  8
LC-002-002-----0
 62
     7
370
    25
100
AcDbCircle
 10
955.114978
 20
1879.371753
 30
0.0
 40
0.3169999999998641
100
AcDbArc
 50
27.394588
 51
152.605412
  0
ARC
  5
4FE
102
{ACAD_REACTORS
330
572
102
}
330
1F
100
AcDbEntity
  8
LC-002-002-----0
 62
     7
370
    25
100
AcDbCircle
 10
956.269478
 20
1878.52702
 30
0.0
 40
0.31699999999982
100
AcDbArc
 50
207.567177
 51
332.432823
  0
ARC
  5
4FF
102
{ACAD_REACTORS
330
572
102
}
330
1F
100
AcDbEntity
  8
LC-002-002-----0
 62
     7
370
    25
100
AcDbCircle
 10
956.269478
 20
1833.09302
 30
0.0
 40
0.3169999999998827
100
AcDbArc
 50
27.63954
 51
152.36046
  0
ARC
  5
500
102
{ACAD_REACTORS
330
572
102
}
330
1F
100
AcDbEntity
  8
LC-002-002-----0
 62
     7
370
    25
100
AcDbCircle
 10
957.423978
 20
1832.248288
 30
0.0
 40
0.3170000000002672
100
AcDbArc
 50
207.317979
 51
332.682021
  0
ARC
  5
501
102
{ACAD_REACTORS
330
572
102
}
330
1F
100
AcDbEntity
  8
LC-002-002-----0
 62
     7
370
    25
100
AcDbCircle
 10
957.423978
 20
1879.371753
 30
0.0
 40
0.3169999999998494
100
AcDbArc
 50
27.394588
 51
152.605412
  0
ARC
  5
502
102
{ACAD_REACTORS
330
572
102
}
330
1F
100
AcDbEntity
  8
LC-002-002-----0
 62
     7
370
    25
100
AcDbCircle
 10
958.578478
 20
1878.52702
 30
0.0
 40
0.3170000000000216
100
AcDbArc
 50
207.567177
 51
332.432823
  0
ARC
  5
503
102
{ACAD_REACTORS
330
572
102
}
330
1F
100
AcDbEntity
  8
LC-002-002-----0
 62
     7
370
    25
100
AcDbCircle
 10
958.578478
 20
1833.09302
 30
0.0
 40
0.3169999999998827
100
AcDbArc
 50
27.63954
 51
152.36046
  0
ARC
  5
504
102
{ACAD_REACTORS
330
572
102
}
330
1F
100
AcDbEntity
  8
LC-002-002-----0
 62
     7
370
    25
100
AcDbCircle
 10
959.732978
 20
1832.248288
 30
0.0
 40
0.3170000000002672
100
AcDbArc
 50
207.317979
 51
332.682021
  0
ARC
  5
505
102
{ACAD_REACTORS
330
572
102
}
330
1F
100
AcDbEntity
  8
LC-002-002-----0
 62
     7
370
    25
100
AcDbCircle
 10
959.732978
 20
1879.371753
 30
0.0
 40
0.3169999999997632
100
AcDbArc
 50
27.394588
 51
152.605412
  0
ARC
  5
506
102
{ACAD_REACTORS
330
572
102
}
330
1F
100
AcDbEntity
  8
LC-002-002-----0
 62
     7
370
    25
100
AcDbCircle
 10
960.887478
 20
1878.52702
 30
0.0
 40
0.3169999999999208
100
AcDbArc
 50
207.567177
 51
332.432823
  0
ARC
  5
507
102
{ACAD_REACTORS
330
572
102
}
330
1F
100
AcDbEntity
  8
LC-002-002-----0
 62
     7
370
    25
100
AcDbCircle
 10
960.887478
 20
1833.09302
 30
0.0
 40
0.3169999999999834
100
AcDbArc
 50
27.63954
 51
152.36046
  0
ARC
  5
508
102
{ACAD_REACTORS
330
572
102
}
330
1F
100
AcDbEntity
  8
LC-002-002-----0
 62
     7
370
    25
100
AcDbCircle
 10
962.041978
 20
1832.248288
 30
0.0
 40
0.3170000000000652
100
AcDbArc
 50
207.317979
 51
332.682021
  0
ARC
  5
509
102
{ACAD_REACTORS
330
572
102
}
330
1F
100
AcDbEntity
  8
LC-002-002-----0
 62
     7
370
    25
100
AcDbCircle
 10
962.041978
 20
1879.371753
 30
0.0
 40
0.3169999999997632
100
AcDbArc
 50
27.394588
 51
152.605412
  0
ARC
  5
50A
102
{ACAD_REACTORS
330
572
102
}
330
1F
100
AcDbEntity
  8
LC-002-002-----0
 62
     7
370
    25
100
AcDbCircle
 10
963.196478
 20
1833.09302
 30
0.0
 40
0.3169999999995525
100
AcDbArc
 50
90.0
 51
152.36046
  0
ARC
  5
50B
102
{ACAD_REACTORS
330
572
102
}
330
1F
100
AcDbEntity
  8
LC-002-002-----0
 62
     7
370
    25
100
AcDbCircle
 10
963.196478
 20
1878.52702
 30
0.0
 40
0.3170000000000216
100
AcDbArc
 50
207.567177
 51
270.0
  0
INSERT
  5
510
102
{ACAD_REACTORS
330
572
102
}
330
1F
100
AcDbEntity
  8
LC-002-002-----0
 62
     7
370
    25
100
AcDbBlockReference
  2
POLY11
 10
0.0
 20
0.0
 30
0.0
  0
LINE
  5
511
102
{ACAD_REACTORS
330
572
102
}
330
1F
100
AcDbEntity
  8
LC-002-002-----0
 62
     7
370
    25
100
AcDbLine
 10
931.049938
 20
1835.056561
 30
0.0
 11
932.696218
 21
1833.410281
 31
0.0
  0
ARC
  5
512
102
{ACAD_REACTORS
330
572
102
}
330
1F
100
AcDbEntity
  8
LC-002-002-----0
 62
     7
370
    25
100
AcDbCircle
 10
912.696478
 20
1855.81002
 30
0.0
 40
27.70479324129957
100
AcDbArc
 50
235.394244
 51
124.605756
  0
LINE
  5
513
102
{ACAD_REACTORS
330
572
102
}
330
1F
100
AcDbEntity
  8
LC-002-002-----0
 62
     7
370
    25
100
AcDbLine
 10
932.696478
 20
1836.638282
 30
0.0
 11
932.696478
 21
1833.432504
 31
0.0
  0
DIMENSION
  5
514
330
1F
100
AcDbEntity
  8
LC-009-003-----0
 62
     7
370
    25
100
AcDbDimension
  2
*D21
 10
940.401271
 20
1400.0
 30
0.0
 11
775.720326
 21
1430.0
 31
0.0
 70
   160
 71
     5
 42
329.361891
  3
LC-DIM-L-0025-00-02
100
AcDbAlignedDimension
 13
611.039381
 23
1500.81002
 33
0.0
 14
940.401271
 24
1815.81002
 34
0.0
100
AcDbRotatedDimension
  0
CIRCLE
  5
521
330
1F
100
AcDbEntity
  8
LC-007-006-MLN-0
  6
ByBlock
 62
     7
370
    25
100
AcDbCircle
 10
1631.587662
 20
2688.987803
 30
0.0
 40
42.57736068589202
  0
TEXT
  5
522
330
1F
100
AcDbEntity
  8
LC-005-004-----0
 62
     7
370
    35
100
AcDbText
 10
1697.6497
 20
2741.411372
 30
0.0
 40
35.0
  1
Z
 41
0.8
  7
LCTX0-400-0-0pDIN-Schrift
100
AcDbText
  0
LINE
  5
523
330
1F
100
AcDbEntity
  8
LC-002-002-----0
 62
     7
370
    50
100
AcDbLine
 10
1045.053309
 20
1975.81002
 30
0.0
 11
1645.053309
 21
1975.81002
 31
0.0
  0
DIMENSION
  5
524
330
1F
100
AcDbEntity
  8
LC-009-003-----0
 62
     7
370
    25
100
AcDbDimension
  2
*D22
 10
1750.0
 20
1975.81002
 30
0.0
 11
1720.0
 21
1728.258777
 31
0.0
 70
   160
 71
     5
 42
465.0
 53
90.0
  3
LC-DIM-L-0025-02-02
100
AcDbAlignedDimension
 13
1645.053309
 23
1510.81002
 33
0.0
 14
1645.053309
 24
1975.81002
 34
0.0
 50
90.0
100
AcDbRotatedDimension
  0
LINE
  5
531
330
1F
100
AcDbEntity
  8
LC-002-002-----0
 62
     7
370
    50
100
AcDbLine
 10
1189.032101
 20
887.206695
 30
0.0
 11
1189.032101
 21
1092.206695
 31
0.0
  0
ARC
  5
532
330
1F
100
AcDbEntity
  8
LC-002-002-----0
 62
     7
370
    50
100
AcDbCircle
 10
1198.032101
 20
887.206695
 30
0.0
 40
9.0
100
AcDbArc
 50
180.0
 51
270.0
  0
LINE
  5
533
330
1F
100
AcDbEntity
  8
LC-002-002-----0
 62
     7
370
    50
100
AcDbLine
 10
1472.032101
 20
878.206695
 30
0.0
 11
1198.032101
 21
878.206695
 31
0.0
  0
ARC
  5
534
330
1F
100
AcDbEntity
  8
LC-002-002-----0
 62
     7
370
    50
100
AcDbCircle
 10
1472.032101
 20
887.206695
 30
0.0
 40
9.0
100
AcDbArc
 50
270.0
 51
0.0
  0
LINE
  5
535
330
1F
100
AcDbEntity
  8
LC-002-002-----0
 62
     7
370
    50
100
AcDbLine
 10
1481.032101
 20
887.206695
 30
0.0
 11
1481.032101
 21
1092.206695
 31
0.0
  0
DIMENSION
  5
537
330
1F
100
AcDbEntity
  8
LC-009-003-----0
 62
     7
370
    25
100
AcDbDimension
  2
*D23
 10
1198.032101
 20
887.206695
 30
0.0
 11
1262.818091
 21
921.074023
 31
0.0
 70
   164
 71
     5
 42
18.0
  3
LC-DIM-R-0025-02-02
100
AcDbRadialDimension
 15
1205.138355
 25
892.729479
 35
0.0
 40
1.0
1001
ACAD
1000
DSTYLE
1002
{
1070
   144
1040
2.0
1002
}
  0
DIMENSION
  5
540
330
1F
100
AcDbEntity
  8
LC-009-003-----0
 62
     7
370
    25
100
AcDbDimension
  2
*D24
 10
1600.0
 20
878.206695
 30
0.0
 11
1570.0
 21
987.527842
 31
0.0
 70
   160
 71
     5
 42
446.0
 53
90.0
  3
LC-DIM-L-0025-02-02
100
AcDbAlignedDimension
 13
1481.032101
 23
1101.206695
 33
0.0
 14
1481.032101
 24
878.206695
 34
0.0
 50
90.0
100
AcDbRotatedDimension
1001
ACAD
1000
DSTYLE
1002
{
1070
   144
1040
2.0
1002
}
  0
DIMENSION
  5
54D
330
1F
100
AcDbEntity
  8
LC-009-003-----0
 62
     7
370
    25
100
AcDbDimension
  2
*D25
 10
1481.032101
 20
800.0
 30
0.0
 11
1333.796663
 21
830.0
 31
0.0
 70
   160
 71
     5
 42
584.0
  3
LC-DIM-L-0025-02-02
100
AcDbAlignedDimension
 13
1189.032101
 23
878.206695
 33
0.0
 14
1481.032101
 24
878.206695
 34
0.0
100
AcDbRotatedDimension
1001
ACAD
1000
DSTYLE
1002
{
1070
   144
1040
2.0
1002
}
  0
TEXT
  5
55A
330
1F
100
AcDbEntity
  8
LC-005-004-----0
 62
     7
370
    18
100
AcDbText
 10
1704.953562
 20
564.26205
 30
0.0
 40
17.5
  1
Material: 
 41
0.8
  7
LCTX0-400-0-0pDIN-Schrift
100
AcDbText
  0
TEXT
  5
55B
330
1F
100
AcDbEntity
  8
LC-005-004-----0
 62
     7
370
    25
100
AcDbText
 10
1801.168583
 20
560.51205
 30
0.0
 40
25.0
  1
Cristadur
 41
0.8
  7
LCTX0-400-0-0pDIN-Schrift
100
AcDbText
  0
DIMENSION
  5
55C
330
1F
100
AcDbEntity
  8
LC-009-003-----0
 62
     7
370
    25
100
AcDbDimension
  2
*D26
 10
451.020558
 20
2650.0
 30
0.0
 11
391.450031
 21
2680.0
 31
0.0
 70
   160
 71
     5
 42
4.0
  3
LC-DIM-L-0025-02-02
100
AcDbAlignedDimension
 13
431.020558
 23
2533.822857
 33
0.0
 14
451.020558
 24
2533.822857
 34
0.0
100
AcDbRotatedDimension
1001
ACAD
1000
DSTYLE
1002
{
1070
   144
1040
0.2
1002
}
  0
ENDSEC
  0
SECTION
  2
OBJECTS
  0
DICTIONARY
  5
C
330
0
100
AcDbDictionary
281
     1
  3
ACAD_GROUP
350
D
  3
ACAD_LAYOUT
350
1A
  3
ACAD_MLINESTYLE
350
17
  3
ACAD_PLOTSETTINGS
350
19
  3
ACAD_PLOTSTYLENAME
350
E
  0
DICTIONARY
  5
D
102
{ACAD_REACTORS
330
C
102
}
330
C
100
AcDbDictionary
281
     1
  3
LCGROUP1773
350
56D
  3
LCGROUP1833
350
570
  3
LCGROUP1837
350
56F
  3
LCGROUP1844
350
571
  3
LCGROUP2057
350
56E
  3
LCGROUP2292
350
56C
  3
LCGROUP2413
350
572
  3
LCGROUP39
350
56B
  0
DICTIONARY
  5
1A
102
{ACAD_REACTORS
330
C
102
}
330
C
100
AcDbDictionary
281
     1
  3
Layout1
350
1E
  3
Layout2
350
26
  3
Model
350
22
  0
DICTIONARY
  5
17
102
{ACAD_REACTORS
330
C
102
}
330
C
100
AcDbDictionary
281
     1
  3
Standard
350
18
  0
DICTIONARY
  5
19
102
{ACAD_REACTORS
330
C
102
}
330
C
100
AcDbDictionary
281
     1
  0
ACDBDICTIONARYWDFLT
  5
E
102
{ACAD_REACTORS
330
C
102
}
330
C
100
AcDbDictionary
281
     1
  3
Normal
350
F
100
AcDbDictionaryWithDefault
340
F
  0
GROUP
  5
56D
102
{ACAD_REACTORS
330
D
102
}
330
D
100
AcDbGroup
300
Gruppe 4945
 70
     1
 71
     1
340
10D
340
10E
340
10F
  0
GROUP
  5
570
102
{ACAD_REACTORS
330
D
102
}
330
D
100
AcDbGroup
300
GRP1833
 70
     1
 71
     1
340
208
340
209
340
20A
340
211
340
218
340
219
340
21A
340
21B
340
21C
340
21D
340
21E
340
21F
340
220
340
221
340
222
340
223
340
224
340
225
340
226
340
227
340
228
340
229
340
22A
340
22B
340
22C
340
22D
340
22E
340
22F
340
230
340
231
340
232
340
233
340
234
340
235
340
236
340
237
340
238
340
239
340
23A
340
23B
340
23C
340
23D
340
23E
340
23F
340
240
340
241
340
242
340
243
340
244
340
245
340
246
340
247
340
248
340
249
340
24A
340
24B
340
24C
340
24D
340
24E
340
24F
340
250
340
251
340
252
340
253
340
254
340
255
340
256
340
257
340
258
340
259
340
25A
340
25B
340
25C
340
25D
340
25E
340
25F
340
260
340
261
340
262
340
263
340
264
340
265
340
266
340
267
340
268
340
269
340
26A
340
26B
340
26C
340
26D
340
26E
340
26F
340
270
340
271
340
272
340
273
340
274
340
275
340
276
340
277
340
278
340
279
340
27A
340
27B
340
27C
340
27D
340
27E
340
27F
340
280
340
281
340
282
340
283
340
2C7
340
2CA
340
2CB
340
2CC
340
2CD
  0
GROUP
  5
56F
102
{ACAD_REACTORS
330
D
102
}
330
D
100
AcDbGroup
300
GRP1837
 70
     1
 71
     1
340
20B
340
20C
340
20D
340
20E
340
28D
340
28E
340
28F
340
290
340
291
340
292
340
293
340
294
340
295
340
296
340
297
340
298
340
299
340
29A
340
29B
340
29D
340
29E
340
29F
340
2A0
340
2A1
340
2A2
340
2A3
340
2A4
340
2A5
340
2A6
340
2A7
340
2A8
340
2A9
340
2AA
340
2AB
340
2AC
340
2AD
340
2AE
340
2AF
340
2B0
340
2B1
340
2B2
340
2B3
340
2B4
340
2B5
340
2B6
340
2C8
340
2C9
  0
GROUP
  5
571
102
{ACAD_REACTORS
330
D
102
}
330
D
100
AcDbGroup
300
GRP1844
 70
     1
 71
     1
340
212
340
213
340
214
340
215
340
216
340
217
340
284
340
285
340
286
340
287
340
288
340
289
340
28A
340
28B
340
28C
  0
GROUP
  5
56E
102
{ACAD_REACTORS
330
D
102
}
330
D
100
AcDbGroup
300
GRP2057
 70
     1
 71
     1
340
2DB
340
2DC
340
2DD
340
2DE
340
2DF
340
2E0
340
32C
340
378
  0
GROUP
  5
56C
102
{ACAD_REACTORS
330
D
102
}
330
D
100
AcDbGroup
300
GRP2292
 70
     1
 71
     1
340
3CA
340
3CB
340
3CC
340
3CD
340
3CE
340
3CF
340
3D0
340
3D1
340
3D2
340
3D3
340
3D4
340
3D5
340
3D6
340
3D7
340
3D8
340
3D9
340
3DA
340
3DB
340
3DC
340
3DD
340
3DE
340
3DF
340
3E0
340
3E1
340
3E2
340
3E3
340
3E4
340
3E5
340
3E6
340
3E7
340
3E8
340
3E9
340
3EA
340
3EB
340
3EC
340
3ED
340
3EE
340
3EF
340
3F0
340
3F1
340
3F2
340
3F3
340
3F4
340
3F5
340
3F6
340
3F7
340
3F8
340
3F9
340
3FA
340
3FB
340
3FC
340
3FD
340
3FE
340
3FF
340
400
340
401
340
402
340
403
340
404
340
405
340
406
340
407
340
408
340
409
340
40A
340
40B
340
40C
340
40D
340
40E
340
40F
340
410
340
411
340
412
340
417
340
418
340
419
340
41A
340
41B
340
41C
340
41D
340
41E
340
41F
340
420
340
421
340
422
340
423
340
424
340
425
340
426
340
427
340
437
340
438
340
448
340
449
340
459
340
45A
340
45B
340
45C
340
45D
340
45E
340
45F
340
460
340
461
340
462
340
463
340
464
340
465
340
466
340
467
340
468
340
469
340
46A
340
46B
340
46C
340
46D
340
46E
340
46F
340
470
340
471
340
472
  0
GROUP
  5
572
102
{ACAD_REACTORS
330
D
102
}
330
D
100
AcDbGroup
300
GRP2413
 70
     1
 71
     1
340
473
340
474
340
475
340
476
340
477
340
478
340
479
340
47A
340
47B
340
47C
340
47D
340
47E
340
47F
340
480
340
481
340
482
340
483
340
48D
340
497
340
4A5
340
4B3
340
4C3
340
4D1
340
4D2
340
4D3
340
4D4
340
4D5
340
4D6
340
4D7
340
4D8
340
4D9
340
4DA
340
4DB
340
4DC
340
4DD
340
4DE
340
4DF
340
4E0
340
4E1
340
4E2
340
4E3
340
4E4
340
4E5
340
4E6
340
4E7
340
4E8
340
4E9
340
4EA
340
4EB
340
4EC
340
4ED
340
4EE
340
4EF
340
4F0
340
4F1
340
4F2
340
4F3
340
4F4
340
4F5
340
4F6
340
4F7
340
4F8
340
4F9
340
4FA
340
4FB
340
4FC
340
4FD
340
4FE
340
4FF
340
500
340
501
340
502
340
503
340
504
340
505
340
506
340
507
340
508
340
509
340
50A
340
50B
340
510
340
511
340
512
340
513
  0
GROUP
  5
56B
102
{ACAD_REACTORS
330
D
102
}
330
D
100
AcDbGroup
300
GRP39
 70
     1
 71
     1
340
10C
340
394
340
395
340
396
340
397
340
398
340
399
340
39A
340
39B
340
39C
340
39D
340
39E
340
39F
340
3A0
340
3A1
340
3A2
340
3A3
340
3A4
340
3A5
340
3A6
340
3A7
340
3A8
340
3A9
340
3AA
340
3AB
340
3AC
340
3AD
340
3AE
340
3AF
340
3B0
340
3B1
340
3B2
340
3B3
340
3B4
340
3B5
340
3B6
340
3B7
340
3B8
340
3B9
340
3BA
340
3BB
340
3BC
340
3BD
340
3BE
340
3C9
  0
LAYOUT
  5
1E
102
{ACAD_REACTORS
330
1A
102
}
330
1A
100
AcDbPlotSettings
  1

  2

  4

  6

 40
0.0
 41
0.0
 42
0.0
 43
0.0
 44
0.0
 45
0.0
 46
0.0
 47
0.0
 48
0.0
 49
0.0
140
0.0
141
0.0
142
1.0
143
1.0
 70
   688
 72
     0
 73
     0
 74
     5
  7

 75
    16
 76
     0
 77
     2
 78
   300
147
1.0
148
0.0
149
0.0
100
AcDbLayout
  1
Layout1
 70
     1
 71
     1
 10
0.0
 20
0.0
 11
2100.0
 21
2970.0
 12
0.0
 22
0.0
 32
0.0
 14
0.0
 24
0.0
 34
0.0
 15
2100.0
 25
2970.0
 35
0.0
146
0.0
 13
0.0
 23
0.0
 33
0.0
 16
1.0
 26
0.0
 36
0.0
 17
0.0
 27
1.0
 37
0.0
 76
     0
330
1B
  0
LAYOUT
  5
26
102
{ACAD_REACTORS
330
1A
102
}
330
1A
100
AcDbPlotSettings
  1

  2

  4

  6

 40
0.0
 41
0.0
 42
0.0
 43
0.0
 44
0.0
 45
0.0
 46
0.0
 47
0.0
 48
0.0
 49
0.0
140
0.0
141
0.0
142
1.0
143
1.0
 70
   688
 72
     0
 73
     0
 74
     5
  7

 75
    16
 76
     0
 77
     2
 78
   300
147
1.0
148
0.0
149
0.0
100
AcDbLayout
  1
Layout2
 70
     1
 71
     2
 10
0.0
 20
0.0
 11
0.0
 21
0.0
 12
0.0
 22
0.0
 32
0.0
 14
0.0
 24
0.0
 34
0.0
 15
0.0
 25
0.0
 35
0.0
146
0.0
 13
0.0
 23
0.0
 33
0.0
 16
1.0
 26
0.0
 36
0.0
 17
0.0
 27
1.0
 37
0.0
 76
     0
330
23
  0
LAYOUT
  5
22
102
{ACAD_REACTORS
330
1A
102
}
330
1A
100
AcDbPlotSettings
  1

  2

  4

  6

 40
0.0
 41
0.0
 42
0.0
 43
0.0
 44
0.0
 45
0.0
 46
0.0
 47
0.0
 48
0.0
 49
0.0
140
0.0
141
0.0
142
1.0
143
1.0
 70
  1776
 72
     0
 73
     0
 74
     0
  7

 75
     0
 76
     0
 77
     2
 78
   300
147
1.0
148
0.0
149
0.0
100
AcDbLayout
  1
Model
 70
     1
 71
     0
 10
0.0
 20
0.0
 11
2100.0
 21
2970.0
 12
0.0
 22
0.0
 32
0.0
 14
0.0
 24
0.0
 34
0.0
 15
2100.0
 25
2970.0
 35
0.0
146
0.0
 13
0.0
 23
0.0
 33
0.0
 16
1.0
 26
0.0
 36
0.0
 17
0.0
 27
1.0
 37
0.0
 76
     0
330
1F
  0
MLINESTYLE
  5
18
102
{ACAD_REACTORS
330
17
102
}
330
17
100
AcDbMlineStyle
  2
Standard
 70
     0
  3

 62
   256
 51
90.0
 52
90.0
 71
     2
 49
0.5
 62
   256
  6
BYLAYER
 49
-0.5
 62
   256
  6
BYLAYER
  0
ACDBPLACEHOLDER
  5
F
102
{ACAD_REACTORS
330
E
102
}
330
E
  0
ENDSEC
  0
EOF
