  0
SECTION
  2
HEADER
  9
$ACADVER
  1
AC1018
  9
$ACADMAINTVER
 70
     0
  9
$DWGCODEPAGE
  3
ANSI_1252
  9
$INSBASE
 10
0.0
 20
0.0
 30
0.0
  9
$EXTMIN
 10
0.0
 20
0.0
 30
0.0
  9
$EXTMAX
 10
2100.0
 20
2970.0
 30
0.0
  9
$LIMMIN
 10
0.0
 20
0.0
  9
$LIMMAX
 10
2100.0
 20
2970.0
  9
$ORTHOMODE
 70
     0
  9
$REGENMODE
 70
     1
  9
$FILLMODE
 70
     1
  9
$QTEXTMODE
 70
     0
  9
$MIRRTEXT
 70
     1
  9
$LTSCALE
 40
10.0
  9
$ATTMODE
 70
     1
  9
$TEXTSIZE
 40
2.5
  9
$TRACEWID
 40
1.0
  9
$TEXTSTYLE
  7
Standard
  9
$CLAYER
  8
0
  9
$CELTYPE
  6
ByLayer
  9
$CECOLOR
 62
     7
  9
$CELTSCALE
 40
1.0
  9
$DISPSILH
 70
     0
  9
$DIMSCALE
 40
10.0
  9
$DIMASZ
 40
3.5
  9
$DIMEXO
 40
0.625
  9
$DIMDLI
 40
3.75
  9
$DIMRND
 40
0.0
  9
$DIMDLE
 40
0.0
  9
$DIMEXE
 40
1.25
  9
$DIMTP
 40
0.0
  9
$DIMTM
 40
0.0
  9
$DIMTXT
 40
3.5
  9
$DIMCEN
 40
2.5
  9
$DIMTSZ
 40
0.0
  9
$DIMTOL
 70
     0
  9
$DIMLIM
 70
     0
  9
$DIMTIH
 70
     0
  9
$DIMTOH
 70
     0
  9
$DIMSE1
 70
     0
  9
$DIMSE2
 70
     0
  9
$DIMTAD
 70
     1
  9
$DIMZIN
 70
     8
  9
$DIMBLK
  1

  9
$DIMASO
 70
     1
  9
$DIMSHO
 70
     1
  9
$DIMPOST
  1

  9
$DIMAPOST
  1

  9
$DIMALT
 70
     0
  9
$DIMALTD
 70
     3
  9
$DIMALTF
 40
0.03937
  9
$DIMLFAC
 40
1.0
  9
$DIMTOFL
 70
     1
  9
$DIMTVP
 40
0.0
  9
$DIMTIX
 70
     0
  9
$DIMSOXD
 70
     0
  9
$DIMSAH
 70
     0
  9
$DIMBLK1
  1

  9
$DIMBLK2
  1

  9
$DIMSTYLE
  2
ISO-25
  9
$DIMCLRD
 70
     0
  9
$DIMCLRE
 70
     0
  9
$DIMCLRT
 70
     0
  9
$DIMTFAC
 40
1.0
  9
$DIMGAP
 40
0.625
  9
$DIMJUST
 70
     0
  9
$DIMSD1
 70
     0
  9
$DIMSD2
 70
     0
  9
$DIMTOLJ
 70
     0
  9
$DIMTZIN
 70
     8
  9
$DIMALTZ
 70
     0
  9
$DIMALTTZ
 70
     0
  9
$DIMUPT
 70
     0
  9
$DIMDEC
 70
     2
  9
$DIMTDEC
 70
     2
  9
$DIMALTU
 70
     2
  9
$DIMALTTD
 70
     3
  9
$DIMTXSTY
  7
Standard
  9
$DIMAUNIT
 70
     0
  9
$DIMADEC
 70
     0
  9
$DIMALTRND
 40
0.0
  9
$DIMAZIN
 70
     0
  9
$DIMDSEP
 70
    44
  9
$DIMATFIT
 70
     3
  9
$DIMFRAC
 70
     0
  9
$DIMLDRBLK
  1

  9
$DIMLUNIT
 70
     2
  9
$DIMLWD
 70
    -2
  9
$DIMLWE
 70
    -2
  9
$DIMTMOVE
 70
     0
  9
$LUNITS
 70
     2
  9
$LUPREC
 70
     4
  9
$SKETCHINC
 40
1.0
  9
$FILLETRAD
 40
10.0
  9
$AUNITS
 70
     0
  9
$AUPREC
 70
     0
  9
$MENU
  1
.
  9
$ELEVATION
 40
0.0
  9
$PELEVATION
 40
0.0
  9
$THICKNESS
 40
0.0
  9
$LIMCHECK
 70
     0
  9
$CHAMFERA
 40
10.0
  9
$CHAMFERB
 40
10.0
  9
$CHAMFERC
 40
20.0
  9
$CHAMFERD
 40
0.0
  9
$SKPOLY
 70
     0
  9
$TDCREATE
 40
2456490.59309456
  9
$TDUCREATE
 40
2456490.509761227
  9
$TDUPDATE
 40
2456490.593094572
  9
$TDUUPDATE
 40
2456490.509761239
  9
$TDINDWG
 40
0.0000000116
  9
$TDUSRTIMER
 40
0.0000000116
  9
$USRTIMER
 70
     1
  9
$ANGBASE
 50
0.0
  9
$ANGDIR
 70
     0
  9
$PDMODE
 70
     0
  9
$PDSIZE
 40
0.0
  9
$PLINEWID
 40
0.0
  9
$SPLFRAME
 70
     0
  9
$SPLINETYPE
 70
     6
  9
$SPLINESEGS
 70
     8
  9
$HANDSEED
  5
59B
  9
$SURFTAB1
 70
     6
  9
$SURFTAB2
 70
     6
  9
$SURFTYPE
 70
     6
  9
$SURFU
 70
     6
  9
$SURFV
 70
     6
  9
$UCSBASE
  2

  9
$UCSNAME
  2

  9
$UCSORG
 10
0.0
 20
0.0
 30
0.0
  9
$UCSXDIR
 10
1.0
 20
0.0
 30
0.0
  9
$UCSYDIR
 10
0.0
 20
1.0
 30
0.0
  9
$UCSORTHOREF
  2

  9
$UCSORTHOVIEW
 70
     0
  9
$UCSORGTOP
 10
0.0
 20
0.0
 30
0.0
  9
$UCSORGBOTTOM
 10
0.0
 20
0.0
 30
0.0
  9
$UCSORGLEFT
 10
0.0
 20
0.0
 30
0.0
  9
$UCSORGRIGHT
 10
0.0
 20
0.0
 30
0.0
  9
$UCSORGFRONT
 10
0.0
 20
0.0
 30
0.0
  9
$UCSORGBACK
 10
0.0
 20
0.0
 30
0.0
  9
$PUCSBASE
  2

  9
$PUCSNAME
  2

  9
$PUCSORG
 10
0.0
 20
0.0
 30
0.0
  9
$PUCSXDIR
 10
1.0
 20
0.0
 30
0.0
  9
$PUCSYDIR
 10
0.0
 20
1.0
 30
0.0
  9
$PUCSORTHOREF
  2

  9
$PUCSORTHOVIEW
 70
     0
  9
$PUCSORGTOP
 10
0.0
 20
0.0
 30
0.0
  9
$PUCSORGBOTTOM
 10
0.0
 20
0.0
 30
0.0
  9
$PUCSORGLEFT
 10
0.0
 20
0.0
 30
0.0
  9
$PUCSORGRIGHT
 10
0.0
 20
0.0
 30
0.0
  9
$PUCSORGFRONT
 10
0.0
 20
0.0
 30
0.0
  9
$PUCSORGBACK
 10
0.0
 20
0.0
 30
0.0
  9
$USERI1
 70
     0
  9
$USERI2
 70
     0
  9
$USERI3
 70
     0
  9
$USERI4
 70
     0
  9
$USERI5
 70
     0
  9
$USERR1
 40
0.0
  9
$USERR2
 40
0.0
  9
$USERR3
 40
0.0
  9
$USERR4
 40
0.0
  9
$USERR5
 40
0.0
  9
$WORLDVIEW
 70
     1
  9
$SHADEDGE
 70
     3
  9
$SHADEDIF
 70
    70
  9
$TILEMODE
 70
     1
  9
$MAXACTVP
 70
    64
  9
$PINSBASE
 10
0.0
 20
0.0
 30
0.0
  9
$PLIMCHECK
 70
     0
  9
$PEXTMIN
 10
0.0
 20
0.0
 30
0.0
  9
$PEXTMAX
 10
2100.0
 20
2970.0
 30
0.0
  9
$PLIMMIN
 10
0.0
 20
0.0
  9
$PLIMMAX
 10
2100.0
 20
2970.0
  9
$UNITMODE
 70
     0
  9
$VISRETAIN
 70
     1
  9
$PLINEGEN
 70
     0
  9
$PSLTSCALE
 70
     1
  9
$TREEDEPTH
 70
  3020
  9
$CMLSTYLE
  2
Standard
  9
$CMLJUST
 70
     0
  9
$CMLSCALE
 40
20.0
  9
$PROXYGRAPHICS
 70
     1
  9
$MEASUREMENT
 70
     1
  9
$CELWEIGHT
370
    -1
  9
$ENDCAPS
280
     0
  9
$JOINSTYLE
280
     0
  9
$LWDISPLAY
290
     0
  9
$INSUNITS
 70
     4
  9
$HYPERLINKBASE
  1

  9
$STYLESHEET
  1

  9
$XEDIT
290
     1
  9
$CEPSNTYPE
380
     0
  9
$PSTYLEMODE
290
     1
  9
$FINGERPRINTGUID
  2
{FAEB1C30-E019-11D5-929B-00C0DF256EC4}
  9
$VERSIONGUID
  2
{FAEB1C32-E019-11D5-929B-00C0DF256EC4}
  9
$EXTNAMES
290
     1
  9
$PSVPSCALE
 40
0.0
  9
$OLESTARTUP
290
     0
  9
$SORTENTS
280
   127
  9
$INDEXCTL
280
     0
  9
$HIDETEXT
280
     1
  9
$XCLIPFRAME
290
     0
  9
$HALOGAP
280
     0
  9
$OBSCOLOR
 70
   257
  9
$OBSLTYPE
280
     0
  9
$INTERSECTIONDISPLAY
280
     0
  9
$INTERSECTIONCOLOR
 70
   257
  9
$DIMASSOC
280
     2
  9
$PROJECTNAME
  1

  0
ENDSEC
  0
SECTION
  2
CLASSES
  0
CLASS
  1
ACDBDICTIONARYWDFLT
  2
AcDbDictionaryWithDefault
  3
ObjectDBX Classes
 90
        0
 91
        1
280
     0
281
     0
  0
ENDSEC
  0
SECTION
  2
TABLES
  0
TABLE
  2
VPORT
  5
8
330
0
100
AcDbSymbolTable
 70
     2
  0
VPORT
  5
29
330
8
100
AcDbSymbolTableRecord
100
AcDbViewportTableRecord
  2
*ACTIVE
 70
     0
 10
0.0
 20
0.0
 11
1.0
 21
1.0
 12
1050.0
 22
1485.0
 13
0.0
 23
0.0
 14
1.0
 24
1.0
 15
0.0
 25
0.0
 16
0.0
 26
0.0
 36
1.0
 17
0.0
 27
0.0
 37
0.0
 40
2970.0
 41
0.707071
 42
50.0
 43
0.0
 44
0.0
 50
0.0
 51
0.0
 71
    16
 72
   100
 73
     1
 74
     0
 75
     0
 76
     0
 77
     0
 78
     0
281
     0
 65
     0
110
0.0
120
0.0
130
0.0
111
1.0
121
0.0
131
0.0
112
0.0
122
1.0
132
0.0
 79
     0
146
0.0
  0
ENDTAB
  0
TABLE
  2
LTYPE
  5
5
330
0
100
AcDbSymbolTable
 70
     3
  0
LTYPE
  5
14
330
5
100
AcDbSymbolTableRecord
100
AcDbLinetypeTableRecord
  2
ByBlock
 70
     0
  3

 72
    65
 73
     0
 40
0.0
  0
LTYPE
  5
15
330
5
100
AcDbSymbolTableRecord
100
AcDbLinetypeTableRecord
  2
ByLayer
 70
     0
  3

 72
    65
 73
     0
 40
0.0
  0
LTYPE
  5
16
330
5
100
AcDbSymbolTableRecord
100
AcDbLinetypeTableRecord
  2
Continuous
 70
     0
  3
Solid line
 72
    65
 73
     0
 40
0.0
  0
LTYPE
  5
2A
330
5
100
AcDbSymbolTableRecord
100
AcDbLinetypeTableRecord
  2
DASHED
 70
     0
  3
__ __ __ __ __
 72
    65
 73
     2
 40
6.25
 49
5.0
 74
     4
 75
     0
340
0
 46
1.0
 50
0.0
 44
0.0
 45
0.0
 49
-1.25
 74
     4
 75
     0
340
0
 46
1.0
 50
0.0
 44
0.0
 45
0.0
  0
LTYPE
  5
10A
330
5
100
AcDbSymbolTableRecord
100
AcDbLinetypeTableRecord
  2
CENTER
 70
     0
  3
__ . __ . __ . __ . __
 72
    65
 73
     4
 40
7.5
 49
5.0
 74
     4
 75
     0
340
0
 46
1.0
 50
0.0
 44
0.0
 45
0.0
 49
-1.25
 74
     4
 75
     0
340
0
 46
1.0
 50
0.0
 44
0.0
 45
0.0
 49
0.0
 74
     4
 75
     0
340
0
 46
1.0
 50
0.0
 44
0.0
 45
0.0
 49
-1.25
 74
     4
 75
     0
340
0
 46
1.0
 50
0.0
 44
0.0
 45
0.0
  0
ENDTAB
  0
TABLE
  2
LAYER
  5
2
330
0
100
AcDbSymbolTable
 70
    15
  0
LAYER
  5
10
330
2
100
AcDbSymbolTableRecord
100
AcDbLayerTableRecord
  2
0
 70
     0
 62
     7
  6
Continuous
370
    -3
390
F
  0
LAYER
  5
2B
330
2
100
AcDbSymbolTableRecord
100
AcDbLayerTableRecord
  2
LC-INFO-1-10-mm-A4H-0
 70
     1
 62
     7
  6
ByBlock
370
    -3
390
F
  0
LAYER
  5
2C
330
2
100
AcDbSymbolTableRecord
100
AcDbLayerTableRecord
  2
LC-CUT-HIDDEN
 70
     0
 62
     7
  6
DASHED
370
    -3
390
F
  0
LAYER
  5
2D
330
2
100
AcDbSymbolTableRecord
100
AcDbLayerTableRecord
  2
LC-VIEWPORT
 70
     0
 62
     7
  6
ByBlock
370
    -3
390
F
  0
LAYER
  5
2E
330
2
100
AcDbSymbolTableRecord
100
AcDbLayerTableRecord
  2
LC-3D-HIDDEN
 70
     0
 62
     9
  6
DASHED
370
    -3
390
F
  0
LAYER
  5
33
330
2
100
AcDbSymbolTableRecord
100
AcDbLayerTableRecord
  2
LC-001-111-----0
 70
     0
 62
   253
  6
ByBlock
370
    -3
390
F
  0
LAYER
  5
A1
330
2
100
AcDbSymbolTableRecord
100
AcDbLayerTableRecord
  2
LC-002-002-----0
 70
     0
 62
     1
  6
ByBlock
370
    -3
390
F
  0
LAYER
  5
102
330
2
100
AcDbSymbolTableRecord
100
AcDbLayerTableRecord
  2
LC-003-230-ZVN-0
 70
     0
 62
     1
  6
ByBlock
370
    -3
390
F
  0
LAYER
  5
10B
330
2
100
AcDbSymbolTableRecord
100
AcDbLayerTableRecord
  2
LC-004-006-MLN-0
 70
     0
 62
     2
  6
CENTER
370
    -3
390
F
  0
LAYER
  5
10D
330
2
100
AcDbSymbolTableRecord
100
AcDbLayerTableRecord
  2
LC-005-002-RND-0
 70
     0
 62
     1
  6
ByBlock
370
    -3
390
F
  0
LAYER
  5
13B
330
2
100
AcDbSymbolTableRecord
100
AcDbLayerTableRecord
  2
LC-006-003-----0
 70
     0
 62
     2
  6
ByBlock
370
    -3
390
F
  0
LAYER
  5
13D
330
2
100
AcDbSymbolTableRecord
100
AcDbLayerTableRecord
  2
Defpoints
 70
     0
 62
     7
  6
Continuous
290
     0
370
    -3
390
F
  0
LAYER
  5
1C1
330
2
100
AcDbSymbolTableRecord
100
AcDbLayerTableRecord
  2
LC-007-004-----0
 70
     0
 62
     7
  6
ByBlock
370
    -3
390
F
  0
LAYER
  5
386
330
2
100
AcDbSymbolTableRecord
100
AcDbLayerTableRecord
  2
LC-008-100-D00-0
 70
     0
 62
    44
  6
ByBlock
370
    -3
390
F
  0
LAYER
  5
4A2
330
2
100
AcDbSymbolTableRecord
100
AcDbLayerTableRecord
  2
LC-009-005-----0
 70
     0
 62
     2
  6
ByBlock
370
    -3
390
F
  0
ENDTAB
  0
TABLE
  2
STYLE
  5
3
330
0
100
AcDbSymbolTable
 70
     2
  0
STYLE
  5
11
330
3
100
AcDbSymbolTableRecord
100
AcDbTextStyleTableRecord
  2
Standard
 70
     0
 40
0.0
 41
1.0
 50
0.0
 71
     0
 42
2.5
  3
txt
  4

  0
STYLE
  5
2F
330
3
100
AcDbSymbolTableRecord
100
AcDbTextStyleTableRecord
  2
LCTX0-400-0-0pDIN-Schrift
 70
     0
 40
0.0
 41
0.8
 50
0.0
 71
     0
 42
3.5
  3
TXT
  4

  0
ENDTAB
  0
TABLE
  2
VIEW
  5
6
330
0
100
AcDbSymbolTable
 70
     0
  0
ENDTAB
  0
TABLE
  2
UCS
  5
7
330
0
100
AcDbSymbolTable
 70
     0
  0
ENDTAB
  0
TABLE
  2
APPID
  5
9
330
0
100
AcDbSymbolTable
 70
     1
  0
APPID
  5
12
330
9
100
AcDbSymbolTableRecord
100
AcDbRegAppTableRecord
  2
ACAD
 70
     0
  0
ENDTAB
  0
TABLE
  2
DIMSTYLE
  5
A
330
0
100
AcDbSymbolTable
 70
     6
100
AcDbDimStyleTable
  0
DIMSTYLE
105
27
330
A
100
AcDbSymbolTableRecord
100
AcDbDimStyleTableRecord
  2
ISO-25
 70
     0
 41
2.5
 42
0.625
 43
3.75
 44
1.25
 73
     0
 74
     0
 77
     1
 78
     8
140
2.5
141
2.5
143
0.03937
147
0.625
171
     3
172
     1
271
     2
272
     2
274
     3
278
    44
283
     0
284
     8
340
11
  0
DIMSTYLE
105
13A
102
{ACAD_REACTORS
330
13C
330
14A
330
1A7
330
1B4
330
3D0
330
3DD
330
3EA
330
3FE
330
40B
330
42B
330
451
330
45E
330
4BC
330
4C9
102
}
330
A
100
AcDbSymbolTableRecord
100
AcDbDimStyleTableRecord
  2
LC-DIM-L-0025-03-02
 70
     0
 40
10.0
 41
2.5
 42
0.0
 43
7.5
 44
1.8
 73
     0
 74
     0
 77
     1
 78
     8
 79
     2
140
2.5
141
0.0
146
0.71
147
1.5
172
     1
176
     2
177
     2
178
     2
179
     3
271
     3
278
    44
289
     1
340
2F
  0
DIMSTYLE
105
362
102
{ACAD_REACTORS
330
363
330
513
102
}
330
A
100
AcDbSymbolTableRecord
100
AcDbDimStyleTableRecord
  2
LC-DIM-L-0025-00-02
 70
     0
 40
10.0
 41
2.5
 42
0.0
 43
7.5
 44
1.8
 73
     0
 74
     0
 77
     1
 78
     8
140
2.5
141
0.0
146
0.71
147
1.5
172
     1
176
     2
177
     2
178
     2
271
     0
278
    44
289
     1
340
2F
  0
DIMSTYLE
105
418
102
{ACAD_REACTORS
330
419
330
422
102
}
330
A
100
AcDbSymbolTableRecord
100
AcDbDimStyleTableRecord
  2
LC-DIM-R-0025-03-02
 70
     0
 40
10.0
 41
2.5
 42
0.0
 43
7.5
 44
1.8
 73
     0
 74
     0
 77
     1
 78
     8
 79
     2
140
2.5
141
0.0
146
0.71
147
1.5
176
     2
177
     2
178
     2
179
     3
271
     3
278
    44
289
     1
340
2F
  0
DIMSTYLE
105
4F9
102
{ACAD_REACTORS
330
4FA
330
568
330
575
102
}
330
A
100
AcDbSymbolTableRecord
100
AcDbDimStyleTableRecord
  2
LC-DIM-L-0025-02-02
 70
     0
 40
10.0
 41
2.5
 42
0.0
 43
7.5
 44
1.8
 73
     0
 74
     0
 77
     1
 78
     8
 79
     2
140
2.5
141
0.0
146
0.71
147
1.5
172
     1
176
     2
177
     2
178
     2
179
     2
271
     2
278
    44
289
     1
340
2F
  0
DIMSTYLE
105
509
102
{ACAD_REACTORS
330
50A
330
55F
330
582
102
}
330
A
100
AcDbSymbolTableRecord
100
AcDbDimStyleTableRecord
  2
LC-DIM-R-0025-02-02
 70
     0
 40
10.0
 41
2.5
 42
0.0
 43
7.5
 44
1.8
 73
     0
 74
     0
 77
     1
 78
     8
 79
     2
140
2.5
141
0.0
146
0.71
147
1.5
176
     2
177
     2
178
     2
179
     2
271
     2
278
    44
289
     1
340
2F
  0
ENDTAB
  0
TABLE
  2
BLOCK_RECORD
  5
1
330
0
100
AcDbSymbolTable
 70
    47
  0
BLOCK_RECORD
  5
1F
330
1
100
AcDbSymbolTableRecord
100
AcDbBlockTableRecord
  2
*Model_Space
340
22
  0
BLOCK_RECORD
  5
1B
330
1
100
AcDbSymbolTableRecord
100
AcDbBlockTableRecord
  2
*Paper_Space
340
1E
  0
BLOCK_RECORD
  5
23
330
1
100
AcDbSymbolTableRecord
100
AcDbBlockTableRecord
  2
*Paper_Space0
340
26
  0
BLOCK_RECORD
  5
30
330
1
100
AcDbSymbolTableRecord
100
AcDbBlockTableRecord
  2
SYM1
340
0
102
{BLKREFS
331
103
102
}
  0
BLOCK_RECORD
  5
13E
330
1
100
AcDbSymbolTableRecord
100
AcDbBlockTableRecord
  2
*D2
340
0
  0
BLOCK_RECORD
  5
14B
330
1
100
AcDbSymbolTableRecord
100
AcDbBlockTableRecord
  2
*D3
340
0
  0
BLOCK_RECORD
  5
1A8
330
1
100
AcDbSymbolTableRecord
100
AcDbBlockTableRecord
  2
*D4
340
0
  0
BLOCK_RECORD
  5
1B5
330
1
100
AcDbSymbolTableRecord
100
AcDbBlockTableRecord
  2
*D5
340
0
  0
BLOCK_RECORD
  5
209
330
1
100
AcDbSymbolTableRecord
100
AcDbBlockTableRecord
  2
POLY1
340
0
102
{BLKREFS
331
212
102
}
  0
BLOCK_RECORD
  5
213
330
1
100
AcDbSymbolTableRecord
100
AcDbBlockTableRecord
  2
POLY2
340
0
102
{BLKREFS
331
21C
102
}
  0
BLOCK_RECORD
  5
21D
330
1
100
AcDbSymbolTableRecord
100
AcDbBlockTableRecord
  2
POLY3
340
0
102
{BLKREFS
331
22A
102
}
  0
BLOCK_RECORD
  5
22B
330
1
100
AcDbSymbolTableRecord
100
AcDbBlockTableRecord
  2
POLY4
340
0
102
{BLKREFS
331
238
102
}
  0
BLOCK_RECORD
  5
239
330
1
100
AcDbSymbolTableRecord
100
AcDbBlockTableRecord
  2
POLY5
340
0
102
{BLKREFS
331
250
102
}
  0
BLOCK_RECORD
  5
251
330
1
100
AcDbSymbolTableRecord
100
AcDbBlockTableRecord
  2
POLY6
340
0
102
{BLKREFS
331
25A
102
}
  0
BLOCK_RECORD
  5
25B
330
1
100
AcDbSymbolTableRecord
100
AcDbBlockTableRecord
  2
POLY7
340
0
102
{BLKREFS
331
26C
102
}
  0
BLOCK_RECORD
  5
26D
330
1
100
AcDbSymbolTableRecord
100
AcDbBlockTableRecord
  2
POLY8
340
0
102
{BLKREFS
331
296
102
}
  0
BLOCK_RECORD
  5
2A5
330
1
100
AcDbSymbolTableRecord
100
AcDbBlockTableRecord
  2
POLY9
340
0
102
{BLKREFS
331
2B4
102
}
  0
BLOCK_RECORD
  5
2B5
330
1
100
AcDbSymbolTableRecord
100
AcDbBlockTableRecord
  2
POLY10
340
0
102
{BLKREFS
331
2C2
102
}
  0
BLOCK_RECORD
  5
31B
330
1
100
AcDbSymbolTableRecord
100
AcDbBlockTableRecord
  2
POLY11
340
0
102
{BLKREFS
331
31F
102
}
  0
BLOCK_RECORD
  5
330
330
1
100
AcDbSymbolTableRecord
100
AcDbBlockTableRecord
  2
POLY12
340
0
102
{BLKREFS
331
33F
102
}
  0
BLOCK_RECORD
  5
341
330
1
100
AcDbSymbolTableRecord
100
AcDbBlockTableRecord
  2
POLY13
340
0
102
{BLKREFS
331
350
102
}
  0
BLOCK_RECORD
  5
352
330
1
100
AcDbSymbolTableRecord
100
AcDbBlockTableRecord
  2
POLY14
340
0
102
{BLKREFS
331
361
102
}
  0
BLOCK_RECORD
  5
364
330
1
100
AcDbSymbolTableRecord
100
AcDbBlockTableRecord
  2
*D20
340
0
  0
BLOCK_RECORD
  5
3C2
330
1
100
AcDbSymbolTableRecord
100
AcDbBlockTableRecord
  2
KLON1
340
0
102
{BLKREFS
331
3CD
102
}
  0
BLOCK_RECORD
  5
3D1
330
1
100
AcDbSymbolTableRecord
100
AcDbBlockTableRecord
  2
*D22
340
0
  0
BLOCK_RECORD
  5
3DE
330
1
100
AcDbSymbolTableRecord
100
AcDbBlockTableRecord
  2
*D23
340
0
  0
BLOCK_RECORD
  5
3EB
330
1
100
AcDbSymbolTableRecord
100
AcDbBlockTableRecord
  2
*D24
340
0
  0
BLOCK_RECORD
  5
3FF
330
1
100
AcDbSymbolTableRecord
100
AcDbBlockTableRecord
  2
*D25
340
0
  0
BLOCK_RECORD
  5
40C
330
1
100
AcDbSymbolTableRecord
100
AcDbBlockTableRecord
  2
*D26
340
0
  0
BLOCK_RECORD
  5
41A
330
1
100
AcDbSymbolTableRecord
100
AcDbBlockTableRecord
  2
*D27
340
0
  0
BLOCK_RECORD
  5
423
330
1
100
AcDbSymbolTableRecord
100
AcDbBlockTableRecord
  2
*D28
340
0
  0
BLOCK_RECORD
  5
42C
330
1
100
AcDbSymbolTableRecord
100
AcDbBlockTableRecord
  2
*D29
340
0
  0
BLOCK_RECORD
  5
452
330
1
100
AcDbSymbolTableRecord
100
AcDbBlockTableRecord
  2
*D30
340
0
  0
BLOCK_RECORD
  5
45F
330
1
100
AcDbSymbolTableRecord
100
AcDbBlockTableRecord
  2
*D31
340
0
  0
BLOCK_RECORD
  5
49F
330
1
100
AcDbSymbolTableRecord
100
AcDbBlockTableRecord
  2
*X132
340
0
102
{BLKREFS
331
4AB
102
}
  0
BLOCK_RECORD
  5
4AC
330
1
100
AcDbSymbolTableRecord
100
AcDbBlockTableRecord
  2
*X233
340
0
102
{BLKREFS
331
4BB
102
}
  0
BLOCK_RECORD
  5
4BD
330
1
100
AcDbSymbolTableRecord
100
AcDbBlockTableRecord
  2
*D34
340
0
  0
BLOCK_RECORD
  5
4CA
330
1
100
AcDbSymbolTableRecord
100
AcDbBlockTableRecord
  2
*D35
340
0
  0
BLOCK_RECORD
  5
4E7
330
1
100
AcDbSymbolTableRecord
100
AcDbBlockTableRecord
  2
*X336
340
0
102
{BLKREFS
331
4F8
102
}
  0
BLOCK_RECORD
  5
4FB
330
1
100
AcDbSymbolTableRecord
100
AcDbBlockTableRecord
  2
*D37
340
0
  0
BLOCK_RECORD
  5
50B
330
1
100
AcDbSymbolTableRecord
100
AcDbBlockTableRecord
  2
*D38
340
0
  0
BLOCK_RECORD
  5
514
330
1
100
AcDbSymbolTableRecord
100
AcDbBlockTableRecord
  2
*D39
340
0
  0
BLOCK_RECORD
  5
520
330
1
100
AcDbSymbolTableRecord
100
AcDbBlockTableRecord
  2
*X440
340
0
102
{BLKREFS
331
52A
102
}
  0
BLOCK_RECORD
  5
53F
330
1
100
AcDbSymbolTableRecord
100
AcDbBlockTableRecord
  2
*X541
340
0
102
{BLKREFS
331
550
102
}
  0
BLOCK_RECORD
  5
551
330
1
100
AcDbSymbolTableRecord
100
AcDbBlockTableRecord
  2
*X642
340
0
102
{BLKREFS
331
55B
102
}
  0
BLOCK_RECORD
  5
560
330
1
100
AcDbSymbolTableRecord
100
AcDbBlockTableRecord
  2
*D43
340
0
  0
BLOCK_RECORD
  5
569
330
1
100
AcDbSymbolTableRecord
100
AcDbBlockTableRecord
  2
*D44
340
0
  0
BLOCK_RECORD
  5
576
330
1
100
AcDbSymbolTableRecord
100
AcDbBlockTableRecord
  2
*D45
340
0
  0
BLOCK_RECORD
  5
583
330
1
100
AcDbSymbolTableRecord
100
AcDbBlockTableRecord
  2
*D46
340
0
  0
ENDTAB
  0
ENDSEC
  0
SECTION
  2
BLOCKS
  0
BLOCK
  5
20
330
1F
100
AcDbEntity
  8
0
100
AcDbBlockBegin
  2
*Model_Space
 70
     0
 71
     0
 10
0.0
 20
0.0
 30
0.0
  3
*Model_Space
  1

  0
ENDBLK
  5
21
330
1F
100
AcDbEntity
  8
0
100
AcDbBlockEnd
  0
BLOCK
  5
1C
330
1B
100
AcDbEntity
 67
     1
  8
0
100
AcDbBlockBegin
  2
*Paper_Space
 70
     0
 71
     0
 10
0.0
 20
0.0
 30
0.0
  3
*Paper_Space
  1

  0
ENDBLK
  5
1D
330
1B
100
AcDbEntity
 67
     1
  8
0
100
AcDbBlockEnd
  0
BLOCK
  5
24
330
23
100
AcDbEntity
  8
0
100
AcDbBlockBegin
  2
*Paper_Space0
 70
     0
 71
     0
 10
0.0
 20
0.0
 30
0.0
  3
*Paper_Space0
  1

  0
ENDBLK
  5
25
330
23
100
AcDbEntity
  8
0
100
AcDbBlockEnd
  0
BLOCK
  5
31
330
30
100
AcDbEntity
  8
0
100
AcDbBlockBegin
  2
SYM1
 70
     0
 71
     0
 10
0.0
 20
0.0
 30
0.0
  3
SYM1
  1

  4
SYM1
  0
LINE
  5
34
330
30
100
AcDbEntity
  8
LC-001-111-----0
 62
   253
370
    50
100
AcDbLine
 10
2050.0
 20
50.0
 30
0.0
 11
2050.0
 21
2920.0
 31
0.0
  0
LINE
  5
35
330
30
100
AcDbEntity
  8
LC-001-111-----0
 62
   253
370
    25
100
AcDbLine
 10
178.0
 20
220.0
 30
0.0
 11
724.0
 21
220.0
 31
0.0
  0
LINE
  5
36
330
30
100
AcDbEntity
  8
LC-001-111-----0
 62
   253
370
    35
100
AcDbLine
 10
724.0
 20
220.0
 30
0.0
 11
2050.0
 21
220.0
 31
0.0
  0
LINE
  5
37
330
30
100
AcDbEntity
  8
LC-001-111-----0
 62
   253
370
    50
100
AcDbLine
 10
178.0
 20
602.5
 30
0.0
 11
2050.0
 21
602.5
 31
0.0
  0
LINE
  5
38
330
30
100
AcDbEntity
  8
LC-001-111-----0
 62
   253
370
    25
100
AcDbLine
 10
178.0
 20
92.5
 30
0.0
 11
2050.0
 21
92.5
 31
0.0
  0
LINE
  5
39
330
30
100
AcDbEntity
  8
LC-001-111-----0
 62
   253
370
    25
100
AcDbLine
 10
178.0
 20
135.0
 30
0.0
 11
724.0
 21
135.0
 31
0.0
  0
LINE
  5
3A
330
30
100
AcDbEntity
  8
LC-001-111-----0
 62
   253
370
    25
100
AcDbLine
 10
178.0
 20
177.5
 30
0.0
 11
724.0
 21
177.5
 31
0.0
  0
LINE
  5
3B
330
30
100
AcDbEntity
  8
LC-001-111-----0
 62
   253
370
    25
100
AcDbLine
 10
178.0
 20
262.5
 30
0.0
 11
1166.0
 21
262.5
 31
0.0
  0
LINE
  5
3C
330
30
100
AcDbEntity
  8
LC-001-111-----0
 62
   253
370
    25
100
AcDbLine
 10
178.0
 20
305.0
 30
0.0
 11
1166.0
 21
305.0
 31
0.0
  0
LINE
  5
3D
330
30
100
AcDbEntity
  8
LC-001-111-----0
 62
   253
370
    25
100
AcDbLine
 10
178.0
 20
347.5
 30
0.0
 11
1166.0
 21
347.5
 31
0.0
  0
LINE
  5
3E
330
30
100
AcDbEntity
  8
LC-001-111-----0
 62
   253
370
    25
100
AcDbLine
 10
178.0
 20
390.0
 30
0.0
 11
1166.0
 21
390.0
 31
0.0
  0
LINE
  5
3F
330
30
100
AcDbEntity
  8
LC-001-111-----0
 62
   253
370
    35
100
AcDbLine
 10
178.0
 20
432.5
 30
0.0
 11
2050.0
 21
432.5
 31
0.0
  0
LINE
  5
40
330
30
100
AcDbEntity
  8
LC-001-111-----0
 62
   253
370
    25
100
AcDbLine
 10
828.0
 20
262.5
 30
0.0
 11
828.0
 21
432.5
 31
0.0
  0
LINE
  5
41
330
30
100
AcDbEntity
  8
LC-001-111-----0
 62
   253
370
    35
100
AcDbLine
 10
1920.0
 20
92.5
 30
0.0
 11
1920.0
 21
220.0
 31
0.0
  0
LINE
  5
42
330
30
100
AcDbEntity
  8
LC-001-111-----0
 62
   253
370
    25
100
AcDbLine
 10
1166.0
 20
538.75
 30
0.0
 11
2050.0
 21
538.75
 31
0.0
  0
LINE
  5
43
330
30
100
AcDbEntity
  8
LC-001-111-----0
 62
   253
370
    25
100
AcDbLine
 10
256.0
 20
50.0
 30
0.0
 11
256.0
 21
432.5
 31
0.0
  0
LINE
  5
44
330
30
100
AcDbEntity
  8
LC-001-111-----0
 62
   253
370
    25
100
AcDbLine
 10
516.0
 20
50.0
 30
0.0
 11
516.0
 21
432.5
 31
0.0
  0
LINE
  5
45
330
30
100
AcDbEntity
  8
LC-001-111-----0
 62
   253
370
    25
100
AcDbLine
 10
646.0
 20
50.0
 30
0.0
 11
646.0
 21
432.5
 31
0.0
  0
LINE
  5
46
330
30
100
AcDbEntity
  8
LC-001-111-----0
 62
   253
370
    35
100
AcDbLine
 10
724.0
 20
50.0
 30
0.0
 11
724.0
 21
602.5
 31
0.0
  0
LINE
  5
47
330
30
100
AcDbEntity
  8
LC-001-111-----0
 62
   253
370
    35
100
AcDbLine
 10
1166.0
 20
50.0
 30
0.0
 11
1166.0
 21
602.5
 31
0.0
  0
LINE
  5
48
330
30
100
AcDbEntity
  8
LC-001-111-----0
 62
   253
370
    25
100
AcDbLine
 10
1920.0
 20
135.0
 30
0.0
 11
2050.0
 21
135.0
 31
0.0
  0
LINE
  5
49
330
30
100
AcDbEntity
  8
LC-001-111-----0
 62
   253
370
    25
100
AcDbLine
 10
984.0
 20
220.0
 30
0.0
 11
984.0
 21
602.5
 31
0.0
  0
LINE
  5
4A
330
30
100
AcDbEntity
  8
LC-001-111-----0
 62
   253
370
    25
100
AcDbLine
 10
1686.0
 20
538.75
 30
0.0
 11
1686.0
 21
602.5
 31
0.0
  0
LINE
  5
4B
330
30
100
AcDbEntity
  8
LC-001-111-----0
 62
   253
370
    25
100
AcDbLine
 10
1608.0
 20
50.0
 30
0.0
 11
1608.0
 21
92.5
 31
0.0
  0
LINE
  5
4C
330
30
100
AcDbEntity
  8
LC-001-111-----0
 62
   253
370
    50
100
AcDbLine
 10
178.0
 20
50.0
 30
0.0
 11
178.0
 21
2920.0
 31
0.0
  0
LINE
  5
4D
330
30
100
AcDbEntity
  8
LC-001-111-----0
 62
   253
370
    50
100
AcDbLine
 10
178.0
 20
2920.0
 30
0.0
 11
2050.0
 21
2920.0
 31
0.0
  0
TEXT
  5
4E
330
30
100
AcDbEntity
  8
LC-001-111-----0
 62
     7
370
    25
100
AcDbText
 10
1471.410714
 20
558.125
 30
0.0
 40
25.0
  1
1:10
 41
0.75
  7
LCTX0-400-0-0pDIN-Schrift
 72
     1
 11
1504.0
 21
558.125
 31
0.0
100
AcDbText
  0
TEXT
  5
4F
330
30
100
AcDbEntity
  8
LC-001-111-----0
 62
     7
370
    25
100
AcDbText
 10
740.285714
 20
398.75
 30
0.0
 40
25.0
  1
2006
 41
0.75
  7
LCTX0-400-0-0pDIN-Schrift
 72
     1
 11
776.0
 21
398.75
 31
0.0
100
AcDbText
  0
TEXT
  5
50
330
30
100
AcDbEntity
  8
LC-001-111-----0
 62
     7
370
    25
100
AcDbText
 10
861.803571
 20
356.25
 30
0.0
 40
25.0
  1
02.06.
 41
0.75
  7
LCTX0-400-0-0pDIN-Schrift
 72
     1
 11
906.0
 21
356.25
 31
0.0
100
AcDbText
  0
TEXT
  5
51
330
30
100
AcDbEntity
  8
LC-001-111-----0
 62
     7
370
    25
100
AcDbText
 10
1056.696429
 20
356.25
 30
0.0
 40
25.0
  1
HÄ
 41
0.75
  7
LCTX0-400-0-0pDIN-Schrift
 72
     1
 11
1075.0
 21
356.25
 31
0.0
100
AcDbText
  0
TEXT
  5
52
330
30
100
AcDbEntity
  8
LC-001-111-----0
 62
   253
370
    20
100
AcDbText
 10
1183.923077
 20
560.625
 30
0.0
 40
20.0
  1
Maßstab
 41
0.75
  7
LCTX0-400-0-0pDIN-Schrift
100
AcDbText
  0
TEXT
  5
53
330
30
100
AcDbEntity
  8
LC-001-111-----0
 62
   253
370
    20
100
AcDbText
 10
869.928571
 20
401.25
 30
0.0
 40
20.0
  1
Datum
 41
0.75
  7
LCTX0-400-0-0pDIN-Schrift
 72
     1
 11
906.0
 21
401.25
 31
0.0
100
AcDbText
  0
TEXT
  5
54
330
30
100
AcDbEntity
  8
LC-001-111-----0
 62
   253
370
    20
100
AcDbText
 10
1042.857143
 20
401.25
 30
0.0
 40
20.0
  1
Name
 41
0.75
  7
LCTX0-400-0-0pDIN-Schrift
 72
     1
 11
1075.0
 21
401.25
 31
0.0
100
AcDbText
  0
TEXT
  5
55
330
30
100
AcDbEntity
  8
LC-001-111-----0
 62
   253
370
    20
100
AcDbText
 10
741.923077
 20
358.75
 30
0.0
 40
20.0
  1
Bearb.
 41
0.75
  7
LCTX0-400-0-0pDIN-Schrift
100
AcDbText
  0
TEXT
  5
56
330
30
100
AcDbEntity
  8
LC-001-111-----0
 62
   253
370
    20
100
AcDbText
 10
741.923077
 20
316.25
 30
0.0
 40
20.0
  1
Gepr.
 41
0.75
  7
LCTX0-400-0-0pDIN-Schrift
100
AcDbText
  0
TEXT
  5
57
330
30
100
AcDbEntity
  8
LC-001-111-----0
 62
   253
370
    20
100
AcDbText
 10
741.923077
 20
273.75
 30
0.0
 40
20.0
  1
Norm
 41
0.75
  7
LCTX0-400-0-0pDIN-Schrift
100
AcDbText
  0
TEXT
  5
58
330
30
100
AcDbEntity
  8
LC-001-111-----0
 62
   253
370
    20
100
AcDbText
 10
1937.923077
 20
188.75
 30
0.0
 40
20.0
  1
Blatt
 41
0.75
  7
LCTX0-400-0-0pDIN-Schrift
100
AcDbText
  0
TEXT
  5
59
330
30
100
AcDbEntity
  8
LC-001-111-----0
 62
   253
370
    20
100
AcDbText
 10
2012.076923
 20
103.75
 30
0.0
 40
20.0
  1
Bl.
 41
0.75
  7
LCTX0-400-0-0pDIN-Schrift
 72
     2
 11
2037.076923
 21
103.75
 31
0.0
100
AcDbText
  0
TEXT
  5
5A
330
30
100
AcDbEntity
  8
LC-001-111-----0
 62
   253
370
    20
100
AcDbText
 10
200.0
 20
61.25
 30
0.0
 40
20.0
  1
Zust.
 41
0.6
  7
LCTX0-400-0-0pDIN-Schrift
 72
     1
 11
222.0
 21
61.25
 31
0.0
100
AcDbText
  0
TEXT
  5
5B
330
30
100
AcDbEntity
  8
LC-001-111-----0
 62
   253
370
    20
100
AcDbText
 10
334.928571
 20
61.25
 30
0.0
 40
20.0
  1
Änderung
 41
0.75
  7
LCTX0-400-0-0pDIN-Schrift
 72
     1
 11
386.0
 21
61.25
 31
0.0
100
AcDbText
  0
TEXT
  5
5C
330
30
100
AcDbEntity
  8
LC-001-111-----0
 62
   253
370
    20
100
AcDbText
 10
544.928571
 20
61.25
 30
0.0
 40
20.0
  1
Datum
 41
0.75
  7
LCTX0-400-0-0pDIN-Schrift
 72
     1
 11
581.0
 21
61.25
 31
0.0
100
AcDbText
  0
TEXT
  5
5D
330
30
100
AcDbEntity
  8
LC-001-111-----0
 62
   253
370
    20
100
AcDbText
 10
652.857143
 20
61.25
 30
0.0
 40
20.0
  1
Name
 41
0.75
  7
LCTX0-400-0-0pDIN-Schrift
 72
     1
 11
685.0
 21
61.25
 31
0.0
100
AcDbText
  0
TEXT
  5
5E
330
30
100
AcDbEntity
  8
LC-001-111-----0
 62
     7
370
    50
100
AcDbText
 10
1336.571429
 20
343.75
 30
0.0
 40
50.0
  1
Nemo N-100 (CT)
 41
0.75
  7
LCTX0-400-0-0pDIN-Schrift
 72
     1
 11
1608.0
 21
343.75
 31
0.0
100
AcDbText
  0
TEXT
  5
5F
330
30
100
AcDbEntity
  8
LC-001-111-----0
 62
     7
370
    50
100
AcDbText
 10
1339.25
 20
258.75
 30
0.0
 40
50.0
  1
Mono N-100 (CD)
 41
0.75
  7
LCTX0-400-0-0pDIN-Schrift
 72
     1
 11
1608.0
 21
258.75
 31
0.0
100
AcDbText
  0
TEXT
  5
60
330
30
100
AcDbEntity
  8
LC-001-111-----0
 62
     7
370
    50
100
AcDbText
 10
1328.714286
 20
131.25
 30
0.0
 40
50.0
  1
4.06.700.04.00
 41
0.75
  7
LCTX0-400-0-0pDIN-Schrift
 72
     1
 11
1543.0
 21
131.25
 31
0.0
100
AcDbText
  0
ARC
  5
61
330
30
100
AcDbEntity
  8
LC-001-111-----0
 62
   253
370
    25
100
AcDbCircle
 10
758.903191
 20
174.567744
 30
0.0
 40
20.81533311668208
100
AcDbArc
 50
62.408264
 51
94.48185
  0
LINE
  5
62
330
30
100
AcDbEntity
  8
LC-001-111-----0
 62
   253
370
    50
100
AcDbLine
 10
178.0
 20
50.0
 30
0.0
 11
2050.0
 21
50.0
 31
0.0
  0
LINE
  5
63
330
30
100
AcDbEntity
  8
LC-001-111-----0
 62
   253
370
    25
100
AcDbLine
 10
50.0
 20
1485.0
 30
0.0
 11
0.0
 21
1485.0
 31
0.0
  0
LINE
  5
64
330
30
100
AcDbEntity
  8
LC-001-111-----0
 62
   253
370
    25
100
AcDbLine
 10
1063.835603
 20
195.169147
 30
0.0
 11
1063.835603
 21
157.149147
 31
0.0
  0
LINE
  5
65
330
30
100
AcDbEntity
  8
LC-001-111-----0
 62
   253
370
    25
100
AcDbLine
 10
2100.0
 20
2970.0
 30
0.0
 11
2100.0
 21
0.0
 31
0.0
  0
LINE
  5
66
330
30
100
AcDbEntity
  8
LC-001-111-----0
 62
   253
370
    25
100
AcDbLine
 10
2100.0
 20
0.0
 30
0.0
 11
0.0
 21
0.0
 31
0.0
  0
LINE
  5
67
330
30
100
AcDbEntity
  8
LC-001-111-----0
 62
   253
370
    25
100
AcDbLine
 10
0.0
 20
0.0
 30
0.0
 11
0.0
 21
2970.0
 31
0.0
  0
LINE
  5
68
330
30
100
AcDbEntity
  8
LC-001-111-----0
 62
   253
370
    25
100
AcDbLine
 10
2100.0
 20
2970.0
 30
0.0
 11
0.0
 21
2970.0
 31
0.0
  0
TEXT
  5
69
330
30
100
AcDbEntity
  8
LC-001-111-----0
 62
   253
370
    20
100
AcDbText
 10
743.5
 20
111.159147
 30
0.0
 40
20.0
  1
Hofbauerstraße 1  ·  D-94209 REGEN
 41
0.65
  7
LCTX0-400-0-0pDIN-Schrift
 72
     1
 11
945.0
 21
111.159147
 31
0.0
100
AcDbText
  0
ARC
  5
6A
330
30
100
AcDbEntity
  8
LC-001-111-----0
 62
   253
370
    25
100
AcDbCircle
 10
758.032826
 20
185.671748
 30
0.0
 40
9.677270814709853
100
AcDbArc
 50
94.48185
 51
252.731329
  0
ARC
  5
6B
330
30
100
AcDbEntity
  8
LC-001-111-----0
 62
   253
370
    25
100
AcDbCircle
 10
823.845603
 20
176.159147
 30
0.0
 40
19.01000000000008
100
AcDbArc
 50
74.719456
 51
285.280544
  0
LINE
  5
6C
330
30
100
AcDbEntity
  8
LC-001-111-----0
 62
   253
370
    25
100
AcDbLine
 10
828.855603
 20
157.821208
 30
0.0
 11
828.855603
 21
163.204148
 31
0.0
  0
ARC
  5
6D
330
30
100
AcDbEntity
  8
LC-001-111-----0
 62
   253
370
    25
100
AcDbCircle
 10
823.845603
 20
176.159147
 30
0.0
 40
13.88999999999995
100
AcDbArc
 50
68.857352
 51
291.142648
  0
ARC
  5
6E
330
30
100
AcDbEntity
  8
LC-001-111-----0
 62
   253
370
    25
100
AcDbCircle
 10
823.845603
 20
176.159147
 30
0.0
 40
12.39000000000002
100
AcDbArc
 50
58.303227
 51
301.696773
  0
ARC
  5
6F
330
30
100
AcDbEntity
  8
LC-001-111-----0
 62
   253
370
    25
100
AcDbCircle
 10
1019.845603
 20
176.159147
 30
0.0
 40
19.01000000000008
100
AcDbArc
 50
74.719456
 51
285.280544
  0
LINE
  5
70
330
30
100
AcDbEntity
  8
LC-001-111-----0
 62
   253
370
    25
100
AcDbLine
 10
830.355603
 20
165.617231
 30
0.0
 11
830.355603
 21
156.709726
 31
0.0
  0
LINE
  5
71
330
30
100
AcDbEntity
  8
LC-001-111-----0
 62
   253
370
    25
100
AcDbLine
 10
755.160101
 20
176.430697
 30
0.0
 11
762.683613
 21
174.091896
 31
0.0
  0
ARC
  5
72
330
30
100
AcDbEntity
  8
LC-001-111-----0
 62
   253
370
    25
100
AcDbCircle
 10
823.845603
 20
176.159147
 30
0.0
 40
20.51000000000012
100
AcDbArc
 50
71.493868
 51
288.506132
  0
LINE
  5
73
330
30
100
AcDbEntity
  8
LC-001-111-----0
 62
   253
370
    25
100
AcDbLine
 10
1024.855603
 20
157.821208
 30
0.0
 11
1024.855603
 21
163.204148
 31
0.0
  0
LINE
  5
74
330
30
100
AcDbEntity
  8
LC-001-111-----0
 62
   253
370
    25
100
AcDbLine
 10
830.355603
 20
195.608569
 30
0.0
 11
830.355603
 21
186.701063
 31
0.0
  0
ARC
  5
75
330
30
100
AcDbEntity
  8
LC-001-111-----0
 62
   253
370
    25
100
AcDbCircle
 10
1019.845603
 20
176.159147
 30
0.0
 40
13.88999999999995
100
AcDbArc
 50
68.857352
 51
291.142648
  0
LINE
  5
76
330
30
100
AcDbEntity
  8
LC-001-111-----0
 62
   253
370
    25
100
AcDbLine
 10
862.835603
 20
155.649147
 30
0.0
 11
862.835603
 21
196.669147
 31
0.0
  0
LINE
  5
77
330
30
100
AcDbEntity
  8
LC-001-111-----0
 62
   253
370
    25
100
AcDbLine
 10
862.835603
 20
196.669147
 30
0.0
 11
872.355603
 21
196.669147
 31
0.0
  0
LINE
  5
78
330
30
100
AcDbEntity
  8
LC-001-111-----0
 62
   253
370
    25
100
AcDbLine
 10
872.355603
 20
196.669147
 30
0.0
 11
872.355603
 21
179.519147
 31
0.0
  0
LINE
  5
79
330
30
100
AcDbEntity
  8
LC-001-111-----0
 62
   253
370
    25
100
AcDbLine
 10
872.355603
 20
179.519147
 30
0.0
 11
887.335603
 21
179.519147
 31
0.0
  0
LINE
  5
7A
330
30
100
AcDbEntity
  8
LC-001-111-----0
 62
   253
370
    25
100
AcDbLine
 10
887.335603
 20
179.519147
 30
0.0
 11
887.335603
 21
196.669147
 31
0.0
  0
LINE
  5
7B
330
30
100
AcDbEntity
  8
LC-001-111-----0
 62
   253
370
    25
100
AcDbLine
 10
887.335603
 20
196.669147
 30
0.0
 11
896.855603
 21
196.669147
 31
0.0
  0
LINE
  5
7C
330
30
100
AcDbEntity
  8
LC-001-111-----0
 62
   253
370
    25
100
AcDbLine
 10
896.855603
 20
196.669147
 30
0.0
 11
896.855603
 21
155.649147
 31
0.0
  0
LINE
  5
7D
330
30
100
AcDbEntity
  8
LC-001-111-----0
 62
   253
370
    25
100
AcDbLine
 10
896.855603
 20
155.649147
 30
0.0
 11
887.335603
 21
155.649147
 31
0.0
  0
LINE
  5
7E
330
30
100
AcDbEntity
  8
LC-001-111-----0
 62
   253
370
    25
100
AcDbLine
 10
887.335603
 20
155.649147
 30
0.0
 11
887.335603
 21
172.799147
 31
0.0
  0
LINE
  5
7F
330
30
100
AcDbEntity
  8
LC-001-111-----0
 62
   253
370
    25
100
AcDbLine
 10
887.335603
 20
172.799147
 30
0.0
 11
872.355603
 21
172.799147
 31
0.0
  0
LINE
  5
80
330
30
100
AcDbEntity
  8
LC-001-111-----0
 62
   253
370
    25
100
AcDbLine
 10
872.355603
 20
172.799147
 30
0.0
 11
872.355603
 21
155.649147
 31
0.0
  0
LINE
  5
81
330
30
100
AcDbEntity
  8
LC-001-111-----0
 62
   253
370
    25
100
AcDbLine
 10
872.355603
 20
155.649147
 30
0.0
 11
862.835603
 21
155.649147
 31
0.0
  0
CIRCLE
  5
82
330
30
100
AcDbEntity
  8
LC-001-111-----0
 62
   253
370
    25
100
AcDbCircle
 10
946.345603
 20
176.159147
 30
0.0
 40
12.39000000000044
  0
CIRCLE
  5
83
330
30
100
AcDbEntity
  8
LC-001-111-----0
 62
   253
370
    25
100
AcDbCircle
 10
946.345603
 20
176.159147
 30
0.0
 40
20.51000000000049
  0
ARC
  5
84
330
30
100
AcDbEntity
  8
LC-001-111-----0
 62
   253
370
    25
100
AcDbCircle
 10
1019.845603
 20
176.159147
 30
0.0
 40
12.39000000000002
100
AcDbArc
 50
58.303227
 51
301.696773
  0
LINE
  5
85
330
30
100
AcDbEntity
  8
LC-001-111-----0
 62
   253
370
    25
100
AcDbLine
 10
864.335603
 20
195.169147
 30
0.0
 11
864.335603
 21
157.149147
 31
0.0
  0
LINE
  5
86
330
30
100
AcDbEntity
  8
LC-001-111-----0
 62
   253
370
    25
100
AcDbLine
 10
1026.355603
 20
165.617231
 30
0.0
 11
1026.355603
 21
156.709726
 31
0.0
  0
LINE
  5
87
330
30
100
AcDbEntity
  8
LC-001-111-----0
 62
   253
370
    25
100
AcDbLine
 10
864.335603
 20
157.149147
 30
0.0
 11
870.855603
 21
157.149147
 31
0.0
  0
LINE
  5
88
330
30
100
AcDbEntity
  8
LC-001-111-----0
 62
   253
370
    25
100
AcDbLine
 10
870.855603
 20
157.149147
 30
0.0
 11
870.855603
 21
174.299147
 31
0.0
  0
LINE
  5
89
330
30
100
AcDbEntity
  8
LC-001-111-----0
 62
   253
370
    25
100
AcDbLine
 10
870.855603
 20
174.299147
 30
0.0
 11
888.835603
 21
174.299147
 31
0.0
  0
LINE
  5
8A
330
30
100
AcDbEntity
  8
LC-001-111-----0
 62
   253
370
    25
100
AcDbLine
 10
888.835603
 20
174.299147
 30
0.0
 11
888.835603
 21
157.149147
 31
0.0
  0
LINE
  5
8B
330
30
100
AcDbEntity
  8
LC-001-111-----0
 62
   253
370
    25
100
AcDbLine
 10
888.835603
 20
157.149147
 30
0.0
 11
895.355603
 21
157.149147
 31
0.0
  0
LINE
  5
8C
330
30
100
AcDbEntity
  8
LC-001-111-----0
 62
   253
370
    25
100
AcDbLine
 10
895.355603
 20
157.149147
 30
0.0
 11
895.355603
 21
195.169147
 31
0.0
  0
LINE
  5
8D
330
30
100
AcDbEntity
  8
LC-001-111-----0
 62
   253
370
    25
100
AcDbLine
 10
895.355603
 20
195.169147
 30
0.0
 11
888.835603
 21
195.169147
 31
0.0
  0
LINE
  5
8E
330
30
100
AcDbEntity
  8
LC-001-111-----0
 62
   253
370
    25
100
AcDbLine
 10
888.835603
 20
195.169147
 30
0.0
 11
888.835603
 21
178.019147
 31
0.0
  0
LINE
  5
8F
330
30
100
AcDbEntity
  8
LC-001-111-----0
 62
   253
370
    25
100
AcDbLine
 10
888.835603
 20
178.019147
 30
0.0
 11
870.855603
 21
178.019147
 31
0.0
  0
LINE
  5
90
330
30
100
AcDbEntity
  8
LC-001-111-----0
 62
   253
370
    25
100
AcDbLine
 10
870.855603
 20
178.019147
 30
0.0
 11
870.855603
 21
195.169147
 31
0.0
  0
CIRCLE
  5
91
330
30
100
AcDbEntity
  8
LC-001-111-----0
 62
   253
370
    25
100
AcDbCircle
 10
946.345603
 20
176.159147
 30
0.0
 40
19.01000000000055
  0
ARC
  5
92
330
30
100
AcDbEntity
  8
LC-001-111-----0
 62
   253
370
    25
100
AcDbCircle
 10
760.836588
 20
168.15034
 30
0.0
 40
6.222024781007809
100
AcDbArc
 50
268.246912
 51
72.731329
  0
ARC
  5
93
330
30
100
AcDbEntity
  8
LC-001-111-----0
 62
   253
370
    25
100
AcDbCircle
 10
761.412387
 20
186.963179
 30
0.0
 40
25.04367341134793
100
AcDbArc
 50
239.19233
 51
268.246912
  0
LINE
  5
94
330
30
100
AcDbEntity
  8
LC-001-111-----0
 62
   253
370
    25
100
AcDbLine
 10
748.586073
 20
165.453385
 30
0.0
 11
748.586073
 21
160.350534
 31
0.0
  0
ARC
  5
95
330
30
100
AcDbEntity
  8
LC-001-111-----0
 62
   253
370
    25
100
AcDbCircle
 10
760.81067
 20
180.45076
 30
0.0
 40
23.52572762426598
100
AcDbArc
 50
238.692783
 51
274.343327
  0
ARC
  5
96
330
30
100
AcDbEntity
  8
LC-001-111-----0
 62
   253
370
    25
100
AcDbCircle
 10
1019.845603
 20
176.159147
 30
0.0
 40
20.51000000000012
100
AcDbArc
 50
71.493868
 51
288.506132
  0
ARC
  5
97
330
30
100
AcDbEntity
  8
LC-001-111-----0
 62
   253
370
    25
100
AcDbCircle
 10
761.779647
 20
167.692822
 30
0.0
 40
10.73104525444839
100
AcDbArc
 50
274.343327
 51
74.255463
  0
LINE
  5
98
330
30
100
AcDbEntity
  8
LC-001-111-----0
 62
   253
370
    25
100
AcDbLine
 10
1026.355603
 20
195.608569
 30
0.0
 11
1026.355603
 21
186.701063
 31
0.0
  0
LINE
  5
99
330
30
100
AcDbEntity
  8
LC-001-111-----0
 62
   253
370
    25
100
AcDbLine
 10
764.691502
 20
178.02125
 30
0.0
 11
757.135251
 21
180.151556
 31
0.0
  0
LINE
  5
9A
330
30
100
AcDbEntity
  8
LC-001-111-----0
 62
   253
370
    25
100
AcDbLine
 10
1024.855603
 20
189.114146
 30
0.0
 11
1024.855603
 21
194.497086
 31
0.0
  0
ARC
  5
9B
330
30
100
AcDbEntity
  8
LC-001-111-----0
 62
   253
370
    25
100
AcDbCircle
 10
758.632108
 20
185.460948
 30
0.0
 40
5.51636013010035
100
AcDbArc
 50
90.951212
 51
254.255463
  0
ARC
  5
9C
330
30
100
AcDbEntity
  8
LC-001-111-----0
 62
   253
370
    25
100
AcDbCircle
 10
758.906662
 20
168.924866
 30
0.0
 40
22.05472179307849
100
AcDbArc
 50
64.088485
 51
90.951212
  0
LINE
  5
9D
330
30
100
AcDbEntity
  8
LC-001-111-----0
 62
   253
370
    25
100
AcDbLine
 10
768.544191
 20
188.762426
 30
0.0
 11
768.544191
 21
193.015758
 31
0.0
  0
LINE
  5
9E
330
30
100
AcDbEntity
  8
LC-001-111-----0
 62
   253
370
    25
100
AcDbLine
 10
1071.855603
 20
177.513832
 30
0.0
 11
1087.818366
 21
196.669147
 31
0.0
  0
LINE
  5
9F
330
30
100
AcDbEntity
  8
LC-001-111-----0
 62
   253
370
    25
100
AcDbLine
 10
1087.818366
 20
196.669147
 30
0.0
 11
1099.299433
 21
196.669147
 31
0.0
  0
LINE
  5
A0
330
30
100
AcDbEntity
  8
LC-001-111-----0
 62
   253
370
    25
100
AcDbLine
 10
1099.299433
 20
196.669147
 30
0.0
 11
1082.207766
 21
176.159147
 31
0.0
  0
LINE
  5
A2
330
30
100
AcDbEntity
  8
LC-002-002-----0
 62
     1
370
    25
100
AcDbLine
 10
1143.855603
 20
159.963432
 30
0.0
 11
1143.855603
 21
192.354862
 31
0.0
  0
LINE
  5
A3
330
30
100
AcDbEntity
  8
LC-002-002-----0
 62
     1
370
    25
100
AcDbLine
 10
1143.855603
 20
192.354862
 30
0.0
 11
1127.659888
 21
176.159147
 31
0.0
  0
LINE
  5
A4
330
30
100
AcDbEntity
  8
LC-002-002-----0
 62
     1
370
    25
100
AcDbLine
 10
1127.659888
 20
176.159147
 30
0.0
 11
1143.855603
 21
159.963432
 31
0.0
  0
LINE
  5
A5
330
30
100
AcDbEntity
  8
LC-002-002-----0
 62
     1
370
    25
100
AcDbLine
 10
1142.355603
 20
163.584752
 30
0.0
 11
1142.355603
 21
188.733542
 31
0.0
  0
LINE
  5
A6
330
30
100
AcDbEntity
  8
LC-001-111-----0
 62
   253
370
    25
100
AcDbLine
 10
1082.207766
 20
176.159147
 30
0.0
 11
1099.299433
 21
155.649147
 31
0.0
  0
LINE
  5
A7
330
30
100
AcDbEntity
  8
LC-001-111-----0
 62
   253
370
    25
100
AcDbLine
 10
1099.299433
 20
155.649147
 30
0.0
 11
1087.818366
 21
155.649147
 31
0.0
  0
LINE
  5
A8
330
30
100
AcDbEntity
  8
LC-001-111-----0
 62
   253
370
    25
100
AcDbLine
 10
1087.818366
 20
155.649147
 30
0.0
 11
1071.855603
 21
174.804462
 31
0.0
  0
LINE
  5
A9
330
30
100
AcDbEntity
  8
LC-001-111-----0
 62
   253
370
    25
100
AcDbLine
 10
1062.335603
 20
155.649147
 30
0.0
 11
1062.335603
 21
196.669147
 31
0.0
  0
LINE
  5
AA
330
30
100
AcDbEntity
  8
LC-001-111-----0
 62
   253
370
    25
100
AcDbLine
 10
828.855603
 20
189.114146
 30
0.0
 11
828.855603
 21
194.497086
 31
0.0
  0
ARC
  5
AB
330
30
100
AcDbEntity
  8
LC-001-111-----0
 62
   253
370
    25
100
AcDbCircle
 10
758.903191
 20
174.567744
 30
0.0
 40
19.31533311668209
100
AcDbArc
 50
65.072024
 51
94.48185
  0
LINE
  5
AC
330
30
100
AcDbEntity
  8
LC-001-111-----0
 62
   253
370
    25
100
AcDbLine
 10
1063.835603
 20
157.149147
 30
0.0
 11
1070.355603
 21
157.149147
 31
0.0
  0
LINE
  5
AD
330
30
100
AcDbEntity
  8
LC-001-111-----0
 62
   253
370
    25
100
AcDbLine
 10
1070.355603
 20
157.149147
 30
0.0
 11
1070.355603
 21
195.169147
 31
0.0
  0
LINE
  5
AE
330
30
100
AcDbEntity
  8
LC-001-111-----0
 62
   253
370
    25
100
AcDbLine
 10
1070.355603
 20
195.169147
 30
0.0
 11
1063.835603
 21
195.169147
 31
0.0
  0
LINE
  5
AF
330
30
100
AcDbEntity
  8
LC-001-111-----0
 62
   253
370
    25
100
AcDbLine
 10
1065.335603
 20
193.669147
 30
0.0
 11
1065.335603
 21
158.649147
 31
0.0
  0
LINE
  5
B0
330
30
100
AcDbEntity
  8
LC-002-002-----0
 62
     1
370
    25
100
AcDbLine
 10
1142.355603
 20
188.733542
 30
0.0
 11
1129.781208
 21
176.159147
 31
0.0
  0
LINE
  5
B1
330
30
100
AcDbEntity
  8
LC-002-002-----0
 62
     1
370
    25
100
AcDbLine
 10
1129.781208
 20
176.159147
 30
0.0
 11
1142.355603
 21
163.584752
 31
0.0
  0
LINE
  5
B2
330
30
100
AcDbEntity
  8
LC-001-111-----0
 62
   253
370
    25
100
AcDbLine
 10
1062.335603
 20
196.669147
 30
0.0
 11
1071.855603
 21
196.669147
 31
0.0
  0
LINE
  5
B3
330
30
100
AcDbEntity
  8
LC-001-111-----0
 62
   253
370
    25
100
AcDbLine
 10
1071.855603
 20
196.669147
 30
0.0
 11
1071.855603
 21
155.649147
 31
0.0
  0
LINE
  5
B4
330
30
100
AcDbEntity
  8
LC-001-111-----0
 62
   253
370
    25
100
AcDbLine
 10
1071.855603
 20
155.649147
 30
0.0
 11
1062.335603
 21
155.649147
 31
0.0
  0
ARC
  5
B5
330
30
100
AcDbEntity
  8
LC-001-111-----0
 62
   253
370
    25
100
AcDbCircle
 10
758.032826
 20
185.671748
 30
0.0
 40
8.177270814709827
100
AcDbArc
 50
94.48185
 51
252.731329
  0
LINE
  5
B6
330
30
100
AcDbEntity
  8
LC-001-111-----0
 62
   253
370
    25
100
AcDbLine
 10
755.60538
 20
177.863082
 30
0.0
 11
763.128892
 21
175.524281
 31
0.0
  0
ARC
  5
B7
330
30
100
AcDbEntity
  8
LC-001-111-----0
 62
   253
370
    25
100
AcDbCircle
 10
760.836588
 20
168.15034
 30
0.0
 40
7.72202478100773
100
AcDbArc
 50
268.246912
 51
72.731329
  0
LINE
  5
B8
330
30
100
AcDbEntity
  8
LC-001-111-----0
 62
   253
370
    25
100
AcDbLine
 10
827.355603
 20
191.143539
 30
0.0
 11
827.355603
 21
193.313738
 31
0.0
  0
ARC
  5
B9
330
30
100
AcDbEntity
  8
LC-001-111-----0
 62
   253
370
    25
100
AcDbCircle
 10
823.845603
 20
176.159147
 30
0.0
 40
17.50999999999996
100
AcDbArc
 50
78.436322
 51
281.563678
  0
LINE
  5
BA
330
30
100
AcDbEntity
  8
LC-001-111-----0
 62
   253
370
    25
100
AcDbLine
 10
827.355603
 20
159.004556
 30
0.0
 11
827.355603
 21
161.174755
 31
0.0
  0
LINE
  5
BB
330
30
100
AcDbEntity
  8
LC-002-002-----0
 62
     1
370
    25
100
AcDbLine
 10
1145.355603
 20
195.976182
 30
0.0
 11
1145.355603
 21
156.342112
 31
0.0
  0
LINE
  5
BC
330
30
100
AcDbEntity
  8
LC-002-002-----0
 62
     1
370
    25
100
AcDbLine
 10
1145.355603
 20
156.342112
 30
0.0
 11
1125.538568
 21
176.159147
 31
0.0
  0
LINE
  5
BD
330
30
100
AcDbEntity
  8
LC-002-002-----0
 62
     1
370
    25
100
AcDbLine
 10
1125.538568
 20
176.159147
 30
0.0
 11
1145.355603
 21
195.976182
 31
0.0
  0
LINE
  5
BE
330
30
100
AcDbEntity
  8
LC-001-111-----0
 62
   253
370
    25
100
AcDbLine
 10
1065.335603
 20
158.649147
 30
0.0
 11
1068.855603
 21
158.649147
 31
0.0
  0
LINE
  5
BF
330
30
100
AcDbEntity
  8
LC-001-111-----0
 62
   253
370
    25
100
AcDbLine
 10
1068.855603
 20
158.649147
 30
0.0
 11
1068.855603
 21
193.669147
 31
0.0
  0
LINE
  5
C0
330
30
100
AcDbEntity
  8
LC-001-111-----0
 62
   253
370
    25
100
AcDbLine
 10
1068.855603
 20
193.669147
 30
0.0
 11
1065.335603
 21
193.669147
 31
0.0
  0
LINE
  5
C1
330
30
100
AcDbEntity
  8
LC-001-111-----0
 62
   253
370
    25
100
AcDbLine
 10
1067.095603
 20
192.169147
 30
0.0
 11
1067.095603
 21
160.149147
 31
0.0
  0
ARC
  5
C2
330
30
100
AcDbEntity
  8
LC-001-111-----0
 62
   253
370
    25
100
AcDbCircle
 10
823.845603
 20
176.159147
 30
0.0
 40
15.38999999999992
100
AcDbArc
 50
76.816519
 51
283.183481
  0
LINE
  5
C3
330
30
100
AcDbEntity
  8
LC-001-111-----0
 62
   253
370
    25
100
AcDbLine
 10
870.855603
 20
195.169147
 30
0.0
 11
864.335603
 21
195.169147
 31
0.0
  0
LINE
  5
C4
330
30
100
AcDbEntity
  8
LC-001-111-----0
 62
   253
370
    25
100
AcDbLine
 10
1096.09687
 20
195.169147
 30
0.0
 11
1088.520928
 21
195.169147
 31
0.0
  0
LINE
  5
C5
330
30
100
AcDbEntity
  8
LC-001-111-----0
 62
   253
370
    25
100
AcDbLine
 10
865.835603
 20
158.649147
 30
0.0
 11
869.355603
 21
158.649147
 31
0.0
  0
LINE
  5
C6
330
30
100
AcDbEntity
  8
LC-001-111-----0
 62
   253
370
    25
100
AcDbLine
 10
1023.355603
 20
191.143539
 30
0.0
 11
1023.355603
 21
193.313738
 31
0.0
  0
LINE
  5
C7
330
30
100
AcDbEntity
  8
LC-001-111-----0
 62
   253
370
    25
100
AcDbLine
 10
892.095603
 20
192.169147
 30
0.0
 11
892.095603
 21
160.149147
 31
0.0
  0
TEXT
  5
C8
330
30
100
AcDbEntity
  8
LC-001-111-----0
 62
     1
370
    15
100
AcDbText
 10
1048.946429
 20
21.25
 30
0.0
 40
15.0
  1
Nemo-Mono-N100-07-12
 41
0.75
  7
LCTX0-400-0-0pDIN-Schrift
 72
     1
 11
1166.0
 21
21.25
 31
0.0
100
AcDbText
  0
CIRCLE
  5
C9
330
30
100
AcDbEntity
  8
LC-001-111-----0
 62
   253
370
    25
100
AcDbCircle
 10
946.345603
 20
176.159147
 30
0.0
 40
17.51000000000047
  0
LINE
  5
CA
330
30
100
AcDbEntity
  8
LC-001-111-----0
 62
   253
370
    25
100
AcDbLine
 10
1088.520928
 20
195.169147
 30
0.0
 11
1072.679261
 21
176.159147
 31
0.0
  0
ARC
  5
CB
330
30
100
AcDbEntity
  8
LC-001-111-----0
 62
   253
370
    25
100
AcDbCircle
 10
1019.845603
 20
176.159147
 30
0.0
 40
17.50999999999996
100
AcDbArc
 50
78.436322
 51
281.563678
  0
ARC
  5
CC
330
30
100
AcDbEntity
  8
LC-001-111-----0
 62
   253
370
    25
100
AcDbCircle
 10
761.412387
 20
186.963179
 30
0.0
 40
26.54367341134783
100
AcDbArc
 50
244.741378
 51
268.246912
  0
LINE
  5
CD
330
30
100
AcDbEntity
  8
LC-001-111-----0
 62
   253
370
    25
100
AcDbLine
 10
1023.355603
 20
159.004556
 30
0.0
 11
1023.355603
 21
161.174755
 31
0.0
  0
LINE
  5
CE
330
30
100
AcDbEntity
  8
LC-002-002-----0
 62
     1
370
    25
100
AcDbLine
 10
1140.855603
 20
167.206073
 30
0.0
 11
1140.855603
 21
185.112221
 31
0.0
  0
LINE
  5
CF
330
30
100
AcDbEntity
  8
LC-002-002-----0
 62
     1
370
    25
100
AcDbLine
 10
1140.855603
 20
185.112221
 30
0.0
 11
1131.902529
 21
176.159147
 31
0.0
  0
LINE
  5
D0
330
30
100
AcDbEntity
  8
LC-002-002-----0
 62
     1
370
    25
100
AcDbLine
 10
1131.902529
 20
176.159147
 30
0.0
 11
1140.855603
 21
167.206073
 31
0.0
  0
CIRCLE
  5
D1
330
30
100
AcDbEntity
  8
LC-001-111-----0
 62
   253
370
    25
100
AcDbCircle
 10
946.345603
 20
176.159147
 30
0.0
 40
13.89000000000002
  0
LINE
  5
D2
330
30
100
AcDbEntity
  8
LC-001-111-----0
 62
   253
370
    25
100
AcDbLine
 10
890.335603
 20
158.649147
 30
0.0
 11
893.855603
 21
158.649147
 31
0.0
  0
LINE
  5
D3
330
30
100
AcDbEntity
  8
LC-001-111-----0
 62
   253
370
    25
100
AcDbLine
 10
893.855603
 20
158.649147
 30
0.0
 11
893.855603
 21
193.669147
 31
0.0
  0
ARC
  5
D4
330
30
100
AcDbEntity
  8
LC-001-111-----0
 62
   253
370
    25
100
AcDbCircle
 10
758.906662
 20
168.924866
 30
0.0
 40
20.55472179307891
100
AcDbArc
 50
57.190491
 51
90.951212
  0
ARC
  5
D5
330
30
100
AcDbEntity
  8
LC-001-111-----0
 62
   253
370
    25
100
AcDbCircle
 10
761.779647
 20
167.692822
 30
0.0
 40
12.23104525444841
100
AcDbArc
 50
274.343327
 51
74.255463
  0
LINE
  5
D6
330
30
100
AcDbEntity
  8
LC-001-111-----0
 62
   253
370
    25
100
AcDbLine
 10
893.855603
 20
193.669147
 30
0.0
 11
890.335603
 21
193.669147
 31
0.0
  0
LINE
  5
D7
330
30
100
AcDbEntity
  8
LC-001-111-----0
 62
   253
370
    25
100
AcDbLine
 10
890.335603
 20
193.669147
 30
0.0
 11
890.335603
 21
158.649147
 31
0.0
  0
LINE
  5
D8
330
30
100
AcDbEntity
  8
LC-001-111-----0
 62
   253
370
    25
100
AcDbLine
 10
890.335603
 20
176.159147
 30
0.0
 11
869.355603
 21
176.159147
 31
0.0
  0
LINE
  5
D9
330
30
100
AcDbEntity
  8
LC-001-111-----0
 62
   253
370
    25
100
AcDbLine
 10
869.355603
 20
158.649147
 30
0.0
 11
869.355603
 21
193.669147
 31
0.0
  0
LINE
  5
DA
330
30
100
AcDbEntity
  8
LC-001-111-----0
 62
   253
370
    25
100
AcDbLine
 10
869.355603
 20
193.669147
 30
0.0
 11
865.835603
 21
193.669147
 31
0.0
  0
LINE
  5
DB
330
30
100
AcDbEntity
  8
LC-001-111-----0
 62
   253
370
    25
100
AcDbLine
 10
865.835603
 20
193.669147
 30
0.0
 11
865.835603
 21
158.649147
 31
0.0
  0
LINE
  5
DC
330
30
100
AcDbEntity
  8
LC-001-111-----0
 62
   253
370
    25
100
AcDbLine
 10
867.595603
 20
192.169147
 30
0.0
 11
867.595603
 21
160.149147
 31
0.0
  0
CIRCLE
  5
DD
330
30
100
AcDbEntity
  8
LC-001-111-----0
 62
   253
370
    25
100
AcDbCircle
 10
946.345603
 20
176.159147
 30
0.0
 40
15.38999999999984
  0
LINE
  5
DE
330
30
100
AcDbEntity
  8
LC-001-111-----0
 62
   253
370
    25
100
AcDbLine
 10
1072.679261
 20
176.159147
 30
0.0
 11
1088.520928
 21
157.149147
 31
0.0
  0
LINE
  5
DF
330
30
100
AcDbEntity
  8
LC-001-111-----0
 62
   253
370
    25
100
AcDbLine
 10
1088.520928
 20
157.149147
 30
0.0
 11
1096.09687
 21
157.149147
 31
0.0
  0
LINE
  5
E0
330
30
100
AcDbEntity
  8
LC-001-111-----0
 62
   253
370
    25
100
AcDbLine
 10
1096.09687
 20
157.149147
 30
0.0
 11
1080.255204
 21
176.159147
 31
0.0
  0
LINE
  5
E1
330
30
100
AcDbEntity
  8
LC-001-111-----0
 62
   253
370
    25
100
AcDbLine
 10
770.044191
 20
186.20063
 30
0.0
 11
770.044191
 21
193.903002
 31
0.0
  0
ARC
  5
E2
330
30
100
AcDbEntity
  8
LC-001-111-----0
 62
   253
370
    25
100
AcDbCircle
 10
761.412387
 20
186.963179
 30
0.0
 40
23.54367341134796
100
AcDbArc
 50
232.518913
 51
268.246912
  0
ARC
  5
E3
330
30
100
AcDbEntity
  8
LC-001-111-----0
 62
   253
370
    25
100
AcDbCircle
 10
760.836588
 20
168.15034
 30
0.0
 40
4.722024781007908
100
AcDbArc
 50
268.246912
 51
72.731329
  0
LINE
  5
E4
330
30
100
AcDbEntity
  8
LC-001-111-----0
 62
   253
370
    25
100
AcDbLine
 10
757.542274
 20
181.595277
 30
0.0
 11
765.098525
 21
179.464972
 31
0.0
  0
ARC
  5
E5
330
30
100
AcDbEntity
  8
LC-001-111-----0
 62
   253
370
    25
100
AcDbCircle
 10
758.632108
 20
185.460948
 30
0.0
 40
4.016360130100384
100
AcDbArc
 50
90.951212
 51
254.255463
  0
ARC
  5
E6
330
30
100
AcDbEntity
  8
LC-001-111-----0
 62
   253
370
    25
100
AcDbCircle
 10
758.032826
 20
185.671748
 30
0.0
 40
11.17727081470983
100
AcDbArc
 50
94.48185
 51
252.731329
  0
LINE
  5
E7
330
30
100
AcDbEntity
  8
LC-001-111-----0
 62
   253
370
    25
100
AcDbLine
 10
762.238334
 20
172.659511
 30
0.0
 11
754.714822
 21
174.998312
 31
0.0
  0
LINE
  5
E8
330
30
100
AcDbEntity
  8
LC-001-111-----0
 62
   253
370
    25
100
AcDbLine
 10
747.086073
 20
168.279997
 30
0.0
 11
747.086073
 21
159.524163
 31
0.0
  0
ARC
  5
E9
330
30
100
AcDbEntity
  8
LC-001-111-----0
 62
   253
370
    25
100
AcDbCircle
 10
758.903191
 20
174.567744
 30
0.0
 40
22.31533311668187
100
AcDbArc
 50
60.049399
 51
94.48185
  0
ARC
  5
EA
330
30
100
AcDbEntity
  8
LC-001-111-----0
 62
   253
370
    25
100
AcDbCircle
 10
760.81067
 20
180.45076
 30
0.0
 40
25.02572762426604
100
AcDbArc
 50
236.741348
 51
274.343327
  0
LINE
  5
EB
330
30
100
AcDbEntity
  8
LC-001-111-----0
 62
   253
370
    25
100
AcDbLine
 10
1080.255204
 20
176.159147
 30
0.0
 11
1096.09687
 21
195.169147
 31
0.0
  0
LINE
  5
EC
330
30
100
AcDbEntity
  8
LC-001-111-----0
 62
   253
370
    25
100
AcDbLine
 10
750.086073
 20
162.957321
 30
0.0
 11
750.086073
 21
161.212369
 31
0.0
  0
LINE
  5
ED
330
30
100
AcDbEntity
  8
LC-001-111-----0
 62
   253
370
    25
100
AcDbLine
 10
1078.302641
 20
176.159147
 30
0.0
 11
1092.894308
 21
193.669147
 31
0.0
  0
LINE
  5
EE
330
30
100
AcDbEntity
  8
LC-002-002-----0
 62
     1
370
    25
100
AcDbLine
 10
1139.355603
 20
170.827393
 30
0.0
 11
1139.355603
 21
181.490901
 31
0.0
  0
LINE
  5
EF
330
30
100
AcDbEntity
  8
LC-002-002-----0
 62
     1
370
    25
100
AcDbLine
 10
1139.355603
 20
181.490901
 30
0.0
 11
1134.023849
 21
176.159147
 31
0.0
  0
LINE
  5
F0
330
30
100
AcDbEntity
  8
LC-002-002-----0
 62
     1
370
    25
100
AcDbLine
 10
1134.023849
 20
176.159147
 30
0.0
 11
1139.355603
 21
170.827393
 31
0.0
  0
LINE
  5
F1
330
30
100
AcDbEntity
  8
LC-002-002-----0
 62
     1
370
    25
100
AcDbLine
 10
1137.855603
 20
174.448713
 30
0.0
 11
1137.855603
 21
177.869581
 31
0.0
  0
LINE
  5
F2
330
30
100
AcDbEntity
  8
LC-002-002-----0
 62
     1
370
    25
100
AcDbLine
 10
1137.855603
 20
177.869581
 30
0.0
 11
1136.145169
 21
176.159147
 31
0.0
  0
LINE
  5
F3
330
30
100
AcDbEntity
  8
LC-002-002-----0
 62
     1
370
    25
100
AcDbLine
 10
1136.145169
 20
176.159147
 30
0.0
 11
1137.855603
 21
174.448713
 31
0.0
  0
LINE
  5
F4
330
30
100
AcDbEntity
  8
LC-001-111-----0
 62
   253
370
    25
100
AcDbLine
 10
1092.894308
 20
193.669147
 30
0.0
 11
1089.22349
 21
193.669147
 31
0.0
  0
LINE
  5
F5
330
30
100
AcDbEntity
  8
LC-001-111-----0
 62
   253
370
    25
100
AcDbLine
 10
1089.22349
 20
193.669147
 30
0.0
 11
1074.631824
 21
176.159147
 31
0.0
  0
ARC
  5
F6
330
30
100
AcDbEntity
  8
LC-001-111-----0
 62
   253
370
    25
100
AcDbCircle
 10
1019.845603
 20
176.159147
 30
0.0
 40
15.38999999999992
100
AcDbArc
 50
76.816519
 51
283.183481
  0
LINE
  5
F7
330
30
100
AcDbEntity
  8
LC-001-111-----0
 62
   253
370
    25
100
AcDbLine
 10
1074.631824
 20
176.159147
 30
0.0
 11
1089.22349
 21
158.649147
 31
0.0
  0
LINE
  5
F8
330
30
100
AcDbEntity
  8
LC-001-111-----0
 62
   253
370
    25
100
AcDbLine
 10
1089.22349
 20
158.649147
 30
0.0
 11
1092.894308
 21
158.649147
 31
0.0
  0
LINE
  5
F9
330
30
100
AcDbEntity
  8
LC-001-111-----0
 62
   253
370
    25
100
AcDbLine
 10
1092.894308
 20
158.649147
 30
0.0
 11
1078.302641
 21
176.159147
 31
0.0
  0
LINE
  5
FA
330
30
100
AcDbEntity
  8
LC-001-111-----0
 62
   253
370
    25
100
AcDbLine
 10
1076.467232
 20
176.159147
 30
0.0
 11
1090.098623
 21
192.516815
 31
0.0
  0
LINE
  5
FB
330
30
100
AcDbEntity
  8
LC-001-111-----0
 62
   253
370
    25
100
AcDbLine
 10
1076.467232
 20
176.159147
 30
0.0
 11
1090.098623
 21
159.801479
 31
0.0
  0
ARC
  5
FC
330
30
100
AcDbEntity
  8
LC-001-111-----0
 62
   253
370
    25
100
AcDbCircle
 10
760.81067
 20
180.45076
 30
0.0
 40
22.02572762426587
100
AcDbArc
 50
240.862164
 51
274.343327
  0
ARC
  5
FD
330
30
100
AcDbEntity
  8
LC-001-111-----0
 62
   253
370
    25
100
AcDbCircle
 10
761.779647
 20
167.692822
 30
0.0
 40
9.231045254448425
100
AcDbArc
 50
274.343327
 51
74.255463
  0
LINE
  5
FE
330
30
100
AcDbEntity
  8
LC-001-111-----0
 62
   253
370
    25
100
AcDbLine
 10
764.284479
 20
176.577529
 30
0.0
 11
756.728228
 21
178.707834
 31
0.0
  0
ARC
  5
FF
330
30
100
AcDbEntity
  8
LC-001-111-----0
 62
   253
370
    25
100
AcDbCircle
 10
758.632108
 20
185.460948
 30
0.0
 40
7.016360130100396
100
AcDbArc
 50
90.951212
 51
254.255463
  0
ARC
  5
100
330
30
100
AcDbEntity
  8
LC-001-111-----0
 62
   253
370
    25
100
AcDbCircle
 10
758.906662
 20
168.924866
 30
0.0
 40
23.55472179307856
100
AcDbArc
 50
69.789306
 51
90.951212
  0
LINE
  5
101
330
30
100
AcDbEntity
  8
LC-001-111-----0
 62
   253
370
    25
100
AcDbLine
 10
767.044191
 20
191.029289
 30
0.0
 11
767.044191
 21
192.083629
 31
0.0
  0
ENDBLK
  5
32
330
30
100
AcDbEntity
  8
0
100
AcDbBlockEnd
  0
BLOCK
  5
148
330
13E
100
AcDbEntity
  8
0
100
AcDbBlockBegin
  2
*D2
 70
     1
 71
     0
 10
0.0
 20
0.0
 30
0.0
  3
*D2
  1

  0
LINE
  5
13F
330
13E
100
AcDbEntity
  8
LC-006-003-----0
 62
     2
370
    -2
100
AcDbLine
 10
1098.432193
 20
2108.31
 30
0.0
 11
1268.0
 21
2108.31
 31
0.0
  0
LINE
  5
140
330
13E
100
AcDbEntity
  8
LC-006-003-----0
 62
     2
370
    -2
100
AcDbLine
 10
1098.432193
 20
1598.31
 30
0.0
 11
1268.0
 21
1598.31
 31
0.0
  0
LINE
  5
141
330
13E
100
AcDbEntity
  8
LC-006-003-----0
 62
     2
370
    -2
100
AcDbLine
 10
1250.0
 20
2083.31
 30
0.0
 11
1250.0
 21
1623.31
 31
0.0
  0
SOLID
  5
142
330
13E
100
AcDbEntity
  8
LC-006-003-----0
 62
     2
100
AcDbTrace
 10
1254.166667
 20
2083.31
 30
0.0
 11
1245.833333
 21
2083.31
 31
0.0
 12
1250.0
 22
2108.31
 32
0.0
 13
1250.0
 23
2108.31
 33
0.0
  0
SOLID
  5
143
330
13E
100
AcDbEntity
  8
LC-006-003-----0
 62
     2
100
AcDbTrace
 10
1245.833333
 20
1623.31
 30
0.0
 11
1254.166667
 21
1623.31
 31
0.0
 12
1250.0
 22
1598.31
 32
0.0
 13
1250.0
 23
1598.31
 33
0.0
  0
MTEXT
  5
144
330
13E
100
AcDbEntity
  8
LC-006-003-----0
 62
     2
100
AcDbMText
 10
1220.0
 20
1853.31
 30
0.0
 40
25.0
 41
0.0
 71
     5
 72
     1
  1
\A1;510
  7
LCTX0-400-0-0pDIN-Schrift
 11
6.123031769111886E-17
 21
1.0
 31
0.0
 73
     1
 44
1.0
  0
POINT
  5
145
330
13E
100
AcDbEntity
  8
Defpoints
 62
     0
100
AcDbPoint
 10
1098.432193
 20
2108.31
 30
0.0
  0
POINT
  5
146
330
13E
100
AcDbEntity
  8
Defpoints
 62
     0
100
AcDbPoint
 10
1098.432193
 20
1598.31
 30
0.0
  0
POINT
  5
147
330
13E
100
AcDbEntity
  8
Defpoints
 62
     0
100
AcDbPoint
 10
1250.0
 20
1598.31
 30
0.0
  0
ENDBLK
  5
149
330
13E
100
AcDbEntity
  8
0
100
AcDbBlockEnd
  0
BLOCK
  5
155
330
14B
100
AcDbEntity
  8
0
100
AcDbBlockBegin
  2
*D3
 70
     1
 71
     0
 10
0.0
 20
0.0
 30
0.0
  3
*D3
  1

  0
LINE
  5
14C
330
14B
100
AcDbEntity
  8
LC-006-003-----0
 62
     2
370
    -2
100
AcDbLine
 10
1087.432193
 20
1587.31
 30
0.0
 11
1087.432193
 21
1496.7
 31
0.0
  0
LINE
  5
14D
330
14B
100
AcDbEntity
  8
LC-006-003-----0
 62
     2
370
    -2
100
AcDbLine
 10
517.432193
 20
1587.31
 30
0.0
 11
517.432193
 21
1496.7
 31
0.0
  0
LINE
  5
14E
330
14B
100
AcDbEntity
  8
LC-006-003-----0
 62
     2
370
    -2
100
AcDbLine
 10
1062.432193
 20
1514.7
 30
0.0
 11
542.432193
 21
1514.7
 31
0.0
  0
SOLID
  5
14F
330
14B
100
AcDbEntity
  8
LC-006-003-----0
 62
     2
100
AcDbTrace
 10
1062.432193
 20
1510.533333
 30
0.0
 11
1062.432193
 21
1518.866667
 31
0.0
 12
1087.432193
 22
1514.7
 32
0.0
 13
1087.432193
 23
1514.7
 33
0.0
  0
SOLID
  5
150
330
14B
100
AcDbEntity
  8
LC-006-003-----0
 62
     2
100
AcDbTrace
 10
542.432193
 20
1518.866667
 30
0.0
 11
542.432193
 21
1510.533333
 31
0.0
 12
517.432193
 22
1514.7
 32
0.0
 13
517.432193
 23
1514.7
 33
0.0
  0
MTEXT
  5
151
330
14B
100
AcDbEntity
  8
LC-006-003-----0
 62
     2
100
AcDbMText
 10
797.326144
 20
1544.7
 30
0.0
 40
25.0
 41
0.0
 71
     5
 72
     1
  1
\A1;570
  7
LCTX0-400-0-0pDIN-Schrift
 73
     1
 44
1.0
  0
POINT
  5
152
330
14B
100
AcDbEntity
  8
Defpoints
 62
     0
100
AcDbPoint
 10
1087.432193
 20
1587.31
 30
0.0
  0
POINT
  5
153
330
14B
100
AcDbEntity
  8
Defpoints
 62
     0
100
AcDbPoint
 10
517.432193
 20
1587.31
 30
0.0
  0
POINT
  5
154
330
14B
100
AcDbEntity
  8
Defpoints
 62
     0
100
AcDbPoint
 10
517.432193
 20
1514.7
 30
0.0
  0
ENDBLK
  5
156
330
14B
100
AcDbEntity
  8
0
100
AcDbBlockEnd
  0
BLOCK
  5
1B2
330
1A8
100
AcDbEntity
  8
0
100
AcDbBlockBegin
  2
*D4
 70
     1
 71
     0
 10
0.0
 20
0.0
 30
0.0
  3
*D4
  1

  0
LINE
  5
1A9
330
1A8
100
AcDbEntity
  8
LC-006-003-----0
 62
     2
370
    -2
100
AcDbLine
 10
544.723536
 20
1076.856895
 30
0.0
 11
653.416648
 21
1076.856895
 31
0.0
  0
LINE
  5
1AA
330
1A8
100
AcDbEntity
  8
LC-006-003-----0
 62
     2
370
    -2
100
AcDbLine
 10
544.723536
 20
1321.856895
 30
0.0
 11
653.416648
 21
1321.856895
 31
0.0
  0
LINE
  5
1AB
330
1A8
100
AcDbEntity
  8
LC-006-003-----0
 62
     2
370
    -2
100
AcDbLine
 10
635.416648
 20
1101.856895
 30
0.0
 11
635.416648
 21
1296.856895
 31
0.0
  0
SOLID
  5
1AC
330
1A8
100
AcDbEntity
  8
LC-006-003-----0
 62
     2
100
AcDbTrace
 10
631.249981
 20
1101.856895
 30
0.0
 11
639.583315
 21
1101.856895
 31
0.0
 12
635.416648
 22
1076.856895
 32
0.0
 13
635.416648
 23
1076.856895
 33
0.0
  0
SOLID
  5
1AD
330
1A8
100
AcDbEntity
  8
LC-006-003-----0
 62
     2
100
AcDbTrace
 10
639.583315
 20
1296.856895
 30
0.0
 11
631.249981
 21
1296.856895
 31
0.0
 12
635.416648
 22
1321.856895
 32
0.0
 13
635.416648
 23
1321.856895
 33
0.0
  0
MTEXT
  5
1AE
330
1A8
100
AcDbEntity
  8
LC-006-003-----0
 62
     2
100
AcDbMText
 10
605.416648
 20
1199.356895
 30
0.0
 40
25.0
 41
0.0
 71
     5
 72
     1
  1
\A1;490
  7
LCTX0-400-0-0pDIN-Schrift
 11
6.123031769111886E-17
 21
1.0
 31
0.0
 73
     1
 44
1.0
  0
POINT
  5
1AF
330
1A8
100
AcDbEntity
  8
Defpoints
 62
     0
100
AcDbPoint
 10
544.723536
 20
1076.856895
 30
0.0
  0
POINT
  5
1B0
330
1A8
100
AcDbEntity
  8
Defpoints
 62
     0
100
AcDbPoint
 10
544.723536
 20
1321.856895
 30
0.0
  0
POINT
  5
1B1
330
1A8
100
AcDbEntity
  8
Defpoints
 62
     0
100
AcDbPoint
 10
635.416648
 20
1321.856895
 30
0.0
  0
ENDBLK
  5
1B3
330
1A8
100
AcDbEntity
  8
0
100
AcDbBlockEnd
  0
BLOCK
  5
1BF
330
1B5
100
AcDbEntity
  8
0
100
AcDbBlockBegin
  2
*D5
 70
     1
 71
     0
 10
0.0
 20
0.0
 30
0.0
  3
*D5
  1

  0
LINE
  5
1B6
330
1B5
100
AcDbEntity
  8
LC-006-003-----0
 62
     2
370
    -2
100
AcDbLine
 10
274.723536
 20
1081.856895
 30
0.0
 11
274.723536
 21
972.443606
 31
0.0
  0
LINE
  5
1B7
330
1B5
100
AcDbEntity
  8
LC-006-003-----0
 62
     2
370
    -2
100
AcDbLine
 10
549.723536
 20
1081.856895
 30
0.0
 11
549.723536
 21
972.443606
 31
0.0
  0
LINE
  5
1B8
330
1B5
100
AcDbEntity
  8
LC-006-003-----0
 62
     2
370
    -2
100
AcDbLine
 10
299.723536
 20
990.443606
 30
0.0
 11
524.723536
 21
990.443606
 31
0.0
  0
SOLID
  5
1B9
330
1B5
100
AcDbEntity
  8
LC-006-003-----0
 62
     2
100
AcDbTrace
 10
299.723536
 20
994.610273
 30
0.0
 11
299.723536
 21
986.276939
 31
0.0
 12
274.723536
 22
990.443606
 32
0.0
 13
274.723536
 23
990.443606
 33
0.0
  0
SOLID
  5
1BA
330
1B5
100
AcDbEntity
  8
LC-006-003-----0
 62
     2
100
AcDbTrace
 10
524.723536
 20
986.276939
 30
0.0
 11
524.723536
 21
994.610273
 31
0.0
 12
549.723536
 22
990.443606
 32
0.0
 13
549.723536
 23
990.443606
 33
0.0
  0
MTEXT
  5
1BB
330
1B5
100
AcDbEntity
  8
LC-006-003-----0
 62
     2
100
AcDbMText
 10
412.223536
 20
1020.443606
 30
0.0
 40
25.0
 41
0.0
 71
     5
 72
     1
  1
\A1;550
  7
LCTX0-400-0-0pDIN-Schrift
 73
     1
 44
1.0
  0
POINT
  5
1BC
330
1B5
100
AcDbEntity
  8
Defpoints
 62
     0
100
AcDbPoint
 10
274.723536
 20
1081.856895
 30
0.0
  0
POINT
  5
1BD
330
1B5
100
AcDbEntity
  8
Defpoints
 62
     0
100
AcDbPoint
 10
549.723536
 20
1081.856895
 30
0.0
  0
POINT
  5
1BE
330
1B5
100
AcDbEntity
  8
Defpoints
 62
     0
100
AcDbPoint
 10
549.723536
 20
990.443606
 30
0.0
  0
ENDBLK
  5
1C0
330
1B5
100
AcDbEntity
  8
0
100
AcDbBlockEnd
  0
BLOCK
  5
20A
330
209
100
AcDbEntity
  8
0
100
AcDbBlockBegin
  2
POLY1
 70
     0
 71
     0
 10
0.0
 20
0.0
 30
0.0
  3
POLY1
  1

  4
POLY1
  0
LINE
  5
20C
330
209
100
AcDbEntity
  8
LC-002-002-----0
 62
     7
370
    25
100
AcDbLine
 10
1458.276347
 20
1939.942788
 30
0.0
 11
1458.276347
 21
1939.942788
 31
0.0
  0
LINE
  5
20D
330
209
100
AcDbEntity
  8
LC-002-002-----0
 62
     7
370
    25
100
AcDbLine
 10
1458.276347
 20
1939.942788
 30
0.0
 11
1460.62961
 21
1939.622993
 31
0.0
  0
LINE
  5
20E
330
209
100
AcDbEntity
  8
LC-002-002-----0
 62
     7
370
    25
100
AcDbLine
 10
1460.62961
 20
1939.622993
 30
0.0
 11
1460.62961
 21
1939.622993
 31
0.0
  0
LINE
  5
20F
330
209
100
AcDbEntity
  8
LC-002-002-----0
 62
     7
370
    25
100
AcDbLine
 10
1460.62961
 20
1939.622993
 30
0.0
 11
1463.107997
 21
1939.41671
 31
0.0
  0
LINE
  5
210
330
209
100
AcDbEntity
  8
LC-002-002-----0
 62
     7
370
    25
100
AcDbLine
 10
1463.107997
 20
1939.41671
 30
0.0
 11
1463.107997
 21
1939.41671
 31
0.0
  0
LINE
  5
211
330
209
100
AcDbEntity
  8
LC-002-002-----0
 62
     7
370
    25
100
AcDbLine
 10
1463.107997
 20
1939.41671
 30
0.0
 11
1465.632397
 21
1939.345986
 31
0.0
  0
ENDBLK
  5
20B
330
209
100
AcDbEntity
  8
0
100
AcDbBlockEnd
  0
BLOCK
  5
214
330
213
100
AcDbEntity
  8
0
100
AcDbBlockBegin
  2
POLY2
 70
     0
 71
     0
 10
0.0
 20
0.0
 30
0.0
  3
POLY2
  1

  4
POLY2
  0
LINE
  5
216
330
213
100
AcDbEntity
  8
LC-002-002-----0
 62
     7
370
    25
100
AcDbLine
 10
1453.080206
 20
1938.01123
 30
0.0
 11
1453.080206
 21
1938.01123
 31
0.0
  0
LINE
  5
217
330
213
100
AcDbEntity
  8
LC-002-002-----0
 62
     7
370
    25
100
AcDbLine
 10
1453.080206
 20
1938.01123
 30
0.0
 11
1452.713793
 21
1937.47305
 31
0.0
  0
LINE
  5
218
330
213
100
AcDbEntity
  8
LC-002-002-----0
 62
     7
370
    25
100
AcDbLine
 10
1452.713793
 20
1937.47305
 30
0.0
 11
1452.713793
 21
1937.47305
 31
0.0
  0
LINE
  5
219
330
213
100
AcDbEntity
  8
LC-002-002-----0
 62
     7
370
    25
100
AcDbLine
 10
1452.713793
 20
1937.47305
 30
0.0
 11
1452.376706
 21
1936.983073
 31
0.0
  0
LINE
  5
21A
330
213
100
AcDbEntity
  8
LC-002-002-----0
 62
     7
370
    25
100
AcDbLine
 10
1452.376706
 20
1936.983073
 30
0.0
 11
1452.376706
 21
1936.983073
 31
0.0
  0
LINE
  5
21B
330
213
100
AcDbEntity
  8
LC-002-002-----0
 62
     7
370
    25
100
AcDbLine
 10
1452.376706
 20
1936.983073
 30
0.0
 11
1452.069822
 21
1936.54145
 31
0.0
  0
ENDBLK
  5
215
330
213
100
AcDbEntity
  8
0
100
AcDbBlockEnd
  0
BLOCK
  5
21E
330
21D
100
AcDbEntity
  8
0
100
AcDbBlockBegin
  2
POLY3
 70
     0
 71
     0
 10
0.0
 20
0.0
 30
0.0
  3
POLY3
  1

  4
POLY3
  0
LINE
  5
220
330
21D
100
AcDbEntity
  8
LC-002-002-----0
 62
     7
370
    25
100
AcDbLine
 10
1458.276347
 20
1939.942788
 30
0.0
 11
1458.276347
 21
1939.942788
 31
0.0
  0
LINE
  5
221
330
21D
100
AcDbEntity
  8
LC-002-002-----0
 62
     7
370
    25
100
AcDbLine
 10
1458.276347
 20
1939.942788
 30
0.0
 11
1456.9812
 21
1940.022827
 31
0.0
  0
LINE
  5
222
330
21D
100
AcDbEntity
  8
LC-002-002-----0
 62
     7
370
    25
100
AcDbLine
 10
1456.9812
 20
1940.022827
 30
0.0
 11
1456.9812
 21
1940.022827
 31
0.0
  0
LINE
  5
223
330
21D
100
AcDbEntity
  8
LC-002-002-----0
 62
     7
370
    25
100
AcDbLine
 10
1456.9812
 20
1940.022827
 30
0.0
 11
1455.784959
 21
1939.851762
 31
0.0
  0
LINE
  5
224
330
21D
100
AcDbEntity
  8
LC-002-002-----0
 62
     7
370
    25
100
AcDbLine
 10
1455.784959
 20
1939.851762
 30
0.0
 11
1455.784959
 21
1939.851762
 31
0.0
  0
LINE
  5
225
330
21D
100
AcDbEntity
  8
LC-002-002-----0
 62
     7
370
    25
100
AcDbLine
 10
1455.784959
 20
1939.851762
 30
0.0
 11
1454.723896
 21
1939.453756
 31
0.0
  0
LINE
  5
226
330
21D
100
AcDbEntity
  8
LC-002-002-----0
 62
     7
370
    25
100
AcDbLine
 10
1454.723896
 20
1939.453756
 30
0.0
 11
1454.723896
 21
1939.453756
 31
0.0
  0
LINE
  5
227
330
21D
100
AcDbEntity
  8
LC-002-002-----0
 62
     7
370
    25
100
AcDbLine
 10
1454.723896
 20
1939.453756
 30
0.0
 11
1453.816371
 21
1938.842359
 31
0.0
  0
LINE
  5
228
330
21D
100
AcDbEntity
  8
LC-002-002-----0
 62
     7
370
    25
100
AcDbLine
 10
1453.816371
 20
1938.842359
 30
0.0
 11
1453.816371
 21
1938.842359
 31
0.0
  0
LINE
  5
229
330
21D
100
AcDbEntity
  8
LC-002-002-----0
 62
     7
370
    25
100
AcDbLine
 10
1453.816371
 20
1938.842359
 30
0.0
 11
1453.080206
 21
1938.01123
 31
0.0
  0
ENDBLK
  5
21F
330
21D
100
AcDbEntity
  8
0
100
AcDbBlockEnd
  0
BLOCK
  5
22C
330
22B
100
AcDbEntity
  8
0
100
AcDbBlockBegin
  2
POLY4
 70
     0
 71
     0
 10
0.0
 20
0.0
 30
0.0
  3
POLY4
  1

  4
POLY4
  0
LINE
  5
22E
330
22B
100
AcDbEntity
  8
LC-002-002-----0
 62
     7
370
    25
100
AcDbLine
 10
1452.069082
 20
1936.540421
 30
0.0
 11
1452.069082
 21
1936.540421
 31
0.0
  0
LINE
  5
22F
330
22B
100
AcDbEntity
  8
LC-002-002-----0
 62
     7
370
    25
100
AcDbLine
 10
1452.069082
 20
1936.540421
 30
0.0
 11
1451.662349
 21
1936.068194
 31
0.0
  0
LINE
  5
230
330
22B
100
AcDbEntity
  8
LC-002-002-----0
 62
     7
370
    25
100
AcDbLine
 10
1451.662349
 20
1936.068194
 30
0.0
 11
1451.662349
 21
1936.068194
 31
0.0
  0
LINE
  5
231
330
22B
100
AcDbEntity
  8
LC-002-002-----0
 62
     7
370
    25
100
AcDbLine
 10
1451.662349
 20
1936.068194
 30
0.0
 11
1451.24616
 21
1935.742543
 31
0.0
  0
LINE
  5
232
330
22B
100
AcDbEntity
  8
LC-002-002-----0
 62
     7
370
    25
100
AcDbLine
 10
1451.24616
 20
1935.742543
 30
0.0
 11
1451.24616
 21
1935.742543
 31
0.0
  0
LINE
  5
233
330
22B
100
AcDbEntity
  8
LC-002-002-----0
 62
     7
370
    25
100
AcDbLine
 10
1451.24616
 20
1935.742543
 30
0.0
 11
1450.884307
 21
1935.545513
 31
0.0
  0
LINE
  5
234
330
22B
100
AcDbEntity
  8
LC-002-002-----0
 62
     7
370
    25
100
AcDbLine
 10
1450.884307
 20
1935.545513
 30
0.0
 11
1450.884307
 21
1935.545513
 31
0.0
  0
LINE
  5
235
330
22B
100
AcDbEntity
  8
LC-002-002-----0
 62
     7
370
    25
100
AcDbLine
 10
1450.884307
 20
1935.545513
 30
0.0
 11
1450.629476
 21
1935.443986
 31
0.0
  0
LINE
  5
236
330
22B
100
AcDbEntity
  8
LC-002-002-----0
 62
     7
370
    25
100
AcDbLine
 10
1450.629476
 20
1935.443986
 30
0.0
 11
1450.629476
 21
1935.443986
 31
0.0
  0
LINE
  5
237
330
22B
100
AcDbEntity
  8
LC-002-002-----0
 62
     7
370
    25
100
AcDbLine
 10
1450.629476
 20
1935.443986
 30
0.0
 11
1450.532554
 21
1935.412705
 31
0.0
  0
ENDBLK
  5
22D
330
22B
100
AcDbEntity
  8
0
100
AcDbBlockEnd
  0
BLOCK
  5
23A
330
239
100
AcDbEntity
  8
0
100
AcDbBlockBegin
  2
POLY5
 70
     0
 71
     0
 10
0.0
 20
0.0
 30
0.0
  3
POLY5
  1

  4
POLY5
  0
LINE
  5
23C
330
239
100
AcDbEntity
  8
LC-002-002-----0
 62
     7
370
    25
100
AcDbLine
 10
1614.554299
 20
2002.327648
 30
0.0
 11
1614.554299
 21
2002.327648
 31
0.0
  0
LINE
  5
23D
330
239
100
AcDbEntity
  8
LC-002-002-----0
 62
     7
370
    25
100
AcDbLine
 10
1614.554299
 20
2002.327648
 30
0.0
 11
1614.339365
 21
2002.286484
 31
0.0
  0
LINE
  5
23E
330
239
100
AcDbEntity
  8
LC-002-002-----0
 62
     7
370
    25
100
AcDbLine
 10
1614.339365
 20
2002.286484
 30
0.0
 11
1614.339365
 21
2002.286484
 31
0.0
  0
LINE
  5
23F
330
239
100
AcDbEntity
  8
LC-002-002-----0
 62
     7
370
    25
100
AcDbLine
 10
1614.339365
 20
2002.286484
 30
0.0
 11
1614.124403
 21
2002.213416
 31
0.0
  0
LINE
  5
240
330
239
100
AcDbEntity
  8
LC-002-002-----0
 62
     7
370
    25
100
AcDbLine
 10
1614.124403
 20
2002.213416
 30
0.0
 11
1614.124403
 21
2002.213416
 31
0.0
  0
LINE
  5
241
330
239
100
AcDbEntity
  8
LC-002-002-----0
 62
     7
370
    25
100
AcDbLine
 10
1614.124403
 20
2002.213416
 30
0.0
 11
1613.918895
 21
2002.116875
 31
0.0
  0
LINE
  5
242
330
239
100
AcDbEntity
  8
LC-002-002-----0
 62
     7
370
    25
100
AcDbLine
 10
1613.918895
 20
2002.116875
 30
0.0
 11
1613.918895
 21
2002.116875
 31
0.0
  0
LINE
  5
243
330
239
100
AcDbEntity
  8
LC-002-002-----0
 62
     7
370
    25
100
AcDbLine
 10
1613.918895
 20
2002.116875
 30
0.0
 11
1613.724795
 21
2002.002288
 31
0.0
  0
LINE
  5
244
330
239
100
AcDbEntity
  8
LC-002-002-----0
 62
     7
370
    25
100
AcDbLine
 10
1613.724795
 20
2002.002288
 30
0.0
 11
1613.724795
 21
2002.002288
 31
0.0
  0
LINE
  5
245
330
239
100
AcDbEntity
  8
LC-002-002-----0
 62
     7
370
    25
100
AcDbLine
 10
1613.724795
 20
2002.002288
 30
0.0
 11
1613.545093
 21
2001.875981
 31
0.0
  0
LINE
  5
246
330
239
100
AcDbEntity
  8
LC-002-002-----0
 62
     7
370
    25
100
AcDbLine
 10
1613.545093
 20
2001.875981
 30
0.0
 11
1613.545093
 21
2001.875981
 31
0.0
  0
LINE
  5
247
330
239
100
AcDbEntity
  8
LC-002-002-----0
 62
     7
370
    25
100
AcDbLine
 10
1613.545093
 20
2001.875981
 30
0.0
 11
1613.378918
 21
2001.740233
 31
0.0
  0
LINE
  5
248
330
239
100
AcDbEntity
  8
LC-002-002-----0
 62
     7
370
    25
100
AcDbLine
 10
1613.378918
 20
2001.740233
 30
0.0
 11
1613.378918
 21
2001.740233
 31
0.0
  0
LINE
  5
249
330
239
100
AcDbEntity
  8
LC-002-002-----0
 62
     7
370
    25
100
AcDbLine
 10
1613.378918
 20
2001.740233
 30
0.0
 11
1613.226734
 21
2001.59639
 31
0.0
  0
LINE
  5
24A
330
239
100
AcDbEntity
  8
LC-002-002-----0
 62
     7
370
    25
100
AcDbLine
 10
1613.226734
 20
2001.59639
 30
0.0
 11
1613.226734
 21
2001.59639
 31
0.0
  0
LINE
  5
24B
330
239
100
AcDbEntity
  8
LC-002-002-----0
 62
     7
370
    25
100
AcDbLine
 10
1613.226734
 20
2001.59639
 30
0.0
 11
1613.090149
 21
2001.446673
 31
0.0
  0
LINE
  5
24C
330
239
100
AcDbEntity
  8
LC-002-002-----0
 62
     7
370
    25
100
AcDbLine
 10
1613.090149
 20
2001.446673
 30
0.0
 11
1613.090149
 21
2001.446673
 31
0.0
  0
LINE
  5
24D
330
239
100
AcDbEntity
  8
LC-002-002-----0
 62
     7
370
    25
100
AcDbLine
 10
1613.090149
 20
2001.446673
 30
0.0
 11
1612.971267
 21
2001.294683
 31
0.0
  0
LINE
  5
24E
330
239
100
AcDbEntity
  8
LC-002-002-----0
 62
     7
370
    25
100
AcDbLine
 10
1612.971267
 20
2001.294683
 30
0.0
 11
1612.971267
 21
2001.294683
 31
0.0
  0
LINE
  5
24F
330
239
100
AcDbEntity
  8
LC-002-002-----0
 62
     7
370
    25
100
AcDbLine
 10
1612.971267
 20
2001.294683
 30
0.0
 11
1612.872054
 21
2001.145328
 31
0.0
  0
ENDBLK
  5
23B
330
239
100
AcDbEntity
  8
0
100
AcDbBlockEnd
  0
BLOCK
  5
252
330
251
100
AcDbEntity
  8
0
100
AcDbBlockBegin
  2
POLY6
 70
     0
 71
     0
 10
0.0
 20
0.0
 30
0.0
  3
POLY6
  1

  4
POLY6
  0
LINE
  5
254
330
251
100
AcDbEntity
  8
LC-002-002-----0
 62
     7
370
    25
100
AcDbLine
 10
1612.538378
 20
2000.607503
 30
0.0
 11
1612.538378
 21
2000.607503
 31
0.0
  0
LINE
  5
255
330
251
100
AcDbEntity
  8
LC-002-002-----0
 62
     7
370
    25
100
AcDbLine
 10
1612.538378
 20
2000.607503
 30
0.0
 11
1612.576
 21
2000.666956
 31
0.0
  0
LINE
  5
256
330
251
100
AcDbEntity
  8
LC-002-002-----0
 62
     7
370
    25
100
AcDbLine
 10
1612.576
 20
2000.666956
 30
0.0
 11
1612.576
 21
2000.666956
 31
0.0
  0
LINE
  5
257
330
251
100
AcDbEntity
  8
LC-002-002-----0
 62
     7
370
    25
100
AcDbLine
 10
1612.576
 20
2000.666956
 30
0.0
 11
1612.687908
 21
2000.846099
 31
0.0
  0
LINE
  5
258
330
251
100
AcDbEntity
  8
LC-002-002-----0
 62
     7
370
    25
100
AcDbLine
 10
1612.687908
 20
2000.846099
 30
0.0
 11
1612.687908
 21
2000.846099
 31
0.0
  0
LINE
  5
259
330
251
100
AcDbEntity
  8
LC-002-002-----0
 62
     7
370
    25
100
AcDbLine
 10
1612.687908
 20
2000.846099
 30
0.0
 11
1612.872054
 21
2001.145328
 31
0.0
  0
ENDBLK
  5
253
330
251
100
AcDbEntity
  8
0
100
AcDbBlockEnd
  0
BLOCK
  5
25C
330
25B
100
AcDbEntity
  8
0
100
AcDbBlockBegin
  2
POLY7
 70
     0
 71
     0
 10
0.0
 20
0.0
 30
0.0
  3
POLY7
  1

  4
POLY7
  0
LINE
  5
25E
330
25B
100
AcDbEntity
  8
LC-002-002-----0
 62
     7
370
    25
100
AcDbLine
 10
1607.199972
 20
2018.086315
 30
0.0
 11
1607.199972
 21
2018.086315
 31
0.0
  0
LINE
  5
25F
330
25B
100
AcDbEntity
  8
LC-002-002-----0
 62
     7
370
    25
100
AcDbLine
 10
1607.199972
 20
2018.086315
 30
0.0
 11
1607.075172
 21
2018.103208
 31
0.0
  0
LINE
  5
260
330
25B
100
AcDbEntity
  8
LC-002-002-----0
 62
     7
370
    25
100
AcDbLine
 10
1607.075172
 20
2018.103208
 30
0.0
 11
1607.075172
 21
2018.103208
 31
0.0
  0
LINE
  5
261
330
25B
100
AcDbEntity
  8
LC-002-002-----0
 62
     7
370
    25
100
AcDbLine
 10
1607.075172
 20
2018.103208
 30
0.0
 11
1607.016166
 21
2018.10751
 31
0.0
  0
LINE
  5
262
330
25B
100
AcDbEntity
  8
LC-002-002-----0
 62
     7
370
    25
100
AcDbLine
 10
1607.016166
 20
2018.10751
 30
0.0
 11
1607.016166
 21
2018.10751
 31
0.0
  0
LINE
  5
263
330
25B
100
AcDbEntity
  8
LC-002-002-----0
 62
     7
370
    25
100
AcDbLine
 10
1607.016166
 20
2018.10751
 30
0.0
 11
1606.957036
 21
2018.109482
 31
0.0
  0
LINE
  5
264
330
25B
100
AcDbEntity
  8
LC-002-002-----0
 62
     7
370
    25
100
AcDbLine
 10
1606.957036
 20
2018.109482
 30
0.0
 11
1606.957036
 21
2018.109482
 31
0.0
  0
LINE
  5
265
330
25B
100
AcDbEntity
  8
LC-002-002-----0
 62
     7
370
    25
100
AcDbLine
 10
1606.957036
 20
2018.109482
 30
0.0
 11
1606.897874
 21
2018.109121
 31
0.0
  0
LINE
  5
266
330
25B
100
AcDbEntity
  8
LC-002-002-----0
 62
     7
370
    25
100
AcDbLine
 10
1606.897874
 20
2018.109121
 30
0.0
 11
1606.897874
 21
2018.109121
 31
0.0
  0
LINE
  5
267
330
25B
100
AcDbEntity
  8
LC-002-002-----0
 62
     7
370
    25
100
AcDbLine
 10
1606.897874
 20
2018.109121
 30
0.0
 11
1606.838773
 21
2018.106427
 31
0.0
  0
LINE
  5
268
330
25B
100
AcDbEntity
  8
LC-002-002-----0
 62
     7
370
    25
100
AcDbLine
 10
1606.838773
 20
2018.106427
 30
0.0
 11
1606.838773
 21
2018.106427
 31
0.0
  0
LINE
  5
269
330
25B
100
AcDbEntity
  8
LC-002-002-----0
 62
     7
370
    25
100
AcDbLine
 10
1606.838773
 20
2018.106427
 30
0.0
 11
1606.779823
 21
2018.101404
 31
0.0
  0
LINE
  5
26A
330
25B
100
AcDbEntity
  8
LC-002-002-----0
 62
     7
370
    25
100
AcDbLine
 10
1606.779823
 20
2018.101404
 30
0.0
 11
1606.779823
 21
2018.101404
 31
0.0
  0
LINE
  5
26B
330
25B
100
AcDbEntity
  8
LC-002-002-----0
 62
     7
370
    25
100
AcDbLine
 10
1606.779823
 20
2018.101404
 30
0.0
 11
1606.510818
 21
2018.047811
 31
0.0
  0
ENDBLK
  5
25D
330
25B
100
AcDbEntity
  8
0
100
AcDbBlockEnd
  0
BLOCK
  5
26E
330
26D
100
AcDbEntity
  8
0
100
AcDbBlockBegin
  2
POLY8
 70
     0
 71
     0
 10
0.0
 20
0.0
 30
0.0
  3
POLY8
  1

  4
POLY8
  0
LINE
  5
270
330
26D
100
AcDbEntity
  8
LC-002-002-----0
 62
     7
370
    25
100
AcDbLine
 10
1485.60494
 20
2011.80125
 30
0.0
 11
1485.60494
 21
2011.80125
 31
0.0
  0
LINE
  5
271
330
26D
100
AcDbEntity
  8
LC-002-002-----0
 62
     7
370
    25
100
AcDbLine
 10
1485.60494
 20
2011.80125
 30
0.0
 11
1485.604977
 21
2011.656266
 31
0.0
  0
LINE
  5
272
330
26D
100
AcDbEntity
  8
LC-002-002-----0
 62
     7
370
    25
100
AcDbLine
 10
1485.604977
 20
2011.656266
 30
0.0
 11
1485.604977
 21
2011.656266
 31
0.0
  0
LINE
  5
273
330
26D
100
AcDbEntity
  8
LC-002-002-----0
 62
     7
370
    25
100
AcDbLine
 10
1485.604977
 20
2011.656266
 30
0.0
 11
1485.605417
 21
2011.231625
 31
0.0
  0
LINE
  5
274
330
26D
100
AcDbEntity
  8
LC-002-002-----0
 62
     7
370
    25
100
AcDbLine
 10
1485.605417
 20
2011.231625
 30
0.0
 11
1485.605417
 21
2011.231625
 31
0.0
  0
LINE
  5
275
330
26D
100
AcDbEntity
  8
LC-002-002-----0
 62
     7
370
    25
100
AcDbLine
 10
1485.605417
 20
2011.231625
 30
0.0
 11
1485.604989
 21
2010.527278
 31
0.0
  0
LINE
  5
276
330
26D
100
AcDbEntity
  8
LC-002-002-----0
 62
     7
370
    25
100
AcDbLine
 10
1485.604989
 20
2010.527278
 30
0.0
 11
1485.604989
 21
2010.527278
 31
0.0
  0
LINE
  5
277
330
26D
100
AcDbEntity
  8
LC-002-002-----0
 62
     7
370
    25
100
AcDbLine
 10
1485.604989
 20
2010.527278
 30
0.0
 11
1485.60485
 21
2009.528868
 31
0.0
  0
LINE
  5
278
330
26D
100
AcDbEntity
  8
LC-002-002-----0
 62
     7
370
    25
100
AcDbLine
 10
1485.60485
 20
2009.528868
 30
0.0
 11
1485.60485
 21
2009.528868
 31
0.0
  0
LINE
  5
279
330
26D
100
AcDbEntity
  8
LC-002-002-----0
 62
     7
370
    25
100
AcDbLine
 10
1485.60485
 20
2009.528868
 30
0.0
 11
1485.604893
 21
2008.183772
 31
0.0
  0
LINE
  5
27A
330
26D
100
AcDbEntity
  8
LC-002-002-----0
 62
     7
370
    25
100
AcDbLine
 10
1485.604893
 20
2008.183772
 30
0.0
 11
1485.604893
 21
2008.183772
 31
0.0
  0
LINE
  5
27B
330
26D
100
AcDbEntity
  8
LC-002-002-----0
 62
     7
370
    25
100
AcDbLine
 10
1485.604893
 20
2008.183772
 30
0.0
 11
1485.60491
 21
2006.491919
 31
0.0
  0
LINE
  5
27C
330
26D
100
AcDbEntity
  8
LC-002-002-----0
 62
     7
370
    25
100
AcDbLine
 10
1485.60491
 20
2006.491919
 30
0.0
 11
1485.60491
 21
2006.491919
 31
0.0
  0
LINE
  5
27D
330
26D
100
AcDbEntity
  8
LC-002-002-----0
 62
     7
370
    25
100
AcDbLine
 10
1485.60491
 20
2006.491919
 30
0.0
 11
1485.605213
 21
2004.488614
 31
0.0
  0
LINE
  5
27E
330
26D
100
AcDbEntity
  8
LC-002-002-----0
 62
     7
370
    25
100
AcDbLine
 10
1485.605213
 20
2004.488614
 30
0.0
 11
1485.605213
 21
2004.488614
 31
0.0
  0
LINE
  5
27F
330
26D
100
AcDbEntity
  8
LC-002-002-----0
 62
     7
370
    25
100
AcDbLine
 10
1485.605213
 20
2004.488614
 30
0.0
 11
1485.605062
 21
2002.230176
 31
0.0
  0
LINE
  5
280
330
26D
100
AcDbEntity
  8
LC-002-002-----0
 62
     7
370
    25
100
AcDbLine
 10
1485.605062
 20
2002.230176
 30
0.0
 11
1485.605062
 21
2002.230176
 31
0.0
  0
LINE
  5
281
330
26D
100
AcDbEntity
  8
LC-002-002-----0
 62
     7
370
    25
100
AcDbLine
 10
1485.605062
 20
2002.230176
 30
0.0
 11
1485.605026
 21
1999.807246
 31
0.0
  0
LINE
  5
282
330
26D
100
AcDbEntity
  8
LC-002-002-----0
 62
     7
370
    25
100
AcDbLine
 10
1485.605026
 20
1999.807246
 30
0.0
 11
1485.605026
 21
1999.807246
 31
0.0
  0
LINE
  5
283
330
26D
100
AcDbEntity
  8
LC-002-002-----0
 62
     7
370
    25
100
AcDbLine
 10
1485.605026
 20
1999.807246
 30
0.0
 11
1485.605028
 21
1997.325052
 31
0.0
  0
LINE
  5
284
330
26D
100
AcDbEntity
  8
LC-002-002-----0
 62
     7
370
    25
100
AcDbLine
 10
1485.605028
 20
1997.325052
 30
0.0
 11
1485.605028
 21
1997.325052
 31
0.0
  0
LINE
  5
285
330
26D
100
AcDbEntity
  8
LC-002-002-----0
 62
     7
370
    25
100
AcDbLine
 10
1485.605028
 20
1997.325052
 30
0.0
 11
1485.605078
 21
1994.912709
 31
0.0
  0
LINE
  5
286
330
26D
100
AcDbEntity
  8
LC-002-002-----0
 62
     7
370
    25
100
AcDbLine
 10
1485.605078
 20
1994.912709
 30
0.0
 11
1485.605078
 21
1994.912709
 31
0.0
  0
LINE
  5
287
330
26D
100
AcDbEntity
  8
LC-002-002-----0
 62
     7
370
    25
100
AcDbLine
 10
1485.605078
 20
1994.912709
 30
0.0
 11
1485.605215
 21
1992.67364
 31
0.0
  0
LINE
  5
288
330
26D
100
AcDbEntity
  8
LC-002-002-----0
 62
     7
370
    25
100
AcDbLine
 10
1485.605215
 20
1992.67364
 30
0.0
 11
1485.605215
 21
1992.67364
 31
0.0
  0
LINE
  5
289
330
26D
100
AcDbEntity
  8
LC-002-002-----0
 62
     7
370
    25
100
AcDbLine
 10
1485.605215
 20
1992.67364
 30
0.0
 11
1485.604916
 21
1990.691796
 31
0.0
  0
LINE
  5
28A
330
26D
100
AcDbEntity
  8
LC-002-002-----0
 62
     7
370
    25
100
AcDbLine
 10
1485.604916
 20
1990.691796
 30
0.0
 11
1485.604916
 21
1990.691796
 31
0.0
  0
LINE
  5
28B
330
26D
100
AcDbEntity
  8
LC-002-002-----0
 62
     7
370
    25
100
AcDbLine
 10
1485.604916
 20
1990.691796
 30
0.0
 11
1485.604902
 21
1989.017505
 31
0.0
  0
LINE
  5
28C
330
26D
100
AcDbEntity
  8
LC-002-002-----0
 62
     7
370
    25
100
AcDbLine
 10
1485.604902
 20
1989.017505
 30
0.0
 11
1485.604902
 21
1989.017505
 31
0.0
  0
LINE
  5
28D
330
26D
100
AcDbEntity
  8
LC-002-002-----0
 62
     7
370
    25
100
AcDbLine
 10
1485.604902
 20
1989.017505
 30
0.0
 11
1485.604848
 21
1987.682353
 31
0.0
  0
LINE
  5
28E
330
26D
100
AcDbEntity
  8
LC-002-002-----0
 62
     7
370
    25
100
AcDbLine
 10
1485.604848
 20
1987.682353
 30
0.0
 11
1485.604848
 21
1987.682353
 31
0.0
  0
LINE
  5
28F
330
26D
100
AcDbEntity
  8
LC-002-002-----0
 62
     7
370
    25
100
AcDbLine
 10
1485.604848
 20
1987.682353
 30
0.0
 11
1485.604979
 21
1986.686418
 31
0.0
  0
LINE
  5
290
330
26D
100
AcDbEntity
  8
LC-002-002-----0
 62
     7
370
    25
100
AcDbLine
 10
1485.604979
 20
1986.686418
 30
0.0
 11
1485.604979
 21
1986.686418
 31
0.0
  0
LINE
  5
291
330
26D
100
AcDbEntity
  8
LC-002-002-----0
 62
     7
370
    25
100
AcDbLine
 10
1485.604979
 20
1986.686418
 30
0.0
 11
1485.605387
 21
1985.980323
 31
0.0
  0
LINE
  5
292
330
26D
100
AcDbEntity
  8
LC-002-002-----0
 62
     7
370
    25
100
AcDbLine
 10
1485.605387
 20
1985.980323
 30
0.0
 11
1485.605387
 21
1985.980323
 31
0.0
  0
LINE
  5
293
330
26D
100
AcDbEntity
  8
LC-002-002-----0
 62
     7
370
    25
100
AcDbLine
 10
1485.605387
 20
1985.980323
 30
0.0
 11
1485.604948
 21
1985.552674
 31
0.0
  0
LINE
  5
294
330
26D
100
AcDbEntity
  8
LC-002-002-----0
 62
     7
370
    25
100
AcDbLine
 10
1485.604948
 20
1985.552674
 30
0.0
 11
1485.604948
 21
1985.552674
 31
0.0
  0
LINE
  5
295
330
26D
100
AcDbEntity
  8
LC-002-002-----0
 62
     7
370
    25
100
AcDbLine
 10
1485.604948
 20
1985.552674
 30
0.0
 11
1485.604909
 21
1985.40617
 31
0.0
  0
ENDBLK
  5
26F
330
26D
100
AcDbEntity
  8
0
100
AcDbBlockEnd
  0
BLOCK
  5
2A6
330
2A5
100
AcDbEntity
  8
0
100
AcDbBlockBegin
  2
POLY9
 70
     0
 71
     0
 10
0.0
 20
0.0
 30
0.0
  3
POLY9
  1

  4
POLY9
  0
LINE
  5
2A8
330
2A5
100
AcDbEntity
  8
LC-002-002-----0
 62
     7
370
    25
100
AcDbLine
 10
1483.422174
 20
1947.196577
 30
0.0
 11
1483.422174
 21
1947.196577
 31
0.0
  0
LINE
  5
2A9
330
2A5
100
AcDbEntity
  8
LC-002-002-----0
 62
     7
370
    25
100
AcDbLine
 10
1483.422174
 20
1947.196577
 30
0.0
 11
1482.135933
 21
1947.051497
 31
0.0
  0
LINE
  5
2AA
330
2A5
100
AcDbEntity
  8
LC-002-002-----0
 62
     7
370
    25
100
AcDbLine
 10
1482.135933
 20
1947.051497
 30
0.0
 11
1482.135933
 21
1947.051497
 31
0.0
  0
LINE
  5
2AB
330
2A5
100
AcDbEntity
  8
LC-002-002-----0
 62
     7
370
    25
100
AcDbLine
 10
1482.135933
 20
1947.051497
 30
0.0
 11
1480.906155
 21
1946.621224
 31
0.0
  0
LINE
  5
2AC
330
2A5
100
AcDbEntity
  8
LC-002-002-----0
 62
     7
370
    25
100
AcDbLine
 10
1480.906155
 20
1946.621224
 30
0.0
 11
1480.906155
 21
1946.621224
 31
0.0
  0
LINE
  5
2AD
330
2A5
100
AcDbEntity
  8
LC-002-002-----0
 62
     7
370
    25
100
AcDbLine
 10
1480.906155
 20
1946.621224
 30
0.0
 11
1479.7874
 21
1945.920106
 31
0.0
  0
LINE
  5
2AE
330
2A5
100
AcDbEntity
  8
LC-002-002-----0
 62
     7
370
    25
100
AcDbLine
 10
1479.7874
 20
1945.920106
 30
0.0
 11
1479.7874
 21
1945.920106
 31
0.0
  0
LINE
  5
2AF
330
2A5
100
AcDbEntity
  8
LC-002-002-----0
 62
     7
370
    25
100
AcDbLine
 10
1479.7874
 20
1945.920106
 30
0.0
 11
1478.833078
 21
1944.972858
 31
0.0
  0
LINE
  5
2B0
330
2A5
100
AcDbEntity
  8
LC-002-002-----0
 62
     7
370
    25
100
AcDbLine
 10
1478.833078
 20
1944.972858
 30
0.0
 11
1478.833078
 21
1944.972858
 31
0.0
  0
LINE
  5
2B1
330
2A5
100
AcDbEntity
  8
LC-002-002-----0
 62
     7
370
    25
100
AcDbLine
 10
1478.833078
 20
1944.972858
 30
0.0
 11
1478.09349
 21
1943.816097
 31
0.0
  0
LINE
  5
2B2
330
2A5
100
AcDbEntity
  8
LC-002-002-----0
 62
     7
370
    25
100
AcDbLine
 10
1478.09349
 20
1943.816097
 30
0.0
 11
1478.09349
 21
1943.816097
 31
0.0
  0
LINE
  5
2B3
330
2A5
100
AcDbEntity
  8
LC-002-002-----0
 62
     7
370
    25
100
AcDbLine
 10
1478.09349
 20
1943.816097
 30
0.0
 11
1477.612699
 21
1942.499625
 31
0.0
  0
ENDBLK
  5
2A7
330
2A5
100
AcDbEntity
  8
0
100
AcDbBlockEnd
  0
BLOCK
  5
2B6
330
2B5
100
AcDbEntity
  8
0
100
AcDbBlockBegin
  2
POLY10
 70
     0
 71
     0
 10
0.0
 20
0.0
 30
0.0
  3
POLY10
  1

  4
POLY10
  0
LINE
  5
2B8
330
2B5
100
AcDbEntity
  8
LC-002-002-----0
 62
     7
370
    25
100
AcDbLine
 10
1477.612699
 20
1942.499625
 30
0.0
 11
1477.612699
 21
1942.499625
 31
0.0
  0
LINE
  5
2B9
330
2B5
100
AcDbEntity
  8
LC-002-002-----0
 62
     7
370
    25
100
AcDbLine
 10
1477.612699
 20
1942.499625
 30
0.0
 11
1477.20295
 21
1941.448977
 31
0.0
  0
LINE
  5
2BA
330
2B5
100
AcDbEntity
  8
LC-002-002-----0
 62
     7
370
    25
100
AcDbLine
 10
1477.20295
 20
1941.448977
 30
0.0
 11
1477.20295
 21
1941.448977
 31
0.0
  0
LINE
  5
2BB
330
2B5
100
AcDbEntity
  8
LC-002-002-----0
 62
     7
370
    25
100
AcDbLine
 10
1477.20295
 20
1941.448977
 30
0.0
 11
1476.549634
 21
1940.560647
 31
0.0
  0
LINE
  5
2BC
330
2B5
100
AcDbEntity
  8
LC-002-002-----0
 62
     7
370
    25
100
AcDbLine
 10
1476.549634
 20
1940.560647
 30
0.0
 11
1476.549634
 21
1940.560647
 31
0.0
  0
LINE
  5
2BD
330
2B5
100
AcDbEntity
  8
LC-002-002-----0
 62
     7
370
    25
100
AcDbLine
 10
1476.549634
 20
1940.560647
 30
0.0
 11
1475.711507
 21
1939.893855
 31
0.0
  0
LINE
  5
2BE
330
2B5
100
AcDbEntity
  8
LC-002-002-----0
 62
     7
370
    25
100
AcDbLine
 10
1475.711507
 20
1939.893855
 30
0.0
 11
1475.711507
 21
1939.893855
 31
0.0
  0
LINE
  5
2BF
330
2B5
100
AcDbEntity
  8
LC-002-002-----0
 62
     7
370
    25
100
AcDbLine
 10
1475.711507
 20
1939.893855
 30
0.0
 11
1474.753718
 21
1939.483772
 31
0.0
  0
LINE
  5
2C0
330
2B5
100
AcDbEntity
  8
LC-002-002-----0
 62
     7
370
    25
100
AcDbLine
 10
1474.753718
 20
1939.483772
 30
0.0
 11
1474.753718
 21
1939.483772
 31
0.0
  0
LINE
  5
2C1
330
2B5
100
AcDbEntity
  8
LC-002-002-----0
 62
     7
370
    25
100
AcDbLine
 10
1474.753718
 20
1939.483772
 30
0.0
 11
1473.739716
 21
1939.345986
 31
0.0
  0
ENDBLK
  5
2B7
330
2B5
100
AcDbEntity
  8
0
100
AcDbBlockEnd
  0
BLOCK
  5
31C
330
31B
100
AcDbEntity
  8
0
100
AcDbBlockBegin
  2
POLY11
 70
     0
 71
     0
 10
0.0
 20
0.0
 30
0.0
  3
POLY11
  1

  4
POLY11
  0
LINE
  5
31E
330
31B
100
AcDbEntity
  8
LC-002-002-----0
 62
     7
370
    25
100
AcDbLine
 10
1393.305184
 20
2064.557373
 30
0.0
 11
1393.280169
 21
2064.532333
 31
0.0
  0
ENDBLK
  5
31D
330
31B
100
AcDbEntity
  8
0
100
AcDbBlockEnd
  0
BLOCK
  5
331
330
330
100
AcDbEntity
  8
0
100
AcDbBlockBegin
  2
POLY12
 70
     0
 71
     0
 10
0.0
 20
0.0
 30
0.0
  3
POLY12
  1

  4
POLY12
  0
LINE
  5
333
330
330
100
AcDbEntity
  8
LC-002-002-----0
 62
     7
370
    25
100
AcDbLine
 10
1436.49265
 20
1966.31
 30
0.0
 11
1436.49265
 21
1966.31
 31
0.0
  0
LINE
  5
334
330
330
100
AcDbEntity
  8
LC-002-002-----0
 62
     7
370
    25
100
AcDbLine
 10
1436.49265
 20
1966.31
 30
0.0
 11
1436.433711
 21
1966.824773
 31
0.0
  0
LINE
  5
335
330
330
100
AcDbEntity
  8
LC-002-002-----0
 62
     7
370
    25
100
AcDbLine
 10
1436.433711
 20
1966.824773
 30
0.0
 11
1436.433711
 21
1966.824773
 31
0.0
  0
LINE
  5
336
330
330
100
AcDbEntity
  8
LC-002-002-----0
 62
     7
370
    25
100
AcDbLine
 10
1436.433711
 20
1966.824773
 30
0.0
 11
1436.260166
 21
1967.306131
 31
0.0
  0
LINE
  5
337
330
330
100
AcDbEntity
  8
LC-002-002-----0
 62
     7
370
    25
100
AcDbLine
 10
1436.260166
 20
1967.306131
 30
0.0
 11
1436.260166
 21
1967.306131
 31
0.0
  0
LINE
  5
338
330
330
100
AcDbEntity
  8
LC-002-002-----0
 62
     7
370
    25
100
AcDbLine
 10
1436.260166
 20
1967.306131
 30
0.0
 11
1435.984031
 21
1967.719698
 31
0.0
  0
LINE
  5
339
330
330
100
AcDbEntity
  8
LC-002-002-----0
 62
     7
370
    25
100
AcDbLine
 10
1435.984031
 20
1967.719698
 30
0.0
 11
1435.984031
 21
1967.719698
 31
0.0
  0
LINE
  5
33A
330
330
100
AcDbEntity
  8
LC-002-002-----0
 62
     7
370
    25
100
AcDbLine
 10
1435.984031
 20
1967.719698
 30
0.0
 11
1435.622685
 21
1968.038644
 31
0.0
  0
LINE
  5
33B
330
330
100
AcDbEntity
  8
LC-002-002-----0
 62
     7
370
    25
100
AcDbLine
 10
1435.622685
 20
1968.038644
 30
0.0
 11
1435.622685
 21
1968.038644
 31
0.0
  0
LINE
  5
33C
330
330
100
AcDbEntity
  8
LC-002-002-----0
 62
     7
370
    25
100
AcDbLine
 10
1435.622685
 20
1968.038644
 30
0.0
 11
1435.199298
 21
1968.240607
 31
0.0
  0
LINE
  5
33D
330
330
100
AcDbEntity
  8
LC-002-002-----0
 62
     7
370
    25
100
AcDbLine
 10
1435.199298
 20
1968.240607
 30
0.0
 11
1435.199298
 21
1968.240607
 31
0.0
  0
LINE
  5
33E
330
330
100
AcDbEntity
  8
LC-002-002-----0
 62
     7
370
    25
100
AcDbLine
 10
1435.199298
 20
1968.240607
 30
0.0
 11
1434.741816
 21
1968.31
 31
0.0
  0
ENDBLK
  5
332
330
330
100
AcDbEntity
  8
0
100
AcDbBlockEnd
  0
BLOCK
  5
342
330
341
100
AcDbEntity
  8
0
100
AcDbBlockBegin
  2
POLY13
 70
     0
 71
     0
 10
0.0
 20
0.0
 30
0.0
  3
POLY13
  1

  4
POLY13
  0
LINE
  5
344
330
341
100
AcDbEntity
  8
LC-002-002-----0
 62
     7
370
    25
100
AcDbLine
 10
1413.280169
 20
1966.31
 30
0.0
 11
1413.280169
 21
1966.31
 31
0.0
  0
LINE
  5
345
330
341
100
AcDbEntity
  8
LC-002-002-----0
 62
     7
370
    25
100
AcDbLine
 10
1413.280169
 20
1966.31
 30
0.0
 11
1413.280202
 21
1966.824788
 31
0.0
  0
LINE
  5
346
330
341
100
AcDbEntity
  8
LC-002-002-----0
 62
     7
370
    25
100
AcDbLine
 10
1413.280202
 20
1966.824788
 30
0.0
 11
1413.280202
 21
1966.824788
 31
0.0
  0
LINE
  5
347
330
341
100
AcDbEntity
  8
LC-002-002-----0
 62
     7
370
    25
100
AcDbLine
 10
1413.280202
 20
1966.824788
 30
0.0
 11
1413.280166
 21
1967.306158
 31
0.0
  0
LINE
  5
348
330
341
100
AcDbEntity
  8
LC-002-002-----0
 62
     7
370
    25
100
AcDbLine
 10
1413.280166
 20
1967.306158
 30
0.0
 11
1413.280166
 21
1967.306158
 31
0.0
  0
LINE
  5
349
330
341
100
AcDbEntity
  8
LC-002-002-----0
 62
     7
370
    25
100
AcDbLine
 10
1413.280166
 20
1967.306158
 30
0.0
 11
1413.280172
 21
1967.719728
 31
0.0
  0
LINE
  5
34A
330
341
100
AcDbEntity
  8
LC-002-002-----0
 62
     7
370
    25
100
AcDbLine
 10
1413.280172
 20
1967.719728
 30
0.0
 11
1413.280172
 21
1967.719728
 31
0.0
  0
LINE
  5
34B
330
341
100
AcDbEntity
  8
LC-002-002-----0
 62
     7
370
    25
100
AcDbLine
 10
1413.280172
 20
1967.719728
 30
0.0
 11
1413.280147
 21
1968.038665
 31
0.0
  0
LINE
  5
34C
330
341
100
AcDbEntity
  8
LC-002-002-----0
 62
     7
370
    25
100
AcDbLine
 10
1413.280147
 20
1968.038665
 30
0.0
 11
1413.280147
 21
1968.038665
 31
0.0
  0
LINE
  5
34D
330
341
100
AcDbEntity
  8
LC-002-002-----0
 62
     7
370
    25
100
AcDbLine
 10
1413.280147
 20
1968.038665
 30
0.0
 11
1413.280195
 21
1968.240621
 31
0.0
  0
LINE
  5
34E
330
341
100
AcDbEntity
  8
LC-002-002-----0
 62
     7
370
    25
100
AcDbLine
 10
1413.280195
 20
1968.240621
 30
0.0
 11
1413.280195
 21
1968.240621
 31
0.0
  0
LINE
  5
34F
330
341
100
AcDbEntity
  8
LC-002-002-----0
 62
     7
370
    25
100
AcDbLine
 10
1413.280195
 20
1968.240621
 30
0.0
 11
1413.280177
 21
1968.31
 31
0.0
  0
ENDBLK
  5
343
330
341
100
AcDbEntity
  8
0
100
AcDbBlockEnd
  0
BLOCK
  5
353
330
352
100
AcDbEntity
  8
0
100
AcDbBlockBegin
  2
POLY14
 70
     0
 71
     0
 10
0.0
 20
0.0
 30
0.0
  3
POLY14
  1

  4
POLY14
  0
LINE
  5
355
330
352
100
AcDbEntity
  8
LC-002-002-----0
 62
     7
370
    25
100
AcDbLine
 10
1390.067688
 20
1966.31
 30
0.0
 11
1390.067688
 21
1966.31
 31
0.0
  0
LINE
  5
356
330
352
100
AcDbEntity
  8
LC-002-002-----0
 62
     7
370
    25
100
AcDbLine
 10
1390.067688
 20
1966.31
 30
0.0
 11
1390.126626
 21
1966.824773
 31
0.0
  0
LINE
  5
357
330
352
100
AcDbEntity
  8
LC-002-002-----0
 62
     7
370
    25
100
AcDbLine
 10
1390.126626
 20
1966.824773
 30
0.0
 11
1390.126626
 21
1966.824773
 31
0.0
  0
LINE
  5
358
330
352
100
AcDbEntity
  8
LC-002-002-----0
 62
     7
370
    25
100
AcDbLine
 10
1390.126626
 20
1966.824773
 30
0.0
 11
1390.300171
 21
1967.306131
 31
0.0
  0
LINE
  5
359
330
352
100
AcDbEntity
  8
LC-002-002-----0
 62
     7
370
    25
100
AcDbLine
 10
1390.300171
 20
1967.306131
 30
0.0
 11
1390.300171
 21
1967.306131
 31
0.0
  0
LINE
  5
35A
330
352
100
AcDbEntity
  8
LC-002-002-----0
 62
     7
370
    25
100
AcDbLine
 10
1390.300171
 20
1967.306131
 30
0.0
 11
1390.576307
 21
1967.719698
 31
0.0
  0
LINE
  5
35B
330
352
100
AcDbEntity
  8
LC-002-002-----0
 62
     7
370
    25
100
AcDbLine
 10
1390.576307
 20
1967.719698
 30
0.0
 11
1390.576307
 21
1967.719698
 31
0.0
  0
LINE
  5
35C
330
352
100
AcDbEntity
  8
LC-002-002-----0
 62
     7
370
    25
100
AcDbLine
 10
1390.576307
 20
1967.719698
 30
0.0
 11
1390.937652
 21
1968.038644
 31
0.0
  0
LINE
  5
35D
330
352
100
AcDbEntity
  8
LC-002-002-----0
 62
     7
370
    25
100
AcDbLine
 10
1390.937652
 20
1968.038644
 30
0.0
 11
1390.937652
 21
1968.038644
 31
0.0
  0
LINE
  5
35E
330
352
100
AcDbEntity
  8
LC-002-002-----0
 62
     7
370
    25
100
AcDbLine
 10
1390.937652
 20
1968.038644
 30
0.0
 11
1391.361039
 21
1968.240607
 31
0.0
  0
LINE
  5
35F
330
352
100
AcDbEntity
  8
LC-002-002-----0
 62
     7
370
    25
100
AcDbLine
 10
1391.361039
 20
1968.240607
 30
0.0
 11
1391.361039
 21
1968.240607
 31
0.0
  0
LINE
  5
360
330
352
100
AcDbEntity
  8
LC-002-002-----0
 62
     7
370
    25
100
AcDbLine
 10
1391.361039
 20
1968.240607
 30
0.0
 11
1391.818521
 21
1968.31
 31
0.0
  0
ENDBLK
  5
354
330
352
100
AcDbEntity
  8
0
100
AcDbBlockEnd
  0
BLOCK
  5
36E
330
364
100
AcDbEntity
  8
0
100
AcDbBlockBegin
  2
*D20
 70
     1
 71
     0
 10
0.0
 20
0.0
 30
0.0
  3
*D20
  1

  0
LINE
  5
365
330
364
100
AcDbEntity
  8
LC-006-003-----0
 62
     2
370
    -2
100
AcDbLine
 10
1675.937266
 20
1578.31
 30
0.0
 11
1675.937266
 21
1493.73
 31
0.0
  0
LINE
  5
366
330
364
100
AcDbEntity
  8
LC-006-003-----0
 62
     2
370
    -2
100
AcDbLine
 10
1385.575375
 20
1854.31
 30
0.0
 11
1385.575375
 21
1493.73
 31
0.0
  0
LINE
  5
367
330
364
100
AcDbEntity
  8
LC-006-003-----0
 62
     2
370
    -2
100
AcDbLine
 10
1650.937266
 20
1511.73
 30
0.0
 11
1410.575375
 21
1511.73
 31
0.0
  0
SOLID
  5
368
330
364
100
AcDbEntity
  8
LC-006-003-----0
 62
     2
100
AcDbTrace
 10
1650.937266
 20
1507.563333
 30
0.0
 11
1650.937266
 21
1515.896667
 31
0.0
 12
1675.937266
 22
1511.73
 32
0.0
 13
1675.937266
 23
1511.73
 33
0.0
  0
SOLID
  5
369
330
364
100
AcDbEntity
  8
LC-006-003-----0
 62
     2
100
AcDbTrace
 10
1410.575375
 20
1515.896667
 30
0.0
 11
1410.575375
 21
1507.563333
 31
0.0
 12
1385.575375
 22
1511.73
 32
0.0
 13
1385.575375
 23
1511.73
 33
0.0
  0
MTEXT
  5
36A
330
364
100
AcDbEntity
  8
LC-006-003-----0
 62
     2
100
AcDbMText
 10
1535.294232
 20
1541.73
 30
0.0
 40
25.0
 41
0.0
 71
     5
 72
     1
  1
\A1;290
  7
LCTX0-400-0-0pDIN-Schrift
 73
     1
 44
1.0
  0
POINT
  5
36B
330
364
100
AcDbEntity
  8
Defpoints
 62
     0
100
AcDbPoint
 10
1675.937266
 20
1578.31
 30
0.0
  0
POINT
  5
36C
330
364
100
AcDbEntity
  8
Defpoints
 62
     0
100
AcDbPoint
 10
1385.575375
 20
1854.31
 30
0.0
  0
POINT
  5
36D
330
364
100
AcDbEntity
  8
Defpoints
 62
     0
100
AcDbPoint
 10
1385.575375
 20
1511.73
 30
0.0
  0
ENDBLK
  5
36F
330
364
100
AcDbEntity
  8
0
100
AcDbBlockEnd
  0
BLOCK
  5
3C3
330
3C2
100
AcDbEntity
  8
0
100
AcDbBlockBegin
  2
KLON1
 70
     0
 71
     0
 10
0.0
 20
0.0
 30
0.0
  3
KLON1
  1

  4
KLON1
  0
LINE
  5
3C5
330
3C2
100
AcDbEntity
  8
LC-008-100-D00-0
 62
    40
370
    50
100
AcDbLine
 10
1682.937266
 20
1627.31
 30
0.0
 11
1682.937266
 21
1627.538538
 31
0.0
  0
LINE
  5
3C6
330
3C2
100
AcDbEntity
  8
LC-008-100-D00-0
 62
    40
370
    50
100
AcDbLine
 10
1682.937266
 20
1627.538538
 30
0.0
 11
1682.937266
 21
1628.215448
 31
0.0
  0
LINE
  5
3C7
330
3C2
100
AcDbEntity
  8
LC-008-100-D00-0
 62
    40
370
    50
100
AcDbLine
 10
1682.937266
 20
1628.215448
 30
0.0
 11
1682.937266
 21
1629.314945
 31
0.0
  0
LINE
  5
3C8
330
3C2
100
AcDbEntity
  8
LC-008-100-D00-0
 62
    40
370
    50
100
AcDbLine
 10
1682.937266
 20
1629.314945
 30
0.0
 11
1682.937266
 21
1630.824719
 31
0.0
  0
LINE
  5
3C9
330
3C2
100
AcDbEntity
  8
LC-008-100-D00-0
 62
    40
370
    50
100
AcDbLine
 10
1682.937266
 20
1630.824719
 30
0.0
 11
1682.937266
 21
1632.634453
 31
0.0
  0
LINE
  5
3CA
330
3C2
100
AcDbEntity
  8
LC-008-100-D00-0
 62
    40
370
    50
100
AcDbLine
 10
1682.937266
 20
1632.634453
 30
0.0
 11
1682.937266
 21
1634.698456
 31
0.0
  0
LINE
  5
3CB
330
3C2
100
AcDbEntity
  8
LC-008-100-D00-0
 62
    40
370
    50
100
AcDbLine
 10
1682.937266
 20
1634.698456
 30
0.0
 11
1682.937266
 21
1636.938112
 31
0.0
  0
LINE
  5
3CC
330
3C2
100
AcDbEntity
  8
LC-008-100-D00-0
 62
    40
370
    50
100
AcDbLine
 10
1682.937266
 20
1636.938112
 30
0.0
 11
1682.937266
 21
1639.31
 31
0.0
  0
ENDBLK
  5
3C4
330
3C2
100
AcDbEntity
  8
0
100
AcDbBlockEnd
  0
BLOCK
  5
3DB
330
3D1
100
AcDbEntity
  8
0
100
AcDbBlockBegin
  2
*D22
 70
     1
 71
     0
 10
0.0
 20
0.0
 30
0.0
  3
*D22
  1

  0
LINE
  5
3D2
330
3D1
100
AcDbEntity
  8
LC-006-003-----0
 62
     2
370
    -2
100
AcDbLine
 10
802.432193
 20
2118.31
 30
0.0
 11
802.432193
 21
2195.71
 31
0.0
  0
LINE
  5
3D3
330
3D1
100
AcDbEntity
  8
LC-006-003-----0
 62
     2
370
    -2
100
AcDbLine
 10
902.432193
 20
2118.31
 30
0.0
 11
902.432193
 21
2195.71
 31
0.0
  0
LINE
  5
3D4
330
3D1
100
AcDbEntity
  8
LC-006-003-----0
 62
     2
370
    -2
100
AcDbLine
 10
827.432193
 20
2177.71
 30
0.0
 11
877.432193
 21
2177.71
 31
0.0
  0
SOLID
  5
3D5
330
3D1
100
AcDbEntity
  8
LC-006-003-----0
 62
     2
100
AcDbTrace
 10
827.432193
 20
2181.876667
 30
0.0
 11
827.432193
 21
2173.543333
 31
0.0
 12
802.432193
 22
2177.71
 32
0.0
 13
802.432193
 23
2177.71
 33
0.0
  0
SOLID
  5
3D6
330
3D1
100
AcDbEntity
  8
LC-006-003-----0
 62
     2
100
AcDbTrace
 10
877.432193
 20
2173.543333
 30
0.0
 11
877.432193
 21
2181.876667
 31
0.0
 12
902.432193
 22
2177.71
 32
0.0
 13
902.432193
 23
2177.71
 33
0.0
  0
MTEXT
  5
3D7
330
3D1
100
AcDbEntity
  8
LC-006-003-----0
 62
     2
100
AcDbMText
 10
852.432193
 20
2207.71
 30
0.0
 40
25.0
 41
0.0
 71
     5
 72
     1
  1
\A1;100
  7
LCTX0-400-0-0pDIN-Schrift
 73
     1
 44
1.0
  0
POINT
  5
3D8
330
3D1
100
AcDbEntity
  8
Defpoints
 62
     0
100
AcDbPoint
 10
802.432193
 20
2118.31
 30
0.0
  0
POINT
  5
3D9
330
3D1
100
AcDbEntity
  8
Defpoints
 62
     0
100
AcDbPoint
 10
902.432193
 20
2118.31
 30
0.0
  0
POINT
  5
3DA
330
3D1
100
AcDbEntity
  8
Defpoints
 62
     0
100
AcDbPoint
 10
902.432193
 20
2177.71
 30
0.0
  0
ENDBLK
  5
3DC
330
3D1
100
AcDbEntity
  8
0
100
AcDbBlockEnd
  0
BLOCK
  5
3E8
330
3DE
100
AcDbEntity
  8
0
100
AcDbBlockBegin
  2
*D23
 70
     1
 71
     0
 10
0.0
 20
0.0
 30
0.0
  3
*D23
  1

  0
LINE
  5
3DF
330
3DE
100
AcDbEntity
  8
LC-006-003-----0
 62
     2
370
    -2
100
AcDbLine
 10
902.432193
 20
2118.31
 30
0.0
 11
902.432193
 21
2195.71
 31
0.0
  0
LINE
  5
3E0
330
3DE
100
AcDbEntity
  8
LC-006-003-----0
 62
     2
370
    -2
100
AcDbLine
 10
1002.432193
 20
2118.31
 30
0.0
 11
1002.432193
 21
2195.71
 31
0.0
  0
LINE
  5
3E1
330
3DE
100
AcDbEntity
  8
LC-006-003-----0
 62
     2
370
    -2
100
AcDbLine
 10
927.432193
 20
2177.71
 30
0.0
 11
977.432193
 21
2177.71
 31
0.0
  0
SOLID
  5
3E2
330
3DE
100
AcDbEntity
  8
LC-006-003-----0
 62
     2
100
AcDbTrace
 10
927.432193
 20
2181.876667
 30
0.0
 11
927.432193
 21
2173.543333
 31
0.0
 12
902.432193
 22
2177.71
 32
0.0
 13
902.432193
 23
2177.71
 33
0.0
  0
SOLID
  5
3E3
330
3DE
100
AcDbEntity
  8
LC-006-003-----0
 62
     2
100
AcDbTrace
 10
977.432193
 20
2173.543333
 30
0.0
 11
977.432193
 21
2181.876667
 31
0.0
 12
1002.432193
 22
2177.71
 32
0.0
 13
1002.432193
 23
2177.71
 33
0.0
  0
MTEXT
  5
3E4
330
3DE
100
AcDbEntity
  8
LC-006-003-----0
 62
     2
100
AcDbMText
 10
952.432193
 20
2207.71
 30
0.0
 40
25.0
 41
0.0
 71
     5
 72
     1
  1
\A1;100
  7
LCTX0-400-0-0pDIN-Schrift
 73
     1
 44
1.0
  0
POINT
  5
3E5
330
3DE
100
AcDbEntity
  8
Defpoints
 62
     0
100
AcDbPoint
 10
902.432193
 20
2118.31
 30
0.0
  0
POINT
  5
3E6
330
3DE
100
AcDbEntity
  8
Defpoints
 62
     0
100
AcDbPoint
 10
1002.432193
 20
2118.31
 30
0.0
  0
POINT
  5
3E7
330
3DE
100
AcDbEntity
  8
Defpoints
 62
     0
100
AcDbPoint
 10
1002.432193
 20
2177.71
 30
0.0
  0
ENDBLK
  5
3E9
330
3DE
100
AcDbEntity
  8
0
100
AcDbBlockEnd
  0
BLOCK
  5
3F7
330
3EB
100
AcDbEntity
  8
0
100
AcDbBlockBegin
  2
*D24
 70
     1
 71
     0
 10
0.0
 20
0.0
 30
0.0
  3
*D24
  1

  0
LINE
  5
3EC
330
3EB
100
AcDbEntity
  8
LC-006-003-----0
 62
     2
370
    -2
100
AcDbLine
 10
1095.432193
 20
2108.31
 30
0.0
 11
1218.0
 21
2108.31
 31
0.0
  0
LINE
  5
3ED
330
3EB
100
AcDbEntity
  8
LC-006-003-----0
 62
     2
370
    -2
100
AcDbLine
 10
1098.432193
 20
2041.81
 30
0.0
 11
1218.0
 21
2041.81
 31
0.0
  0
LINE
  5
3EE
330
3EB
100
AcDbEntity
  8
LC-006-003-----0
 62
     2
370
    -2
100
AcDbLine
 10
1200.0
 20
2016.81
 30
0.0
 11
1200.0
 21
1991.81
 31
0.0
  0
LINE
  5
3EF
330
3EB
100
AcDbEntity
  8
LC-006-003-----0
 62
     2
370
    -2
100
AcDbLine
 10
1200.0
 20
2133.31
 30
0.0
 11
1200.0
 21
2195.220964
 31
0.0
  0
LINE
  5
3F0
330
3EB
100
AcDbEntity
  8
LC-006-003-----0
 62
     2
370
    -2
100
AcDbLine
 10
1200.0
 20
2108.31
 30
0.0
 11
1200.0
 21
2041.81
 31
0.0
  0
SOLID
  5
3F1
330
3EB
100
AcDbEntity
  8
LC-006-003-----0
 62
     2
100
AcDbTrace
 10
1195.833333
 20
2133.31
 30
0.0
 11
1204.166667
 21
2133.31
 31
0.0
 12
1200.0
 22
2108.31
 32
0.0
 13
1200.0
 23
2108.31
 33
0.0
  0
SOLID
  5
3F2
330
3EB
100
AcDbEntity
  8
LC-006-003-----0
 62
     2
100
AcDbTrace
 10
1204.166667
 20
2016.81
 30
0.0
 11
1195.833333
 21
2016.81
 31
0.0
 12
1200.0
 22
2041.81
 32
0.0
 13
1200.0
 23
2041.81
 33
0.0
  0
MTEXT
  5
3F3
330
3EB
100
AcDbEntity
  8
LC-006-003-----0
 62
     2
100
AcDbMText
 10
1170.0
 20
2150.220965
 30
0.0
 40
25.0
 41
0.0
 71
     5
 72
     1
  1
\A1;66,5
  7
LCTX0-400-0-0pDIN-Schrift
 11
6.123031769111886E-17
 21
1.0
 31
0.0
 73
     1
 44
1.0
  0
POINT
  5
3F4
330
3EB
100
AcDbEntity
  8
Defpoints
 62
     0
100
AcDbPoint
 10
1095.432193
 20
2108.31
 30
0.0
  0
POINT
  5
3F5
330
3EB
100
AcDbEntity
  8
Defpoints
 62
     0
100
AcDbPoint
 10
1098.432193
 20
2041.81
 30
0.0
  0
POINT
  5
3F6
330
3EB
100
AcDbEntity
  8
Defpoints
 62
     0
100
AcDbPoint
 10
1200.0
 20
2041.81
 30
0.0
  0
ENDBLK
  5
3F8
330
3EB
100
AcDbEntity
  8
0
100
AcDbBlockEnd
  0
BLOCK
  5
409
330
3FF
100
AcDbEntity
  8
0
100
AcDbBlockBegin
  2
*D25
 70
     1
 71
     0
 10
0.0
 20
0.0
 30
0.0
  3
*D25
  1

  0
LINE
  5
400
330
3FF
100
AcDbEntity
  8
LC-006-003-----0
 62
     2
370
    -2
100
AcDbLine
 10
884.723536
 20
1086.106895
 30
0.0
 11
884.723536
 21
972.443606
 31
0.0
  0
LINE
  5
401
330
3FF
100
AcDbEntity
  8
LC-006-003-----0
 62
     2
370
    -2
100
AcDbLine
 10
1156.223536
 20
1086.106895
 30
0.0
 11
1156.223536
 21
972.443606
 31
0.0
  0
LINE
  5
402
330
3FF
100
AcDbEntity
  8
LC-006-003-----0
 62
     2
370
    -2
100
AcDbLine
 10
909.723536
 20
990.443606
 30
0.0
 11
1131.223536
 21
990.443606
 31
0.0
  0
SOLID
  5
403
330
3FF
100
AcDbEntity
  8
LC-006-003-----0
 62
     2
100
AcDbTrace
 10
909.723536
 20
994.610273
 30
0.0
 11
909.723536
 21
986.276939
 31
0.0
 12
884.723536
 22
990.443606
 32
0.0
 13
884.723536
 23
990.443606
 33
0.0
  0
SOLID
  5
404
330
3FF
100
AcDbEntity
  8
LC-006-003-----0
 62
     2
100
AcDbTrace
 10
1131.223536
 20
986.276939
 30
0.0
 11
1131.223536
 21
994.610273
 31
0.0
 12
1156.223536
 22
990.443606
 32
0.0
 13
1156.223536
 23
990.443606
 33
0.0
  0
MTEXT
  5
405
330
3FF
100
AcDbEntity
  8
LC-006-003-----0
 62
     2
100
AcDbMText
 10
1020.473536
 20
1020.443606
 30
0.0
 40
25.0
 41
0.0
 71
     5
 72
     1
  1
\A1;543
  7
LCTX0-400-0-0pDIN-Schrift
 73
     1
 44
1.0
  0
POINT
  5
406
330
3FF
100
AcDbEntity
  8
Defpoints
 62
     0
100
AcDbPoint
 10
884.723536
 20
1086.106895
 30
0.0
  0
POINT
  5
407
330
3FF
100
AcDbEntity
  8
Defpoints
 62
     0
100
AcDbPoint
 10
1156.223536
 20
1086.106895
 30
0.0
  0
POINT
  5
408
330
3FF
100
AcDbEntity
  8
Defpoints
 62
     0
100
AcDbPoint
 10
1156.223536
 20
990.443606
 30
0.0
  0
ENDBLK
  5
40A
330
3FF
100
AcDbEntity
  8
0
100
AcDbBlockEnd
  0
BLOCK
  5
416
330
40C
100
AcDbEntity
  8
0
100
AcDbBlockBegin
  2
*D26
 70
     1
 71
     0
 10
0.0
 20
0.0
 30
0.0
  3
*D26
  1

  0
LINE
  5
40D
330
40C
100
AcDbEntity
  8
LC-006-003-----0
 62
     2
370
    -2
100
AcDbLine
 10
1148.723536
 20
1078.606895
 30
0.0
 11
1253.416648
 21
1078.606895
 31
0.0
  0
LINE
  5
40E
330
40C
100
AcDbEntity
  8
LC-006-003-----0
 62
     2
370
    -2
100
AcDbLine
 10
1148.723536
 20
1320.106895
 30
0.0
 11
1253.416648
 21
1320.106895
 31
0.0
  0
LINE
  5
40F
330
40C
100
AcDbEntity
  8
LC-006-003-----0
 62
     2
370
    -2
100
AcDbLine
 10
1235.416648
 20
1103.606895
 30
0.0
 11
1235.416648
 21
1295.106895
 31
0.0
  0
SOLID
  5
410
330
40C
100
AcDbEntity
  8
LC-006-003-----0
 62
     2
100
AcDbTrace
 10
1231.249981
 20
1103.606895
 30
0.0
 11
1239.583315
 21
1103.606895
 31
0.0
 12
1235.416648
 22
1078.606895
 32
0.0
 13
1235.416648
 23
1078.606895
 33
0.0
  0
SOLID
  5
411
330
40C
100
AcDbEntity
  8
LC-006-003-----0
 62
     2
100
AcDbTrace
 10
1239.583315
 20
1295.106895
 30
0.0
 11
1231.249981
 21
1295.106895
 31
0.0
 12
1235.416648
 22
1320.106895
 32
0.0
 13
1235.416648
 23
1320.106895
 33
0.0
  0
MTEXT
  5
412
330
40C
100
AcDbEntity
  8
LC-006-003-----0
 62
     2
100
AcDbMText
 10
1205.416648
 20
1199.356895
 30
0.0
 40
25.0
 41
0.0
 71
     5
 72
     1
  1
\A1;483
  7
LCTX0-400-0-0pDIN-Schrift
 11
6.123031769111886E-17
 21
1.0
 31
0.0
 73
     1
 44
1.0
  0
POINT
  5
413
330
40C
100
AcDbEntity
  8
Defpoints
 62
     0
100
AcDbPoint
 10
1148.723536
 20
1078.606895
 30
0.0
  0
POINT
  5
414
330
40C
100
AcDbEntity
  8
Defpoints
 62
     0
100
AcDbPoint
 10
1148.723536
 20
1320.106895
 30
0.0
  0
POINT
  5
415
330
40C
100
AcDbEntity
  8
Defpoints
 62
     0
100
AcDbPoint
 10
1235.416648
 20
1320.106895
 30
0.0
  0
ENDBLK
  5
417
330
40C
100
AcDbEntity
  8
0
100
AcDbBlockEnd
  0
BLOCK
  5
420
330
41A
100
AcDbEntity
  8
0
100
AcDbBlockBegin
  2
*D27
 70
     1
 71
     0
 10
0.0
 20
0.0
 30
0.0
  3
*D27
  1

  0
LINE
  5
41B
330
41A
100
AcDbEntity
  8
LC-006-003-----0
 62
     2
370
    -2
100
AcDbLine
 10
893.977995
 20
1309.984755
 30
0.0
 11
882.491849
 21
1327.151457
 31
0.0
  0
MTEXT
  5
41C
330
41A
100
AcDbEntity
  8
LC-006-003-----0
 62
     2
100
AcDbMText
 10
932.982175
 20
1287.094858
 30
0.0
 40
25.0
 41
0.0
 71
     5
 72
     1
  1
\A1;R15
  7
LCTX0-400-0-0pDIN-Schrift
 11
0.5560964024572712
 21
-0.8311177962082634
 31
0.0
 73
     1
 44
1.0
  0
SOLID
  5
41D
330
41A
100
AcDbEntity
  8
LC-006-003-----0
 62
     2
100
AcDbTrace
 10
913.75966
 20
1287.912635
 30
0.0
 11
906.833678
 21
1283.278498
 31
0.0
 12
896.394259
 22
1306.373512
 32
0.0
 13
896.394259
 23
1306.373512
 33
0.0
  0
POINT
  5
41E
330
41A
100
AcDbEntity
  8
Defpoints
 62
     0
100
AcDbPoint
 10
896.394259
 20
1306.373512
 30
0.0
  0
POINT
  5
41F
330
41A
100
AcDbEntity
  8
Defpoints
 62
     0
100
AcDbPoint
 10
892.223536
 20
1312.606895
 30
0.0
  0
ENDBLK
  5
421
330
41A
100
AcDbEntity
  8
0
100
AcDbBlockEnd
  0
BLOCK
  5
429
330
423
100
AcDbEntity
  8
0
100
AcDbBlockBegin
  2
*D28
 70
     1
 71
     0
 10
0.0
 20
0.0
 30
0.0
  3
*D28
  1

  0
LINE
  5
424
330
423
100
AcDbEntity
  8
LC-006-003-----0
 62
     2
370
    -2
100
AcDbLine
 10
280.808691
 20
1315.181403
 30
0.0
 11
268.851356
 21
1333.643667
 31
0.0
  0
MTEXT
  5
425
330
423
100
AcDbEntity
  8
LC-006-003-----0
 62
     2
100
AcDbMText
 10
319.629759
 20
1291.816811
 30
0.0
 40
25.0
 41
0.0
 71
     5
 72
     1
  1
\A1;R10
  7
LCTX0-400-0-0pDIN-Schrift
 11
0.5436090107674815
 21
-0.8393385749579251
 31
0.0
 73
     1
 44
1.0
  0
SOLID
  5
426
330
423
100
AcDbEntity
  8
LC-006-003-----0
 62
     2
100
AcDbTrace
 10
299.52905
 20
1293.941775
 30
0.0
 11
292.534562
 21
1289.4117
 31
0.0
 12
282.441581
 22
1312.660202
 32
0.0
 13
282.441581
 23
1312.660202
 33
0.0
  0
POINT
  5
427
330
423
100
AcDbEntity
  8
Defpoints
 62
     0
100
AcDbPoint
 10
282.441581
 20
1312.660202
 30
0.0
  0
POINT
  5
428
330
423
100
AcDbEntity
  8
Defpoints
 62
     0
100
AcDbPoint
 10
279.723536
 20
1316.856895
 30
0.0
  0
ENDBLK
  5
42A
330
423
100
AcDbEntity
  8
0
100
AcDbBlockEnd
  0
BLOCK
  5
436
330
42C
100
AcDbEntity
  8
0
100
AcDbBlockBegin
  2
*D29
 70
     1
 71
     0
 10
0.0
 20
0.0
 30
0.0
  3
*D29
  1

  0
LINE
  5
42D
330
42C
100
AcDbEntity
  8
LC-006-003-----0
 62
     2
370
    -2
100
AcDbLine
 10
545.432193
 20
2681.72
 30
0.0
 11
545.432193
 21
2792.25
 31
0.0
  0
LINE
  5
42E
330
42C
100
AcDbEntity
  8
LC-006-003-----0
 62
     2
370
    -2
100
AcDbLine
 10
1059.432193
 20
2681.72
 30
0.0
 11
1059.432193
 21
2792.25
 31
0.0
  0
LINE
  5
42F
330
42C
100
AcDbEntity
  8
LC-006-003-----0
 62
     2
370
    -2
100
AcDbLine
 10
570.432193
 20
2774.25
 30
0.0
 11
1034.432193
 21
2774.25
 31
0.0
  0
SOLID
  5
430
330
42C
100
AcDbEntity
  8
LC-006-003-----0
 62
     2
100
AcDbTrace
 10
570.432193
 20
2778.416667
 30
0.0
 11
570.432193
 21
2770.083333
 31
0.0
 12
545.432193
 22
2774.25
 32
0.0
 13
545.432193
 23
2774.25
 33
0.0
  0
SOLID
  5
431
330
42C
100
AcDbEntity
  8
LC-006-003-----0
 62
     2
100
AcDbTrace
 10
1034.432193
 20
2770.083333
 30
0.0
 11
1034.432193
 21
2778.416667
 31
0.0
 12
1059.432193
 22
2774.25
 32
0.0
 13
1059.432193
 23
2774.25
 33
0.0
  0
MTEXT
  5
432
330
42C
100
AcDbEntity
  8
LC-006-003-----0
 62
     2
100
AcDbMText
 10
802.432193
 20
2804.25
 30
0.0
 40
25.0
 41
0.0
 71
     5
 72
     1
  1
\A1;514
  7
LCTX0-400-0-0pDIN-Schrift
 73
     1
 44
1.0
  0
POINT
  5
433
330
42C
100
AcDbEntity
  8
Defpoints
 62
     0
100
AcDbPoint
 10
545.432193
 20
2681.72
 30
0.0
  0
POINT
  5
434
330
42C
100
AcDbEntity
  8
Defpoints
 62
     0
100
AcDbPoint
 10
1059.432193
 20
2681.72
 30
0.0
  0
POINT
  5
435
330
42C
100
AcDbEntity
  8
Defpoints
 62
     0
100
AcDbPoint
 10
1059.432193
 20
2774.25
 30
0.0
  0
ENDBLK
  5
437
330
42C
100
AcDbEntity
  8
0
100
AcDbBlockEnd
  0
BLOCK
  5
45C
330
452
100
AcDbEntity
  8
0
100
AcDbBlockBegin
  2
*D30
 70
     1
 71
     0
 10
0.0
 20
0.0
 30
0.0
  3
*D30
  1

  0
LINE
  5
453
330
452
100
AcDbEntity
  8
LC-006-003-----0
 62
     2
370
    -2
100
AcDbLine
 10
702.432193
 20
2118.31
 30
0.0
 11
702.432193
 21
2195.71
 31
0.0
  0
LINE
  5
454
330
452
100
AcDbEntity
  8
LC-006-003-----0
 62
     2
370
    -2
100
AcDbLine
 10
802.432193
 20
2118.31
 30
0.0
 11
802.432193
 21
2195.71
 31
0.0
  0
LINE
  5
455
330
452
100
AcDbEntity
  8
LC-006-003-----0
 62
     2
370
    -2
100
AcDbLine
 10
727.432193
 20
2177.71
 30
0.0
 11
777.432193
 21
2177.71
 31
0.0
  0
SOLID
  5
456
330
452
100
AcDbEntity
  8
LC-006-003-----0
 62
     2
100
AcDbTrace
 10
727.432193
 20
2181.876667
 30
0.0
 11
727.432193
 21
2173.543333
 31
0.0
 12
702.432193
 22
2177.71
 32
0.0
 13
702.432193
 23
2177.71
 33
0.0
  0
SOLID
  5
457
330
452
100
AcDbEntity
  8
LC-006-003-----0
 62
     2
100
AcDbTrace
 10
777.432193
 20
2173.543333
 30
0.0
 11
777.432193
 21
2181.876667
 31
0.0
 12
802.432193
 22
2177.71
 32
0.0
 13
802.432193
 23
2177.71
 33
0.0
  0
MTEXT
  5
458
330
452
100
AcDbEntity
  8
LC-006-003-----0
 62
     2
100
AcDbMText
 10
752.432193
 20
2207.71
 30
0.0
 40
25.0
 41
0.0
 71
     5
 72
     1
  1
\A1;100
  7
LCTX0-400-0-0pDIN-Schrift
 73
     1
 44
1.0
  0
POINT
  5
459
330
452
100
AcDbEntity
  8
Defpoints
 62
     0
100
AcDbPoint
 10
702.432193
 20
2118.31
 30
0.0
  0
POINT
  5
45A
330
452
100
AcDbEntity
  8
Defpoints
 62
     0
100
AcDbPoint
 10
802.432193
 20
2118.31
 30
0.0
  0
POINT
  5
45B
330
452
100
AcDbEntity
  8
Defpoints
 62
     0
100
AcDbPoint
 10
802.432193
 20
2177.71
 30
0.0
  0
ENDBLK
  5
45D
330
452
100
AcDbEntity
  8
0
100
AcDbBlockEnd
  0
BLOCK
  5
469
330
45F
100
AcDbEntity
  8
0
100
AcDbBlockBegin
  2
*D31
 70
     1
 71
     0
 10
0.0
 20
0.0
 30
0.0
  3
*D31
  1

  0
LINE
  5
460
330
45F
100
AcDbEntity
  8
LC-006-003-----0
 62
     2
370
    -2
100
AcDbLine
 10
602.432193
 20
2118.31
 30
0.0
 11
602.432193
 21
2195.71
 31
0.0
  0
LINE
  5
461
330
45F
100
AcDbEntity
  8
LC-006-003-----0
 62
     2
370
    -2
100
AcDbLine
 10
702.432193
 20
2118.31
 30
0.0
 11
702.432193
 21
2195.71
 31
0.0
  0
LINE
  5
462
330
45F
100
AcDbEntity
  8
LC-006-003-----0
 62
     2
370
    -2
100
AcDbLine
 10
627.432193
 20
2177.71
 30
0.0
 11
677.432193
 21
2177.71
 31
0.0
  0
SOLID
  5
463
330
45F
100
AcDbEntity
  8
LC-006-003-----0
 62
     2
100
AcDbTrace
 10
627.432193
 20
2181.876667
 30
0.0
 11
627.432193
 21
2173.543333
 31
0.0
 12
602.432193
 22
2177.71
 32
0.0
 13
602.432193
 23
2177.71
 33
0.0
  0
SOLID
  5
464
330
45F
100
AcDbEntity
  8
LC-006-003-----0
 62
     2
100
AcDbTrace
 10
677.432193
 20
2173.543333
 30
0.0
 11
677.432193
 21
2181.876667
 31
0.0
 12
702.432193
 22
2177.71
 32
0.0
 13
702.432193
 23
2177.71
 33
0.0
  0
MTEXT
  5
465
330
45F
100
AcDbEntity
  8
LC-006-003-----0
 62
     2
100
AcDbMText
 10
652.432193
 20
2207.71
 30
0.0
 40
25.0
 41
0.0
 71
     5
 72
     1
  1
\A1;100
  7
LCTX0-400-0-0pDIN-Schrift
 73
     1
 44
1.0
  0
POINT
  5
466
330
45F
100
AcDbEntity
  8
Defpoints
 62
     0
100
AcDbPoint
 10
602.432193
 20
2118.31
 30
0.0
  0
POINT
  5
467
330
45F
100
AcDbEntity
  8
Defpoints
 62
     0
100
AcDbPoint
 10
702.432193
 20
2118.31
 30
0.0
  0
POINT
  5
468
330
45F
100
AcDbEntity
  8
Defpoints
 62
     0
100
AcDbPoint
 10
702.432193
 20
2177.71
 30
0.0
  0
ENDBLK
  5
46A
330
45F
100
AcDbEntity
  8
0
100
AcDbBlockEnd
  0
BLOCK
  5
4A0
330
49F
100
AcDbEntity
  8
0
100
AcDbBlockBegin
  2
*X132
 70
     1
 71
     0
 10
0.0
 20
0.0
 30
0.0
  3
*X132
  1

  4
*X1
  0
LINE
  5
4A3
330
49F
100
AcDbEntity
  8
LC-009-005-----0
 62
     7
370
    25
100
AcDbLine
 10
1127.653624
 20
2626.72
 30
0.0
 11
1148.410111
 21
2647.476487
 31
0.0
  0
LINE
  5
4A4
330
49F
100
AcDbEntity
  8
LC-009-005-----0
 62
     7
370
    25
100
AcDbLine
 10
1099.369353
 20
2626.72
 30
0.0
 11
1137.369353
 21
2664.72
 31
0.0
  0
LINE
  5
4A5
330
49F
100
AcDbEntity
  8
LC-009-005-----0
 62
     7
370
    25
100
AcDbLine
 10
1077.432193
 20
2633.067112
 30
0.0
 11
1109.085081
 21
2664.72
 31
0.0
  0
LINE
  5
4A6
330
49F
100
AcDbEntity
  8
LC-009-005-----0
 62
     7
370
    25
100
AcDbLine
 10
1077.432193
 20
2661.351383
 30
0.0
 11
1080.80081
 21
2664.72
 31
0.0
  0
LINE
  5
4A7
330
49F
100
AcDbEntity
  8
LC-009-005-----0
 62
     7
370
    25
100
AcDbLine
 10
505.399656
 20
2626.72
 30
0.0
 11
527.432193
 21
2648.752537
 31
0.0
  0
LINE
  5
4A8
330
49F
100
AcDbEntity
  8
LC-009-005-----0
 62
     7
370
    25
100
AcDbLine
 10
477.115385
 20
2626.72
 30
0.0
 11
515.115385
 21
2664.72
 31
0.0
  0
LINE
  5
4A9
330
49F
100
AcDbEntity
  8
LC-009-005-----0
 62
     7
370
    25
100
AcDbLine
 10
456.454276
 20
2634.343162
 30
0.0
 11
486.831114
 21
2664.72
 31
0.0
  0
LINE
  5
4AA
330
49F
100
AcDbEntity
  8
LC-009-005-----0
 62
     7
370
    25
100
AcDbLine
 10
456.454276
 20
2662.627434
 30
0.0
 11
458.546843
 21
2664.72
 31
0.0
  0
ENDBLK
  5
4A1
330
49F
100
AcDbEntity
  8
0
100
AcDbBlockEnd
  0
BLOCK
  5
4AD
330
4AC
100
AcDbEntity
  8
0
100
AcDbBlockBegin
  2
*X233
 70
     1
 71
     0
 10
0.0
 20
0.0
 30
0.0
  3
*X233
  1

  4
*X2
  0
LINE
  5
4AF
330
4AC
100
AcDbEntity
  8
LC-009-005-----0
 62
     7
370
    25
100
AcDbLine
 10
502.432193
 20
2495.700559
 30
0.0
 11
521.432193
 21
2476.700559
 31
0.0
  0
LINE
  5
4B0
330
4AC
100
AcDbEntity
  8
LC-009-005-----0
 62
     7
370
    25
100
AcDbLine
 10
502.432193
 20
2523.98483
 30
0.0
 11
521.432193
 21
2504.98483
 31
0.0
  0
LINE
  5
4B1
330
4AC
100
AcDbEntity
  8
LC-009-005-----0
 62
     7
370
    25
100
AcDbLine
 10
502.432193
 20
2552.269101
 30
0.0
 11
521.432193
 21
2533.269101
 31
0.0
  0
LINE
  5
4B2
330
4AC
100
AcDbEntity
  8
LC-009-005-----0
 62
     7
370
    25
100
AcDbLine
 10
502.432193
 20
2580.553373
 30
0.0
 11
521.432193
 21
2561.553373
 31
0.0
  0
LINE
  5
4B3
330
4AC
100
AcDbEntity
  8
LC-009-005-----0
 62
     7
370
    25
100
AcDbLine
 10
502.432193
 20
2608.837644
 30
0.0
 11
521.432193
 21
2589.837644
 31
0.0
  0
LINE
  5
4B4
330
4AC
100
AcDbEntity
  8
LC-009-005-----0
 62
     7
370
    25
100
AcDbLine
 10
512.834108
 20
2626.72
 30
0.0
 11
521.432193
 21
2618.121915
 31
0.0
  0
LINE
  5
4B5
330
4AC
100
AcDbEntity
  8
LC-009-005-----0
 62
     7
370
    25
100
AcDbLine
 10
1083.432193
 20
2480.385984
 30
0.0
 11
1087.153046
 21
2476.665131
 31
0.0
  0
LINE
  5
4B6
330
4AC
100
AcDbEntity
  8
LC-009-005-----0
 62
     7
370
    25
100
AcDbLine
 10
1083.432193
 20
2508.670255
 30
0.0
 11
1102.432193
 21
2489.670255
 31
0.0
  0
LINE
  5
4B7
330
4AC
100
AcDbEntity
  8
LC-009-005-----0
 62
     7
370
    25
100
AcDbLine
 10
1083.432193
 20
2536.954526
 30
0.0
 11
1102.432193
 21
2517.954526
 31
0.0
  0
LINE
  5
4B8
330
4AC
100
AcDbEntity
  8
LC-009-005-----0
 62
     7
370
    25
100
AcDbLine
 10
1083.432193
 20
2565.238797
 30
0.0
 11
1102.432193
 21
2546.238797
 31
0.0
  0
LINE
  5
4B9
330
4AC
100
AcDbEntity
  8
LC-009-005-----0
 62
     7
370
    25
100
AcDbLine
 10
1083.432193
 20
2593.523069
 30
0.0
 11
1102.432193
 21
2574.523069
 31
0.0
  0
LINE
  5
4BA
330
4AC
100
AcDbEntity
  8
LC-009-005-----0
 62
     7
370
    25
100
AcDbLine
 10
1083.432193
 20
2621.80734
 30
0.0
 11
1102.432193
 21
2602.80734
 31
0.0
  0
ENDBLK
  5
4AE
330
4AC
100
AcDbEntity
  8
0
100
AcDbBlockEnd
  0
BLOCK
  5
4C7
330
4BD
100
AcDbEntity
  8
0
100
AcDbBlockBegin
  2
*D34
 70
     1
 71
     0
 10
0.0
 20
0.0
 30
0.0
  3
*D34
  1

  0
LINE
  5
4BE
330
4BD
100
AcDbEntity
  8
LC-006-003-----0
 62
     2
370
    -2
100
AcDbLine
 10
502.432193
 20
2466.665131
 30
0.0
 11
502.432193
 21
2280.78
 31
0.0
  0
LINE
  5
4BF
330
4BD
100
AcDbEntity
  8
LC-006-003-----0
 62
     2
370
    -2
100
AcDbLine
 10
1102.432193
 20
2466.665131
 30
0.0
 11
1102.432193
 21
2280.78
 31
0.0
  0
LINE
  5
4C0
330
4BD
100
AcDbEntity
  8
LC-006-003-----0
 62
     2
370
    -2
100
AcDbLine
 10
527.432193
 20
2298.78
 30
0.0
 11
1077.432193
 21
2298.78
 31
0.0
  0
SOLID
  5
4C1
330
4BD
100
AcDbEntity
  8
LC-006-003-----0
 62
     2
100
AcDbTrace
 10
527.432193
 20
2302.946667
 30
0.0
 11
527.432193
 21
2294.613333
 31
0.0
 12
502.432193
 22
2298.78
 32
0.0
 13
502.432193
 23
2298.78
 33
0.0
  0
SOLID
  5
4C2
330
4BD
100
AcDbEntity
  8
LC-006-003-----0
 62
     2
100
AcDbTrace
 10
1077.432193
 20
2294.613333
 30
0.0
 11
1077.432193
 21
2302.946667
 31
0.0
 12
1102.432193
 22
2298.78
 32
0.0
 13
1102.432193
 23
2298.78
 33
0.0
  0
MTEXT
  5
4C3
330
4BD
100
AcDbEntity
  8
LC-006-003-----0
 62
     2
100
AcDbMText
 10
793.315448
 20
2328.78
 30
0.0
 40
25.0
 41
0.0
 71
     5
 72
     1
  1
\A1;600
  7
LCTX0-400-0-0pDIN-Schrift
 73
     1
 44
1.0
  0
POINT
  5
4C4
330
4BD
100
AcDbEntity
  8
Defpoints
 62
     0
100
AcDbPoint
 10
502.432193
 20
2466.665131
 30
0.0
  0
POINT
  5
4C5
330
4BD
100
AcDbEntity
  8
Defpoints
 62
     0
100
AcDbPoint
 10
1102.432193
 20
2466.665131
 30
0.0
  0
POINT
  5
4C6
330
4BD
100
AcDbEntity
  8
Defpoints
 62
     0
100
AcDbPoint
 10
1102.432193
 20
2298.78
 30
0.0
  0
ENDBLK
  5
4C8
330
4BD
100
AcDbEntity
  8
0
100
AcDbBlockEnd
  0
BLOCK
  5
4D4
330
4CA
100
AcDbEntity
  8
0
100
AcDbBlockBegin
  2
*D35
 70
     1
 71
     0
 10
0.0
 20
0.0
 30
0.0
  3
*D35
  1

  0
LINE
  5
4CB
330
4CA
100
AcDbEntity
  8
LC-006-003-----0
 62
     2
370
    -2
100
AcDbLine
 10
1502.937266
 20
1894.31
 30
0.0
 11
1502.937266
 21
1859.71
 31
0.0
  0
LINE
  5
4CC
330
4CA
100
AcDbEntity
  8
LC-006-003-----0
 62
     2
370
    -2
100
AcDbLine
 10
1682.937266
 20
1862.110808
 30
0.0
 11
1682.937266
 21
1895.71
 31
0.0
  0
LINE
  5
4CD
330
4CA
100
AcDbEntity
  8
LC-006-003-----0
 62
     2
370
    -2
100
AcDbLine
 10
1527.937266
 20
1877.71
 30
0.0
 11
1657.937266
 21
1877.71
 31
0.0
  0
SOLID
  5
4CE
330
4CA
100
AcDbEntity
  8
LC-006-003-----0
 62
     2
100
AcDbTrace
 10
1527.937266
 20
1881.876667
 30
0.0
 11
1527.937266
 21
1873.543333
 31
0.0
 12
1502.937266
 22
1877.71
 32
0.0
 13
1502.937266
 23
1877.71
 33
0.0
  0
SOLID
  5
4CF
330
4CA
100
AcDbEntity
  8
LC-006-003-----0
 62
     2
100
AcDbTrace
 10
1657.937266
 20
1873.543333
 30
0.0
 11
1657.937266
 21
1881.876667
 31
0.0
 12
1682.937266
 22
1877.71
 32
0.0
 13
1682.937266
 23
1877.71
 33
0.0
  0
MTEXT
  5
4D0
330
4CA
100
AcDbEntity
  8
LC-006-003-----0
 62
     2
100
AcDbMText
 10
1592.937266
 20
1907.71
 30
0.0
 40
25.0
 41
0.0
 71
     5
 72
     1
  1
\A1;180
  7
LCTX0-400-0-0pDIN-Schrift
 73
     1
 44
1.0
  0
POINT
  5
4D1
330
4CA
100
AcDbEntity
  8
Defpoints
 62
     0
100
AcDbPoint
 10
1502.937266
 20
1894.31
 30
0.0
  0
POINT
  5
4D2
330
4CA
100
AcDbEntity
  8
Defpoints
 62
     0
100
AcDbPoint
 10
1682.937266
 20
1862.110808
 30
0.0
  0
POINT
  5
4D3
330
4CA
100
AcDbEntity
  8
Defpoints
 62
     0
100
AcDbPoint
 10
1682.937266
 20
1877.71
 30
0.0
  0
ENDBLK
  5
4D5
330
4CA
100
AcDbEntity
  8
0
100
AcDbBlockEnd
  0
BLOCK
  5
4E8
330
4E7
100
AcDbEntity
  8
0
100
AcDbBlockBegin
  2
*X336
 70
     1
 71
     0
 10
0.0
 20
0.0
 30
0.0
  3
*X336
  1

  4
*X3
  0
LINE
  5
4EA
330
4E7
100
AcDbEntity
  8
LC-009-005-----0
 62
     7
370
    25
100
AcDbLine
 10
1002.026445
 20
751.598373
 30
0.0
 11
1009.20334
 21
744.421477
 31
0.0
  0
LINE
  5
4EB
330
4E7
100
AcDbEntity
  8
LC-009-005-----0
 62
     7
370
    25
100
AcDbLine
 10
1002.026445
 20
779.882644
 30
0.0
 11
1037.487612
 21
744.421477
 31
0.0
  0
LINE
  5
4EC
330
4E7
100
AcDbEntity
  8
LC-009-005-----0
 62
     7
370
    25
100
AcDbLine
 10
1002.026445
 20
808.166915
 30
0.0
 11
1065.771883
 21
744.421477
 31
0.0
  0
LINE
  5
4ED
330
4E7
100
AcDbEntity
  8
LC-009-005-----0
 62
     7
370
    25
100
AcDbLine
 10
1002.026445
 20
836.451187
 30
0.0
 11
1094.056154
 21
744.421477
 31
0.0
  0
LINE
  5
4EE
330
4E7
100
AcDbEntity
  8
LC-009-005-----0
 62
     7
370
    25
100
AcDbLine
 10
1002.026445
 20
864.735458
 30
0.0
 11
1122.340425
 21
744.421477
 31
0.0
  0
LINE
  5
4EF
330
4E7
100
AcDbEntity
  8
LC-009-005-----0
 62
     7
370
    25
100
AcDbLine
 10
1010.624697
 20
884.421477
 30
0.0
 11
1150.624697
 21
744.421477
 31
0.0
  0
LINE
  5
4F0
330
4E7
100
AcDbEntity
  8
LC-009-005-----0
 62
     7
370
    25
100
AcDbLine
 10
1038.908968
 20
884.421477
 30
0.0
 11
1178.908968
 21
744.421477
 31
0.0
  0
LINE
  5
4F1
330
4E7
100
AcDbEntity
  8
LC-009-005-----0
 62
     7
370
    25
100
AcDbLine
 10
1067.193239
 20
884.421477
 30
0.0
 11
1207.193239
 21
744.421477
 31
0.0
  0
LINE
  5
4F2
330
4E7
100
AcDbEntity
  8
LC-009-005-----0
 62
     7
370
    25
100
AcDbLine
 10
1095.47751
 20
884.421477
 30
0.0
 11
1235.47751
 21
744.421477
 31
0.0
  0
LINE
  5
4F3
330
4E7
100
AcDbEntity
  8
LC-009-005-----0
 62
     7
370
    25
100
AcDbLine
 10
1123.761782
 20
884.421477
 30
0.0
 11
1249.679022
 21
758.504237
 31
0.0
  0
LINE
  5
4F4
330
4E7
100
AcDbEntity
  8
LC-009-005-----0
 62
     7
370
    25
100
AcDbLine
 10
1152.046053
 20
884.421477
 30
0.0
 11
1249.679022
 21
786.788508
 31
0.0
  0
LINE
  5
4F5
330
4E7
100
AcDbEntity
  8
LC-009-005-----0
 62
     7
370
    25
100
AcDbLine
 10
1180.330324
 20
884.421477
 30
0.0
 11
1249.679022
 21
815.072779
 31
0.0
  0
LINE
  5
4F6
330
4E7
100
AcDbEntity
  8
LC-009-005-----0
 62
     7
370
    25
100
AcDbLine
 10
1208.614595
 20
884.421477
 30
0.0
 11
1249.679022
 21
843.35705
 31
0.0
  0
LINE
  5
4F7
330
4E7
100
AcDbEntity
  8
LC-009-005-----0
 62
     7
370
    25
100
AcDbLine
 10
1236.898867
 20
884.421477
 30
0.0
 11
1249.679022
 21
871.641322
 31
0.0
  0
ENDBLK
  5
4E9
330
4E7
100
AcDbEntity
  8
0
100
AcDbBlockEnd
  0
BLOCK
  5
507
330
4FB
100
AcDbEntity
  8
0
100
AcDbBlockBegin
  2
*D37
 70
     1
 71
     0
 10
0.0
 20
0.0
 30
0.0
  3
*D37
  1

  0
LINE
  5
4FC
330
4FB
100
AcDbEntity
  8
LC-006-003-----0
 62
     2
370
    -2
100
AcDbLine
 10
929.526445
 20
744.421477
 30
0.0
 11
929.526445
 21
817.643966
 31
0.0
  0
LINE
  5
4FD
330
4FB
100
AcDbEntity
  8
LC-006-003-----0
 62
     2
370
    -2
100
AcDbLine
 10
1002.026445
 20
744.421477
 30
0.0
 11
1002.026445
 21
817.643966
 31
0.0
  0
LINE
  5
4FE
330
4FB
100
AcDbEntity
  8
LC-006-003-----0
 62
     2
370
    -2
100
AcDbLine
 10
904.526445
 20
799.643966
 30
0.0
 11
879.526445
 21
799.643966
 31
0.0
  0
LINE
  5
4FF
330
4FB
100
AcDbEntity
  8
LC-006-003-----0
 62
     2
370
    -2
100
AcDbLine
 10
1027.026445
 20
799.643966
 30
0.0
 11
1052.026445
 21
799.643966
 31
0.0
  0
LINE
  5
500
330
4FB
100
AcDbEntity
  8
LC-006-003-----0
 62
     2
370
    -2
100
AcDbLine
 10
929.526445
 20
799.643966
 30
0.0
 11
1002.026445
 21
799.643966
 31
0.0
  0
SOLID
  5
501
330
4FB
100
AcDbEntity
  8
LC-006-003-----0
 62
     2
100
AcDbTrace
 10
904.526445
 20
795.477299
 30
0.0
 11
904.526445
 21
803.810632
 31
0.0
 12
929.526445
 22
799.643966
 32
0.0
 13
929.526445
 23
799.643966
 33
0.0
  0
SOLID
  5
502
330
4FB
100
AcDbEntity
  8
LC-006-003-----0
 62
     2
100
AcDbTrace
 10
1027.026445
 20
803.810632
 30
0.0
 11
1027.026445
 21
795.477299
 31
0.0
 12
1002.026445
 22
799.643966
 32
0.0
 13
1002.026445
 23
799.643966
 33
0.0
  0
MTEXT
  5
503
330
4FB
100
AcDbEntity
  8
LC-006-003-----0
 62
     2
100
AcDbMText
 10
963.599616
 20
829.643966
 30
0.0
 40
25.0
 41
0.0
 71
     5
 72
     1
  1
\A1;14,5
  7
LCTX0-400-0-0pDIN-Schrift
 73
     1
 44
1.0
  0
POINT
  5
504
330
4FB
100
AcDbEntity
  8
Defpoints
 62
     0
100
AcDbPoint
 10
929.526445
 20
744.421477
 30
0.0
  0
POINT
  5
505
330
4FB
100
AcDbEntity
  8
Defpoints
 62
     0
100
AcDbPoint
 10
1002.026445
 20
744.421477
 30
0.0
  0
POINT
  5
506
330
4FB
100
AcDbEntity
  8
Defpoints
 62
     0
100
AcDbPoint
 10
1002.026445
 20
799.643966
 30
0.0
  0
ENDBLK
  5
508
330
4FB
100
AcDbEntity
  8
0
100
AcDbBlockEnd
  0
BLOCK
  5
511
330
50B
100
AcDbEntity
  8
0
100
AcDbBlockBegin
  2
*D38
 70
     1
 71
     0
 10
0.0
 20
0.0
 30
0.0
  3
*D38
  1

  0
LINE
  5
50C
330
50B
100
AcDbEntity
  8
LC-006-003-----0
 62
     2
370
    -2
100
AcDbLine
 10
505.716433
 20
2121.209185
 30
0.0
 11
503.913682
 21
2123.101894
 31
0.0
  0
MTEXT
  5
50D
330
50B
100
AcDbEntity
  8
LC-006-003-----0
 62
     2
100
AcDbMText
 10
466.516073
 20
2140.098993
 30
0.0
 40
25.0
 41
0.0
 71
     5
 72
     1
  1
\A1;R12
  7
LCTX0-400-0-0pDIN-Schrift
 11
0.6896894999131954
 21
-0.7241052366262011
 31
0.0
 73
     1
 44
1.0
  0
SOLID
  5
50E
330
50B
100
AcDbEntity
  8
LC-006-003-----0
 62
     2
100
AcDbTrace
 10
541.415262
 20
2089.770338
 30
0.0
 11
535.381052
 21
2084.022926
 31
0.0
 12
521.155919
 22
2104.999263
 32
0.0
 13
521.155919
 23
2104.999263
 33
0.0
  0
POINT
  5
50F
330
50B
100
AcDbEntity
  8
Defpoints
 62
     0
100
AcDbPoint
 10
521.155919
 20
2104.999263
 30
0.0
  0
POINT
  5
510
330
50B
100
AcDbEntity
  8
Defpoints
 62
     0
100
AcDbPoint
 10
529.432193
 20
2096.31
 30
0.0
  0
ENDBLK
  5
512
330
50B
100
AcDbEntity
  8
0
100
AcDbBlockEnd
  0
BLOCK
  5
51E
330
514
100
AcDbEntity
  8
0
100
AcDbBlockBegin
  2
*D39
 70
     1
 71
     0
 10
0.0
 20
0.0
 30
0.0
  3
*D39
  1

  0
LINE
  5
515
330
514
100
AcDbEntity
  8
LC-006-003-----0
 62
     2
370
    -2
100
AcDbLine
 10
1657.937266
 20
1993.31302
 30
0.0
 11
1818.0
 21
1993.31302
 31
0.0
  0
LINE
  5
516
330
514
100
AcDbEntity
  8
LC-006-003-----0
 62
     2
370
    -2
100
AcDbLine
 10
1657.937266
 20
1634.937606
 30
0.0
 11
1818.0
 21
1634.937606
 31
0.0
  0
LINE
  5
517
330
514
100
AcDbEntity
  8
LC-006-003-----0
 62
     2
370
    -2
100
AcDbLine
 10
1800.0
 20
1968.31302
 30
0.0
 11
1800.0
 21
1659.937606
 31
0.0
  0
SOLID
  5
518
330
514
100
AcDbEntity
  8
LC-006-003-----0
 62
     2
100
AcDbTrace
 10
1804.166667
 20
1968.31302
 30
0.0
 11
1795.833333
 21
1968.31302
 31
0.0
 12
1800.0
 22
1993.31302
 32
0.0
 13
1800.0
 23
1993.31302
 33
0.0
  0
SOLID
  5
519
330
514
100
AcDbEntity
  8
LC-006-003-----0
 62
     2
100
AcDbTrace
 10
1795.833333
 20
1659.937606
 30
0.0
 11
1804.166667
 21
1659.937606
 31
0.0
 12
1800.0
 22
1634.937606
 32
0.0
 13
1800.0
 23
1634.937606
 33
0.0
  0
MTEXT
  5
51A
330
514
100
AcDbEntity
  8
LC-006-003-----0
 62
     2
100
AcDbMText
 10
1770.0
 20
1819.873646
 30
0.0
 40
25.0
 41
0.0
 71
     5
 72
     1
  1
\A1;358
  7
LCTX0-400-0-0pDIN-Schrift
 11
6.123031769111886E-17
 21
1.0
 31
0.0
 73
     1
 44
1.0
  0
POINT
  5
51B
330
514
100
AcDbEntity
  8
Defpoints
 62
     0
100
AcDbPoint
 10
1657.937266
 20
1993.31302
 30
0.0
  0
POINT
  5
51C
330
514
100
AcDbEntity
  8
Defpoints
 62
     0
100
AcDbPoint
 10
1657.937266
 20
1634.937606
 30
0.0
  0
POINT
  5
51D
330
514
100
AcDbEntity
  8
Defpoints
 62
     0
100
AcDbPoint
 10
1800.0
 20
1634.937606
 30
0.0
  0
ENDBLK
  5
51F
330
514
100
AcDbEntity
  8
0
100
AcDbBlockEnd
  0
BLOCK
  5
521
330
520
100
AcDbEntity
  8
0
100
AcDbBlockBegin
  2
*X440
 70
     1
 71
     0
 10
0.0
 20
0.0
 30
0.0
  3
*X440
  1

  4
*X4
  0
LINE
  5
523
330
520
100
AcDbEntity
  8
LC-009-005-----0
 62
     7
370
    25
100
AcDbLine
 10
1048.832732
 20
709.421477
 30
0.0
 11
1067.991535
 21
728.58028
 31
0.0
  0
LINE
  5
524
330
520
100
AcDbEntity
  8
LC-009-005-----0
 62
     7
370
    25
100
AcDbLine
 10
1020.548461
 20
709.421477
 30
0.0
 11
1054.579247
 21
743.452263
 31
0.0
  0
LINE
  5
525
330
520
100
AcDbEntity
  8
LC-009-005-----0
 62
     7
370
    25
100
AcDbLine
 10
930.805357
 20
647.962645
 30
0.0
 11
957.373418
 21
674.530706
 31
0.0
  0
LINE
  5
526
330
520
100
AcDbEntity
  8
LC-009-005-----0
 62
     7
370
    25
100
AcDbLine
 10
982.26307
 20
699.420358
 30
0.0
 11
1027.264189
 21
744.421477
 31
0.0
  0
LINE
  5
527
330
520
100
AcDbEntity
  8
LC-009-005-----0
 62
     7
370
    25
100
AcDbLine
 10
921.369233
 20
666.810792
 30
0.0
 11
998.979918
 21
744.421477
 31
0.0
  0
LINE
  5
528
330
520
100
AcDbEntity
  8
LC-009-005-----0
 62
     7
370
    25
100
AcDbLine
 10
924.69118
 20
698.41701
 30
0.0
 11
970.695647
 21
744.421477
 31
0.0
  0
LINE
  5
529
330
520
100
AcDbEntity
  8
LC-009-005-----0
 62
     7
370
    25
100
AcDbLine
 10
928.476272
 20
730.486373
 30
0.0
 11
941.469629
 21
743.479731
 31
0.0
  0
ENDBLK
  5
522
330
520
100
AcDbEntity
  8
0
100
AcDbBlockEnd
  0
BLOCK
  5
540
330
53F
100
AcDbEntity
  8
0
100
AcDbBlockBegin
  2
*X541
 70
     1
 71
     0
 10
0.0
 20
0.0
 30
0.0
  3
*X541
  1

  4
*X5
  0
LINE
  5
542
330
53F
100
AcDbEntity
  8
LC-009-005-----0
 62
     7
370
    25
100
AcDbLine
 10
1534.245741
 20
756.78023
 30
0.0
 11
1546.604494
 21
744.421477
 31
0.0
  0
LINE
  5
543
330
53F
100
AcDbEntity
  8
LC-009-005-----0
 62
     7
370
    25
100
AcDbLine
 10
1534.245741
 20
785.064501
 30
0.0
 11
1574.888765
 21
744.421477
 31
0.0
  0
LINE
  5
544
330
53F
100
AcDbEntity
  8
LC-009-005-----0
 62
     7
370
    25
100
AcDbLine
 10
1534.245741
 20
813.348772
 30
0.0
 11
1603.173037
 21
744.421477
 31
0.0
  0
LINE
  5
545
330
53F
100
AcDbEntity
  8
LC-009-005-----0
 62
     7
370
    25
100
AcDbLine
 10
1534.245741
 20
841.633044
 30
0.0
 11
1631.457308
 21
744.421477
 31
0.0
  0
LINE
  5
546
330
53F
100
AcDbEntity
  8
LC-009-005-----0
 62
     7
370
    25
100
AcDbLine
 10
1534.245741
 20
869.917315
 30
0.0
 11
1659.741579
 21
744.421477
 31
0.0
  0
LINE
  5
547
330
53F
100
AcDbEntity
  8
LC-009-005-----0
 62
     7
370
    25
100
AcDbLine
 10
1548.02585
 20
884.421477
 30
0.0
 11
1688.02585
 21
744.421477
 31
0.0
  0
LINE
  5
548
330
53F
100
AcDbEntity
  8
LC-009-005-----0
 62
     7
370
    25
100
AcDbLine
 10
1576.310122
 20
884.421477
 30
0.0
 11
1716.310122
 21
744.421477
 31
0.0
  0
LINE
  5
549
330
53F
100
AcDbEntity
  8
LC-009-005-----0
 62
     7
370
    25
100
AcDbLine
 10
1604.594393
 20
884.421477
 30
0.0
 11
1744.594393
 21
744.421477
 31
0.0
  0
LINE
  5
54A
330
53F
100
AcDbEntity
  8
LC-009-005-----0
 62
     7
370
    25
100
AcDbLine
 10
1632.878664
 20
884.421477
 30
0.0
 11
1772.878664
 21
744.421477
 31
0.0
  0
LINE
  5
54B
330
53F
100
AcDbEntity
  8
LC-009-005-----0
 62
     7
370
    25
100
AcDbLine
 10
1661.162935
 20
884.421477
 30
0.0
 11
1781.898319
 21
763.686094
 31
0.0
  0
LINE
  5
54C
330
53F
100
AcDbEntity
  8
LC-009-005-----0
 62
     7
370
    25
100
AcDbLine
 10
1689.447207
 20
884.421477
 30
0.0
 11
1781.898319
 21
791.970365
 31
0.0
  0
LINE
  5
54D
330
53F
100
AcDbEntity
  8
LC-009-005-----0
 62
     7
370
    25
100
AcDbLine
 10
1717.731478
 20
884.421477
 30
0.0
 11
1781.898319
 21
820.254636
 31
0.0
  0
LINE
  5
54E
330
53F
100
AcDbEntity
  8
LC-009-005-----0
 62
     7
370
    25
100
AcDbLine
 10
1746.015749
 20
884.421477
 30
0.0
 11
1781.898319
 21
848.538907
 31
0.0
  0
LINE
  5
54F
330
53F
100
AcDbEntity
  8
LC-009-005-----0
 62
     7
370
    25
100
AcDbLine
 10
1774.30002
 20
884.421477
 30
0.0
 11
1781.898319
 21
876.823179
 31
0.0
  0
ENDBLK
  5
541
330
53F
100
AcDbEntity
  8
0
100
AcDbBlockEnd
  0
BLOCK
  5
552
330
551
100
AcDbEntity
  8
0
100
AcDbBlockBegin
  2
*X642
 70
     1
 71
     0
 10
0.0
 20
0.0
 30
0.0
  3
*X642
  1

  4
*X6
  0
LINE
  5
554
330
551
100
AcDbEntity
  8
LC-009-005-----0
 62
     7
370
    25
100
AcDbLine
 10
1642.802428
 20
709.421477
 30
0.0
 11
1655.359579
 21
721.978628
 31
0.0
  0
LINE
  5
555
330
551
100
AcDbEntity
  8
LC-009-005-----0
 62
     7
370
    25
100
AcDbLine
 10
1614.518157
 20
709.421477
 30
0.0
 11
1646.189015
 21
741.092335
 31
0.0
  0
LINE
  5
556
330
551
100
AcDbEntity
  8
LC-009-005-----0
 62
     7
370
    25
100
AcDbLine
 10
1524.161559
 20
647.349151
 30
0.0
 11
1543.232136
 21
666.419727
 31
0.0
  0
LINE
  5
557
330
551
100
AcDbEntity
  8
LC-009-005-----0
 62
     7
370
    25
100
AcDbLine
 10
1576.233886
 20
699.421477
 30
0.0
 11
1621.233886
 21
744.421477
 31
0.0
  0
LINE
  5
558
330
551
100
AcDbEntity
  8
LC-009-005-----0
 62
     7
370
    25
100
AcDbLine
 10
1507.22795
 20
658.699813
 30
0.0
 11
1592.949614
 21
744.421477
 31
0.0
  0
LINE
  5
559
330
551
100
AcDbEntity
  8
LC-009-005-----0
 62
     7
370
    25
100
AcDbLine
 10
1510.549898
 20
690.306032
 30
0.0
 11
1564.665343
 21
744.421477
 31
0.0
  0
LINE
  5
55A
330
551
100
AcDbEntity
  8
LC-009-005-----0
 62
     7
370
    25
100
AcDbLine
 10
1513.871845
 20
721.91225
 30
0.0
 11
1536.381072
 21
744.421477
 31
0.0
  0
ENDBLK
  5
553
330
551
100
AcDbEntity
  8
0
100
AcDbBlockEnd
  0
BLOCK
  5
566
330
560
100
AcDbEntity
  8
0
100
AcDbBlockBegin
  2
*D43
 70
     1
 71
     0
 10
0.0
 20
0.0
 30
0.0
  3
*D43
  1

  0
LINE
  5
561
330
560
100
AcDbEntity
  8
LC-006-003-----0
 62
     2
370
    -2
100
AcDbLine
 10
1482.832786
 20
780.705625
 30
0.0
 11
1503.89619
 21
757.646539
 31
0.0
  0
MTEXT
  5
562
330
560
100
AcDbEntity
  8
LC-006-003-----0
 62
     2
100
AcDbMText
 10
1452.393086
 20
795.789683
 30
0.0
 40
25.0
 41
0.0
 71
     5
 72
     1
  1
\A1;R4
  7
LCTX0-400-0-0pDIN-Schrift
 11
0.6744344655513045
 21
-0.7383347152047818
 31
0.0
 73
     1
 44
1.0
  0
SOLID
  5
563
330
560
100
AcDbEntity
  8
LC-006-003-----0
 62
     2
100
AcDbTrace
 10
1500.819796
 20
754.836396
 30
0.0
 11
1506.972585
 21
760.456683
 31
0.0
 12
1520.757052
 22
739.188171
 32
0.0
 13
1520.757052
 23
739.188171
 33
0.0
  0
POINT
  5
564
330
560
100
AcDbEntity
  8
Defpoints
 62
     0
100
AcDbPoint
 10
1520.757052
 20
739.188171
 30
0.0
  0
POINT
  5
565
330
560
100
AcDbEntity
  8
Defpoints
 62
     0
100
AcDbPoint
 10
1534.245741
 20
724.421477
 30
0.0
  0
ENDBLK
  5
567
330
560
100
AcDbEntity
  8
0
100
AcDbBlockEnd
  0
BLOCK
  5
573
330
569
100
AcDbEntity
  8
0
100
AcDbBlockBegin
  2
*D44
 70
     1
 71
     0
 10
0.0
 20
0.0
 30
0.0
  3
*D44
  1

  0
LINE
  5
56A
330
569
100
AcDbEntity
  8
LC-006-003-----0
 62
     2
370
    -2
100
AcDbLine
 10
1457.960556
 20
1076.864929
 30
0.0
 11
1457.960556
 21
992.600557
 31
0.0
  0
LINE
  5
56B
330
569
100
AcDbEntity
  8
LC-006-003-----0
 62
     2
370
    -2
100
AcDbLine
 10
1718.460556
 20
1076.864929
 30
0.0
 11
1718.460556
 21
992.600557
 31
0.0
  0
LINE
  5
56C
330
569
100
AcDbEntity
  8
LC-006-003-----0
 62
     2
370
    -2
100
AcDbLine
 10
1482.960556
 20
1010.600557
 30
0.0
 11
1693.460556
 21
1010.600557
 31
0.0
  0
SOLID
  5
56D
330
569
100
AcDbEntity
  8
LC-006-003-----0
 62
     2
100
AcDbTrace
 10
1482.960556
 20
1014.767223
 30
0.0
 11
1482.960556
 21
1006.43389
 31
0.0
 12
1457.960556
 22
1010.600557
 32
0.0
 13
1457.960556
 23
1010.600557
 33
0.0
  0
SOLID
  5
56E
330
569
100
AcDbEntity
  8
LC-006-003-----0
 62
     2
100
AcDbTrace
 10
1693.460556
 20
1006.43389
 30
0.0
 11
1693.460556
 21
1014.767223
 31
0.0
 12
1718.460556
 22
1010.600557
 32
0.0
 13
1718.460556
 23
1010.600557
 33
0.0
  0
MTEXT
  5
56F
330
569
100
AcDbEntity
  8
LC-006-003-----0
 62
     2
100
AcDbMText
 10
1585.537838
 20
1040.600557
 30
0.0
 40
25.0
 41
0.0
 71
     5
 72
     1
  1
\A1;521
  7
LCTX0-400-0-0pDIN-Schrift
 73
     1
 44
1.0
  0
POINT
  5
570
330
569
100
AcDbEntity
  8
Defpoints
 62
     0
100
AcDbPoint
 10
1457.960556
 20
1076.864929
 30
0.0
  0
POINT
  5
571
330
569
100
AcDbEntity
  8
Defpoints
 62
     0
100
AcDbPoint
 10
1718.460556
 20
1076.864929
 30
0.0
  0
POINT
  5
572
330
569
100
AcDbEntity
  8
Defpoints
 62
     0
100
AcDbPoint
 10
1718.460556
 20
1010.600557
 30
0.0
  0
ENDBLK
  5
574
330
569
100
AcDbEntity
  8
0
100
AcDbBlockEnd
  0
BLOCK
  5
580
330
576
100
AcDbEntity
  8
0
100
AcDbBlockBegin
  2
*D45
 70
     1
 71
     0
 10
0.0
 20
0.0
 30
0.0
  3
*D45
  1

  0
LINE
  5
577
330
576
100
AcDbEntity
  8
LC-006-003-----0
 62
     2
370
    -2
100
AcDbLine
 10
1718.460556
 20
1076.864929
 30
0.0
 11
1811.444703
 21
1076.864929
 31
0.0
  0
LINE
  5
578
330
576
100
AcDbEntity
  8
LC-006-003-----0
 62
     2
370
    -2
100
AcDbLine
 10
1718.460556
 20
1307.364929
 30
0.0
 11
1811.444703
 21
1307.364929
 31
0.0
  0
LINE
  5
579
330
576
100
AcDbEntity
  8
LC-006-003-----0
 62
     2
370
    -2
100
AcDbLine
 10
1793.444703
 20
1101.864929
 30
0.0
 11
1793.444703
 21
1282.364929
 31
0.0
  0
SOLID
  5
57A
330
576
100
AcDbEntity
  8
LC-006-003-----0
 62
     2
100
AcDbTrace
 10
1789.278036
 20
1101.864929
 30
0.0
 11
1797.61137
 21
1101.864929
 31
0.0
 12
1793.444703
 22
1076.864929
 32
0.0
 13
1793.444703
 23
1076.864929
 33
0.0
  0
SOLID
  5
57B
330
576
100
AcDbEntity
  8
LC-006-003-----0
 62
     2
100
AcDbTrace
 10
1797.61137
 20
1282.364929
 30
0.0
 11
1789.278036
 21
1282.364929
 31
0.0
 12
1793.444703
 22
1307.364929
 32
0.0
 13
1793.444703
 23
1307.364929
 33
0.0
  0
MTEXT
  5
57C
330
576
100
AcDbEntity
  8
LC-006-003-----0
 62
     2
100
AcDbMText
 10
1763.444703
 20
1188.366943
 30
0.0
 40
25.0
 41
0.0
 71
     5
 72
     1
  1
\A1;461
  7
LCTX0-400-0-0pDIN-Schrift
 11
6.123031769111886E-17
 21
1.0
 31
0.0
 73
     1
 44
1.0
  0
POINT
  5
57D
330
576
100
AcDbEntity
  8
Defpoints
 62
     0
100
AcDbPoint
 10
1718.460556
 20
1076.864929
 30
0.0
  0
POINT
  5
57E
330
576
100
AcDbEntity
  8
Defpoints
 62
     0
100
AcDbPoint
 10
1718.460556
 20
1307.364929
 30
0.0
  0
POINT
  5
57F
330
576
100
AcDbEntity
  8
Defpoints
 62
     0
100
AcDbPoint
 10
1793.444703
 20
1307.364929
 30
0.0
  0
ENDBLK
  5
581
330
576
100
AcDbEntity
  8
0
100
AcDbBlockEnd
  0
BLOCK
  5
589
330
583
100
AcDbEntity
  8
0
100
AcDbBlockBegin
  2
*D46
 70
     1
 71
     0
 10
0.0
 20
0.0
 30
0.0
  3
*D46
  1

  0
LINE
  5
584
330
583
100
AcDbEntity
  8
LC-006-003-----0
 62
     2
370
    -2
100
AcDbLine
 10
1472.694321
 20
1291.172372
 30
0.0
 11
1486.914695
 21
1273.87132
 31
0.0
  0
MTEXT
  5
585
330
583
100
AcDbEntity
  8
LC-006-003-----0
 62
     2
100
AcDbMText
 10
1510.998558
 20
1269.953754
 30
0.0
 40
25.0
 41
0.0
 71
     5
 72
     1
  1
\A1;R16
  7
LCTX0-400-0-0pDIN-Schrift
 11
0.6349739083717595
 21
-0.7725335822390457
 31
0.0
 73
     1
 44
1.0
  0
SOLID
  5
586
330
583
100
AcDbEntity
  8
LC-006-003-----0
 62
     2
100
AcDbTrace
 10
1451.94711
 20
1309.852275
 30
0.0
 11
1458.38489
 21
1315.143724
 31
0.0
 12
1471.040347
 22
1293.18466
 32
0.0
 13
1471.040347
 23
1293.18466
 33
0.0
  0
POINT
  5
587
330
583
100
AcDbEntity
  8
Defpoints
 62
     0
100
AcDbPoint
 10
1471.040347
 20
1293.18466
 30
0.0
  0
POINT
  5
588
330
583
100
AcDbEntity
  8
Defpoints
 62
     0
100
AcDbPoint
 10
1465.960556
 20
1299.364929
 30
0.0
  0
ENDBLK
  5
58A
330
583
100
AcDbEntity
  8
0
100
AcDbBlockEnd
  0
ENDSEC
  0
SECTION
  2
ENTITIES
  0
INSERT
  5
103
330
1F
100
AcDbEntity
  8
LC-003-230-ZVN-0
 62
     7
370
    50
100
AcDbBlockReference
  2
SYM1
 10
0.0
 20
0.0
 30
0.0
  0
ARC
  5
104
102
{ACAD_REACTORS
330
58B
102
}
330
1F
100
AcDbEntity
  8
LC-002-002-----0
 62
     7
370
    50
100
AcDbCircle
 10
1075.432193
 20
1610.31
 30
0.0
 40
12.0
100
AcDbArc
 50
270.0
 51
0.0
  0
ARC
  5
105
102
{ACAD_REACTORS
330
58B
102
}
330
1F
100
AcDbEntity
  8
LC-002-002-----0
 62
     7
370
    50
100
AcDbCircle
 10
529.432193
 20
1610.31
 30
0.0
 40
12.0
100
AcDbArc
 50
180.0
 51
270.0
  0
ARC
  5
106
102
{ACAD_REACTORS
330
58B
102
}
330
1F
100
AcDbEntity
  8
LC-002-002-----0
 62
     7
370
    50
100
AcDbCircle
 10
529.432193
 20
2096.31
 30
0.0
 40
12.0
100
AcDbArc
 50
90.0
 51
180.0
  0
ARC
  5
107
102
{ACAD_REACTORS
330
58B
102
}
330
1F
100
AcDbEntity
  8
LC-002-002-----0
 62
     7
370
    50
100
AcDbCircle
 10
1075.432193
 20
2096.31
 30
0.0
 40
12.0
100
AcDbArc
 50
0.0
 51
90.0
  0
CIRCLE
  5
108
102
{ACAD_REACTORS
330
58B
102
}
330
1F
100
AcDbEntity
  8
LC-002-002-----0
 62
     7
370
    50
100
AcDbCircle
 10
802.432193
 20
1894.31
 30
0.0
 40
45.0
  0
LINE
  5
109
102
{ACAD_REACTORS
330
595
102
}
330
1F
100
AcDbEntity
  8
LC-002-002-----0
 62
     7
370
    25
100
AcDbLine
 10
744.932193
 20
2491.72
 30
0.0
 11
859.932193
 21
2491.72
 31
0.0
  0
LINE
  5
10C
102
{ACAD_REACTORS
330
595
102
}
330
1F
100
AcDbEntity
  8
LC-004-006-MLN-0
 62
     7
370
    25
100
AcDbLine
 10
802.432193
 20
2473.665131
 30
0.0
 11
802.432193
 21
2494.72
 31
0.0
  0
ARC
  5
10E
102
{ACAD_REACTORS
330
591
102
}
330
1F
100
AcDbEntity
  8
LC-005-002-RND-0
 62
     7
370
    50
100
AcDbCircle
 10
892.223536
 20
1312.606895
 30
0.0
 40
7.5
100
AcDbArc
 50
90.0
 51
180.0
  0
CIRCLE
  5
10F
102
{ACAD_REACTORS
330
58B
102
}
330
1F
100
AcDbEntity
  8
LC-002-002-----0
 62
     7
370
    50
100
AcDbCircle
 10
802.432193
 20
1894.31
 30
0.0
 40
57.5
  0
ARC
  5
110
102
{ACAD_REACTORS
330
58B
102
}
330
1F
100
AcDbEntity
  8
LC-002-002-----0
 62
     7
370
    50
100
AcDbCircle
 10
557.432193
 20
1987.933529
 30
0.0
 40
12.0
100
AcDbArc
 50
90.0
 51
180.0
  0
ARC
  5
111
102
{ACAD_REACTORS
330
58B
102
}
330
1F
100
AcDbEntity
  8
LC-002-002-----0
 62
     7
370
    50
100
AcDbCircle
 10
557.432193
 20
1981.31302
 30
0.0
 40
12.0
100
AcDbArc
 50
90.0
 51
180.0
  0
ARC
  5
112
102
{ACAD_REACTORS
330
58B
102
}
330
1F
100
AcDbEntity
  8
LC-002-002-----0
 62
     7
370
    50
100
AcDbCircle
 10
1047.432193
 20
1987.933529
 30
0.0
 40
12.0
100
AcDbArc
 50
0.0
 51
90.0
  0
ARC
  5
113
102
{ACAD_REACTORS
330
58B
102
}
330
1F
100
AcDbEntity
  8
LC-002-002-----0
 62
     7
370
    50
100
AcDbCircle
 10
1047.432193
 20
1981.31302
 30
0.0
 40
12.0
100
AcDbArc
 50
0.0
 51
90.0
  0
ARC
  5
114
102
{ACAD_REACTORS
330
58B
102
}
330
1F
100
AcDbEntity
  8
LC-002-002-----0
 62
     7
370
    50
100
AcDbCircle
 10
557.432193
 20
1647.176884
 30
0.0
 40
12.0
100
AcDbArc
 50
180.0
 51
270.0
  0
ARC
  5
115
102
{ACAD_REACTORS
330
58F
102
}
330
1F
100
AcDbEntity
  8
LC-005-002-RND-0
 62
     7
370
    50
100
AcDbCircle
 10
279.723536
 20
1316.856895
 30
0.0
 40
5.0
100
AcDbArc
 50
90.0
 51
180.0
  0
ARC
  5
116
102
{ACAD_REACTORS
330
58B
102
}
330
1F
100
AcDbEntity
  8
LC-002-002-----0
 62
     7
370
    50
100
AcDbCircle
 10
1047.432193
 20
1647.176884
 30
0.0
 40
12.0
100
AcDbArc
 50
270.0
 51
0.0
  0
ARC
  5
117
102
{ACAD_REACTORS
330
58F
102
}
330
1F
100
AcDbEntity
  8
LC-005-002-RND-0
 62
     7
370
    50
100
AcDbCircle
 10
544.723536
 20
1316.856895
 30
0.0
 40
5.0
100
AcDbArc
 50
0.0
 51
90.0
  0
ARC
  5
118
102
{ACAD_REACTORS
330
58F
102
}
330
1F
100
AcDbEntity
  8
LC-005-002-RND-0
 62
     7
370
    50
100
AcDbCircle
 10
544.723536
 20
1081.856895
 30
0.0
 40
5.0
100
AcDbArc
 50
270.0
 51
0.0
  0
ARC
  5
119
102
{ACAD_REACTORS
330
58F
102
}
330
1F
100
AcDbEntity
  8
LC-005-002-RND-0
 62
     7
370
    50
100
AcDbCircle
 10
279.723536
 20
1081.856895
 30
0.0
 40
5.0
100
AcDbArc
 50
180.0
 51
270.0
  0
ARC
  5
11A
102
{ACAD_REACTORS
330
591
102
}
330
1F
100
AcDbEntity
  8
LC-005-002-RND-0
 62
     7
370
    50
100
AcDbCircle
 10
1148.723536
 20
1312.606895
 30
0.0
 40
7.5
100
AcDbArc
 50
0.0
 51
90.0
  0
LINE
  5
11B
102
{ACAD_REACTORS
330
592
102
}
330
1F
100
AcDbEntity
  8
LC-002-002-----0
 62
     7
370
    50
100
AcDbLine
 10
1457.960556
 20
1299.364929
 30
0.0
 11
1457.960556
 21
1084.864929
 31
0.0
  0
ELLIPSE
  5
11C
102
{ACAD_REACTORS
330
58B
102
}
330
1F
100
AcDbEntity
  8
LC-002-002-----0
 62
     7
370
    50
100
AcDbEllipse
 10
802.432193
 20
1990.897919
 30
0.0
 11
14.99999998293368
 21
0.0
 31
0.0
210
0.0
220
0.0
230
1.0
 40
0.108013
 41
0.0
 42
6.283185307179586
  0
LINE
  5
11D
102
{ACAD_REACTORS
330
590
102
}
330
1F
100
AcDbEntity
  8
LC-002-002-----0
 62
     7
370
    50
100
AcDbLine
 10
1002.026445
 20
884.421477
 30
0.0
 11
1249.679022
 21
884.421477
 31
0.0
  0
LINE
  5
11E
102
{ACAD_REACTORS
330
590
102
}
330
1F
100
AcDbEntity
  8
LC-002-002-----0
 62
     7
370
    50
100
AcDbLine
 10
947.534525
 20
744.421477
 30
0.0
 11
863.219444
 21
744.421477
 31
0.0
  0
LINE
  5
11F
102
{ACAD_REACTORS
330
592
102
}
330
1F
100
AcDbEntity
  8
LC-002-002-----0
 62
     7
370
    50
100
AcDbLine
 10
1465.960556
 20
1076.864929
 30
0.0
 11
1710.460556
 21
1076.864929
 31
0.0
  0
ARC
  5
120
102
{ACAD_REACTORS
330
591
102
}
330
1F
100
AcDbEntity
  8
LC-005-002-RND-0
 62
     7
370
    50
100
AcDbCircle
 10
1148.723536
 20
1086.106895
 30
0.0
 40
7.5
100
AcDbArc
 50
270.0
 51
0.0
  0
ARC
  5
121
102
{ACAD_REACTORS
330
591
102
}
330
1F
100
AcDbEntity
  8
LC-005-002-RND-0
 62
     7
370
    50
100
AcDbCircle
 10
892.223536
 20
1086.106895
 30
0.0
 40
7.5
100
AcDbArc
 50
180.0
 51
270.0
  0
LINE
  5
122
102
{ACAD_REACTORS
330
58E
102
}
330
1F
100
AcDbEntity
  8
LC-004-006-MLN-0
 62
     7
370
    25
100
AcDbLine
 10
1631.891981
 20
2000.630633
 30
0.0
 11
1633.250851
 21
1987.701848
 31
0.0
  0
LINE
  5
123
102
{ACAD_REACTORS
330
592
102
}
330
1F
100
AcDbEntity
  8
LC-002-002-----0
 62
     7
370
    50
100
AcDbLine
 10
1718.460556
 20
1084.864929
 30
0.0
 11
1718.460556
 21
1299.364929
 31
0.0
  0
LINE
  5
124
102
{ACAD_REACTORS
330
592
102
}
330
1F
100
AcDbEntity
  8
LC-002-002-----0
 62
     7
370
    50
100
AcDbLine
 10
1710.460556
 20
1307.364929
 30
0.0
 11
1465.960556
 21
1307.364929
 31
0.0
  0
ARC
  5
125
102
{ACAD_REACTORS
330
592
102
}
330
1F
100
AcDbEntity
  8
LC-005-002-RND-0
 62
     7
370
    50
100
AcDbCircle
 10
1465.960556
 20
1299.364929
 30
0.0
 40
8.0
100
AcDbArc
 50
90.0
 51
180.0
  0
ARC
  5
126
102
{ACAD_REACTORS
330
592
102
}
330
1F
100
AcDbEntity
  8
LC-005-002-RND-0
 62
     7
370
    50
100
AcDbCircle
 10
1465.960556
 20
1084.864929
 30
0.0
 40
8.0
100
AcDbArc
 50
180.0
 51
270.0
  0
LINE
  5
127
102
{ACAD_REACTORS
330
58E
102
}
330
1F
100
AcDbEntity
  8
LC-002-002-----0
 62
     7
370
    50
100
AcDbLine
 10
1648.352355
 20
1992.305605
 30
0.0
 11
1647.620656
 21
1999.267258
 31
0.0
  0
ARC
  5
128
102
{ACAD_REACTORS
330
592
102
}
330
1F
100
AcDbEntity
  8
LC-005-002-RND-0
 62
     7
370
    50
100
AcDbCircle
 10
1710.460556
 20
1084.864929
 30
0.0
 40
8.0
100
AcDbArc
 50
270.0
 51
0.0
  0
ARC
  5
129
102
{ACAD_REACTORS
330
592
102
}
330
1F
100
AcDbEntity
  8
LC-005-002-RND-0
 62
     7
370
    50
100
AcDbCircle
 10
1710.460556
 20
1299.364929
 30
0.0
 40
8.0
100
AcDbArc
 50
0.0
 51
90.0
  0
LINE
  5
12A
102
{ACAD_REACTORS
330
58E
102
}
330
1F
100
AcDbEntity
  8
LC-002-002-----0
 62
     7
370
    50
100
AcDbLine
 10
1617.522177
 20
1989.065222
 30
0.0
 11
1616.790477
 21
1996.026876
 31
0.0
  0
LINE
  5
12B
102
{ACAD_REACTORS
330
58B
102
}
330
1F
100
AcDbEntity
  8
LC-002-002-----0
 62
     7
370
    50
100
AcDbLine
 10
1047.432193
 20
1999.933529
 30
0.0
 11
557.432193
 21
1999.933529
 31
0.0
  0
LINE
  5
12C
102
{ACAD_REACTORS
330
58B
102
}
330
1F
100
AcDbEntity
  8
LC-002-002-----0
 62
     7
370
    50
100
AcDbLine
 10
1047.432193
 20
1993.31302
 30
0.0
 11
557.432193
 21
1993.31302
 31
0.0
  0
LINE
  5
12D
102
{ACAD_REACTORS
330
58B
102
}
330
1F
100
AcDbEntity
  8
LC-002-002-----0
 62
     7
370
    50
100
AcDbLine
 10
557.432193
 20
1635.176884
 30
0.0
 11
1047.432193
 21
1635.176884
 31
0.0
  0
LINE
  5
12E
102
{ACAD_REACTORS
330
58B
102
}
330
1F
100
AcDbEntity
  8
LC-002-002-----0
 62
     7
370
    50
100
AcDbLine
 10
557.432193
 20
1626.31
 30
0.0
 11
1047.432193
 21
1626.31
 31
0.0
  0
LINE
  5
12F
102
{ACAD_REACTORS
330
58B
102
}
330
1F
100
AcDbEntity
  8
LC-002-002-----0
 62
     7
370
    50
100
AcDbLine
 10
1059.432193
 20
1638.31
 30
0.0
 11
1059.432193
 21
2068.31
 31
0.0
  0
LINE
  5
130
102
{ACAD_REACTORS
330
58B
102
}
330
1F
100
AcDbEntity
  8
LC-002-002-----0
 62
     7
370
    50
100
AcDbLine
 10
545.432193
 20
2068.31
 30
0.0
 11
545.432193
 21
1638.31
 31
0.0
  0
LINE
  5
131
102
{ACAD_REACTORS
330
58B
102
}
330
1F
100
AcDbEntity
  8
LC-002-002-----0
 62
     7
370
    50
100
AcDbLine
 10
1047.432193
 20
2080.31
 30
0.0
 11
557.432193
 21
2080.31
 31
0.0
  0
ARC
  5
132
102
{ACAD_REACTORS
330
58B
102
}
330
1F
100
AcDbEntity
  8
LC-002-002-----0
 62
     7
370
    50
100
AcDbCircle
 10
557.432193
 20
1638.31
 30
0.0
 40
12.0
100
AcDbArc
 50
180.0
 51
270.0
  0
ARC
  5
133
102
{ACAD_REACTORS
330
58B
102
}
330
1F
100
AcDbEntity
  8
LC-002-002-----0
 62
     7
370
    50
100
AcDbCircle
 10
1047.432193
 20
1638.31
 30
0.0
 40
12.0
100
AcDbArc
 50
270.0
 51
0.0
  0
ARC
  5
134
102
{ACAD_REACTORS
330
58B
102
}
330
1F
100
AcDbEntity
  8
LC-002-002-----0
 62
     7
370
    50
100
AcDbCircle
 10
1047.432193
 20
2068.31
 30
0.0
 40
12.0
100
AcDbArc
 50
0.0
 51
90.0
  0
ARC
  5
135
102
{ACAD_REACTORS
330
58B
102
}
330
1F
100
AcDbEntity
  8
LC-002-002-----0
 62
     7
370
    50
100
AcDbCircle
 10
557.432193
 20
2068.31
 30
0.0
 40
12.0
100
AcDbArc
 50
90.0
 51
180.0
  0
LINE
  5
136
102
{ACAD_REACTORS
330
58B
102
}
330
1F
100
AcDbEntity
  8
LC-002-002-----0
 62
     7
370
    50
100
AcDbLine
 10
1087.432193
 20
1610.31
 30
0.0
 11
1087.432193
 21
2096.31
 31
0.0
  0
LINE
  5
137
102
{ACAD_REACTORS
330
58B
102
}
330
1F
100
AcDbEntity
  8
LC-002-002-----0
 62
     7
370
    50
100
AcDbLine
 10
529.432193
 20
1598.31
 30
0.0
 11
1075.432193
 21
1598.31
 31
0.0
  0
LINE
  5
138
102
{ACAD_REACTORS
330
58B
102
}
330
1F
100
AcDbEntity
  8
LC-002-002-----0
 62
     7
370
    50
100
AcDbLine
 10
517.432193
 20
2096.31
 30
0.0
 11
517.432193
 21
1610.31
 31
0.0
  0
LINE
  5
139
102
{ACAD_REACTORS
330
58B
102
}
330
1F
100
AcDbEntity
  8
LC-002-002-----0
 62
     7
370
    50
100
AcDbLine
 10
1075.432193
 20
2108.31
 30
0.0
 11
529.432193
 21
2108.31
 31
0.0
  0
DIMENSION
  5
13C
102
{ACAD_REACTORS
330
58B
102
}
330
1F
100
AcDbEntity
  8
LC-006-003-----0
 62
     7
370
    25
100
AcDbDimension
  2
*D2
 10
1250.0
 20
1598.31
 30
0.0
 11
1220.0
 21
1853.31
 31
0.0
 70
   160
 71
     5
 42
510.0
 53
90.0
  3
LC-DIM-L-0025-03-02
100
AcDbAlignedDimension
 13
1098.432193
 23
2108.31
 33
0.0
 14
1098.432193
 24
1598.31
 34
0.0
 50
90.0
100
AcDbRotatedDimension
  0
DIMENSION
  5
14A
102
{ACAD_REACTORS
330
58B
102
}
330
1F
100
AcDbEntity
  8
LC-006-003-----0
 62
     7
370
    25
100
AcDbDimension
  2
*D3
 10
517.432193
 20
1514.7
 30
0.0
 11
797.326144
 21
1544.7
 31
0.0
 70
   160
 71
     5
 42
570.0
  3
LC-DIM-L-0025-03-02
100
AcDbAlignedDimension
 13
1087.432193
 23
1587.31
 33
0.0
 14
517.432193
 24
1587.31
 34
0.0
100
AcDbRotatedDimension
  0
LINE
  5
157
102
{ACAD_REACTORS
330
595
102
}
330
1F
100
AcDbEntity
  8
LC-002-002-----0
 62
     7
370
    50
100
AcDbLine
 10
757.432193
 20
2487.546766
 30
0.0
 11
847.432193
 21
2487.546766
 31
0.0
  0
LINE
  5
158
102
{ACAD_REACTORS
330
595
102
}
330
1F
100
AcDbEntity
  8
LC-002-002-----0
 62
     7
370
    50
100
AcDbLine
 10
529.432193
 20
2662.72
 30
0.0
 11
534.837553
 21
2662.72
 31
0.0
  0
LINE
  5
159
102
{ACAD_REACTORS
330
595
102
}
330
1F
100
AcDbEntity
  8
LC-002-002-----0
 62
     7
370
    50
100
AcDbLine
 10
1070.026834
 20
2662.72
 30
0.0
 11
1075.432193
 21
2662.72
 31
0.0
  0
LINE
  5
15A
102
{ACAD_REACTORS
330
595
102
}
330
1F
100
AcDbEntity
  8
LC-002-002-----0
 62
     7
370
    50
100
AcDbLine
 10
539.810163
 20
2658.242642
 30
0.0
 11
555.677759
 21
2507.27255
 31
0.0
  0
LINE
  5
15B
102
{ACAD_REACTORS
330
595
102
}
330
1F
100
AcDbEntity
  8
LC-002-002-----0
 62
     7
370
    50
100
AcDbLine
 10
1065.054224
 20
2658.242642
 30
0.0
 11
1049.186628
 21
2507.27255
 31
0.0
  0
ARC
  5
15C
102
{ACAD_REACTORS
330
595
102
}
330
1F
100
AcDbEntity
  8
LC-005-002-RND-0
 62
     7
370
    25
100
AcDbCircle
 10
551.661416
 20
2650.72
 30
0.0
 40
3.999999999999973
100
AcDbArc
 50
186.0
 51
270.0
  0
LINE
  5
15D
102
{ACAD_REACTORS
330
595
102
}
330
1F
100
AcDbEntity
  8
LC-002-002-----0
 62
     7
370
    50
100
AcDbLine
 10
741.343404
 20
2476.665131
 30
0.0
 11
757.432193
 21
2476.665131
 31
0.0
  0
LINE
  5
15E
102
{ACAD_REACTORS
330
595
102
}
330
1F
100
AcDbEntity
  8
LC-002-002-----0
 62
     7
370
    50
100
AcDbLine
 10
847.432193
 20
2476.665131
 30
0.0
 11
863.520983
 21
2476.665131
 31
0.0
  0
ARC
  5
15F
102
{ACAD_REACTORS
330
595
102
}
330
1F
100
AcDbEntity
  8
LC-005-002-RND-0
 62
     7
370
    50
100
AcDbCircle
 10
583.56617
 20
2519.368436
 30
0.0
 40
22.00000000000004
100
AcDbArc
 50
186.0
 51
268.0
  0
ARC
  5
160
102
{ACAD_REACTORS
330
595
102
}
330
1F
100
AcDbEntity
  8
LC-005-002-RND-0
 62
     7
370
    50
100
AcDbCircle
 10
1021.298217
 20
2519.368436
 30
0.0
 40
21.99999999999986
100
AcDbArc
 50
272.0
 51
354.0
  0
ARC
  5
161
102
{ACAD_REACTORS
330
595
102
}
330
1F
100
AcDbEntity
  8
LC-005-002-RND-0
 62
     7
370
    50
100
AcDbCircle
 10
1027.307146
 20
2509.572177
 30
0.0
 40
21.99999999999982
100
AcDbArc
 50
272.0
 51
354.0
  0
LINE
  5
162
102
{ACAD_REACTORS
330
595
102
}
330
1F
100
AcDbEntity
  8
LC-002-002-----0
 62
     7
370
    50
100
AcDbLine
 10
847.432193
 20
2476.665131
 30
0.0
 11
757.432193
 21
2476.665131
 31
0.0
  0
LINE
  5
163
102
{ACAD_REACTORS
330
595
102
}
330
1F
100
AcDbEntity
  8
LC-002-002-----0
 62
     7
370
    50
100
AcDbLine
 10
545.808665
 20
2668.138114
 30
0.0
 11
561.686689
 21
2517.068809
 31
0.0
  0
ARC
  5
164
102
{ACAD_REACTORS
330
595
102
}
330
1F
100
AcDbEntity
  8
LC-002-002-----0
 62
     7
370
    25
100
AcDbCircle
 10
549.874644
 20
2667.719999
 30
0.0
 40
4.000000000000085
100
AcDbArc
 50
186.0
 51
270.000015
  0
LINE
  5
165
102
{ACAD_REACTORS
330
595
102
}
330
1F
100
AcDbEntity
  8
LC-002-002-----0
 62
     7
370
    50
100
AcDbLine
 10
1059.055722
 20
2668.138114
 30
0.0
 11
1043.177698
 21
2517.068809
 31
0.0
  0
ARC
  5
166
102
{ACAD_REACTORS
330
595
102
}
330
1F
100
AcDbEntity
  8
LC-005-002-RND-0
 62
     7
370
    50
100
AcDbCircle
 10
577.557241
 20
2509.572177
 30
0.0
 40
22.00000000000006
100
AcDbArc
 50
186.0
 51
268.0
  0
LINE
  5
167
102
{ACAD_REACTORS
330
595
102
}
330
1F
100
AcDbEntity
  8
LC-002-002-----0
 62
     7
370
    50
100
AcDbLine
 10
521.651741
 20
2671.72
 30
0.0
 11
541.830577
 21
2671.72
 31
0.0
  0
LINE
  5
168
102
{ACAD_REACTORS
330
595
102
}
330
1F
100
AcDbEntity
  8
LC-002-002-----0
 62
     7
370
    50
100
AcDbLine
 10
1063.03381
 20
2671.72
 30
0.0
 11
1083.212645
 21
2671.72
 31
0.0
  0
LINE
  5
169
102
{ACAD_REACTORS
330
595
102
}
330
1F
100
AcDbEntity
  8
LC-002-002-----0
 62
     7
370
    50
100
AcDbLine
 10
517.432193
 20
2664.72
 30
0.0
 11
517.661485
 21
2667.999026
 31
0.0
  0
LINE
  5
16A
102
{ACAD_REACTORS
330
595
102
}
330
1F
100
AcDbEntity
  8
LC-002-002-----0
 62
     7
370
    50
100
AcDbLine
 10
1087.432193
 20
2664.72
 30
0.0
 11
1087.202902
 21
2667.999026
 31
0.0
  0
ARC
  5
16B
102
{ACAD_REACTORS
330
595
102
}
330
1F
100
AcDbEntity
  8
LC-002-002-----0
 62
     7
370
    25
100
AcDbCircle
 10
1054.989743
 20
2667.72
 30
0.0
 40
4.0
100
AcDbArc
 50
270.0
 51
354.0
  0
LINE
  5
16C
102
{ACAD_REACTORS
330
595
102
}
330
1F
100
AcDbEntity
  8
LC-002-002-----0
 62
     7
370
    50
100
AcDbLine
 10
541.830577
 20
2671.72
 30
0.0
 11
1063.03381
 21
2671.72
 31
0.0
  0
ARC
  5
16D
102
{ACAD_REACTORS
330
595
102
}
330
1F
100
AcDbEntity
  8
LC-002-002-----0
 62
     7
370
    50
100
AcDbCircle
 10
863.520983
 20
2479.665131
 30
0.0
 40
3.0
100
AcDbArc
 50
270.0
 51
335.0
  0
ARC
  5
16E
102
{ACAD_REACTORS
330
595
102
}
330
1F
100
AcDbEntity
  8
LC-005-002-RND-0
 62
     7
370
    25
100
AcDbCircle
 10
1053.202971
 20
2650.72
 30
0.0
 40
4.0
100
AcDbArc
 50
270.0
 51
354.0
  0
ARC
  5
16F
102
{ACAD_REACTORS
330
595
102
}
330
1F
100
AcDbEntity
  8
LC-002-002-----0
 62
     7
370
    50
100
AcDbCircle
 10
733.711262
 20
2477.1027
 30
0.0
 40
5.00000000000028
100
AcDbArc
 50
81.7
 51
88.0
  0
ARC
  5
170
102
{ACAD_REACTORS
330
595
102
}
330
1F
100
AcDbEntity
  8
LC-002-002-----0
 62
     7
370
    50
100
AcDbCircle
 10
733.711262
 20
2477.1027
 30
0.0
 40
5.000000000000063
100
AcDbArc
 50
75.4
 51
81.7
  0
ARC
  5
171
102
{ACAD_REACTORS
330
595
102
}
330
1F
100
AcDbEntity
  8
LC-002-002-----0
 62
     7
370
    50
100
AcDbCircle
 10
733.711262
 20
2477.1027
 30
0.0
 40
5.000000000000108
100
AcDbArc
 50
69.1
 51
75.4
  0
ARC
  5
172
102
{ACAD_REACTORS
330
595
102
}
330
1F
100
AcDbEntity
  8
LC-002-002-----0
 62
     7
370
    50
100
AcDbCircle
 10
733.711262
 20
2477.1027
 30
0.0
 40
5.00000000000032
100
AcDbArc
 50
62.8
 51
69.1
  0
ARC
  5
173
102
{ACAD_REACTORS
330
595
102
}
330
1F
100
AcDbEntity
  8
LC-002-002-----0
 62
     7
370
    50
100
AcDbCircle
 10
733.711262
 20
2477.1027
 30
0.0
 40
5.000000000000252
100
AcDbArc
 50
56.5
 51
62.8
  0
ARC
  5
174
102
{ACAD_REACTORS
330
595
102
}
330
1F
100
AcDbEntity
  8
LC-002-002-----0
 62
     7
370
    50
100
AcDbCircle
 10
733.711262
 20
2477.1027
 30
0.0
 40
4.999999999999902
100
AcDbArc
 50
50.2
 51
56.5
  0
ARC
  5
175
102
{ACAD_REACTORS
330
595
102
}
330
1F
100
AcDbEntity
  8
LC-002-002-----0
 62
     7
370
    50
100
AcDbCircle
 10
733.711262
 20
2477.1027
 30
0.0
 40
5.000000000000006
100
AcDbArc
 50
43.9
 51
50.2
  0
ARC
  5
176
102
{ACAD_REACTORS
330
595
102
}
330
1F
100
AcDbEntity
  8
LC-002-002-----0
 62
     7
370
    50
100
AcDbCircle
 10
733.711262
 20
2477.1027
 30
0.0
 40
5.000000000000121
100
AcDbArc
 50
37.6
 51
43.9
  0
ARC
  5
177
102
{ACAD_REACTORS
330
595
102
}
330
1F
100
AcDbEntity
  8
LC-002-002-----0
 62
     7
370
    50
100
AcDbCircle
 10
733.711262
 20
2477.1027
 30
0.0
 40
5.000000000000186
100
AcDbArc
 50
31.3
 51
37.6
  0
ARC
  5
178
102
{ACAD_REACTORS
330
595
102
}
330
1F
100
AcDbEntity
  8
LC-002-002-----0
 62
     7
370
    50
100
AcDbCircle
 10
733.711262
 20
2477.1027
 30
0.0
 40
5.000000000000012
100
AcDbArc
 50
25.0
 51
31.3
  0
LINE
  5
179
102
{ACAD_REACTORS
330
595
102
}
330
1F
100
AcDbEntity
  8
LC-002-002-----0
 62
     7
370
    50
100
AcDbLine
 10
866.239906
 20
2478.397276
 30
0.0
 11
866.621586
 21
2479.215792
 31
0.0
  0
LINE
  5
17A
102
{ACAD_REACTORS
330
595
102
}
330
1F
100
AcDbEntity
  8
LC-002-002-----0
 62
     7
370
    25
100
AcDbLine
 10
1053.202971
 20
2646.72
 30
0.0
 11
551.661416
 21
2646.72
 31
0.0
  0
ARC
  5
17B
102
{ACAD_REACTORS
330
595
102
}
330
1F
100
AcDbEntity
  8
LC-002-002-----0
 62
     7
370
    50
100
AcDbCircle
 10
541.830577
 20
2667.72
 30
0.0
 40
4.000000000000038
100
AcDbArc
 50
6.0
 51
90.0
  0
ARC
  5
17C
102
{ACAD_REACTORS
330
595
102
}
330
1F
100
AcDbEntity
  8
LC-002-002-----0
 62
     7
370
    50
100
AcDbCircle
 10
521.651741
 20
2667.72
 30
0.0
 40
4.0
100
AcDbArc
 50
90.0
 51
176.0
  0
ARC
  5
17D
102
{ACAD_REACTORS
330
595
102
}
330
1F
100
AcDbEntity
  8
LC-002-002-----0
 62
     7
370
    50
100
AcDbCircle
 10
534.837553
 20
2657.72
 30
0.0
 40
5.00000000000006
100
AcDbArc
 50
6.0
 51
90.0
  0
LINE
  5
17E
102
{ACAD_REACTORS
330
595
102
}
330
1F
100
AcDbEntity
  8
LC-002-002-----0
 62
     7
370
    50
100
AcDbLine
 10
733.885759
 20
2482.099655
 30
0.0
 11
576.789452
 21
2487.585578
 31
0.0
  0
ARC
  5
17F
102
{ACAD_REACTORS
330
595
102
}
330
1F
100
AcDbEntity
  8
LC-002-002-----0
 62
     7
370
    50
100
AcDbCircle
 10
733.711262
 20
2477.1027
 30
0.0
 40
5.00000000000028
100
AcDbArc
 50
81.7
 51
88.0
  0
ARC
  5
180
102
{ACAD_REACTORS
330
595
102
}
330
1F
100
AcDbEntity
  8
LC-002-002-----0
 62
     7
370
    50
100
AcDbCircle
 10
733.711262
 20
2477.1027
 30
0.0
 40
5.000000000000063
100
AcDbArc
 50
75.4
 51
81.7
  0
ARC
  5
181
102
{ACAD_REACTORS
330
595
102
}
330
1F
100
AcDbEntity
  8
LC-002-002-----0
 62
     7
370
    50
100
AcDbCircle
 10
733.711262
 20
2477.1027
 30
0.0
 40
5.000000000000108
100
AcDbArc
 50
69.1
 51
75.4
  0
ARC
  5
182
102
{ACAD_REACTORS
330
595
102
}
330
1F
100
AcDbEntity
  8
LC-002-002-----0
 62
     7
370
    50
100
AcDbCircle
 10
733.711262
 20
2477.1027
 30
0.0
 40
5.00000000000032
100
AcDbArc
 50
62.8
 51
69.1
  0
ARC
  5
183
102
{ACAD_REACTORS
330
595
102
}
330
1F
100
AcDbEntity
  8
LC-002-002-----0
 62
     7
370
    50
100
AcDbCircle
 10
733.711262
 20
2477.1027
 30
0.0
 40
5.000000000000252
100
AcDbArc
 50
56.5
 51
62.8
  0
ARC
  5
184
102
{ACAD_REACTORS
330
595
102
}
330
1F
100
AcDbEntity
  8
LC-002-002-----0
 62
     7
370
    50
100
AcDbCircle
 10
733.711262
 20
2477.1027
 30
0.0
 40
4.999999999999902
100
AcDbArc
 50
50.2
 51
56.5
  0
ARC
  5
185
102
{ACAD_REACTORS
330
595
102
}
330
1F
100
AcDbEntity
  8
LC-002-002-----0
 62
     7
370
    50
100
AcDbCircle
 10
733.711262
 20
2477.1027
 30
0.0
 40
5.000000000000006
100
AcDbArc
 50
43.9
 51
50.2
  0
ARC
  5
186
102
{ACAD_REACTORS
330
595
102
}
330
1F
100
AcDbEntity
  8
LC-002-002-----0
 62
     7
370
    50
100
AcDbCircle
 10
733.711262
 20
2477.1027
 30
0.0
 40
5.000000000000121
100
AcDbArc
 50
37.6
 51
43.9
  0
ARC
  5
187
102
{ACAD_REACTORS
330
595
102
}
330
1F
100
AcDbEntity
  8
LC-002-002-----0
 62
     7
370
    50
100
AcDbCircle
 10
733.711262
 20
2477.1027
 30
0.0
 40
5.000000000000186
100
AcDbArc
 50
31.3
 51
37.6
  0
ARC
  5
188
102
{ACAD_REACTORS
330
595
102
}
330
1F
100
AcDbEntity
  8
LC-002-002-----0
 62
     7
370
    50
100
AcDbCircle
 10
733.711262
 20
2477.1027
 30
0.0
 40
5.000000000000012
100
AcDbArc
 50
25.0
 51
31.3
  0
LINE
  5
189
102
{ACAD_REACTORS
330
595
102
}
330
1F
100
AcDbEntity
  8
LC-002-002-----0
 62
     7
370
    50
100
AcDbLine
 10
738.624481
 20
2478.397276
 30
0.0
 11
738.242801
 21
2479.215792
 31
0.0
  0
ARC
  5
18A
102
{ACAD_REACTORS
330
595
102
}
330
1F
100
AcDbEntity
  8
LC-002-002-----0
 62
     7
370
    50
100
AcDbCircle
 10
741.343404
 20
2479.665131
 30
0.0
 40
3.000000000000197
100
AcDbArc
 50
205.0
 51
270.0
  0
LINE
  5
18B
102
{ACAD_REACTORS
330
595
102
}
330
1F
100
AcDbEntity
  8
LC-002-002-----0
 62
     7
370
    50
100
AcDbLine
 10
757.432193
 20
2476.665131
 30
0.0
 11
757.432193
 21
2487.546766
 31
0.0
  0
LINE
  5
18C
102
{ACAD_REACTORS
330
595
102
}
330
1F
100
AcDbEntity
  8
LC-002-002-----0
 62
     7
370
    50
100
AcDbLine
 10
757.432193
 20
2487.546766
 30
0.0
 11
745.86284
 21
2489.586755
 31
0.0
  0
ARC
  5
18D
102
{ACAD_REACTORS
330
595
102
}
330
1F
100
AcDbEntity
  8
LC-002-002-----0
 62
     7
370
    50
100
AcDbCircle
 10
746.036489
 20
2490.571563
 30
0.0
 40
1.000000000000132
100
AcDbArc
 50
185.0
 51
260.0
  0
LINE
  5
18E
102
{ACAD_REACTORS
330
595
102
}
330
1F
100
AcDbEntity
  8
LC-002-002-----0
 62
     7
370
    50
100
AcDbLine
 10
745.040294
 20
2490.484407
 30
0.0
 11
745.024724
 21
2490.66237
 31
0.0
  0
ARC
  5
18F
102
{ACAD_REACTORS
330
595
102
}
330
1F
100
AcDbEntity
  8
LC-002-002-----0
 62
     7
370
    50
100
AcDbCircle
 10
743.82929
 20
2490.557783
 30
0.0
 40
1.199999999999984
100
AcDbArc
 50
5.0
 51
88.0
  0
LINE
  5
190
102
{ACAD_REACTORS
330
595
102
}
330
1F
100
AcDbEntity
  8
LC-002-002-----0
 62
     7
370
    50
100
AcDbLine
 10
743.87117
 20
2491.757052
 30
0.0
 11
582.798381
 21
2497.381837
 31
0.0
  0
LINE
  5
191
102
{ACAD_REACTORS
330
595
102
}
330
1F
100
AcDbEntity
  8
LC-002-002-----0
 62
     7
370
    50
100
AcDbLine
 10
860.993217
 20
2491.757052
 30
0.0
 11
1022.066006
 21
2497.381837
 31
0.0
  0
ARC
  5
192
102
{ACAD_REACTORS
330
595
102
}
330
1F
100
AcDbEntity
  8
LC-002-002-----0
 62
     7
370
    50
100
AcDbCircle
 10
861.035096
 20
2490.557783
 30
0.0
 40
1.199999999999683
100
AcDbArc
 50
92.0
 51
175.0
  0
LINE
  5
193
102
{ACAD_REACTORS
330
595
102
}
330
1F
100
AcDbEntity
  8
LC-002-002-----0
 62
     7
370
    50
100
AcDbLine
 10
1075.432193
 20
2662.72
 30
0.0
 11
1075.432193
 21
2664.72
 31
0.0
  0
LINE
  5
194
102
{ACAD_REACTORS
330
595
102
}
330
1F
100
AcDbEntity
  8
LC-002-002-----0
 62
     7
370
    50
100
AcDbLine
 10
517.432193
 20
2664.72
 30
0.0
 11
529.432193
 21
2664.72
 31
0.0
  0
LINE
  5
195
102
{ACAD_REACTORS
330
595
102
}
330
1F
100
AcDbEntity
  8
LC-002-002-----0
 62
     7
370
    50
100
AcDbLine
 10
847.432193
 20
2476.665131
 30
0.0
 11
847.432193
 21
2487.546766
 31
0.0
  0
ARC
  5
196
102
{ACAD_REACTORS
330
595
102
}
330
1F
100
AcDbEntity
  8
LC-002-002-----0
 62
     7
370
    50
100
AcDbCircle
 10
863.520983
 20
2479.665131
 30
0.0
 40
3.0
100
AcDbArc
 50
270.0
 51
335.0
  0
LINE
  5
197
102
{ACAD_REACTORS
330
595
102
}
330
1F
100
AcDbEntity
  8
LC-002-002-----0
 62
     7
370
    50
100
AcDbLine
 10
866.239906
 20
2478.397276
 30
0.0
 11
866.621586
 21
2479.215792
 31
0.0
  0
LINE
  5
198
102
{ACAD_REACTORS
330
595
102
}
330
1F
100
AcDbEntity
  8
LC-002-002-----0
 62
     7
370
    50
100
AcDbLine
 10
1075.432193
 20
2664.72
 30
0.0
 11
1087.432193
 21
2664.72
 31
0.0
  0
ARC
  5
199
102
{ACAD_REACTORS
330
595
102
}
330
1F
100
AcDbEntity
  8
LC-002-002-----0
 62
     7
370
    50
100
AcDbCircle
 10
871.153125
 20
2477.1027
 30
0.0
 40
5.000000000000141
100
AcDbArc
 50
92.0
 51
155.0
  0
LINE
  5
19A
102
{ACAD_REACTORS
330
595
102
}
330
1F
100
AcDbEntity
  8
LC-002-002-----0
 62
     7
370
    50
100
AcDbLine
 10
870.978628
 20
2482.099655
 30
0.0
 11
1028.074935
 21
2487.585578
 31
0.0
  0
ARC
  5
19B
102
{ACAD_REACTORS
330
595
102
}
330
1F
100
AcDbEntity
  8
LC-002-002-----0
 62
     7
370
    50
100
AcDbCircle
 10
1070.026834
 20
2657.72
 30
0.0
 40
5.0
100
AcDbArc
 50
90.0
 51
174.0
  0
LINE
  5
19C
102
{ACAD_REACTORS
330
595
102
}
330
1F
100
AcDbEntity
  8
LC-002-002-----0
 62
     7
370
    50
100
AcDbLine
 10
529.432193
 20
2662.72
 30
0.0
 11
529.432193
 21
2664.72
 31
0.0
  0
ARC
  5
19D
102
{ACAD_REACTORS
330
595
102
}
330
1F
100
AcDbEntity
  8
LC-002-002-----0
 62
     7
370
    50
100
AcDbCircle
 10
1083.212645
 20
2667.72
 30
0.0
 40
3.999999999999987
100
AcDbArc
 50
4.0
 51
90.0
  0
ARC
  5
19E
102
{ACAD_REACTORS
330
595
102
}
330
1F
100
AcDbEntity
  8
LC-002-002-----0
 62
     7
370
    50
100
AcDbCircle
 10
1063.03381
 20
2667.72
 30
0.0
 40
4.0
100
AcDbArc
 50
90.0
 51
174.0
  0
LINE
  5
19F
102
{ACAD_REACTORS
330
595
102
}
330
1F
100
AcDbEntity
  8
LC-002-002-----0
 62
     7
370
    50
100
AcDbLine
 10
859.824093
 20
2490.484407
 30
0.0
 11
859.839663
 21
2490.66237
 31
0.0
  0
ARC
  5
1A0
102
{ACAD_REACTORS
330
595
102
}
330
1F
100
AcDbEntity
  8
LC-002-002-----0
 62
     7
370
    50
100
AcDbCircle
 10
858.827898
 20
2490.571563
 30
0.0
 40
1.000000000000036
100
AcDbArc
 50
280.0
 51
355.0
  0
LINE
  5
1A1
102
{ACAD_REACTORS
330
595
102
}
330
1F
100
AcDbEntity
  8
LC-002-002-----0
 62
     7
370
    50
100
AcDbLine
 10
847.432193
 20
2487.546766
 30
0.0
 11
859.001547
 21
2489.586755
 31
0.0
  0
LINE
  5
1A2
102
{ACAD_REACTORS
330
595
102
}
330
1F
100
AcDbEntity
  8
LC-002-002-----0
 62
     7
370
    25
100
AcDbLine
 10
549.874644
 20
2663.72
 30
0.0
 11
1054.989743
 21
2663.72
 31
0.0
  0
LINE
  5
1A3
102
{ACAD_REACTORS
330
58F
102
}
330
1F
100
AcDbEntity
  8
LC-002-002-----0
 62
     7
370
    50
100
AcDbLine
 10
544.723536
 20
1321.856895
 30
0.0
 11
279.723536
 21
1321.856895
 31
0.0
  0
LINE
  5
1A4
102
{ACAD_REACTORS
330
58F
102
}
330
1F
100
AcDbEntity
  8
LC-002-002-----0
 62
     7
370
    50
100
AcDbLine
 10
274.723536
 20
1316.856895
 30
0.0
 11
274.723536
 21
1081.856895
 31
0.0
  0
LINE
  5
1A5
102
{ACAD_REACTORS
330
58F
102
}
330
1F
100
AcDbEntity
  8
LC-002-002-----0
 62
     7
370
    50
100
AcDbLine
 10
279.723536
 20
1076.856895
 30
0.0
 11
544.723536
 21
1076.856895
 31
0.0
  0
LINE
  5
1A6
102
{ACAD_REACTORS
330
58F
102
}
330
1F
100
AcDbEntity
  8
LC-002-002-----0
 62
     7
370
    50
100
AcDbLine
 10
549.723536
 20
1081.856895
 30
0.0
 11
549.723536
 21
1316.856895
 31
0.0
  0
DIMENSION
  5
1A7
102
{ACAD_REACTORS
330
58F
102
}
330
1F
100
AcDbEntity
  8
LC-006-003-----0
 62
     7
370
    25
100
AcDbDimension
  2
*D4
 10
635.416648
 20
1321.856895
 30
0.0
 11
605.416648
 21
1199.356895
 31
0.0
 70
   160
 71
     5
 42
490.0
 53
90.0
  3
LC-DIM-L-0025-03-02
100
AcDbAlignedDimension
 13
544.723536
 23
1076.856895
 33
0.0
 14
544.723536
 24
1321.856895
 34
0.0
 50
90.0
100
AcDbRotatedDimension
1001
ACAD
1000
DSTYLE
1002
{
1070
   144
1040
2.0
1002
}
  0
DIMENSION
  5
1B4
102
{ACAD_REACTORS
330
58F
102
}
330
1F
100
AcDbEntity
  8
LC-006-003-----0
 62
     7
370
    25
100
AcDbDimension
  2
*D5
 10
549.723536
 20
990.443606
 30
0.0
 11
412.223536
 21
1020.443606
 31
0.0
 70
   160
 71
     5
 42
550.0
  3
LC-DIM-L-0025-03-02
100
AcDbAlignedDimension
 13
274.723536
 23
1081.856895
 33
0.0
 14
549.723536
 24
1081.856895
 34
0.0
100
AcDbRotatedDimension
1001
ACAD
1000
DSTYLE
1002
{
1070
   144
1040
2.0
1002
}
  0
TEXT
  5
1C2
102
{ACAD_REACTORS
330
58F
102
}
330
1F
100
AcDbEntity
  8
LC-007-004-----0
 62
     7
370
    35
100
AcDbText
 10
193.790869
 20
1407.772261
 30
0.0
 40
35.0
  1
Ausschnitte 1:20
 41
0.8
  7
LCTX0-400-0-0pDIN-Schrift
 72
     1
 11
371.124202
 21
1407.772261
 31
0.0
100
AcDbText
  0
LINE
  5
1C3
102
{ACAD_REACTORS
330
58D
102
}
330
1F
100
AcDbEntity
  8
LC-002-002-----0
 62
     7
370
    25
100
AcDbLine
 10
1480.777397
 20
1954.31
 30
0.0
 11
1450.487397
 21
1954.31
 31
0.0
  0
LINE
  5
1C4
102
{ACAD_REACTORS
330
58D
102
}
330
1F
100
AcDbEntity
  8
LC-002-002-----0
 62
     7
370
    25
100
AcDbLine
 10
1487.882397
 20
1949.31
 30
0.0
 11
1487.882397
 21
1839.31
 31
0.0
  0
LINE
  5
1C5
102
{ACAD_REACTORS
330
58D
102
}
330
1F
100
AcDbEntity
  8
LC-002-002-----0
 62
     7
370
    25
100
AcDbLine
 10
1483.882397
 20
1839.31
 30
0.0
 11
1487.882397
 21
1839.31
 31
0.0
  0
LINE
  5
1C6
102
{ACAD_REACTORS
330
58D
102
}
330
1F
100
AcDbEntity
  8
LC-002-002-----0
 62
     7
370
    25
100
AcDbLine
 10
1445.239716
 20
1856.81
 30
0.0
 11
1445.239716
 21
1931.81
 31
0.0
  0
LINE
  5
1C7
102
{ACAD_REACTORS
330
58D
102
}
330
1F
100
AcDbEntity
  8
LC-002-002-----0
 62
     7
370
    25
100
AcDbLine
 10
1447.739716
 20
1854.805036
 30
0.0
 11
1447.739716
 21
1933.814964
 31
0.0
  0
LINE
  5
1C8
102
{ACAD_REACTORS
330
58D
102
}
330
1F
100
AcDbEntity
  8
LC-002-002-----0
 62
     7
370
    25
100
AcDbLine
 10
1450.487397
 20
1954.564729
 30
0.0
 11
1450.487397
 21
1954.31
 31
0.0
  0
LINE
  5
1C9
102
{ACAD_REACTORS
330
58D
102
}
330
1F
100
AcDbEntity
  8
LC-002-002-----0
 62
     7
370
    25
100
AcDbLine
 10
1450.532397
 20
1954.31
 30
0.0
 11
1450.532397
 21
1935.4126
 31
0.0
  0
LINE
  5
1CA
102
{ACAD_REACTORS
330
58D
102
}
330
1F
100
AcDbEntity
  8
LC-002-002-----0
 62
     7
370
    25
100
AcDbLine
 10
1453.132397
 20
1973.599789
 30
0.0
 11
1453.132397
 21
1998.60416
 31
0.0
  0
LINE
  5
1CB
102
{ACAD_REACTORS
330
58D
102
}
330
1F
100
AcDbEntity
  8
LC-002-002-----0
 62
     7
370
    25
100
AcDbLine
 10
1645.949985
 20
2014.496901
 30
0.0
 11
1607.075133
 21
2018.103212
 31
0.0
  0
LINE
  5
1CC
102
{ACAD_REACTORS
330
58D
102
}
330
1F
100
AcDbEntity
  8
LC-002-002-----0
 62
     7
370
    25
100
AcDbLine
 10
1485.604838
 20
2011.801145
 30
0.0
 11
1465.632387
 21
2011.103692
 31
0.0
  0
LINE
  5
1CD
102
{ACAD_REACTORS
330
58D
102
}
330
1F
100
AcDbEntity
  8
LC-002-002-----0
 62
     7
370
    25
100
AcDbLine
 10
1500.632397
 20
2018.603692
 30
0.0
 11
1506.632397
 21
2018.603692
 31
0.0
  0
LINE
  5
1CE
102
{ACAD_REACTORS
330
58D
102
}
330
1F
100
AcDbEntity
  8
LC-002-002-----0
 62
     7
370
    25
100
AcDbLine
 10
1569.445063
 20
2018.299944
 30
0.0
 11
1512.905609
 21
2012.357408
 31
0.0
  0
LINE
  5
1CF
102
{ACAD_REACTORS
330
58D
102
}
330
1F
100
AcDbEntity
  8
LC-002-002-----0
 62
     7
370
    25
100
AcDbLine
 10
1478.132397
 20
1973.599789
 30
0.0
 11
1478.132397
 21
1985.667182
 31
0.0
  0
LINE
  5
1D0
102
{ACAD_REACTORS
330
58D
102
}
330
1F
100
AcDbEntity
  8
LC-002-002-----0
 62
     7
370
    25
100
AcDbLine
 10
1480.732397
 20
1954.31
 30
0.0
 11
1480.732397
 21
1949.292587
 31
0.0
  0
LINE
  5
1D1
102
{ACAD_REACTORS
330
58D
102
}
330
1F
100
AcDbEntity
  8
LC-002-002-----0
 62
     7
370
    25
100
AcDbLine
 10
1480.777397
 20
1954.564729
 30
0.0
 11
1480.777397
 21
1954.31
 31
0.0
  0
LINE
  5
1D2
102
{ACAD_REACTORS
330
58D
102
}
330
1F
100
AcDbEntity
  8
LC-002-002-----0
 62
     7
370
    25
100
AcDbLine
 10
1483.882397
 20
1839.31
 30
0.0
 11
1483.882397
 21
1949.31
 31
0.0
  0
LINE
  5
1D3
102
{ACAD_REACTORS
330
58D
102
}
330
1F
100
AcDbEntity
  8
LC-002-002-----0
 62
     7
370
    25
100
AcDbLine
 10
1596.758214
 20
2018.656904
 30
0.0
 11
1570.203645
 21
2015.865906
 31
0.0
  0
LINE
  5
1D4
102
{ACAD_REACTORS
330
58D
102
}
330
1F
100
AcDbEntity
  8
LC-002-002-----0
 62
     7
370
    25
100
AcDbLine
 10
1606.779941
 20
2018.101416
 30
0.0
 11
1597.323994
 21
2017.107556
 31
0.0
  0
LINE
  5
1D5
102
{ACAD_REACTORS
330
58D
102
}
330
1F
100
AcDbEntity
  8
LC-002-002-----0
 62
     7
370
    25
100
AcDbLine
 10
1506.632397
 20
2018.603692
 30
0.0
 11
1506.632397
 21
1982.671882
 31
0.0
  0
LINE
  5
1D6
102
{ACAD_REACTORS
330
58D
102
}
330
1F
100
AcDbEntity
  8
LC-002-002-----0
 62
     7
370
    25
100
AcDbLine
 10
1614.554415
 20
2002.32766
 30
0.0
 11
1649.675814
 21
2006.019068
 31
0.0
  0
LINE
  5
1D7
102
{ACAD_REACTORS
330
58D
102
}
330
1F
100
AcDbEntity
  8
LC-002-002-----0
 62
     7
370
    25
100
AcDbLine
 10
1599.205506
 20
1999.206162
 30
0.0
 11
1612.538407
 21
2000.607507
 31
0.0
  0
LINE
  5
1D8
102
{ACAD_REACTORS
330
58D
102
}
330
1F
100
AcDbEntity
  8
LC-002-002-----0
 62
     7
370
    25
100
AcDbLine
 10
1572.419648
 20
1994.782042
 30
0.0
 11
1598.974497
 21
1997.573069
 31
0.0
  0
LINE
  5
1D9
102
{ACAD_REACTORS
330
58D
102
}
330
1F
100
AcDbEntity
  8
LC-002-002-----0
 62
     7
370
    25
100
AcDbLine
 10
1572.058275
 20
1993.436897
 30
0.0
 11
1515.51882
 21
1987.49436
 31
0.0
  0
LINE
  5
1DA
102
{ACAD_REACTORS
330
58D
102
}
330
1F
100
AcDbEntity
  8
LC-002-002-----0
 62
     7
370
    25
100
AcDbLine
 10
1612.851963
 20
1997.623938
 30
0.0
 11
1651.141056
 21
2001.648284
 31
0.0
  0
LINE
  5
1DB
102
{ACAD_REACTORS
330
58D
102
}
330
1F
100
AcDbEntity
  8
LC-002-002-----0
 62
     7
370
    25
100
AcDbLine
 10
1650.604222
 20
1999.580843
 30
0.0
 11
1613.806912
 21
1995.71329
 31
0.0
  0
LINE
  5
1DC
102
{ACAD_REACTORS
330
58D
102
}
330
1F
100
AcDbEntity
  8
LC-002-002-----0
 62
     7
370
    25
100
AcDbLine
 10
1485.604838
 20
1985.406239
 30
0.0
 11
1478.129769
 21
1985.667274
 31
0.0
  0
LINE
  5
1DD
102
{ACAD_REACTORS
330
58D
102
}
330
1F
100
AcDbEntity
  8
LC-002-002-----0
 62
     7
370
    25
100
AcDbLine
 10
1515.51882
 20
1987.49436
 30
0.0
 11
1512.905609
 21
2012.357408
 31
0.0
  0
LINE
  5
1DE
102
{ACAD_REACTORS
330
58D
102
}
330
1F
100
AcDbEntity
  8
LC-002-002-----0
 62
     7
370
    25
100
AcDbLine
 10
1450.487397
 20
1959.187365
 30
0.0
 11
1449.007449
 21
1958.416952
 31
0.0
  0
LINE
  5
1DF
102
{ACAD_REACTORS
330
58D
102
}
330
1F
100
AcDbEntity
  8
LC-002-002-----0
 62
     7
370
    25
100
AcDbLine
 10
1450.487397
 20
1957.646486
 30
0.0
 11
1449.007449
 21
1956.876074
 31
0.0
  0
LINE
  5
1E0
102
{ACAD_REACTORS
330
58D
102
}
330
1F
100
AcDbEntity
  8
LC-002-002-----0
 62
     7
370
    25
100
AcDbLine
 10
1450.487397
 20
1956.105608
 30
0.0
 11
1449.007449
 21
1955.335195
 31
0.0
  0
LINE
  5
1E1
102
{ACAD_REACTORS
330
58D
102
}
330
1F
100
AcDbEntity
  8
LC-002-002-----0
 62
     7
370
    25
100
AcDbLine
 10
1572.503271
 20
1993.986422
 30
0.0
 11
1569.994588
 21
2017.854947
 31
0.0
  0
LINE
  5
1E2
102
{ACAD_REACTORS
330
58D
102
}
330
1F
100
AcDbEntity
  8
LC-002-002-----0
 62
     7
370
    25
100
AcDbLine
 10
1482.257345
 20
1958.416898
 30
0.0
 11
1480.777397
 21
1957.646486
 31
0.0
  0
LINE
  5
1E3
102
{ACAD_REACTORS
330
58D
102
}
330
1F
100
AcDbEntity
  8
LC-002-002-----0
 62
     7
370
    25
100
AcDbLine
 10
1482.257345
 20
1956.87602
 30
0.0
 11
1480.777397
 21
1956.105608
 31
0.0
  0
LINE
  5
1E4
102
{ACAD_REACTORS
330
58D
102
}
330
1F
100
AcDbEntity
  8
LC-002-002-----0
 62
     7
370
    25
100
AcDbLine
 10
1482.257345
 20
1955.335142
 30
0.0
 11
1480.777397
 21
1954.564729
 31
0.0
  0
LINE
  5
1E5
102
{ACAD_REACTORS
330
58D
102
}
330
1F
100
AcDbEntity
  8
LC-002-002-----0
 62
     7
370
    25
100
AcDbLine
 10
1480.669229
 20
1949.31
 30
0.0
 11
1483.882397
 21
1949.31
 31
0.0
  0
LINE
  5
1E6
102
{ACAD_REACTORS
330
58D
102
}
330
1F
100
AcDbEntity
  8
LC-002-002-----0
 62
     7
370
    25
100
AcDbLine
 10
1480.777397
 20
1959.187365
 30
0.0
 11
1482.257345
 21
1958.416952
 31
0.0
  0
LINE
  5
1E7
102
{ACAD_REACTORS
330
58D
102
}
330
1F
100
AcDbEntity
  8
LC-002-002-----0
 62
     7
370
    25
100
AcDbLine
 10
1480.777397
 20
1957.646486
 30
0.0
 11
1482.257345
 21
1956.876074
 31
0.0
  0
LINE
  5
1E8
102
{ACAD_REACTORS
330
58D
102
}
330
1F
100
AcDbEntity
  8
LC-002-002-----0
 62
     7
370
    25
100
AcDbLine
 10
1480.777397
 20
1956.105608
 30
0.0
 11
1482.257345
 21
1955.335195
 31
0.0
  0
LINE
  5
1E9
102
{ACAD_REACTORS
330
58D
102
}
330
1F
100
AcDbEntity
  8
LC-002-002-----0
 62
     7
370
    25
100
AcDbLine
 10
1447.739716
 20
1931.81
 30
0.0
 11
1445.239716
 21
1931.81
 31
0.0
  0
LINE
  5
1EA
102
{ACAD_REACTORS
330
58D
102
}
330
1F
100
AcDbEntity
  8
LC-002-002-----0
 62
     7
370
    25
100
AcDbLine
 10
1449.007449
 20
1958.416898
 30
0.0
 11
1450.487397
 21
1957.646486
 31
0.0
  0
LINE
  5
1EB
102
{ACAD_REACTORS
330
58D
102
}
330
1F
100
AcDbEntity
  8
LC-002-002-----0
 62
     7
370
    25
100
AcDbLine
 10
1449.007449
 20
1956.87602
 30
0.0
 11
1450.487397
 21
1956.105608
 31
0.0
  0
LINE
  5
1EC
102
{ACAD_REACTORS
330
58D
102
}
330
1F
100
AcDbEntity
  8
LC-002-002-----0
 62
     7
370
    25
100
AcDbLine
 10
1449.007449
 20
1955.335142
 30
0.0
 11
1450.487397
 21
1954.564729
 31
0.0
  0
LINE
  5
1ED
102
{ACAD_REACTORS
330
58D
102
}
330
1F
100
AcDbEntity
  8
LC-002-002-----0
 62
     7
370
    25
100
AcDbLine
 10
1599.320478
 20
1998.112282
 30
0.0
 11
1597.209021
 21
2018.201452
 31
0.0
  0
LINE
  5
1EE
102
{ACAD_REACTORS
330
58D
102
}
330
1F
100
AcDbEntity
  8
LC-002-002-----0
 62
     7
370
    25
100
AcDbLine
 10
1612.851963
 20
1997.623938
 30
0.0
 11
1612.538378
 21
2000.607503
 31
0.0
  0
LINE
  5
1EF
102
{ACAD_REACTORS
330
58D
102
}
330
1F
100
AcDbEntity
  8
LC-002-002-----0
 62
     7
370
    25
100
AcDbLine
 10
1613.597855
 20
1997.702334
 30
0.0
 11
1613.806912
 21
1995.71329
 31
0.0
  0
LINE
  5
1F0
102
{ACAD_REACTORS
330
58D
102
}
330
1F
100
AcDbEntity
  8
LC-002-002-----0
 62
     7
370
    25
100
AcDbLine
 10
1452.06949
 20
1851.56061
 30
0.0
 11
1453.079839
 21
1849.810635
 31
0.0
  0
LINE
  5
1F1
102
{ACAD_REACTORS
330
58D
102
}
330
1F
100
AcDbEntity
  8
LC-002-002-----0
 62
     7
370
    25
100
AcDbLine
 10
1647.831215
 20
2006.830701
 30
0.0
 11
1647.151731
 21
2013.295556
 31
0.0
  0
LINE
  5
1F2
102
{ACAD_REACTORS
330
58D
102
}
330
1F
100
AcDbEntity
  8
LC-002-002-----0
 62
     7
370
    25
100
AcDbLine
 10
1650.395165
 20
2001.569887
 30
0.0
 11
1650.604222
 21
1999.580843
 31
0.0
  0
LINE
  5
1F3
102
{ACAD_REACTORS
330
58D
102
}
330
1F
100
AcDbEntity
  8
LC-002-002-----0
 62
     7
370
    25
100
AcDbLine
 10
1651.141056
 20
2001.648284
 30
0.0
 11
1650.775207
 21
2005.12911
 31
0.0
  0
LINE
  5
1F4
102
{ACAD_REACTORS
330
58D
102
}
330
1F
100
AcDbEntity
  8
LC-002-002-----0
 62
     7
370
    25
100
AcDbLine
 10
1447.739716
 20
1856.81
 30
0.0
 11
1445.239716
 21
1856.81
 31
0.0
  0
LINE
  5
1F5
102
{ACAD_REACTORS
330
58D
102
}
330
1F
100
AcDbEntity
  8
LC-002-002-----0
 62
     7
370
    25
100
AcDbLine
 10
1458.276358
 20
1846.81
 30
0.0
 11
1473.739716
 21
1846.81
 31
0.0
  0
LINE
  5
1F6
102
{ACAD_REACTORS
330
58D
102
}
330
1F
100
AcDbEntity
  8
LC-002-002-----0
 62
     7
370
    25
100
AcDbLine
 10
1483.422174
 20
1839.31
 30
0.0
 11
1483.882397
 21
1839.31
 31
0.0
  0
ARC
  5
1F7
102
{ACAD_REACTORS
330
58D
102
}
330
1F
100
AcDbEntity
  8
LC-002-002-----0
 62
     7
370
    25
100
AcDbCircle
 10
1473.739716
 20
1842.81
 30
0.0
 40
4.000000000000252
100
AcDbArc
 50
14.492147
 51
90.0
  0
ARC
  5
1F8
102
{ACAD_REACTORS
330
58D
102
}
330
1F
100
AcDbEntity
  8
LC-002-002-----0
 62
     7
370
    25
100
AcDbCircle
 10
1483.422174
 20
1845.31
 30
0.0
 40
6.000000000000098
100
AcDbArc
 50
194.469452
 51
270.0
  0
ARC
  5
1F9
102
{ACAD_REACTORS
330
58D
102
}
330
1F
100
AcDbEntity
  8
LC-002-002-----0
 62
     7
370
    25
100
AcDbCircle
 10
1458.276358
 20
1852.81
 30
0.0
 40
5.999999999999977
100
AcDbArc
 50
209.988476
 51
270.0
  0
ARC
  5
1FA
102
{ACAD_REACTORS
330
58D
102
}
330
1F
100
AcDbEntity
  8
LC-002-002-----0
 62
     7
370
    25
100
AcDbCircle
 10
1447.739716
 20
1849.06
 30
0.0
 40
5.0000000000003
100
AcDbArc
 50
30.016153
 51
82.072225
  0
ARC
  5
1FB
102
{ACAD_REACTORS
330
58D
102
}
330
1F
100
AcDbEntity
  8
LC-002-002-----0
 62
     7
370
    25
100
AcDbCircle
 10
1447.739716
 20
1939.56
 30
0.0
 40
5.000000000000032
100
AcDbArc
 50
277.927775
 51
303.954632
  0
ARC
  5
1FC
102
{ACAD_REACTORS
330
58D
102
}
330
1F
100
AcDbEntity
  8
LC-002-002-----0
 62
     7
370
    25
100
AcDbCircle
 10
1448.539716
 20
1854.804563
 30
0.0
 40
0.8000000000001819
100
AcDbArc
 50
180.0
 51
262.062606
  0
ARC
  5
1FD
102
{ACAD_REACTORS
330
58D
102
}
330
1F
100
AcDbEntity
  8
LC-002-002-----0
 62
     7
370
    25
100
AcDbCircle
 10
1448.539716
 20
1933.815437
 30
0.0
 40
0.7999999999996561
100
AcDbArc
 50
97.937394
 51
180.0
  0
ARC
  5
1FE
102
{ACAD_REACTORS
330
58D
102
}
330
1F
100
AcDbEntity
  8
LC-002-002-----0
 62
     7
370
    25
100
AcDbCircle
 10
1572.00601
 20
1993.934158
 30
0.0
 40
0.4999999999998976
100
AcDbArc
 50
276.0
 51
6.0
  0
ARC
  5
1FF
102
{ACAD_REACTORS
330
58D
102
}
330
1F
100
AcDbEntity
  8
LC-002-002-----0
 62
     7
370
    25
100
AcDbCircle
 10
1569.497327
 20
2017.802683
 30
0.0
 40
0.4999999999998739
100
AcDbArc
 50
6.0
 51
96.0
  0
ARC
  5
200
102
{ACAD_REACTORS
330
58D
102
}
330
1F
100
AcDbEntity
  8
LC-002-002-----0
 62
     7
370
    25
100
AcDbCircle
 10
1515.623349
 20
1986.499839
 30
0.0
 40
1.000000000000224
100
AcDbArc
 50
96.0
 51
139.137678
  0
ARC
  5
201
102
{ACAD_REACTORS
330
58D
102
}
330
1F
100
AcDbEntity
  8
LC-002-002-----0
 62
     7
370
    25
100
AcDbCircle
 10
1512.80108
 20
2013.35193
 30
0.0
 40
0.9999999999997222
100
AcDbArc
 50
232.862322
 51
276.0
  0
ARC
  5
202
102
{ACAD_REACTORS
330
58D
102
}
330
1F
100
AcDbEntity
  8
LC-002-002-----0
 62
     7
370
    25
100
AcDbCircle
 10
1501.632397
 20
1998.603692
 30
0.0
 40
17.50000000000004
100
AcDbArc
 50
52.85835
 51
73.398452
  0
ARC
  5
203
102
{ACAD_REACTORS
330
58D
102
}
330
1F
100
AcDbEntity
  8
LC-002-002-----0
 62
     7
370
    25
100
AcDbCircle
 10
1501.632397
 20
1998.603692
 30
0.0
 40
17.4999999999967
100
AcDbArc
 50
308.206881
 51
319.141806
  0
ARC
  5
204
102
{ACAD_REACTORS
330
58D
102
}
330
1F
100
AcDbEntity
  8
LC-002-002-----0
 62
     7
370
    25
100
AcDbCircle
 10
1649.780685
 20
2005.024582
 30
0.0
 40
1.000000000000248
100
AcDbArc
 50
6.0
 51
96.0
  0
ARC
  5
205
102
{ACAD_REACTORS
330
58D
102
}
330
1F
100
AcDbEntity
  8
LC-002-002-----0
 62
     7
370
    25
100
AcDbCircle
 10
1648.825736
 20
2006.935229
 30
0.0
 40
1.000000000000129
100
AcDbArc
 50
186.0
 51
275.987263
  0
ARC
  5
206
102
{ACAD_REACTORS
330
58D
102
}
330
1F
100
AcDbEntity
  8
LC-002-002-----0
 62
     7
370
    25
100
AcDbCircle
 10
1500.632397
 20
1998.603692
 30
0.0
 40
20.00000000000009
100
AcDbArc
 50
221.290426
 51
270.0
  0
ARC
  5
207
102
{ACAD_REACTORS
330
58D
102
}
330
1F
100
AcDbEntity
  8
LC-002-002-----0
 62
     7
370
    25
100
AcDbCircle
 10
1500.632397
 20
1998.603692
 30
0.0
 40
20.0
100
AcDbArc
 50
90.0
 51
138.709438
  0
ARC
  5
208
102
{ACAD_REACTORS
330
58D
102
}
330
1F
100
AcDbEntity
  8
LC-002-002-----0
 62
     7
370
    25
100
AcDbCircle
 10
1465.632397
 20
1998.603692
 30
0.0
 40
12.5
100
AcDbArc
 50
90.0
 51
180.0
  0
INSERT
  5
212
102
{ACAD_REACTORS
330
58D
102
}
330
1F
100
AcDbEntity
  8
LC-002-002-----0
 62
     7
370
    25
100
AcDbBlockReference
  2
POLY1
 10
0.0
 20
0.0
 30
0.0
  0
INSERT
  5
21C
102
{ACAD_REACTORS
330
58D
102
}
330
1F
100
AcDbEntity
  8
LC-002-002-----0
 62
     7
370
    25
100
AcDbBlockReference
  2
POLY2
 10
0.0
 20
0.0
 30
0.0
  0
INSERT
  5
22A
102
{ACAD_REACTORS
330
58D
102
}
330
1F
100
AcDbEntity
  8
LC-002-002-----0
 62
     7
370
    25
100
AcDbBlockReference
  2
POLY3
 10
0.0
 20
0.0
 30
0.0
  0
INSERT
  5
238
102
{ACAD_REACTORS
330
58D
102
}
330
1F
100
AcDbEntity
  8
LC-002-002-----0
 62
     7
370
    25
100
AcDbBlockReference
  2
POLY4
 10
0.0
 20
0.0
 30
0.0
  0
INSERT
  5
250
102
{ACAD_REACTORS
330
58D
102
}
330
1F
100
AcDbEntity
  8
LC-002-002-----0
 62
     7
370
    25
100
AcDbBlockReference
  2
POLY5
 10
0.0
 20
0.0
 30
0.0
  0
INSERT
  5
25A
102
{ACAD_REACTORS
330
58D
102
}
330
1F
100
AcDbEntity
  8
LC-002-002-----0
 62
     7
370
    25
100
AcDbBlockReference
  2
POLY6
 10
0.0
 20
0.0
 30
0.0
  0
INSERT
  5
26C
102
{ACAD_REACTORS
330
58D
102
}
330
1F
100
AcDbEntity
  8
LC-002-002-----0
 62
     7
370
    25
100
AcDbBlockReference
  2
POLY7
 10
0.0
 20
0.0
 30
0.0
  0
INSERT
  5
296
102
{ACAD_REACTORS
330
58D
102
}
330
1F
100
AcDbEntity
  8
LC-002-002-----0
 62
     7
370
    25
100
AcDbBlockReference
  2
POLY8
 10
0.0
 20
0.0
 30
0.0
  0
LINE
  5
297
102
{ACAD_REACTORS
330
58D
102
}
330
1F
100
AcDbEntity
  8
LC-002-002-----0
 62
     7
370
    25
100
AcDbLine
 10
1598.974497
 20
1997.573069
 30
0.0
 11
1599.186448
 21
1997.716534
 31
0.0
  0
LINE
  5
298
102
{ACAD_REACTORS
330
58D
102
}
330
1F
100
AcDbEntity
  8
LC-002-002-----0
 62
     7
370
    25
100
AcDbLine
 10
1599.186448
 20
1997.716534
 30
0.0
 11
1599.297638
 21
1997.902252
 31
0.0
  0
LINE
  5
299
102
{ACAD_REACTORS
330
58D
102
}
330
1F
100
AcDbEntity
  8
LC-002-002-----0
 62
     7
370
    25
100
AcDbLine
 10
1599.297638
 20
1997.902252
 30
0.0
 11
1599.320478
 21
1998.112282
 31
0.0
  0
LINE
  5
29A
102
{ACAD_REACTORS
330
58D
102
}
330
1F
100
AcDbEntity
  8
LC-002-002-----0
 62
     7
370
    25
100
AcDbLine
 10
1597.209021
 20
2018.201452
 30
0.0
 11
1597.142884
 21
2018.402365
 31
0.0
  0
LINE
  5
29B
102
{ACAD_REACTORS
330
58D
102
}
330
1F
100
AcDbEntity
  8
LC-002-002-----0
 62
     7
370
    25
100
AcDbLine
 10
1597.142884
 20
2018.402365
 30
0.0
 11
1596.995277
 21
2018.560936
 31
0.0
  0
LINE
  5
29C
102
{ACAD_REACTORS
330
58D
102
}
330
1F
100
AcDbEntity
  8
LC-002-002-----0
 62
     7
370
    25
100
AcDbLine
 10
1596.995277
 20
2018.560936
 30
0.0
 11
1596.758214
 21
2018.656904
 31
0.0
  0
LINE
  5
29D
102
{ACAD_REACTORS
330
58D
102
}
330
1F
100
AcDbEntity
  8
LC-002-002-----0
 62
     7
370
    25
100
AcDbLine
 10
1647.14031
 20
2013.326645
 30
0.0
 11
1647.14031
 21
2013.326645
 31
0.0
  0
LINE
  5
29E
102
{ACAD_REACTORS
330
58D
102
}
330
1F
100
AcDbEntity
  8
LC-002-002-----0
 62
     7
370
    25
100
AcDbLine
 10
1647.151731
 20
2013.295556
 30
0.0
 11
1646.992244
 21
2013.729694
 31
0.0
  0
LINE
  5
29F
102
{ACAD_REACTORS
330
58D
102
}
330
1F
100
AcDbEntity
  8
LC-002-002-----0
 62
     7
370
    25
100
AcDbLine
 10
1646.992244
 20
2013.729694
 30
0.0
 11
1646.992244
 21
2013.729694
 31
0.0
  0
LINE
  5
2A0
102
{ACAD_REACTORS
330
58D
102
}
330
1F
100
AcDbEntity
  8
LC-002-002-----0
 62
     7
370
    25
100
AcDbLine
 10
1646.992244
 20
2013.729694
 30
0.0
 11
1646.735791
 21
2014.074527
 31
0.0
  0
LINE
  5
2A1
102
{ACAD_REACTORS
330
58D
102
}
330
1F
100
AcDbEntity
  8
LC-002-002-----0
 62
     7
370
    25
100
AcDbLine
 10
1646.735791
 20
2014.074527
 30
0.0
 11
1646.735791
 21
2014.074527
 31
0.0
  0
LINE
  5
2A2
102
{ACAD_REACTORS
330
58D
102
}
330
1F
100
AcDbEntity
  8
LC-002-002-----0
 62
     7
370
    25
100
AcDbLine
 10
1646.735791
 20
2014.074527
 30
0.0
 11
1646.39188
 21
2014.332571
 31
0.0
  0
LINE
  5
2A3
102
{ACAD_REACTORS
330
58D
102
}
330
1F
100
AcDbEntity
  8
LC-002-002-----0
 62
     7
370
    25
100
AcDbLine
 10
1646.39188
 20
2014.332571
 30
0.0
 11
1646.39188
 21
2014.332571
 31
0.0
  0
LINE
  5
2A4
102
{ACAD_REACTORS
330
58D
102
}
330
1F
100
AcDbEntity
  8
LC-002-002-----0
 62
     7
370
    25
100
AcDbLine
 10
1646.39188
 20
2014.332571
 30
0.0
 11
1645.949985
 21
2014.496901
 31
0.0
  0
INSERT
  5
2B4
102
{ACAD_REACTORS
330
58D
102
}
330
1F
100
AcDbEntity
  8
LC-002-002-----0
 62
     7
370
    25
100
AcDbBlockReference
  2
POLY9
 10
0.0
 20
0.0
 30
0.0
  0
INSERT
  5
2C2
102
{ACAD_REACTORS
330
58D
102
}
330
1F
100
AcDbEntity
  8
LC-002-002-----0
 62
     7
370
    25
100
AcDbBlockReference
  2
POLY10
 10
0.0
 20
0.0
 30
0.0
  0
LINE
  5
2C3
102
{ACAD_REACTORS
330
58D
102
}
330
1F
100
AcDbEntity
  8
LC-002-002-----0
 62
     7
370
    25
100
AcDbLine
 10
1473.739716
 20
1939.345612
 30
0.0
 11
1465.632397
 21
1939.345612
 31
0.0
  0
LINE
  5
2C4
102
{ACAD_REACTORS
330
58D
102
}
330
1F
100
AcDbEntity
  8
LC-002-002-----0
 62
     7
370
    25
100
AcDbLine
 10
1445.632397
 20
1959.31
 30
0.0
 11
1445.632397
 21
1961.31
 31
0.0
  0
LINE
  5
2C5
102
{ACAD_REACTORS
330
58D
102
}
330
1F
100
AcDbEntity
  8
LC-002-002-----0
 62
     7
370
    25
100
AcDbLine
 10
1447.675159
 20
1962.060001
 30
0.0
 11
1447.675159
 21
1973.799234
 31
0.0
  0
LINE
  5
2C6
102
{ACAD_REACTORS
330
58D
102
}
330
1F
100
AcDbEntity
  8
LC-002-002-----0
 62
     7
370
    25
100
AcDbLine
 10
1465.20202
 20
1961.56
 30
0.0
 11
1465.20202
 21
1971.81
 31
0.0
  0
LINE
  5
2C7
102
{ACAD_REACTORS
330
58D
102
}
330
1F
100
AcDbEntity
  8
LC-002-002-----0
 62
     7
370
    25
100
AcDbLine
 10
1466.062774
 20
1961.56
 30
0.0
 11
1466.062774
 21
1971.81
 31
0.0
  0
LINE
  5
2C8
102
{ACAD_REACTORS
330
58D
102
}
330
1F
100
AcDbEntity
  8
LC-002-002-----0
 62
     7
370
    25
100
AcDbLine
 10
1483.589635
 20
1962.060001
 30
0.0
 11
1483.589635
 21
1973.799234
 31
0.0
  0
LINE
  5
2C9
102
{ACAD_REACTORS
330
58D
102
}
330
1F
100
AcDbEntity
  8
LC-002-002-----0
 62
     7
370
    25
100
AcDbLine
 10
1485.632397
 20
1959.31
 30
0.0
 11
1485.632397
 21
1961.31
 31
0.0
  0
LINE
  5
2CA
102
{ACAD_REACTORS
330
58D
102
}
330
1F
100
AcDbEntity
  8
LC-002-002-----0
 62
     7
370
    25
100
AcDbLine
 10
1445.632494
 20
1961.310097
 30
0.0
 11
1446.382384
 21
1962.059987
 31
0.0
  0
LINE
  5
2CB
102
{ACAD_REACTORS
330
58D
102
}
330
1F
100
AcDbEntity
  8
LC-002-002-----0
 62
     7
370
    25
100
AcDbLine
 10
1447.882587
 20
1973.81
 30
0.0
 11
1483.382207
 21
1973.81
 31
0.0
  0
LINE
  5
2CC
102
{ACAD_REACTORS
330
58D
102
}
330
1F
100
AcDbEntity
  8
LC-002-002-----0
 62
     7
370
    25
100
AcDbLine
 10
1446.382384
 20
1962.059987
 30
0.0
 11
1447.675159
 21
1962.059987
 31
0.0
  0
LINE
  5
2CD
102
{ACAD_REACTORS
330
58D
102
}
330
1F
100
AcDbEntity
  8
LC-002-002-----0
 62
     7
370
    25
100
AcDbLine
 10
1483.589635
 20
1962.059997
 30
0.0
 11
1484.88241
 21
1962.059987
 31
0.0
  0
LINE
  5
2CE
102
{ACAD_REACTORS
330
58D
102
}
330
1F
100
AcDbEntity
  8
LC-002-002-----0
 62
     7
370
    25
100
AcDbLine
 10
1445.632397
 20
1959.31
 30
0.0
 11
1485.632397
 21
1959.31
 31
0.0
  0
LINE
  5
2CF
102
{ACAD_REACTORS
330
58D
102
}
330
1F
100
AcDbEntity
  8
LC-002-002-----0
 62
     7
370
    25
100
AcDbLine
 10
1485.6323
 20
1961.310097
 30
0.0
 11
1484.88241
 21
1962.059987
 31
0.0
  0
ARC
  5
2D0
102
{ACAD_REACTORS
330
58D
102
}
330
1F
100
AcDbEntity
  8
LC-002-002-----0
 62
     7
370
    25
100
AcDbCircle
 10
1483.382397
 20
1971.81
 30
0.0
 40
1.999999999999995
100
AcDbArc
 50
84.05239
 51
90.0
  0
ARC
  5
2D1
102
{ACAD_REACTORS
330
58D
102
}
330
1F
100
AcDbEntity
  8
LC-002-002-----0
 62
     7
370
    25
100
AcDbCircle
 10
1447.882397
 20
1971.81
 30
0.0
 40
2.0
100
AcDbArc
 50
90.0
 51
95.94761
  0
LINE
  5
2D2
102
{ACAD_REACTORS
330
58D
102
}
330
1F
100
AcDbEntity
  8
LC-002-002-----0
 62
     7
370
    25
100
AcDbLine
 10
1450.251817
 20
1959.31
 30
0.0
 11
1450.487397
 21
1959.187365
 31
0.0
  0
LINE
  5
2D3
102
{ACAD_REACTORS
330
58D
102
}
330
1F
100
AcDbEntity
  8
LC-002-002-----0
 62
     7
370
    25
100
AcDbLine
 10
1481.012977
 20
1959.31
 30
0.0
 11
1480.777397
 21
1959.187365
 31
0.0
  0
LINE
  5
2D4
102
{ACAD_REACTORS
330
58D
102
}
330
1F
100
AcDbEntity
  8
LC-002-002-----0
 62
     7
370
    25
100
AcDbLine
 10
1483.882397
 20
1949.31
 30
0.0
 11
1487.882397
 21
1949.31
 31
0.0
  0
LINE
  5
2D5
102
{ACAD_REACTORS
330
58D
102
}
330
1F
100
AcDbEntity
  8
LC-002-002-----0
 62
     7
370
    25
100
AcDbLine
 10
1434.781335
 20
1866.021061
 30
0.0
 11
1437.400199
 21
1865.542615
 31
0.0
  0
ARC
  5
2D6
102
{ACAD_REACTORS
330
58D
102
}
330
1F
100
AcDbEntity
  8
LC-002-002-----0
 62
     7
370
    25
100
AcDbCircle
 10
1444.536471
 20
1860.811863
 30
0.0
 40
2.000000000000076
100
AcDbArc
 50
244.152631
 51
270.0
  0
ARC
  5
2D7
102
{ACAD_REACTORS
330
58D
102
}
330
1F
100
AcDbEntity
  8
LC-002-002-----0
 62
     7
370
    25
100
AcDbCircle
 10
1446.280169
 20
1864.411796
 30
0.0
 40
5.999999999999882
100
AcDbArc
 50
196.283517
 51
244.155028
  0
ARC
  5
2D8
102
{ACAD_REACTORS
330
58D
102
}
330
1F
100
AcDbEntity
  8
LC-002-002-----0
 62
     7
370
    25
100
AcDbCircle
 10
1436.681353
 20
1861.607737
 30
0.0
 40
3.999999999999806
100
AcDbArc
 50
16.281751
 51
79.647048
  0
LINE
  5
2D9
102
{ACAD_REACTORS
330
58D
102
}
330
1F
100
AcDbEntity
  8
LC-002-002-----0
 62
     7
370
    25
100
AcDbLine
 10
1434.781335
 20
1922.598939
 30
0.0
 11
1437.400199
 21
1923.077385
 31
0.0
  0
ARC
  5
2DA
102
{ACAD_REACTORS
330
58D
102
}
330
1F
100
AcDbEntity
  8
LC-002-002-----0
 62
     7
370
    25
100
AcDbCircle
 10
1444.536471
 20
1927.808137
 30
0.0
 40
1.999999999999545
100
AcDbArc
 50
90.0
 51
115.847369
  0
ARC
  5
2DB
102
{ACAD_REACTORS
330
58D
102
}
330
1F
100
AcDbEntity
  8
LC-002-002-----0
 62
     7
370
    25
100
AcDbCircle
 10
1446.280169
 20
1924.208204
 30
0.0
 40
5.999999999999901
100
AcDbArc
 50
115.844972
 51
163.716483
  0
ARC
  5
2DC
102
{ACAD_REACTORS
330
58D
102
}
330
1F
100
AcDbEntity
  8
LC-002-002-----0
 62
     7
370
    25
100
AcDbCircle
 10
1436.681353
 20
1927.012263
 30
0.0
 40
4.000000000000468
100
AcDbArc
 50
280.352952
 51
343.718249
  0
LINE
  5
2DD
102
{ACAD_REACTORS
330
58D
102
}
330
1F
100
AcDbEntity
  8
LC-002-002-----0
 62
     7
370
    25
100
AcDbLine
 10
1363.061136
 20
2109.480213
 30
0.0
 11
1363.653261
 21
2110.617673
 31
0.0
  0
LINE
  5
2DE
102
{ACAD_REACTORS
330
58D
102
}
330
1F
100
AcDbEntity
  8
LC-002-002-----0
 62
     7
370
    25
100
AcDbLine
 10
1365.370136
 20
2109.480213
 30
0.0
 11
1365.962261
 21
2110.617673
 31
0.0
  0
LINE
  5
2DF
102
{ACAD_REACTORS
330
58D
102
}
330
1F
100
AcDbEntity
  8
LC-002-002-----0
 62
     7
370
    25
100
AcDbLine
 10
1367.679136
 20
2109.480213
 30
0.0
 11
1368.271261
 21
2110.617673
 31
0.0
  0
LINE
  5
2E0
102
{ACAD_REACTORS
330
58D
102
}
330
1F
100
AcDbEntity
  8
LC-002-002-----0
 62
     7
370
    25
100
AcDbLine
 10
1369.988136
 20
2109.480213
 30
0.0
 11
1370.580261
 21
2110.617673
 31
0.0
  0
LINE
  5
2E1
102
{ACAD_REACTORS
330
58D
102
}
330
1F
100
AcDbEntity
  8
LC-002-002-----0
 62
     7
370
    25
100
AcDbLine
 10
1364.216077
 20
2063.202327
 30
0.0
 11
1364.808201
 21
2064.339787
 31
0.0
  0
LINE
  5
2E2
102
{ACAD_REACTORS
330
58D
102
}
330
1F
100
AcDbEntity
  8
LC-002-002-----0
 62
     7
370
    25
100
AcDbLine
 10
1366.525077
 20
2063.202327
 30
0.0
 11
1367.117201
 21
2064.339787
 31
0.0
  0
LINE
  5
2E3
102
{ACAD_REACTORS
330
58D
102
}
330
1F
100
AcDbEntity
  8
LC-002-002-----0
 62
     7
370
    25
100
AcDbLine
 10
1368.834077
 20
2063.202327
 30
0.0
 11
1369.426201
 21
2064.339787
 31
0.0
  0
LINE
  5
2E4
102
{ACAD_REACTORS
330
58D
102
}
330
1F
100
AcDbEntity
  8
LC-002-002-----0
 62
     7
370
    25
100
AcDbLine
 10
1371.143077
 20
2063.202327
 30
0.0
 11
1371.735201
 21
2064.339787
 31
0.0
  0
LINE
  5
2E5
102
{ACAD_REACTORS
330
58D
102
}
330
1F
100
AcDbEntity
  8
LC-002-002-----0
 62
     7
370
    25
100
AcDbLine
 10
1393.280169
 20
2109.31
 30
0.0
 11
1372.016169
 21
2109.31
 31
0.0
  0
LINE
  5
2E6
102
{ACAD_REACTORS
330
58D
102
}
330
1F
100
AcDbEntity
  8
LC-002-002-----0
 62
     7
370
    25
100
AcDbLine
 10
1362.780169
 20
2109.31
 30
0.0
 11
1362.280169
 21
2109.31
 31
0.0
  0
LINE
  5
2E7
102
{ACAD_REACTORS
330
58D
102
}
330
1F
100
AcDbEntity
  8
LC-002-002-----0
 62
     7
370
    25
100
AcDbLine
 10
1362.280169
 20
2064.51
 30
0.0
 11
1362.280169
 21
2109.31
 31
0.0
  0
LINE
  5
2E8
102
{ACAD_REACTORS
330
58D
102
}
330
1F
100
AcDbEntity
  8
LC-002-002-----0
 62
     7
370
    25
100
AcDbLine
 10
1393.280169
 20
2064.532484
 30
0.0
 11
1389.280169
 21
2064.532484
 31
0.0
  0
LINE
  5
2E9
102
{ACAD_REACTORS
330
58D
102
}
330
1F
100
AcDbEntity
  8
LC-002-002-----0
 62
     7
370
    25
100
AcDbLine
 10
1389.280169
 20
2064.51
 30
0.0
 11
1372.016169
 21
2064.51
 31
0.0
  0
LINE
  5
2EA
102
{ACAD_REACTORS
330
58D
102
}
330
1F
100
AcDbEntity
  8
LC-002-002-----0
 62
     7
370
    25
100
AcDbLine
 10
1362.780169
 20
2064.51
 30
0.0
 11
1362.280169
 21
2064.51
 31
0.0
  0
LINE
  5
2EB
102
{ACAD_REACTORS
330
58D
102
}
330
1F
100
AcDbEntity
  8
LC-002-002-----0
 62
     7
370
    25
100
AcDbLine
 10
1435.863723
 20
1945.153603
 30
0.0
 11
1390.328673
 21
1945.153603
 31
0.0
  0
LINE
  5
2EC
102
{ACAD_REACTORS
330
58D
102
}
330
1F
100
AcDbEntity
  8
LC-002-002-----0
 62
     7
370
    25
100
AcDbLine
 10
1390.880169
 20
1920.81
 30
0.0
 11
1390.880169
 21
1945.153652
 31
0.0
  0
LINE
  5
2ED
102
{ACAD_REACTORS
330
58D
102
}
330
1F
100
AcDbEntity
  8
LC-002-002-----0
 62
     7
370
    25
100
AcDbLine
 10
1391.280169
 20
1894.31
 30
0.0
 11
1391.280169
 21
1920.41
 31
0.0
  0
ARC
  5
2EE
102
{ACAD_REACTORS
330
58D
102
}
330
1F
100
AcDbEntity
  8
LC-005-002-RND-0
 62
     7
370
    25
100
AcDbCircle
 10
1413.280169
 20
1894.31
 30
0.0
 40
22.0
100
AcDbArc
 50
180.0
 51
270.0
  0
LINE
  5
2EF
102
{ACAD_REACTORS
330
58D
102
}
330
1F
100
AcDbEntity
  8
LC-002-002-----0
 62
     7
370
    25
100
AcDbLine
 10
1433.280169
 20
1968.31
 30
0.0
 11
1433.280169
 21
2068.91
 31
0.0
  0
LINE
  5
2F0
102
{ACAD_REACTORS
330
58D
102
}
330
1F
100
AcDbEntity
  8
LC-002-002-----0
 62
     7
370
    25
100
AcDbLine
 10
1435.680169
 20
1922.763149
 30
0.0
 11
1435.680169
 21
1945.153652
 31
0.0
  0
LINE
  5
2F1
102
{ACAD_REACTORS
330
58D
102
}
330
1F
100
AcDbEntity
  8
LC-002-002-----0
 62
     7
370
    25
100
AcDbLine
 10
1395.682296
 20
2106.907872
 30
0.0
 11
1393.280429
 21
2109.30974
 31
0.0
  0
LINE
  5
2F2
102
{ACAD_REACTORS
330
58D
102
}
330
1F
100
AcDbEntity
  8
LC-002-002-----0
 62
     7
370
    25
100
AcDbLine
 10
1388.828678
 20
1947.751781
 30
0.0
 11
1390.328673
 21
1948.617803
 31
0.0
  0
LINE
  5
2F3
102
{ACAD_REACTORS
330
58D
102
}
330
1F
100
AcDbEntity
  8
LC-002-002-----0
 62
     7
370
    25
100
AcDbLine
 10
1388.828678
 20
1946.01973
 30
0.0
 11
1390.328673
 21
1946.885752
 31
0.0
  0
LINE
  5
2F4
102
{ACAD_REACTORS
330
58D
102
}
330
1F
100
AcDbEntity
  8
LC-002-002-----0
 62
     7
370
    25
100
AcDbLine
 10
1435.863723
 20
1948.617705
 30
0.0
 11
1437.062813
 21
1949.31
 31
0.0
  0
LINE
  5
2F5
102
{ACAD_REACTORS
330
58D
102
}
330
1F
100
AcDbEntity
  8
LC-002-002-----0
 62
     7
370
    25
100
AcDbLine
 10
1435.863723
 20
1946.885654
 30
0.0
 11
1437.363717
 21
1947.751676
 31
0.0
  0
LINE
  5
2F6
102
{ACAD_REACTORS
330
58D
102
}
330
1F
100
AcDbEntity
  8
LC-002-002-----0
 62
     7
370
    25
100
AcDbLine
 10
1435.863723
 20
1945.153603
 30
0.0
 11
1437.363717
 21
1946.019625
 31
0.0
  0
LINE
  5
2F7
102
{ACAD_REACTORS
330
58D
102
}
330
1F
100
AcDbEntity
  8
LC-002-002-----0
 62
     7
370
    25
100
AcDbLine
 10
1371.143077
 20
2110.617673
 30
0.0
 11
1371.735201
 21
2109.480213
 31
0.0
  0
LINE
  5
2F8
102
{ACAD_REACTORS
330
58D
102
}
330
1F
100
AcDbEntity
  8
LC-002-002-----0
 62
     7
370
    25
100
AcDbLine
 10
1368.834077
 20
2110.617673
 30
0.0
 11
1369.426201
 21
2109.480213
 31
0.0
  0
LINE
  5
2F9
102
{ACAD_REACTORS
330
58D
102
}
330
1F
100
AcDbEntity
  8
LC-002-002-----0
 62
     7
370
    25
100
AcDbLine
 10
1366.525077
 20
2110.617673
 30
0.0
 11
1367.117201
 21
2109.480213
 31
0.0
  0
LINE
  5
2FA
102
{ACAD_REACTORS
330
58D
102
}
330
1F
100
AcDbEntity
  8
LC-002-002-----0
 62
     7
370
    25
100
AcDbLine
 10
1364.216077
 20
2110.617673
 30
0.0
 11
1364.808201
 21
2109.480213
 31
0.0
  0
LINE
  5
2FB
102
{ACAD_REACTORS
330
58D
102
}
330
1F
100
AcDbEntity
  8
LC-002-002-----0
 62
     7
370
    25
100
AcDbLine
 10
1369.988136
 20
2064.339787
 30
0.0
 11
1370.580261
 21
2063.202327
 31
0.0
  0
LINE
  5
2FC
102
{ACAD_REACTORS
330
58D
102
}
330
1F
100
AcDbEntity
  8
LC-002-002-----0
 62
     7
370
    25
100
AcDbLine
 10
1367.679136
 20
2064.339787
 30
0.0
 11
1368.271261
 21
2063.202327
 31
0.0
  0
LINE
  5
2FD
102
{ACAD_REACTORS
330
58D
102
}
330
1F
100
AcDbEntity
  8
LC-002-002-----0
 62
     7
370
    25
100
AcDbLine
 10
1365.370136
 20
2064.339787
 30
0.0
 11
1365.962261
 21
2063.202327
 31
0.0
  0
LINE
  5
2FE
102
{ACAD_REACTORS
330
58D
102
}
330
1F
100
AcDbEntity
  8
LC-002-002-----0
 62
     7
370
    25
100
AcDbLine
 10
1363.061136
 20
2064.339787
 30
0.0
 11
1363.653261
 21
2063.202327
 31
0.0
  0
LINE
  5
2FF
102
{ACAD_REACTORS
330
58D
102
}
330
1F
100
AcDbEntity
  8
LC-002-002-----0
 62
     7
370
    25
100
AcDbLine
 10
1437.363717
 20
1947.751781
 30
0.0
 11
1435.863723
 21
1948.617803
 31
0.0
  0
LINE
  5
300
102
{ACAD_REACTORS
330
58D
102
}
330
1F
100
AcDbEntity
  8
LC-002-002-----0
 62
     7
370
    25
100
AcDbLine
 10
1437.363717
 20
1946.01973
 30
0.0
 11
1435.863723
 21
1946.885752
 31
0.0
  0
LINE
  5
301
102
{ACAD_REACTORS
330
58D
102
}
330
1F
100
AcDbEntity
  8
LC-002-002-----0
 62
     7
370
    25
100
AcDbLine
 10
1390.328673
 20
1948.617705
 30
0.0
 11
1389.129583
 21
1949.31
 31
0.0
  0
LINE
  5
302
102
{ACAD_REACTORS
330
58D
102
}
330
1F
100
AcDbEntity
  8
LC-002-002-----0
 62
     7
370
    25
100
AcDbLine
 10
1390.328673
 20
1946.885654
 30
0.0
 11
1388.828678
 21
1947.751676
 31
0.0
  0
LINE
  5
303
102
{ACAD_REACTORS
330
58D
102
}
330
1F
100
AcDbEntity
  8
LC-002-002-----0
 62
     7
370
    25
100
AcDbLine
 10
1390.328673
 20
1945.153603
 30
0.0
 11
1388.828678
 21
1946.019625
 31
0.0
  0
LINE
  5
304
102
{ACAD_REACTORS
330
58D
102
}
330
1F
100
AcDbEntity
  8
LC-002-002-----0
 62
     7
370
    25
100
AcDbLine
 10
1413.280169
 20
1872.31
 30
0.0
 11
1426.971353
 21
1872.31
 31
0.0
  0
LINE
  5
305
102
{ACAD_REACTORS
330
58D
102
}
330
1F
100
AcDbEntity
  8
LC-002-002-----0
 62
     7
370
    25
100
AcDbLine
 10
1248.00701
 20
2037.028275
 30
0.0
 11
1248.40709
 21
2036.628194
 31
0.0
  0
ARC
  5
306
102
{ACAD_REACTORS
330
58D
102
}
330
1F
100
AcDbEntity
  8
LC-002-002-----0
 62
     7
370
    25
100
AcDbCircle
 10
1372.016169
 20
2064.193
 30
0.0
 40
0.3170000000000073
100
AcDbArc
 50
90.0
 51
152.36046
  0
ARC
  5
307
102
{ACAD_REACTORS
330
58D
102
}
330
1F
100
AcDbEntity
  8
LC-002-002-----0
 62
     7
370
    25
100
AcDbCircle
 10
1372.016169
 20
2109.627
 30
0.0
 40
0.3169999999996481
100
AcDbArc
 50
207.567177
 51
270.0
  0
ARC
  5
308
102
{ACAD_REACTORS
330
58D
102
}
330
1F
100
AcDbEntity
  8
LC-002-002-----0
 62
     7
370
    25
100
AcDbCircle
 10
1370.861669
 20
2063.348268
 30
0.0
 40
0.3169999999998498
100
AcDbArc
 50
207.317979
 51
332.682021
  0
ARC
  5
309
102
{ACAD_REACTORS
330
58D
102
}
330
1F
100
AcDbEntity
  8
LC-002-002-----0
 62
     7
370
    25
100
AcDbCircle
 10
1370.861669
 20
2110.471732
 30
0.0
 40
0.3170000000003025
100
AcDbArc
 50
27.394588
 51
152.605412
  0
ARC
  5
30A
102
{ACAD_REACTORS
330
58D
102
}
330
1F
100
AcDbEntity
  8
LC-002-002-----0
 62
     7
370
    25
100
AcDbCircle
 10
1369.707169
 20
2109.627
 30
0.0
 40
0.3170000000000512
100
AcDbArc
 50
207.567177
 51
332.432823
  0
ARC
  5
30B
102
{ACAD_REACTORS
330
58D
102
}
330
1F
100
AcDbEntity
  8
LC-002-002-----0
 62
     7
370
    25
100
AcDbCircle
 10
1369.707169
 20
2064.193
 30
0.0
 40
0.3169999999998827
100
AcDbArc
 50
27.63954
 51
152.36046
  0
ARC
  5
30C
102
{ACAD_REACTORS
330
58D
102
}
330
1F
100
AcDbEntity
  8
LC-002-002-----0
 62
     7
370
    25
100
AcDbCircle
 10
1368.552669
 20
2063.348268
 30
0.0
 40
0.3170000000000585
100
AcDbArc
 50
207.317979
 51
332.682021
  0
ARC
  5
30D
102
{ACAD_REACTORS
330
58D
102
}
330
1F
100
AcDbEntity
  8
LC-002-002-----0
 62
     7
370
    25
100
AcDbCircle
 10
1368.552669
 20
2110.471732
 30
0.0
 40
0.3169999999998841
100
AcDbArc
 50
27.394588
 51
152.605412
  0
ARC
  5
30E
102
{ACAD_REACTORS
330
58D
102
}
330
1F
100
AcDbEntity
  8
LC-002-002-----0
 62
     7
370
    25
100
AcDbCircle
 10
1367.398169
 20
2109.627
 30
0.0
 40
0.3170000000000334
100
AcDbArc
 50
207.567177
 51
332.432823
  0
ARC
  5
30F
102
{ACAD_REACTORS
330
58D
102
}
330
1F
100
AcDbEntity
  8
LC-002-002-----0
 62
     7
370
    25
100
AcDbCircle
 10
1367.398169
 20
2064.193
 30
0.0
 40
0.3169999999998827
100
AcDbArc
 50
27.63954
 51
152.36046
  0
ARC
  5
310
102
{ACAD_REACTORS
330
58D
102
}
330
1F
100
AcDbEntity
  8
LC-002-002-----0
 62
     7
370
    25
100
AcDbCircle
 10
1366.243669
 20
2063.348268
 30
0.0
 40
0.3170000000000585
100
AcDbArc
 50
207.317979
 51
332.682021
  0
ARC
  5
311
102
{ACAD_REACTORS
330
58D
102
}
330
1F
100
AcDbEntity
  8
LC-002-002-----0
 62
     7
370
    25
100
AcDbCircle
 10
1366.243669
 20
2110.471732
 30
0.0
 40
0.3169999999998988
100
AcDbArc
 50
27.394588
 51
152.605412
  0
ARC
  5
312
102
{ACAD_REACTORS
330
58D
102
}
330
1F
100
AcDbEntity
  8
LC-002-002-----0
 62
     7
370
    25
100
AcDbCircle
 10
1365.089169
 20
2109.627
 30
0.0
 40
0.3169999999996303
100
AcDbArc
 50
207.567177
 51
332.432823
  0
ARC
  5
313
102
{ACAD_REACTORS
330
58D
102
}
330
1F
100
AcDbEntity
  8
LC-002-002-----0
 62
     7
370
    25
100
AcDbCircle
 10
1365.089169
 20
2064.193
 30
0.0
 40
0.3170000000002856
100
AcDbArc
 50
27.63954
 51
152.36046
  0
ARC
  5
314
102
{ACAD_REACTORS
330
58D
102
}
330
1F
100
AcDbEntity
  8
LC-002-002-----0
 62
     7
370
    25
100
AcDbCircle
 10
1363.934669
 20
2063.348268
 30
0.0
 40
0.3170000000002538
100
AcDbArc
 50
207.317979
 51
332.682021
  0
ARC
  5
315
102
{ACAD_REACTORS
330
58D
102
}
330
1F
100
AcDbEntity
  8
LC-002-002-----0
 62
     7
370
    25
100
AcDbCircle
 10
1363.934669
 20
2110.471732
 30
0.0
 40
0.3169999999998988
100
AcDbArc
 50
27.394588
 51
152.605412
  0
ARC
  5
316
102
{ACAD_REACTORS
330
58D
102
}
330
1F
100
AcDbEntity
  8
LC-002-002-----0
 62
     7
370
    25
100
AcDbCircle
 10
1362.780169
 20
2064.193
 30
0.0
 40
0.3170000000000937
100
AcDbArc
 50
27.63954
 51
90.0
  0
ARC
  5
317
102
{ACAD_REACTORS
330
58D
102
}
330
1F
100
AcDbEntity
  8
LC-002-002-----0
 62
     7
370
    25
100
AcDbCircle
 10
1362.780169
 20
2109.627
 30
0.0
 40
0.3170000000000073
100
AcDbArc
 50
270.0
 51
332.432823
  0
ARC
  5
318
102
{ACAD_REACTORS
330
58D
102
}
330
1F
100
AcDbEntity
  8
LC-002-002-----0
 62
     7
370
    25
100
AcDbCircle
 10
1395.280169
 20
2068.91
 30
0.0
 40
38.00000000000019
100
AcDbArc
 50
0.000006
 51
89.393653
  0
ARC
  5
319
102
{ACAD_REACTORS
330
58D
102
}
330
1F
100
AcDbEntity
  8
LC-002-002-----0
 62
     7
370
    25
100
AcDbCircle
 10
1435.949526
 20
1872.415225
 30
0.0
 40
6.500000000000155
100
AcDbArc
 50
199.07704
 51
259.645823
  0
ARC
  5
31A
102
{ACAD_REACTORS
330
58D
102
}
330
1F
100
AcDbEntity
  8
LC-002-002-----0
 62
     7
370
    25
100
AcDbCircle
 10
1426.971353
 20
1869.31
 30
0.0
 40
3.000000000000444
100
AcDbArc
 50
19.055448
 51
90.0
  0
INSERT
  5
31F
102
{ACAD_REACTORS
330
58D
102
}
330
1F
100
AcDbEntity
  8
LC-002-002-----0
 62
     7
370
    25
100
AcDbBlockReference
  2
POLY11
 10
0.0
 20
0.0
 30
0.0
  0
LINE
  5
320
102
{ACAD_REACTORS
330
58D
102
}
330
1F
100
AcDbEntity
  8
LC-002-002-----0
 62
     7
370
    25
100
AcDbLine
 10
1393.280169
 20
2064.51
 30
0.0
 11
1393.280169
 21
1968.31
 31
0.0
  0
LINE
  5
321
102
{ACAD_REACTORS
330
58D
102
}
330
1F
100
AcDbEntity
  8
LC-002-002-----0
 62
     7
370
    25
100
AcDbLine
 10
1385.575375
 20
1951.81
 30
0.0
 11
1385.575375
 21
1949.31
 31
0.0
  0
LINE
  5
322
102
{ACAD_REACTORS
330
58D
102
}
330
1F
100
AcDbEntity
  8
LC-002-002-----0
 62
     7
370
    25
100
AcDbLine
 10
1386.325375
 20
1952.81
 30
0.0
 11
1386.325375
 21
1952.56
 31
0.0
  0
LINE
  5
323
102
{ACAD_REACTORS
330
58D
102
}
330
1F
100
AcDbEntity
  8
LC-002-002-----0
 62
     7
370
    25
100
AcDbLine
 10
1387.480169
 20
1952.81
 30
0.0
 11
1387.480169
 21
1966.31
 31
0.0
  0
LINE
  5
324
102
{ACAD_REACTORS
330
58D
102
}
330
1F
100
AcDbEntity
  8
LC-002-002-----0
 62
     7
370
    25
100
AcDbLine
 10
1439.080169
 20
1952.81
 30
0.0
 11
1439.080169
 21
1966.31
 31
0.0
  0
LINE
  5
325
102
{ACAD_REACTORS
330
58D
102
}
330
1F
100
AcDbEntity
  8
LC-002-002-----0
 62
     7
370
    25
100
AcDbLine
 10
1440.234962
 20
1952.81
 30
0.0
 11
1440.234962
 21
1952.56
 31
0.0
  0
LINE
  5
326
102
{ACAD_REACTORS
330
58D
102
}
330
1F
100
AcDbEntity
  8
LC-002-002-----0
 62
     7
370
    25
100
AcDbLine
 10
1440.984962
 20
1951.81
 30
0.0
 11
1440.984962
 21
1949.31
 31
0.0
  0
LINE
  5
327
102
{ACAD_REACTORS
330
58D
102
}
330
1F
100
AcDbEntity
  8
LC-002-002-----0
 62
     7
370
    25
100
AcDbLine
 10
1386.325376
 20
1952.560001
 30
0.0
 11
1385.575376
 21
1951.810001
 31
0.0
  0
LINE
  5
328
102
{ACAD_REACTORS
330
58D
102
}
330
1F
100
AcDbEntity
  8
LC-002-002-----0
 62
     7
370
    25
100
AcDbLine
 10
1437.080169
 20
1968.31
 30
0.0
 11
1389.480169
 21
1968.31
 31
0.0
  0
LINE
  5
329
102
{ACAD_REACTORS
330
58D
102
}
330
1F
100
AcDbEntity
  8
LC-002-002-----0
 62
     7
370
    25
100
AcDbLine
 10
1440.234944
 20
1952.81
 30
0.0
 11
1439.080169
 21
1952.81
 31
0.0
  0
LINE
  5
32A
102
{ACAD_REACTORS
330
58D
102
}
330
1F
100
AcDbEntity
  8
LC-002-002-----0
 62
     7
370
    25
100
AcDbLine
 10
1440.984828
 20
1951.810134
 30
0.0
 11
1385.575509
 21
1951.810134
 31
0.0
  0
LINE
  5
32B
102
{ACAD_REACTORS
330
58D
102
}
330
1F
100
AcDbEntity
  8
LC-002-002-----0
 62
     7
370
    25
100
AcDbLine
 10
1440.984962
 20
1949.31
 30
0.0
 11
1385.575375
 21
1949.31
 31
0.0
  0
LINE
  5
32C
102
{ACAD_REACTORS
330
58D
102
}
330
1F
100
AcDbEntity
  8
LC-002-002-----0
 62
     7
370
    25
100
AcDbLine
 10
1440.234961
 20
1952.560001
 30
0.0
 11
1440.984961
 21
1951.810001
 31
0.0
  0
ARC
  5
32D
102
{ACAD_REACTORS
330
58D
102
}
330
1F
100
AcDbEntity
  8
LC-002-002-----0
 62
     7
370
    25
100
AcDbCircle
 10
1437.080169
 20
1966.31
 30
0.0
 40
2.0
100
AcDbArc
 50
0.0
 51
90.0
  0
ARC
  5
32E
102
{ACAD_REACTORS
330
58D
102
}
330
1F
100
AcDbEntity
  8
LC-002-002-----0
 62
     7
370
    25
100
AcDbCircle
 10
1389.480169
 20
1966.31
 30
0.0
 40
2.0
100
AcDbArc
 50
90.0
 51
180.0
  0
LINE
  5
32F
102
{ACAD_REACTORS
330
58D
102
}
330
1F
100
AcDbEntity
  8
LC-002-002-----0
 62
     7
370
    25
100
AcDbLine
 10
1436.492555
 20
1952.81
 30
0.0
 11
1436.492555
 21
1966.31
 31
0.0
  0
INSERT
  5
33F
102
{ACAD_REACTORS
330
58D
102
}
330
1F
100
AcDbEntity
  8
LC-002-002-----0
 62
     7
370
    25
100
AcDbBlockReference
  2
POLY12
 10
0.0
 20
0.0
 30
0.0
  0
LINE
  5
340
102
{ACAD_REACTORS
330
58D
102
}
330
1F
100
AcDbEntity
  8
LC-002-002-----0
 62
     7
370
    25
100
AcDbLine
 10
1413.278716
 20
1952.81
 30
0.0
 11
1413.278716
 21
1966.31
 31
0.0
  0
INSERT
  5
350
102
{ACAD_REACTORS
330
58D
102
}
330
1F
100
AcDbEntity
  8
LC-002-002-----0
 62
     7
370
    25
100
AcDbBlockReference
  2
POLY13
 10
0.0
 20
0.0
 30
0.0
  0
LINE
  5
351
102
{ACAD_REACTORS
330
58D
102
}
330
1F
100
AcDbEntity
  8
LC-002-002-----0
 62
     7
370
    25
100
AcDbLine
 10
1390.067674
 20
1966.31
 30
0.0
 11
1390.067674
 21
1952.81
 31
0.0
  0
INSERT
  5
361
102
{ACAD_REACTORS
330
58D
102
}
330
1F
100
AcDbEntity
  8
LC-002-002-----0
 62
     7
370
    25
100
AcDbBlockReference
  2
POLY14
 10
0.0
 20
0.0
 30
0.0
  0
DIMENSION
  5
363
102
{ACAD_REACTORS
330
58E
102
}
330
1F
100
AcDbEntity
  8
LC-006-003-----0
 62
     7
370
    25
100
AcDbDimension
  2
*D20
 10
1385.575375
 20
1511.73
 30
0.0
 11
1535.294232
 21
1541.73
 31
0.0
 70
   160
 71
     5
 42
290.361891
  3
LC-DIM-L-0025-00-02
100
AcDbAlignedDimension
 13
1675.937266
 23
1578.31
 33
0.0
 14
1385.575375
 24
1854.31
 34
0.0
100
AcDbRotatedDimension
  0
LINE
  5
370
102
{ACAD_REACTORS
330
58D
102
}
330
1F
100
AcDbEntity
  8
LC-002-002-----0
 62
     7
370
    25
100
AcDbLine
 10
1387.480169
 20
1952.81
 30
0.0
 11
1386.325393
 21
1952.81
 31
0.0
  0
LINE
  5
371
102
{ACAD_REACTORS
330
58E
102
}
330
1F
100
AcDbEntity
  8
LC-004-006-MLN-0
 62
     7
370
    25
100
AcDbLine
 10
1484.882397
 20
1894.31
 30
0.0
 11
1505.937266
 21
1894.31
 31
0.0
  0
ARC
  5
372
102
{ACAD_REACTORS
330
58E
102
}
330
1F
100
AcDbEntity
  8
LC-005-002-RND-0
 62
     7
370
    50
100
AcDbCircle
 10
1518.242649
 20
1960.531375
 30
0.0
 40
25.00000000000005
100
AcDbArc
 50
96.0
 51
175.195552
  0
LINE
  5
373
102
{ACAD_REACTORS
330
58E
102
}
330
1F
100
AcDbEntity
  8
LC-002-002-----0
 62
     7
370
    50
100
AcDbLine
 10
1487.882397
 20
1939.31
 30
0.0
 11
1487.882397
 21
1849.31
 31
0.0
  0
LINE
  5
374
102
{ACAD_REACTORS
330
58E
102
}
330
1F
100
AcDbEntity
  8
LC-002-002-----0
 62
     7
370
    25
100
AcDbLine
 10
1502.937266
 20
1951.81
 30
0.0
 11
1502.937266
 21
1836.81
 31
0.0
  0
ARC
  5
375
102
{ACAD_REACTORS
330
58E
102
}
330
1F
100
AcDbEntity
  8
LC-005-002-RND-0
 62
     7
370
    50
100
AcDbCircle
 10
1528.047256
 20
1954.523322
 30
0.0
 40
24.99999999999997
100
AcDbArc
 50
96.0
 51
178.0
  0
ARC
  5
376
102
{ACAD_REACTORS
330
58E
102
}
330
1F
100
AcDbEntity
  8
LC-005-002-RND-0
 62
     7
370
    50
100
AcDbCircle
 10
1489.882397
 20
1956.035859
 30
0.0
 40
2.000000000000016
100
AcDbArc
 50
115.0
 51
180.0
  0
LINE
  5
377
102
{ACAD_REACTORS
330
58E
102
}
330
1F
100
AcDbEntity
  8
LC-002-002-----0
 62
     7
370
    50
100
AcDbLine
 10
1498.764032
 20
1939.31
 30
0.0
 11
1498.764032
 21
1849.31
 31
0.0
  0
ARC
  5
378
102
{ACAD_REACTORS
330
58E
102
}
330
1F
100
AcDbEntity
  8
LC-005-002-RND-0
 62
     7
370
    50
100
AcDbCircle
 10
1523.871849
 20
1667.127598
 30
0.0
 40
25.00000000000006
100
AcDbArc
 50
182.0
 51
264.0
  0
ARC
  5
379
102
{ACAD_REACTORS
330
58E
102
}
330
1F
100
AcDbEntity
  8
LC-005-002-RND-0
 62
     7
370
    50
100
AcDbCircle
 10
1533.668108
 20
1673.136528
 30
0.0
 40
24.99999999999998
100
AcDbArc
 50
182.0
 51
264.0
  0
LINE
  5
37A
102
{ACAD_REACTORS
330
58E
102
}
330
1F
100
AcDbEntity
  8
LC-002-002-----0
 62
     7
370
    50
100
AcDbLine
 10
1676.937266
 20
2003.911616
 30
0.0
 11
1676.937266
 21
2077.165649
 31
0.0
  0
LINE
  5
37B
102
{ACAD_REACTORS
330
58E
102
}
330
1F
100
AcDbEntity
  8
LC-002-002-----0
 62
     7
370
    50
100
AcDbLine
 10
1659.728209
 20
1998.501255
 30
0.0
 11
1673.35538
 21
1999.933529
 31
0.0
  0
LINE
  5
37C
102
{ACAD_REACTORS
330
58E
102
}
330
1F
100
AcDbEntity
  8
LC-002-002-----0
 62
     7
370
    50
100
AcDbLine
 10
1657.937266
 20
1995.113828
 30
0.0
 11
1657.937266
 21
1996.512211
 31
0.0
  0
LINE
  5
37D
102
{ACAD_REACTORS
330
58E
102
}
330
1F
100
AcDbEntity
  8
LC-002-002-----0
 62
     7
370
    50
100
AcDbLine
 10
1525.434044
 20
1979.38637
 30
0.0
 11
1656.146323
 21
1993.124784
 31
0.0
  0
LINE
  5
37E
102
{ACAD_REACTORS
330
58E
102
}
330
1F
100
AcDbEntity
  8
LC-002-002-----0
 62
     7
370
    50
100
AcDbLine
 10
1656.146323
 20
1635.125842
 30
0.0
 11
1531.054897
 21
1648.27348
 31
0.0
  0
LINE
  5
37F
102
{ACAD_REACTORS
330
58E
102
}
330
1F
100
AcDbEntity
  8
LC-002-002-----0
 62
     7
370
    50
100
AcDbLine
 10
1657.937266
 20
1631.738414
 30
0.0
 11
1657.937266
 21
1633.136798
 31
0.0
  0
LINE
  5
380
102
{ACAD_REACTORS
330
58E
102
}
330
1F
100
AcDbEntity
  8
LC-002-002-----0
 62
     7
370
    50
100
AcDbLine
 10
1679.35538
 20
1627.686471
 30
0.0
 11
1659.728209
 21
1629.74937
 31
0.0
  0
LINE
  5
381
102
{ACAD_REACTORS
330
58E
102
}
330
1F
100
AcDbEntity
  8
LC-002-002-----0
 62
     7
370
    50
100
AcDbLine
 10
1682.937266
 20
1603.529548
 30
0.0
 11
1682.937266
 21
1623.708384
 31
0.0
  0
LINE
  5
382
102
{ACAD_REACTORS
330
58E
102
}
330
1F
100
AcDbEntity
  8
LC-002-002-----0
 62
     7
370
    50
100
AcDbLine
 10
1682.937266
 20
2084.911616
 30
0.0
 11
1682.937266
 21
2105.090452
 31
0.0
  0
LINE
  5
383
102
{ACAD_REACTORS
330
58E
102
}
330
1F
100
AcDbEntity
  8
LC-002-002-----0
 62
     7
370
    50
100
AcDbLine
 10
1675.937266
 20
1599.31
 30
0.0
 11
1679.216292
 21
1599.539292
 31
0.0
  0
LINE
  5
384
102
{ACAD_REACTORS
330
58E
102
}
330
1F
100
AcDbEntity
  8
LC-002-002-----0
 62
     7
370
    50
100
AcDbLine
 10
1675.937266
 20
2109.31
 30
0.0
 11
1679.216292
 21
2109.080708
 31
0.0
  0
ARC
  5
385
102
{ACAD_REACTORS
330
58E
102
}
330
1F
100
AcDbEntity
  8
LC-002-002-----0
 62
     7
370
    50
100
AcDbCircle
 10
1652.672413
 20
2003.820252
 30
0.0
 40
4.000000000000014
100
AcDbArc
 50
276.0
 51
343.763916
  0
LINE
  5
387
102
{ACAD_REACTORS
330
58E
102
}
330
1F
100
AcDbEntity
  8
LC-008-100-D00-0
 62
     7
370
    13
100
AcDbLine
 10
1682.937266
 20
1639.294279
 30
0.0
 11
1682.937271
 21
1641.009238
 31
0.0
  0
LINE
  5
388
102
{ACAD_REACTORS
330
58E
102
}
330
1F
100
AcDbEntity
  8
LC-002-002-----0
 62
     7
370
    50
100
AcDbLine
 10
1682.937266
 20
1639.31
 30
0.0
 11
1682.937266
 21
1627.31
 31
0.0
  0
LINE
  5
389
102
{ACAD_REACTORS
330
58E
102
}
330
1F
100
AcDbEntity
  8
LC-002-002-----0
 62
     7
370
    50
100
AcDbLine
 10
1682.937266
 20
1627.31
 30
0.0
 11
1682.937266
 21
1623.708384
 31
0.0
  0
LINE
  5
38A
102
{ACAD_REACTORS
330
58E
102
}
330
1F
100
AcDbEntity
  8
LC-002-002-----0
 62
     7
370
    50
100
AcDbLine
 10
1487.882397
 20
1849.31
 30
0.0
 11
1487.882397
 21
1832.584141
 31
0.0
  0
LINE
  5
38B
102
{ACAD_REACTORS
330
58E
102
}
330
1F
100
AcDbEntity
  8
LC-002-002-----0
 62
     7
370
    50
100
AcDbLine
 10
1487.882397
 20
1956.035859
 30
0.0
 11
1487.882397
 21
1939.31
 31
0.0
  0
ARC
  5
38C
102
{ACAD_REACTORS
330
58E
102
}
330
1F
100
AcDbEntity
  8
LC-002-002-----0
 62
     7
370
    50
100
AcDbCircle
 10
1489.882397
 20
1832.584141
 30
0.0
 40
2.0
100
AcDbArc
 50
180.0
 51
190.833333
  0
ARC
  5
38D
102
{ACAD_REACTORS
330
58E
102
}
330
1F
100
AcDbEntity
  8
LC-002-002-----0
 62
     7
370
    50
100
AcDbCircle
 10
1489.882397
 20
1832.584141
 30
0.0
 40
2.000000000000156
100
AcDbArc
 50
190.833333
 51
201.666667
  0
ARC
  5
38E
102
{ACAD_REACTORS
330
58E
102
}
330
1F
100
AcDbEntity
  8
LC-002-002-----0
 62
     7
370
    50
100
AcDbCircle
 10
1489.882397
 20
1832.584141
 30
0.0
 40
1.999999999999974
100
AcDbArc
 50
201.666667
 51
212.5
  0
ARC
  5
38F
102
{ACAD_REACTORS
330
58E
102
}
330
1F
100
AcDbEntity
  8
LC-002-002-----0
 62
     7
370
    50
100
AcDbCircle
 10
1489.882397
 20
1832.584141
 30
0.0
 40
2.000000000000128
100
AcDbArc
 50
212.5
 51
223.333333
  0
ARC
  5
390
102
{ACAD_REACTORS
330
58E
102
}
330
1F
100
AcDbEntity
  8
LC-002-002-----0
 62
     7
370
    50
100
AcDbCircle
 10
1489.882397
 20
1832.584141
 30
0.0
 40
2.000000000000113
100
AcDbArc
 50
223.333333
 51
234.166667
  0
ARC
  5
391
102
{ACAD_REACTORS
330
58E
102
}
330
1F
100
AcDbEntity
  8
LC-002-002-----0
 62
     7
370
    50
100
AcDbCircle
 10
1489.882397
 20
1832.584141
 30
0.0
 40
2.000000000000138
100
AcDbArc
 50
234.166667
 51
245.0
  0
LINE
  5
392
102
{ACAD_REACTORS
330
58E
102
}
330
1F
100
AcDbEntity
  8
LC-002-002-----0
 62
     7
370
    50
100
AcDbLine
 10
1659.935241
 20
2005.561573
 30
0.0
 11
1662.459908
 21
2005.826926
 31
0.0
  0
LINE
  5
393
102
{ACAD_REACTORS
330
58E
102
}
330
1F
100
AcDbEntity
  8
LC-002-002-----0
 62
     7
370
    50
100
AcDbLine
 10
1515.629437
 20
1985.394422
 30
0.0
 11
1653.090527
 21
1999.842165
 31
0.0
  0
LINE
  5
394
102
{ACAD_REACTORS
330
58E
102
}
330
1F
100
AcDbEntity
  8
LC-002-002-----0
 62
     7
370
    50
100
AcDbLine
 10
1489.03716
 20
1830.771525
 30
0.0
 11
1490.433058
 21
1830.120607
 31
0.0
  0
LINE
  5
395
102
{ACAD_REACTORS
330
58E
102
}
330
1F
100
AcDbEntity
  8
LC-002-002-----0
 62
     7
370
    50
100
AcDbLine
 10
1643.459908
 20
1629.42068
 30
0.0
 11
1521.258638
 21
1642.264551
 31
0.0
  0
LINE
  5
396
102
{ACAD_REACTORS
330
58E
102
}
330
1F
100
AcDbEntity
  8
LC-002-002-----0
 62
     7
370
    50
100
AcDbLine
 10
1668.564437
 20
1621.782087
 30
0.0
 11
1651.537156
 21
1623.571727
 31
0.0
  0
LINE
  5
397
102
{ACAD_REACTORS
330
58E
102
}
330
1F
100
AcDbEntity
  8
LC-002-002-----0
 62
     7
370
    50
100
AcDbLine
 10
1666.937266
 20
2010.799536
 30
0.0
 11
1666.937266
 21
2080.680688
 31
0.0
  0
LINE
  5
398
102
{ACAD_REACTORS
330
58E
102
}
330
1F
100
AcDbEntity
  8
LC-008-100-D00-0
 62
     7
370
    13
100
AcDbLine
 10
1682.937266
 20
1623.708384
 30
0.0
 11
1682.937266
 21
1641.009238
 31
0.0
  0
ARC
  5
399
102
{ACAD_REACTORS
330
58E
102
}
330
1F
100
AcDbEntity
  8
LC-002-002-----0
 62
     7
370
    50
100
AcDbCircle
 10
1659.937266
 20
1631.738414
 30
0.0
 40
2.0
100
AcDbArc
 50
180.0
 51
264.0
  0
ARC
  5
39A
102
{ACAD_REACTORS
330
58E
102
}
330
1F
100
AcDbEntity
  8
LC-002-002-----0
 62
     7
370
    50
100
AcDbCircle
 10
1655.937266
 20
1633.136798
 30
0.0
 40
2.0
100
AcDbArc
 50
0.0
 51
84.0
  0
LINE
  5
39B
102
{ACAD_REACTORS
330
58E
102
}
330
1F
100
AcDbEntity
  8
LC-002-002-----0
 62
     7
370
    50
100
AcDbLine
 10
1502.974318
 20
1835.748976
 30
0.0
 11
1508.683337
 21
1672.26404
 31
0.0
  0
ARC
  5
39C
102
{ACAD_REACTORS
330
58E
102
}
330
1F
100
AcDbEntity
  8
LC-002-002-----0
 62
     7
370
    50
100
AcDbCircle
 10
1501.775049
 20
1835.707097
 30
0.0
 40
1.200000000000043
100
AcDbArc
 50
2.0
 51
85.0
  0
LINE
  5
39D
102
{ACAD_REACTORS
330
58E
102
}
330
1F
100
AcDbEntity
  8
LC-002-002-----0
 62
     7
370
    50
100
AcDbLine
 10
1498.764032
 20
1849.31
 30
0.0
 11
1487.882397
 21
1849.31
 31
0.0
  0
ARC
  5
39E
102
{ACAD_REACTORS
330
58E
102
}
330
1F
100
AcDbEntity
  8
LC-002-002-----0
 62
     7
370
    50
100
AcDbCircle
 10
1488.319966
 20
1825.589068
 30
0.0
 40
5.000000000000137
100
AcDbArc
 50
2.0
 51
65.0
  0
LINE
  5
39F
102
{ACAD_REACTORS
330
58E
102
}
330
1F
100
AcDbEntity
  8
LC-002-002-----0
 62
     7
370
    50
100
AcDbLine
 10
1493.31692
 20
1825.763566
 30
0.0
 11
1498.887078
 21
1666.255111
 31
0.0
  0
ARC
  5
3A0
102
{ACAD_REACTORS
330
58E
102
}
330
1F
100
AcDbEntity
  8
LC-002-002-----0
 62
     7
370
    50
100
AcDbCircle
 10
1642.937266
 20
1624.44807
 30
0.0
 40
5.00000000000001
100
AcDbArc
 50
24.18138
 51
84.0
  0
ARC
  5
3A1
102
{ACAD_REACTORS
330
58E
102
}
330
1F
100
AcDbEntity
  8
LC-002-002-----0
 62
     7
370
    50
100
AcDbCircle
 10
1652.059799
 20
1628.544336
 30
0.0
 40
5.00000000000001
100
AcDbArc
 50
204.18138
 51
264.0
  0
ARC
  5
3A2
102
{ACAD_REACTORS
330
58E
102
}
330
1F
100
AcDbEntity
  8
LC-002-002-----0
 62
     7
370
    50
100
AcDbCircle
 10
1667.937266
 20
1615.814956
 30
0.0
 40
6.0
100
AcDbArc
 50
0.0
 51
84.0
  0
ARC
  5
3A3
102
{ACAD_REACTORS
330
58E
102
}
330
1F
100
AcDbEntity
  8
LC-002-002-----0
 62
     7
370
    50
100
AcDbCircle
 10
1678.937266
 20
1603.529548
 30
0.0
 40
4.000000000000003
100
AcDbArc
 50
274.0
 51
0.0
  0
ARC
  5
3A4
102
{ACAD_REACTORS
330
58E
102
}
330
1F
100
AcDbEntity
  8
LC-002-002-----0
 62
     7
370
    50
100
AcDbCircle
 10
1678.937266
 20
1623.708384
 30
0.0
 40
4.0
100
AcDbArc
 50
0.0
 51
84.0
  0
ARC
  5
3A5
102
{ACAD_REACTORS
330
58E
102
}
330
1F
100
AcDbEntity
  8
LC-002-002-----0
 62
     7
370
    50
100
AcDbCircle
 10
1659.937266
 20
1996.512211
 30
0.0
 40
2.000000000000019
100
AcDbArc
 50
96.0
 51
180.0
  0
ARC
  5
3A6
102
{ACAD_REACTORS
330
58E
102
}
330
1F
100
AcDbEntity
  8
LC-002-002-----0
 62
     7
370
    50
100
AcDbCircle
 10
1672.937266
 20
2003.911616
 30
0.0
 40
4.000000000000014
100
AcDbArc
 50
276.0
 51
0.0
  0
ARC
  5
3A7
102
{ACAD_REACTORS
330
58E
102
}
330
1F
100
AcDbEntity
  8
LC-002-002-----0
 62
     7
370
    50
100
AcDbCircle
 10
1680.937266
 20
2077.165649
 30
0.0
 40
4.000000000000055
100
AcDbArc
 50
104.477512
 51
180.0
  0
ARC
  5
3A8
102
{ACAD_REACTORS
330
58E
102
}
330
1F
100
AcDbEntity
  8
LC-002-002-----0
 62
     7
370
    50
100
AcDbCircle
 10
1678.937266
 20
2084.911616
 30
0.0
 40
4.000000000000055
100
AcDbArc
 50
284.477512
 51
0.0
  0
ARC
  5
3A9
102
{ACAD_REACTORS
330
58E
102
}
330
1F
100
AcDbEntity
  8
LC-002-002-----0
 62
     7
370
    50
100
AcDbCircle
 10
1678.937266
 20
2105.090452
 30
0.0
 40
4.0
100
AcDbArc
 50
0.0
 51
86.0
  0
ARC
  5
3AA
102
{ACAD_REACTORS
330
58E
102
}
330
1F
100
AcDbEntity
  8
LC-002-002-----0
 62
     7
370
    50
100
AcDbCircle
 10
1667.937266
 20
2092.805044
 30
0.0
 40
5.999999999999705
100
AcDbArc
 50
300.0
 51
0.0
  0
ARC
  5
3AB
102
{ACAD_REACTORS
330
58E
102
}
330
1F
100
AcDbEntity
  8
LC-002-002-----0
 62
     7
370
    50
100
AcDbCircle
 10
1674.937266
 20
2080.680688
 30
0.0
 40
7.999999999999869
100
AcDbArc
 50
120.0
 51
180.0
  0
ARC
  5
3AC
102
{ACAD_REACTORS
330
58E
102
}
330
1F
100
AcDbEntity
  8
LC-002-002-----0
 62
     7
370
    50
100
AcDbCircle
 10
1661.937266
 20
2010.799536
 30
0.0
 40
5.000000000000262
100
AcDbArc
 50
276.0
 51
0.0
  0
ARC
  5
3AD
102
{ACAD_REACTORS
330
58E
102
}
330
1F
100
AcDbEntity
  8
LC-002-002-----0
 62
     7
370
    50
100
AcDbCircle
 10
1660.353355
 20
2001.583486
 30
0.0
 40
4.000000000000014
100
AcDbArc
 50
96.0
 51
163.763916
  0
ARC
  5
3AE
102
{ACAD_REACTORS
330
58E
102
}
330
1F
100
AcDbEntity
  8
LC-002-002-----0
 62
     7
370
    50
100
AcDbCircle
 10
1655.937266
 20
1995.113828
 30
0.0
 40
2.000000000000019
100
AcDbArc
 50
276.0
 51
0.0
  0
LINE
  5
3AF
102
{ACAD_REACTORS
330
58E
102
}
330
1F
100
AcDbEntity
  8
LC-002-002-----0
 62
     7
370
    50
100
AcDbLine
 10
1489.03716
 20
1957.848475
 30
0.0
 11
1490.461149
 21
1958.512492
 31
0.0
  0
LINE
  5
3B0
102
{ACAD_REACTORS
330
58E
102
}
330
1F
100
AcDbEntity
  8
LC-002-002-----0
 62
     7
370
    50
100
AcDbLine
 10
1498.764032
 20
1939.31
 30
0.0
 11
1487.882397
 21
1939.31
 31
0.0
  0
LINE
  5
3B1
102
{ACAD_REACTORS
330
58E
102
}
330
1F
100
AcDbEntity
  8
LC-002-002-----0
 62
     7
370
    50
100
AcDbLine
 10
1498.764032
 20
1939.31
 30
0.0
 11
1500.804021
 21
1950.879353
 31
0.0
  0
LINE
  5
3B2
102
{ACAD_REACTORS
330
58E
102
}
330
1F
100
AcDbEntity
  8
LC-002-002-----0
 62
     7
370
    50
100
AcDbLine
 10
1501.701673
 20
1951.7019
 30
0.0
 11
1501.879636
 21
1951.717469
 31
0.0
  0
ARC
  5
3B3
102
{ACAD_REACTORS
330
58E
102
}
330
1F
100
AcDbEntity
  8
LC-002-002-----0
 62
     7
370
    50
100
AcDbCircle
 10
1488.348058
 20
1963.044031
 30
0.0
 40
4.999999999999909
100
AcDbArc
 50
295.0
 51
355.195552
  0
LINE
  5
3B4
102
{ACAD_REACTORS
330
58E
102
}
330
1F
100
AcDbEntity
  8
LC-002-002-----0
 62
     7
370
    50
100
AcDbLine
 10
1502.974318
 20
1952.871024
 30
0.0
 11
1503.062485
 21
1955.39581
 31
0.0
  0
LINE
  5
3B5
102
{ACAD_REACTORS
330
58E
102
}
330
1F
100
AcDbEntity
  8
LC-002-002-----0
 62
     7
370
    50
100
AcDbLine
 10
1673.937266
 20
2092.805044
 30
0.0
 11
1673.937266
 21
2097.31
 31
0.0
  0
LINE
  5
3B6
102
{ACAD_REACTORS
330
58E
102
}
330
1F
100
AcDbEntity
  8
LC-002-002-----0
 62
     7
370
    50
100
AcDbLine
 10
1673.937266
 20
1611.31
 30
0.0
 11
1673.937266
 21
1615.814956
 31
0.0
  0
LINE
  5
3B7
102
{ACAD_REACTORS
330
58E
102
}
330
1F
100
AcDbEntity
  8
LC-002-002-----0
 62
     7
370
    50
100
AcDbLine
 10
1675.937266
 20
1611.31
 30
0.0
 11
1673.937266
 21
1611.31
 31
0.0
  0
LINE
  5
3B8
102
{ACAD_REACTORS
330
58E
102
}
330
1F
100
AcDbEntity
  8
LC-002-002-----0
 62
     7
370
    50
100
AcDbLine
 10
1675.937266
 20
2097.31
 30
0.0
 11
1673.937266
 21
2097.31
 31
0.0
  0
LINE
  5
3B9
102
{ACAD_REACTORS
330
58E
102
}
330
1F
100
AcDbEntity
  8
LC-008-100-D00-0
 62
     7
370
    13
100
AcDbLine
 10
1649.192458
 20
2004.432461
 30
0.0
 11
1649.178253
 21
2004.430968
 31
0.0
  0
LINE
  5
3BA
102
{ACAD_REACTORS
330
58E
102
}
330
1F
100
AcDbEntity
  8
LC-002-002-----0
 62
     7
370
    50
100
AcDbLine
 10
1675.937266
 20
2097.31
 30
0.0
 11
1675.937266
 21
2109.31
 31
0.0
  0
LINE
  5
3BB
102
{ACAD_REACTORS
330
58E
102
}
330
1F
100
AcDbEntity
  8
LC-002-002-----0
 62
     7
370
    50
100
AcDbLine
 10
1675.937266
 20
1599.31
 30
0.0
 11
1675.937266
 21
1611.31
 31
0.0
  0
LINE
  5
3BC
102
{ACAD_REACTORS
330
58E
102
}
330
1F
100
AcDbEntity
  8
LC-002-002-----0
 62
     7
370
    50
100
AcDbLine
 10
1501.701673
 20
1836.9181
 30
0.0
 11
1501.879636
 21
1836.902531
 31
0.0
  0
ARC
  5
3BD
102
{ACAD_REACTORS
330
58E
102
}
330
1F
100
AcDbEntity
  8
LC-002-002-----0
 62
     7
370
    50
100
AcDbCircle
 10
1501.788829
 20
1837.914295
 30
0.0
 40
1.000000000000085
100
AcDbArc
 50
190.0
 51
265.0
  0
LINE
  5
3BE
102
{ACAD_REACTORS
330
58E
102
}
330
1F
100
AcDbEntity
  8
LC-002-002-----0
 62
     7
370
    50
100
AcDbLine
 10
1498.764032
 20
1849.31
 30
0.0
 11
1500.804021
 21
1837.740647
 31
0.0
  0
ARC
  5
3BF
102
{ACAD_REACTORS
330
58E
102
}
330
1F
100
AcDbEntity
  8
LC-002-002-----0
 62
     7
370
    50
100
AcDbCircle
 10
1501.788829
 20
1950.705705
 30
0.0
 40
1.000000000000067
100
AcDbArc
 50
95.0
 51
170.0
  0
ARC
  5
3C0
102
{ACAD_REACTORS
330
58E
102
}
330
1F
100
AcDbEntity
  8
LC-002-002-----0
 62
     7
370
    50
100
AcDbCircle
 10
1501.775049
 20
1952.912903
 30
0.0
 40
1.199999999999948
100
AcDbArc
 50
275.0
 51
358.0
  0
LINE
  5
3C1
102
{ACAD_REACTORS
330
58E
102
}
330
1F
100
AcDbEntity
  8
LC-002-002-----0
 62
     7
370
    50
100
AcDbLine
 10
1682.937266
 20
1639.31
 30
0.0
 11
1682.937266
 21
2084.911616
 31
0.0
  0
INSERT
  5
3CD
102
{ACAD_REACTORS
330
58E
102
}
330
1F
100
AcDbEntity
  8
LC-002-002-----0
 62
     7
370
    50
100
AcDbBlockReference
  2
KLON1
 10
0.0
 20
0.0
 30
0.0
  0
CIRCLE
  5
3CE
102
{ACAD_REACTORS
330
595
102
}
330
1F
100
AcDbEntity
  8
LC-002-002-----0
 62
     7
370
    50
100
AcDbCircle
 10
802.432193
 20
2621.72
 30
0.0
 40
15.0
  0
LINE
  5
3CF
330
1F
100
AcDbEntity
  8
LC-002-002-----0
 62
     7
370
    25
100
AcDbLine
 10
1500.632397
 20
1978.603692
 30
0.0
 11
1500.968641
 21
1978.603692
 31
0.0
  0
DIMENSION
  5
3D0
102
{ACAD_REACTORS
330
58B
102
}
330
1F
100
AcDbEntity
  8
LC-006-003-----0
 62
     7
370
    25
100
AcDbDimension
  2
*D22
 10
902.432193
 20
2177.71
 30
0.0
 11
852.432193
 21
2207.71
 31
0.0
 70
   160
 71
     5
 42
100.0
  3
LC-DIM-L-0025-03-02
100
AcDbAlignedDimension
 13
802.432193
 23
2118.31
 33
0.0
 14
902.432193
 24
2118.31
 34
0.0
100
AcDbRotatedDimension
  0
DIMENSION
  5
3DD
102
{ACAD_REACTORS
330
58B
102
}
330
1F
100
AcDbEntity
  8
LC-006-003-----0
 62
     7
370
    25
100
AcDbDimension
  2
*D23
 10
1002.432193
 20
2177.71
 30
0.0
 11
952.432193
 21
2207.71
 31
0.0
 70
   160
 71
     5
 42
100.0
  3
LC-DIM-L-0025-03-02
100
AcDbAlignedDimension
 13
902.432193
 23
2118.31
 33
0.0
 14
1002.432193
 24
2118.31
 34
0.0
100
AcDbRotatedDimension
  0
DIMENSION
  5
3EA
102
{ACAD_REACTORS
330
58B
102
}
330
1F
100
AcDbEntity
  8
LC-006-003-----0
 62
     7
370
    25
100
AcDbDimension
  2
*D24
 10
1200.0
 20
2041.81
 30
0.0
 11
1170.0
 21
2150.220965
 31
0.0
 70
   160
 71
     5
 42
66.5
 53
90.0
  3
LC-DIM-L-0025-03-02
100
AcDbAlignedDimension
 13
1095.432193
 23
2108.31
 33
0.0
 14
1098.432193
 24
2041.81
 34
0.0
 50
90.0
100
AcDbRotatedDimension
  0
TEXT
  5
3F9
330
1F
100
AcDbEntity
  8
LC-007-004-----0
 62
     7
370
    25
100
AcDbText
 10
1247.436618
 20
476.985787
 30
0.0
 40
25.0
  1
Art. Nr. 180
 41
0.8
  7
LCTX0-400-0-0pDIN-Schrift
100
AcDbText
  0
LINE
  5
3FA
102
{ACAD_REACTORS
330
591
102
}
330
1F
100
AcDbEntity
  8
LC-002-002-----0
 62
     7
370
    50
100
AcDbLine
 10
892.223536
 20
1320.106895
 30
0.0
 11
1148.723536
 21
1320.106895
 31
0.0
  0
LINE
  5
3FB
102
{ACAD_REACTORS
330
591
102
}
330
1F
100
AcDbEntity
  8
LC-002-002-----0
 62
     7
370
    50
100
AcDbLine
 10
1156.223536
 20
1312.606895
 30
0.0
 11
1156.223536
 21
1086.106895
 31
0.0
  0
LINE
  5
3FC
102
{ACAD_REACTORS
330
591
102
}
330
1F
100
AcDbEntity
  8
LC-002-002-----0
 62
     7
370
    50
100
AcDbLine
 10
1148.723536
 20
1078.606895
 30
0.0
 11
892.223536
 21
1078.606895
 31
0.0
  0
LINE
  5
3FD
102
{ACAD_REACTORS
330
591
102
}
330
1F
100
AcDbEntity
  8
LC-002-002-----0
 62
     7
370
    50
100
AcDbLine
 10
884.723536
 20
1086.106895
 30
0.0
 11
884.723536
 21
1312.606895
 31
0.0
  0
DIMENSION
  5
3FE
102
{ACAD_REACTORS
330
591
102
}
330
1F
100
AcDbEntity
  8
LC-006-003-----0
 62
     7
370
    25
100
AcDbDimension
  2
*D25
 10
1156.223536
 20
990.443606
 30
0.0
 11
1020.473536
 21
1020.443606
 31
0.0
 70
   160
 71
     5
 42
543.0
  3
LC-DIM-L-0025-03-02
100
AcDbAlignedDimension
 13
884.723536
 23
1086.106895
 33
0.0
 14
1156.223536
 24
1086.106895
 34
0.0
100
AcDbRotatedDimension
1001
ACAD
1000
DSTYLE
1002
{
1070
   144
1040
2.0
1002
}
  0
DIMENSION
  5
40B
102
{ACAD_REACTORS
330
591
102
}
330
1F
100
AcDbEntity
  8
LC-006-003-----0
 62
     7
370
    25
100
AcDbDimension
  2
*D26
 10
1235.416648
 20
1320.106895
 30
0.0
 11
1205.416648
 21
1199.356895
 31
0.0
 70
   160
 71
     5
 42
483.0
 53
90.0
  3
LC-DIM-L-0025-03-02
100
AcDbAlignedDimension
 13
1148.723536
 23
1078.606895
 33
0.0
 14
1148.723536
 24
1320.106895
 34
0.0
 50
90.0
100
AcDbRotatedDimension
1001
ACAD
1000
DSTYLE
1002
{
1070
   144
1040
2.0
1002
}
  0
DIMENSION
  5
419
102
{ACAD_REACTORS
330
591
102
}
330
1F
100
AcDbEntity
  8
LC-006-003-----0
 62
     7
370
    25
100
AcDbDimension
  2
*D27
 10
892.223536
 20
1312.606895
 30
0.0
 11
932.982175
 21
1287.094858
 31
0.0
 70
   164
 71
     5
 42
15.0
  3
LC-DIM-R-0025-03-02
100
AcDbRadialDimension
 15
896.394259
 25
1306.373512
 35
0.0
 40
1.0
1001
ACAD
1000
DSTYLE
1002
{
1070
   144
1040
2.0
1002
}
  0
DIMENSION
  5
422
102
{ACAD_REACTORS
330
58F
102
}
330
1F
100
AcDbEntity
  8
LC-006-003-----0
 62
     7
370
    25
100
AcDbDimension
  2
*D28
 10
279.723536
 20
1316.856895
 30
0.0
 11
319.629759
 21
1291.816811
 31
0.0
 70
   164
 71
     5
 42
10.0
  3
LC-DIM-R-0025-03-02
100
AcDbRadialDimension
 15
282.441581
 25
1312.660202
 35
0.0
 40
1.0
1001
ACAD
1000
DSTYLE
1002
{
1070
   144
1040
2.0
1002
}
  0
DIMENSION
  5
42B
330
1F
100
AcDbEntity
  8
LC-006-003-----0
 62
     7
370
    25
100
AcDbDimension
  2
*D29
 10
1059.432193
 20
2774.25
 30
0.0
 11
802.432193
 21
2804.25
 31
0.0
 70
   160
 71
     5
 42
514.0
  3
LC-DIM-L-0025-03-02
100
AcDbAlignedDimension
 13
545.432193
 23
2681.72
 33
0.0
 14
1059.432193
 24
2681.72
 34
0.0
100
AcDbRotatedDimension
  0
ARC
  5
438
102
{ACAD_REACTORS
330
597
102
}
330
1F
100
AcDbEntity
  8
LC-002-002-----0
 62
     7
370
    25
100
AcDbCircle
 10
1002.432193
 20
2041.81
 30
0.0
 40
17.49999999999985
100
AcDbArc
 50
72.0
 51
108.0
  0
ARC
  5
439
102
{ACAD_REACTORS
330
597
102
}
330
1F
100
AcDbEntity
  8
LC-002-002-----0
 62
     7
370
    25
100
AcDbCircle
 10
1002.432193
 20
2041.81
 30
0.0
 40
17.50000000000006
100
AcDbArc
 50
144.0
 51
180.0
  0
ARC
  5
43A
102
{ACAD_REACTORS
330
597
102
}
330
1F
100
AcDbEntity
  8
LC-002-002-----0
 62
     7
370
    25
100
AcDbCircle
 10
1002.432193
 20
2041.81
 30
0.0
 40
17.50000000000046
100
AcDbArc
 50
216.0
 51
252.0
  0
ARC
  5
43B
102
{ACAD_REACTORS
330
597
102
}
330
1F
100
AcDbEntity
  8
LC-002-002-----0
 62
     7
370
    25
100
AcDbCircle
 10
1002.432193
 20
2041.81
 30
0.0
 40
17.5000000000005
100
AcDbArc
 50
288.0
 51
324.0
  0
ARC
  5
43C
102
{ACAD_REACTORS
330
597
102
}
330
1F
100
AcDbEntity
  8
LC-002-002-----0
 62
     7
370
    25
100
AcDbCircle
 10
1002.432193
 20
2041.81
 30
0.0
 40
17.50000000000091
100
AcDbArc
 50
0.0
 51
36.0
  0
ARC
  5
43D
102
{ACAD_REACTORS
330
596
102
}
330
1F
100
AcDbEntity
  8
LC-002-002-----0
 62
     7
370
    25
100
AcDbCircle
 10
902.432193
 20
2041.81
 30
0.0
 40
17.49999999999985
100
AcDbArc
 50
72.0
 51
108.0
  0
ARC
  5
43E
102
{ACAD_REACTORS
330
596
102
}
330
1F
100
AcDbEntity
  8
LC-002-002-----0
 62
     7
370
    25
100
AcDbCircle
 10
902.432193
 20
2041.81
 30
0.0
 40
17.50000000000006
100
AcDbArc
 50
144.0
 51
180.0
  0
ARC
  5
43F
102
{ACAD_REACTORS
330
596
102
}
330
1F
100
AcDbEntity
  8
LC-002-002-----0
 62
     7
370
    25
100
AcDbCircle
 10
902.432193
 20
2041.81
 30
0.0
 40
17.50000000000046
100
AcDbArc
 50
216.0
 51
252.0
  0
ARC
  5
440
102
{ACAD_REACTORS
330
596
102
}
330
1F
100
AcDbEntity
  8
LC-002-002-----0
 62
     7
370
    25
100
AcDbCircle
 10
902.432193
 20
2041.81
 30
0.0
 40
17.5000000000005
100
AcDbArc
 50
288.0
 51
324.0
  0
ARC
  5
441
102
{ACAD_REACTORS
330
596
102
}
330
1F
100
AcDbEntity
  8
LC-002-002-----0
 62
     7
370
    25
100
AcDbCircle
 10
902.432193
 20
2041.81
 30
0.0
 40
17.50000000000091
100
AcDbArc
 50
0.0
 51
36.0
  0
ARC
  5
442
102
{ACAD_REACTORS
330
599
102
}
330
1F
100
AcDbEntity
  8
LC-002-002-----0
 62
     7
370
    25
100
AcDbCircle
 10
802.432193
 20
2041.81
 30
0.0
 40
17.49999999999985
100
AcDbArc
 50
72.0
 51
108.0
  0
ARC
  5
443
102
{ACAD_REACTORS
330
599
102
}
330
1F
100
AcDbEntity
  8
LC-002-002-----0
 62
     7
370
    25
100
AcDbCircle
 10
802.432193
 20
2041.81
 30
0.0
 40
17.50000000000006
100
AcDbArc
 50
144.0
 51
180.0
  0
ARC
  5
444
102
{ACAD_REACTORS
330
599
102
}
330
1F
100
AcDbEntity
  8
LC-002-002-----0
 62
     7
370
    25
100
AcDbCircle
 10
802.432193
 20
2041.81
 30
0.0
 40
17.50000000000046
100
AcDbArc
 50
216.0
 51
252.0
  0
ARC
  5
445
102
{ACAD_REACTORS
330
599
102
}
330
1F
100
AcDbEntity
  8
LC-002-002-----0
 62
     7
370
    25
100
AcDbCircle
 10
802.432193
 20
2041.81
 30
0.0
 40
17.5000000000005
100
AcDbArc
 50
288.0
 51
324.0
  0
ARC
  5
446
102
{ACAD_REACTORS
330
599
102
}
330
1F
100
AcDbEntity
  8
LC-002-002-----0
 62
     7
370
    25
100
AcDbCircle
 10
802.432193
 20
2041.81
 30
0.0
 40
17.50000000000091
100
AcDbArc
 50
0.0
 51
36.0
  0
ARC
  5
447
102
{ACAD_REACTORS
330
598
102
}
330
1F
100
AcDbEntity
  8
LC-002-002-----0
 62
     7
370
    25
100
AcDbCircle
 10
702.432193
 20
2041.81
 30
0.0
 40
17.49999999999985
100
AcDbArc
 50
72.0
 51
108.0
  0
ARC
  5
448
102
{ACAD_REACTORS
330
598
102
}
330
1F
100
AcDbEntity
  8
LC-002-002-----0
 62
     7
370
    25
100
AcDbCircle
 10
702.432193
 20
2041.81
 30
0.0
 40
17.50000000000006
100
AcDbArc
 50
144.0
 51
180.0
  0
ARC
  5
449
102
{ACAD_REACTORS
330
598
102
}
330
1F
100
AcDbEntity
  8
LC-002-002-----0
 62
     7
370
    25
100
AcDbCircle
 10
702.432193
 20
2041.81
 30
0.0
 40
17.50000000000046
100
AcDbArc
 50
216.0
 51
252.0
  0
ARC
  5
44A
102
{ACAD_REACTORS
330
598
102
}
330
1F
100
AcDbEntity
  8
LC-002-002-----0
 62
     7
370
    25
100
AcDbCircle
 10
702.432193
 20
2041.81
 30
0.0
 40
17.5000000000005
100
AcDbArc
 50
288.0
 51
324.0
  0
ARC
  5
44B
102
{ACAD_REACTORS
330
598
102
}
330
1F
100
AcDbEntity
  8
LC-002-002-----0
 62
     7
370
    25
100
AcDbCircle
 10
702.432193
 20
2041.81
 30
0.0
 40
17.50000000000091
100
AcDbArc
 50
0.0
 51
36.0
  0
ARC
  5
44C
102
{ACAD_REACTORS
330
59A
102
}
330
1F
100
AcDbEntity
  8
LC-002-002-----0
 62
     7
370
    25
100
AcDbCircle
 10
602.432193
 20
2041.81
 30
0.0
 40
17.49999999999985
100
AcDbArc
 50
72.0
 51
108.0
  0
ARC
  5
44D
102
{ACAD_REACTORS
330
59A
102
}
330
1F
100
AcDbEntity
  8
LC-002-002-----0
 62
     7
370
    25
100
AcDbCircle
 10
602.432193
 20
2041.81
 30
0.0
 40
17.50000000000006
100
AcDbArc
 50
144.0
 51
180.0
  0
ARC
  5
44E
102
{ACAD_REACTORS
330
59A
102
}
330
1F
100
AcDbEntity
  8
LC-002-002-----0
 62
     7
370
    25
100
AcDbCircle
 10
602.432193
 20
2041.81
 30
0.0
 40
17.50000000000046
100
AcDbArc
 50
216.0
 51
252.0
  0
ARC
  5
44F
102
{ACAD_REACTORS
330
59A
102
}
330
1F
100
AcDbEntity
  8
LC-002-002-----0
 62
     7
370
    25
100
AcDbCircle
 10
602.432193
 20
2041.81
 30
0.0
 40
17.5000000000005
100
AcDbArc
 50
288.0
 51
324.0
  0
ARC
  5
450
102
{ACAD_REACTORS
330
59A
102
}
330
1F
100
AcDbEntity
  8
LC-002-002-----0
 62
     7
370
    25
100
AcDbCircle
 10
602.432193
 20
2041.81
 30
0.0
 40
17.50000000000091
100
AcDbArc
 50
0.0
 51
36.0
  0
DIMENSION
  5
451
330
1F
100
AcDbEntity
  8
LC-006-003-----0
 62
     7
370
    25
100
AcDbDimension
  2
*D30
 10
802.432193
 20
2177.71
 30
0.0
 11
752.432193
 21
2207.71
 31
0.0
 70
   160
 71
     5
 42
100.0
  3
LC-DIM-L-0025-03-02
100
AcDbAlignedDimension
 13
702.432193
 23
2118.31
 33
0.0
 14
802.432193
 24
2118.31
 34
0.0
100
AcDbRotatedDimension
  0
DIMENSION
  5
45E
330
1F
100
AcDbEntity
  8
LC-006-003-----0
 62
     7
370
    25
100
AcDbDimension
  2
*D31
 10
702.432193
 20
2177.71
 30
0.0
 11
652.432193
 21
2207.71
 31
0.0
 70
   160
 71
     5
 42
100.0
  3
LC-DIM-L-0025-03-02
100
AcDbAlignedDimension
 13
602.432193
 23
2118.31
 33
0.0
 14
702.432193
 24
2118.31
 34
0.0
100
AcDbRotatedDimension
  0
LINE
  5
46B
102
{ACAD_REACTORS
330
594
102
}
330
1F
100
AcDbEntity
  8
LC-002-002-----0
 62
     7
370
    25
100
AcDbLine
 10
766.934056
 20
2433.319205
 30
0.0
 11
766.934056
 21
2434.02245
 31
0.0
  0
LINE
  5
46C
102
{ACAD_REACTORS
330
594
102
}
330
1F
100
AcDbEntity
  8
LC-002-002-----0
 62
     7
370
    25
100
AcDbLine
 10
837.930331
 20
2433.319205
 30
0.0
 11
837.930331
 21
2434.02245
 31
0.0
  0
LINE
  5
46D
102
{ACAD_REACTORS
330
594
102
}
330
1F
100
AcDbEntity
  8
LC-002-002-----0
 62
     7
370
    25
100
AcDbLine
 10
747.432193
 20
2476.665131
 30
0.0
 11
857.432193
 21
2476.665131
 31
0.0
  0
LINE
  5
46E
102
{ACAD_REACTORS
330
594
102
}
330
1F
100
AcDbEntity
  8
LC-002-002-----0
 62
     7
370
    25
100
AcDbLine
 10
857.432193
 20
2472.665131
 30
0.0
 11
857.432193
 21
2476.665131
 31
0.0
  0
LINE
  5
46F
102
{ACAD_REACTORS
330
594
102
}
330
1F
100
AcDbEntity
  8
LC-002-002-----0
 62
     7
370
    25
100
AcDbLine
 10
839.932193
 20
2434.02245
 30
0.0
 11
764.932193
 21
2434.02245
 31
0.0
  0
LINE
  5
470
102
{ACAD_REACTORS
330
594
102
}
330
1F
100
AcDbEntity
  8
LC-002-002-----0
 62
     7
370
    25
100
AcDbLine
 10
841.937157
 20
2436.52245
 30
0.0
 11
839.932193
 21
2436.52245
 31
0.0
  0
LINE
  5
471
102
{ACAD_REACTORS
330
594
102
}
330
1F
100
AcDbEntity
  8
LC-002-002-----0
 62
     7
370
    25
100
AcDbLine
 10
764.932193
 20
2436.52245
 30
0.0
 11
764.932193
 21
2434.02245
 31
0.0
  0
LINE
  5
472
102
{ACAD_REACTORS
330
594
102
}
330
1F
100
AcDbEntity
  8
LC-002-002-----0
 62
     7
370
    25
100
AcDbLine
 10
845.181583
 20
2440.852224
 30
0.0
 11
846.931558
 21
2441.862573
 31
0.0
  0
LINE
  5
473
102
{ACAD_REACTORS
330
594
102
}
330
1F
100
AcDbEntity
  8
LC-002-002-----0
 62
     7
370
    25
100
AcDbLine
 10
839.932193
 20
2436.52245
 30
0.0
 11
839.932193
 21
2434.02245
 31
0.0
  0
LINE
  5
474
102
{ACAD_REACTORS
330
594
102
}
330
1F
100
AcDbEntity
  8
LC-002-002-----0
 62
     7
370
    25
100
AcDbLine
 10
849.932193
 20
2447.059092
 30
0.0
 11
849.932193
 21
2462.52245
 31
0.0
  0
LINE
  5
475
102
{ACAD_REACTORS
330
594
102
}
330
1F
100
AcDbEntity
  8
LC-002-002-----0
 62
     7
370
    25
100
AcDbLine
 10
857.432193
 20
2472.204908
 30
0.0
 11
857.432193
 21
2472.665131
 31
0.0
  0
ARC
  5
476
102
{ACAD_REACTORS
330
594
102
}
330
1F
100
AcDbEntity
  8
LC-002-002-----0
 62
     7
370
    25
100
AcDbCircle
 10
853.932193
 20
2462.52245
 30
0.0
 40
3.999999999999755
100
AcDbArc
 50
104.492147
 51
180.0
  0
ARC
  5
477
102
{ACAD_REACTORS
330
594
102
}
330
1F
100
AcDbEntity
  8
LC-002-002-----0
 62
     7
370
    25
100
AcDbCircle
 10
851.432193
 20
2472.204908
 30
0.0
 40
5.999999999999658
100
AcDbArc
 50
284.469452
 51
0.0
  0
ARC
  5
478
102
{ACAD_REACTORS
330
594
102
}
330
1F
100
AcDbEntity
  8
LC-002-002-----0
 62
     7
370
    25
100
AcDbCircle
 10
843.932193
 20
2447.059092
 30
0.0
 40
6.000000000000091
100
AcDbArc
 50
299.988476
 51
0.0
  0
ARC
  5
479
102
{ACAD_REACTORS
330
594
102
}
330
1F
100
AcDbEntity
  8
LC-002-002-----0
 62
     7
370
    25
100
AcDbCircle
 10
847.682193
 20
2436.52245
 30
0.0
 40
4.999999999999792
100
AcDbArc
 50
120.016153
 51
172.072225
  0
ARC
  5
47A
102
{ACAD_REACTORS
330
594
102
}
330
1F
100
AcDbEntity
  8
LC-002-002-----0
 62
     7
370
    25
100
AcDbCircle
 10
757.182193
 20
2436.52245
 30
0.0
 40
4.999999999999969
100
AcDbArc
 50
7.927775
 51
33.954632
  0
ARC
  5
47B
102
{ACAD_REACTORS
330
594
102
}
330
1F
100
AcDbEntity
  8
LC-002-002-----0
 62
     7
370
    25
100
AcDbCircle
 10
841.937631
 20
2437.32245
 30
0.0
 40
0.8000000000001819
100
AcDbArc
 50
270.0
 51
352.062606
  0
ARC
  5
47C
102
{ACAD_REACTORS
330
594
102
}
330
1F
100
AcDbEntity
  8
LC-002-002-----0
 62
     7
370
    25
100
AcDbCircle
 10
762.926756
 20
2437.32245
 30
0.0
 40
0.8000000000001692
100
AcDbArc
 50
187.937394
 51
270.0
  0
ARC
  5
47D
102
{ACAD_REACTORS
330
594
102
}
330
1F
100
AcDbEntity
  8
LC-002-002-----0
 62
     7
370
    25
100
AcDbCircle
 10
802.432193
 20
2402.062903
 30
0.0
 40
22.0
100
AcDbArc
 50
180.0
 51
0.0
  0
LINE
  5
47E
102
{ACAD_REACTORS
330
594
102
}
330
1F
100
AcDbEntity
  8
LC-002-002-----0
 62
     7
370
    25
100
AcDbLine
 10
780.432193
 20
2402.062903
 30
0.0
 11
780.432193
 21
2415.754087
 31
0.0
  0
LINE
  5
47F
102
{ACAD_REACTORS
330
594
102
}
330
1F
100
AcDbEntity
  8
LC-002-002-----0
 62
     7
370
    25
100
AcDbLine
 10
824.432193
 20
2402.062903
 30
0.0
 11
824.432193
 21
2415.754087
 31
0.0
  0
LINE
  5
480
102
{ACAD_REACTORS
330
594
102
}
330
1F
100
AcDbEntity
  8
LC-002-002-----0
 62
     7
370
    25
100
AcDbLine
 10
830.721132
 20
2423.564069
 30
0.0
 11
831.199579
 21
2426.182933
 31
0.0
  0
ARC
  5
481
102
{ACAD_REACTORS
330
594
102
}
330
1F
100
AcDbEntity
  8
LC-002-002-----0
 62
     7
370
    25
100
AcDbCircle
 10
824.326969
 20
2424.73226
 30
0.0
 40
6.500000000000005
100
AcDbArc
 50
289.07704
 51
349.645823
  0
ARC
  5
482
102
{ACAD_REACTORS
330
594
102
}
330
1F
100
AcDbEntity
  8
LC-002-002-----0
 62
     7
370
    25
100
AcDbCircle
 10
827.432193
 20
2415.754087
 30
0.0
 40
2.999999999999865
100
AcDbArc
 50
109.055448
 51
180.0
  0
ARC
  5
483
102
{ACAD_REACTORS
330
594
102
}
330
1F
100
AcDbEntity
  8
LC-002-002-----0
 62
     7
370
    25
100
AcDbCircle
 10
835.930331
 20
2433.319205
 30
0.0
 40
2.000000000000175
100
AcDbArc
 50
334.152631
 51
0.0
  0
ARC
  5
484
102
{ACAD_REACTORS
330
594
102
}
330
1F
100
AcDbEntity
  8
LC-002-002-----0
 62
     7
370
    25
100
AcDbCircle
 10
832.330398
 20
2435.062903
 30
0.0
 40
5.999999999999973
100
AcDbArc
 50
286.283517
 51
334.155028
  0
ARC
  5
485
102
{ACAD_REACTORS
330
594
102
}
330
1F
100
AcDbEntity
  8
LC-002-002-----0
 62
     7
370
    25
100
AcDbCircle
 10
835.134456
 20
2425.464087
 30
0.0
 40
3.999999999999497
100
AcDbArc
 50
106.281751
 51
169.647048
  0
LINE
  5
486
102
{ACAD_REACTORS
330
594
102
}
330
1F
100
AcDbEntity
  8
LC-002-002-----0
 62
     7
370
    25
100
AcDbLine
 10
774.143254
 20
2423.564069
 30
0.0
 11
773.664808
 21
2426.182933
 31
0.0
  0
ARC
  5
487
102
{ACAD_REACTORS
330
594
102
}
330
1F
100
AcDbEntity
  8
LC-002-002-----0
 62
     7
370
    25
100
AcDbCircle
 10
780.537418
 20
2424.73226
 30
0.0
 40
6.499999999999891
100
AcDbArc
 50
190.354177
 51
250.92296
  0
ARC
  5
488
102
{ACAD_REACTORS
330
594
102
}
330
1F
100
AcDbEntity
  8
LC-002-002-----0
 62
     7
370
    25
100
AcDbCircle
 10
777.432193
 20
2415.754087
 30
0.0
 40
2.999999995699909
100
AcDbArc
 50
0.0
 51
70.944552
  0
ARC
  5
489
102
{ACAD_REACTORS
330
594
102
}
330
1F
100
AcDbEntity
  8
LC-002-002-----0
 62
     7
370
    25
100
AcDbCircle
 10
768.934056
 20
2433.319205
 30
0.0
 40
2.0
100
AcDbArc
 50
180.0
 51
205.847369
  0
ARC
  5
48A
102
{ACAD_REACTORS
330
594
102
}
330
1F
100
AcDbEntity
  8
LC-002-002-----0
 62
     7
370
    25
100
AcDbCircle
 10
772.533989
 20
2435.062903
 30
0.0
 40
5.999999999999802
100
AcDbArc
 50
205.844972
 51
253.716483
  0
ARC
  5
48B
102
{ACAD_REACTORS
330
594
102
}
330
1F
100
AcDbEntity
  8
LC-002-002-----0
 62
     7
370
    25
100
AcDbCircle
 10
769.729931
 20
2425.464087
 30
0.0
 40
3.999999999999939
100
AcDbArc
 50
10.352952
 51
73.718249
  0
ARC
  5
48C
102
{ACAD_REACTORS
330
594
102
}
330
1F
100
AcDbEntity
  8
LC-002-002-----0
 62
     7
370
    25
100
AcDbCircle
 10
802.432193
 20
2402.062903
 30
0.0
 40
27.70479324130015
100
AcDbArc
 50
145.394244
 51
34.605756
  0
LINE
  5
48D
102
{ACAD_REACTORS
330
594
102
}
330
1F
100
AcDbEntity
  8
LC-002-002-----0
 62
     7
370
    25
100
AcDbLine
 10
764.932193
 20
2436.52245
 30
0.0
 11
762.92723
 21
2436.52245
 31
0.0
  0
LINE
  5
48E
102
{ACAD_REACTORS
330
594
102
}
330
1F
100
AcDbEntity
  8
LC-002-002-----0
 62
     7
370
    25
100
AcDbLine
 10
747.432193
 20
2472.204908
 30
0.0
 11
747.432193
 21
2476.665131
 31
0.0
  0
ARC
  5
48F
102
{ACAD_REACTORS
330
594
102
}
330
1F
100
AcDbEntity
  8
LC-002-002-----0
 62
     7
370
    25
100
AcDbCircle
 10
753.432193
 20
2472.204908
 30
0.0
 40
5.999999999999545
100
AcDbArc
 50
180.0
 51
255.530548
  0
ARC
  5
490
102
{ACAD_REACTORS
330
594
102
}
330
1F
100
AcDbEntity
  8
LC-002-002-----0
 62
     7
370
    25
100
AcDbCircle
 10
750.932193
 20
2462.52245
 30
0.0
 40
4.0
100
AcDbArc
 50
0.0
 51
75.507853
  0
LINE
  5
491
102
{ACAD_REACTORS
330
594
102
}
330
1F
100
AcDbEntity
  8
LC-002-002-----0
 62
     7
370
    25
100
AcDbLine
 10
754.932193
 20
2447.059092
 30
0.0
 11
754.932193
 21
2462.52245
 31
0.0
  0
ARC
  5
492
102
{ACAD_REACTORS
330
594
102
}
330
1F
100
AcDbEntity
  8
LC-002-002-----0
 62
     7
370
    25
100
AcDbCircle
 10
760.932193
 20
2447.059092
 30
0.0
 40
6.0
100
AcDbArc
 50
180.0
 51
240.011524
  0
ARC
  5
493
102
{ACAD_REACTORS
330
594
102
}
330
1F
100
AcDbEntity
  8
LC-002-002-----0
 62
     7
370
    25
100
AcDbCircle
 10
757.182193
 20
2436.52245
 30
0.0
 40
4.999999999999969
100
AcDbArc
 50
7.927775
 51
59.983847
  0
LINE
  5
494
102
{ACAD_REACTORS
330
594
102
}
330
1F
100
AcDbEntity
  8
LC-002-002-----0
 62
     7
370
    25
100
AcDbLine
 10
759.682804
 20
2440.852224
 30
0.0
 11
757.932829
 21
2441.862573
 31
0.0
  0
LINE
  5
495
102
{ACAD_REACTORS
330
58C
102
}
330
1F
100
AcDbEntity
  8
LC-002-002-----0
 62
     7
370
    50
100
AcDbLine
 10
1077.432193
 20
2664.72
 30
0.0
 11
1148.410111
 21
2664.72
 31
0.0
  0
LINE
  5
496
102
{ACAD_REACTORS
330
58C
102
}
330
1F
100
AcDbEntity
  8
LC-002-002-----0
 62
     7
370
    50
100
AcDbLine
 10
1077.432193
 20
2664.72
 30
0.0
 11
1077.432193
 21
2626.72
 31
0.0
  0
LINE
  5
497
102
{ACAD_REACTORS
330
58C
102
}
330
1F
100
AcDbEntity
  8
LC-002-002-----0
 62
     7
370
    50
100
AcDbLine
 10
1077.432193
 20
2626.72
 30
0.0
 11
1148.410111
 21
2626.72
 31
0.0
  0
LINE
  5
498
102
{ACAD_REACTORS
330
58C
102
}
330
1F
100
AcDbEntity
  8
LC-002-002-----0
 62
     7
370
    50
100
AcDbLine
 10
1102.432193
 20
2476.665131
 30
0.0
 11
1102.432193
 21
2626.72
 31
0.0
  0
LINE
  5
499
102
{ACAD_REACTORS
330
58C
102
}
330
1F
100
AcDbEntity
  8
LC-002-002-----0
 62
     7
370
    50
100
AcDbLine
 10
502.432193
 20
2476.665131
 30
0.0
 11
502.432193
 21
2626.72
 31
0.0
  0
LINE
  5
49A
102
{ACAD_REACTORS
330
58C
102
}
330
1F
100
AcDbEntity
  8
LC-002-002-----0
 62
     7
370
    50
100
AcDbLine
 10
521.432193
 20
2476.665131
 30
0.0
 11
521.432193
 21
2626.72
 31
0.0
  0
LINE
  5
49B
102
{ACAD_REACTORS
330
58C
102
}
330
1F
100
AcDbEntity
  8
LC-002-002-----0
 62
     7
370
    50
100
AcDbLine
 10
1083.432193
 20
2476.665131
 30
0.0
 11
1083.432193
 21
2626.72
 31
0.0
  0
LINE
  5
49C
102
{ACAD_REACTORS
330
58C
102
}
330
1F
100
AcDbEntity
  8
LC-002-002-----0
 62
     7
370
    50
100
AcDbLine
 10
527.432193
 20
2626.72
 30
0.0
 11
456.454276
 21
2626.72
 31
0.0
  0
LINE
  5
49D
102
{ACAD_REACTORS
330
58C
102
}
330
1F
100
AcDbEntity
  8
LC-002-002-----0
 62
     7
370
    50
100
AcDbLine
 10
527.432193
 20
2664.72
 30
0.0
 11
527.432193
 21
2626.72
 31
0.0
  0
LINE
  5
49E
102
{ACAD_REACTORS
330
58C
102
}
330
1F
100
AcDbEntity
  8
LC-002-002-----0
 62
     7
370
    50
100
AcDbLine
 10
527.432193
 20
2664.72
 30
0.0
 11
456.454276
 21
2664.72
 31
0.0
  0
INSERT
  5
4AB
102
{ACAD_REACTORS
330
58C
102
}
330
1F
100
AcDbEntity
  8
LC-009-005-----0
 62
     7
370
    25
100
AcDbBlockReference
  2
*X132
 10
0.0
 20
0.0
 30
0.0
  0
INSERT
  5
4BB
102
{ACAD_REACTORS
330
58C
102
}
330
1F
100
AcDbEntity
  8
LC-009-005-----0
 62
     7
370
    25
100
AcDbBlockReference
  2
*X233
 10
0.0
 20
0.0
 30
0.0
  0
DIMENSION
  5
4BC
330
1F
100
AcDbEntity
  8
LC-006-003-----0
 62
     7
370
    25
100
AcDbDimension
  2
*D34
 10
1102.432193
 20
2298.78
 30
0.0
 11
793.315448
 21
2328.78
 31
0.0
 70
   160
 71
     5
 42
600.0
  3
LC-DIM-L-0025-03-02
100
AcDbAlignedDimension
 13
502.432193
 23
2466.665131
 33
0.0
 14
1102.432193
 24
2466.665131
 34
0.0
100
AcDbRotatedDimension
  0
DIMENSION
  5
4C9
330
1F
100
AcDbEntity
  8
LC-006-003-----0
 62
     7
370
    25
100
AcDbDimension
  2
*D35
 10
1682.937266
 20
1877.71
 30
0.0
 11
1592.937266
 21
1907.71
 31
0.0
 70
   160
 71
     5
 42
180.0
  3
LC-DIM-L-0025-03-02
100
AcDbAlignedDimension
 13
1502.937266
 23
1894.31
 33
0.0
 14
1682.937266
 24
1862.110808
 34
0.0
100
AcDbRotatedDimension
  0
TEXT
  5
4D6
330
1F
100
AcDbEntity
  8
LC-007-004-----0
 62
     7
370
    25
100
AcDbText
 10
663.571429
 20
101.25
 30
0.0
 40
25.0
  1
KM
 41
0.8
  7
LCTX0-400-0-0pDIN-Schrift
 72
     1
 11
685.0
 21
101.25
 31
0.0
100
AcDbText
  0
TEXT
  5
4D7
330
1F
100
AcDbEntity
  8
LC-007-004-----0
 62
     7
370
    25
100
AcDbText
 10
514.333333
 20
101.25
 30
0.0
 40
25.0
  1
01.09.10
 41
0.8
  7
LCTX0-400-0-0pDIN-Schrift
 72
     1
 11
581.0
 21
101.25
 31
0.0
100
AcDbText
  0
TEXT
  5
4D8
330
1F
100
AcDbEntity
  8
LC-007-004-----0
 62
     7
370
    25
100
AcDbText
 10
304.571429
 20
101.25
 30
0.0
 40
25.0
  1
aktualisiert
 41
0.8
  7
LCTX0-400-0-0pDIN-Schrift
 72
     1
 11
386.0
 21
101.25
 31
0.0
100
AcDbText
  0
LINE
  5
4D9
102
{ACAD_REACTORS
330
590
102
}
330
1F
100
AcDbEntity
  8
LC-002-002-----0
 62
     7
370
    50
100
AcDbLine
 10
947.534525
 20
744.421477
 30
0.0
 11
1048.428704
 21
744.421477
 31
0.0
  0
ARC
  5
4DA
102
{ACAD_REACTORS
330
590
102
}
330
1F
100
AcDbEntity
  8
LC-002-002-----0
 62
     7
370
    50
100
AcDbCircle
 10
1048.428704
 20
724.421477
 30
0.0
 40
19.99999999999987
100
AcDbArc
 50
4.0
 51
90.0
  0
LINE
  5
4DB
102
{ACAD_REACTORS
330
590
102
}
330
1F
100
AcDbEntity
  8
LC-002-002-----0
 62
     7
370
    50
100
AcDbLine
 10
1069.526445
 20
709.421477
 30
0.0
 11
1068.379985
 21
725.816606
 31
0.0
  0
LINE
  5
4DC
102
{ACAD_REACTORS
330
590
102
}
330
1F
100
AcDbEntity
  8
LC-002-002-----0
 62
     7
370
    50
100
AcDbLine
 10
1009.526445
 20
709.421477
 30
0.0
 11
1069.526445
 21
709.421477
 31
0.0
  0
LINE
  5
4DD
102
{ACAD_REACTORS
330
590
102
}
330
1F
100
AcDbEntity
  8
LC-002-002-----0
 62
     7
370
    50
100
AcDbLine
 10
1009.526445
 20
699.421477
 30
0.0
 11
1009.526445
 21
709.421477
 31
0.0
  0
LINE
  5
4DE
102
{ACAD_REACTORS
330
590
102
}
330
1F
100
AcDbEntity
  8
LC-002-002-----0
 62
     7
370
    50
100
AcDbLine
 10
982.499645
 20
699.421477
 30
0.0
 11
1009.526445
 21
699.421477
 31
0.0
  0
ARC
  5
4DF
102
{ACAD_REACTORS
330
590
102
}
330
1F
100
AcDbEntity
  8
LC-002-002-----0
 62
     7
370
    50
100
AcDbCircle
 10
982.499645
 20
674.421477
 30
0.0
 40
25.0
100
AcDbArc
 50
90.0
 51
174.0
  0
LINE
  5
4E0
102
{ACAD_REACTORS
330
590
102
}
330
1F
100
AcDbEntity
  8
LC-002-002-----0
 62
     7
370
    50
100
AcDbLine
 10
957.636598
 20
677.034689
 30
0.0
 11
954.352509
 21
645.78867
 31
0.0
  0
ARC
  5
4E1
102
{ACAD_REACTORS
330
590
102
}
330
1F
100
AcDbEntity
  8
LC-002-002-----0
 62
     7
370
    50
100
AcDbCircle
 10
947.534525
 20
724.421477
 30
0.0
 40
20.0
100
AcDbArc
 50
90.0
 51
174.0
  0
LINE
  5
4E2
102
{ACAD_REACTORS
330
590
102
}
330
1F
100
AcDbEntity
  8
LC-002-002-----0
 62
     7
370
    50
100
AcDbLine
 10
927.644088
 20
726.512046
 30
0.0
 11
919.497936
 21
649.006594
 31
0.0
  0
ARC
  5
4E3
102
{ACAD_REACTORS
330
590
102
}
330
1F
100
AcDbEntity
  8
LC-002-002-----0
 62
     7
370
    25
100
AcDbCircle
 10
907.314194
 20
724.421477
 30
0.0
 40
20.0
100
AcDbArc
 50
270.0
 51
354.0
  0
LINE
  5
4E4
102
{ACAD_REACTORS
330
590
102
}
330
1F
100
AcDbEntity
  8
LC-002-002-----0
 62
     7
370
    25
100
AcDbLine
 10
854.255176
 20
704.421477
 30
0.0
 11
907.314194
 21
704.421477
 31
0.0
  0
LINE
  5
4E5
102
{ACAD_REACTORS
330
590
102
}
330
1F
100
AcDbEntity
  8
LC-002-002-----0
 62
     7
370
    50
100
AcDbLine
 10
1002.026445
 20
884.421477
 30
0.0
 11
1002.026445
 21
744.421477
 31
0.0
  0
LINE
  5
4E6
102
{ACAD_REACTORS
330
590
102
}
330
1F
100
AcDbEntity
  8
LC-002-002-----0
 62
     7
370
    50
100
AcDbLine
 10
1002.026445
 20
744.421477
 30
0.0
 11
1249.679022
 21
744.421477
 31
0.0
  0
INSERT
  5
4F8
102
{ACAD_REACTORS
330
590
102
}
330
1F
100
AcDbEntity
  8
LC-009-005-----0
 62
     7
370
    25
100
AcDbBlockReference
  2
*X336
 10
0.0
 20
0.0
 30
0.0
  0
DIMENSION
  5
4FA
102
{ACAD_REACTORS
330
590
102
}
330
1F
100
AcDbEntity
  8
LC-006-003-----0
 62
     7
370
    25
100
AcDbDimension
  2
*D37
 10
1002.026445
 20
799.643966
 30
0.0
 11
963.599616
 21
829.643966
 31
0.0
 70
   160
 71
     5
 42
14.5
  3
LC-DIM-L-0025-02-02
100
AcDbAlignedDimension
 13
929.526445
 23
744.421477
 33
0.0
 14
1002.026445
 24
744.421477
 34
0.0
100
AcDbRotatedDimension
1001
ACAD
1000
DSTYLE
1002
{
1070
   144
1040
0.2
1002
}
  0
DIMENSION
  5
50A
330
1F
100
AcDbEntity
  8
LC-006-003-----0
 62
     7
370
    25
100
AcDbDimension
  2
*D38
 10
529.432193
 20
2096.31
 30
0.0
 11
466.516073
 21
2140.098993
 31
0.0
 70
   164
 71
     5
 42
12.0
  3
LC-DIM-R-0025-02-02
100
AcDbRadialDimension
 15
521.155919
 25
2104.999263
 35
0.0
 40
1.0
  0
DIMENSION
  5
513
330
1F
100
AcDbEntity
  8
LC-006-003-----0
 62
     7
370
    25
100
AcDbDimension
  2
*D39
 10
1800.0
 20
1634.937606
 30
0.0
 11
1770.0
 21
1819.873646
 31
0.0
 70
   160
 71
     5
 42
358.375414
 53
90.0
  3
LC-DIM-L-0025-00-02
100
AcDbAlignedDimension
 13
1657.937266
 23
1993.31302
 33
0.0
 14
1657.937266
 24
1634.937606
 34
0.0
 50
90.0
100
AcDbRotatedDimension
  0
INSERT
  5
52A
330
1F
100
AcDbEntity
  8
LC-009-005-----0
 62
     7
370
    25
100
AcDbBlockReference
  2
*X440
 10
0.0
 20
0.0
 30
0.0
  0
TEXT
  5
52B
330
1F
100
AcDbEntity
  8
LC-007-004-----0
 62
     7
370
    25
100
AcDbText
 10
291.413918
 20
1354.602419
 30
0.0
 40
25.0
  1
übergreifend
 41
0.8
  7
LCTX0-400-0-0pDIN-Schrift
100
AcDbText
  0
TEXT
  5
52C
330
1F
100
AcDbEntity
  8
LC-007-004-----0
 62
     7
370
    25
100
AcDbText
 10
897.813939
 20
1360.407318
 30
0.0
 40
25.0
  1
Unterbau mit Absatz
 41
0.8
  7
LCTX0-400-0-0pDIN-Schrift
100
AcDbText
  0
TEXT
  5
52D
102
{ACAD_REACTORS
330
592
102
}
330
1F
100
AcDbEntity
  8
LC-007-004-----0
 62
     7
370
    25
100
AcDbText
 10
1463.192149
 20
1396.483656
 30
0.0
 40
25.0
  1
Unterbau auf Kante Radius
 41
0.8
  7
LCTX0-400-0-0pDIN-Schrift
100
AcDbText
  0
TEXT
  5
52E
102
{ACAD_REACTORS
330
592
102
}
330
1F
100
AcDbEntity
  8
LC-007-004-----0
 62
     7
370
    25
100
AcDbText
 10
1463.192149
 20
1346.483656
 30
0.0
 40
25.0
  1
(nicht in Verbindung mit Schneidbrett!)
 41
0.8
  7
LCTX0-400-0-0pDIN-Schrift
100
AcDbText
  0
LINE
  5
52F
102
{ACAD_REACTORS
330
593
102
}
330
1F
100
AcDbEntity
  8
LC-002-002-----0
 62
     7
370
    50
100
AcDbLine
 10
1534.245741
 20
884.421477
 30
0.0
 11
1781.898319
 21
884.421477
 31
0.0
  0
LINE
  5
530
102
{ACAD_REACTORS
330
593
102
}
330
1F
100
AcDbEntity
  8
LC-002-002-----0
 62
     7
370
    50
100
AcDbLine
 10
1534.245741
 20
744.421477
 30
0.0
 11
1449.93066
 21
744.421477
 31
0.0
  0
LINE
  5
531
102
{ACAD_REACTORS
330
593
102
}
330
1F
100
AcDbEntity
  8
LC-002-002-----0
 62
     7
370
    50
100
AcDbLine
 10
1534.245741
 20
744.421477
 30
0.0
 11
1635.13992
 21
744.421477
 31
0.0
  0
ARC
  5
532
102
{ACAD_REACTORS
330
593
102
}
330
1F
100
AcDbEntity
  8
LC-002-002-----0
 62
     7
370
    50
100
AcDbCircle
 10
1635.13992
 20
724.421477
 30
0.0
 40
19.99999999999987
100
AcDbArc
 50
4.0
 51
90.0
  0
LINE
  5
533
102
{ACAD_REACTORS
330
593
102
}
330
1F
100
AcDbEntity
  8
LC-002-002-----0
 62
     7
370
    50
100
AcDbLine
 10
1656.23766
 20
709.421477
 30
0.0
 11
1655.091201
 21
725.816606
 31
0.0
  0
LINE
  5
534
102
{ACAD_REACTORS
330
593
102
}
330
1F
100
AcDbEntity
  8
LC-002-002-----0
 62
     7
370
    50
100
AcDbLine
 10
1596.23766
 20
709.421477
 30
0.0
 11
1656.23766
 21
709.421477
 31
0.0
  0
LINE
  5
535
102
{ACAD_REACTORS
330
593
102
}
330
1F
100
AcDbEntity
  8
LC-002-002-----0
 62
     7
370
    50
100
AcDbLine
 10
1596.23766
 20
699.421477
 30
0.0
 11
1596.23766
 21
709.421477
 31
0.0
  0
LINE
  5
536
102
{ACAD_REACTORS
330
593
102
}
330
1F
100
AcDbEntity
  8
LC-002-002-----0
 62
     7
370
    50
100
AcDbLine
 10
1569.210861
 20
699.421477
 30
0.0
 11
1596.23766
 21
699.421477
 31
0.0
  0
ARC
  5
537
102
{ACAD_REACTORS
330
593
102
}
330
1F
100
AcDbEntity
  8
LC-002-002-----0
 62
     7
370
    50
100
AcDbCircle
 10
1569.210861
 20
674.421477
 30
0.0
 40
25.0
100
AcDbArc
 50
90.0
 51
174.0
  0
LINE
  5
538
102
{ACAD_REACTORS
330
593
102
}
330
1F
100
AcDbEntity
  8
LC-002-002-----0
 62
     7
370
    50
100
AcDbLine
 10
1544.347813
 20
677.034689
 30
0.0
 11
1541.063724
 21
645.78867
 31
0.0
  0
ARC
  5
539
102
{ACAD_REACTORS
330
593
102
}
330
1F
100
AcDbEntity
  8
LC-002-002-----0
 62
     7
370
    50
100
AcDbCircle
 10
1534.245741
 20
724.421477
 30
0.0
 40
20.0
100
AcDbArc
 50
90.0
 51
174.0
  0
LINE
  5
53A
102
{ACAD_REACTORS
330
593
102
}
330
1F
100
AcDbEntity
  8
LC-002-002-----0
 62
     7
370
    50
100
AcDbLine
 10
1514.355303
 20
726.512046
 30
0.0
 11
1506.209152
 21
649.006594
 31
0.0
  0
ARC
  5
53B
102
{ACAD_REACTORS
330
593
102
}
330
1F
100
AcDbEntity
  8
LC-002-002-----0
 62
     7
370
    25
100
AcDbCircle
 10
1494.02541
 20
724.421477
 30
0.0
 40
20.0
100
AcDbArc
 50
270.0
 51
354.0
  0
LINE
  5
53C
102
{ACAD_REACTORS
330
593
102
}
330
1F
100
AcDbEntity
  8
LC-002-002-----0
 62
     7
370
    25
100
AcDbLine
 10
1440.966392
 20
704.421477
 30
0.0
 11
1494.02541
 21
704.421477
 31
0.0
  0
LINE
  5
53D
102
{ACAD_REACTORS
330
593
102
}
330
1F
100
AcDbEntity
  8
LC-002-002-----0
 62
     7
370
    50
100
AcDbLine
 10
1534.245741
 20
884.421477
 30
0.0
 11
1534.245741
 21
744.421477
 31
0.0
  0
LINE
  5
53E
102
{ACAD_REACTORS
330
593
102
}
330
1F
100
AcDbEntity
  8
LC-002-002-----0
 62
     7
370
    50
100
AcDbLine
 10
1534.245741
 20
744.421477
 30
0.0
 11
1781.898319
 21
744.421477
 31
0.0
  0
INSERT
  5
550
102
{ACAD_REACTORS
330
593
102
}
330
1F
100
AcDbEntity
  8
LC-009-005-----0
 62
     7
370
    25
100
AcDbBlockReference
  2
*X541
 10
0.0
 20
0.0
 30
0.0
  0
INSERT
  5
55B
330
1F
100
AcDbEntity
  8
LC-009-005-----0
 62
     7
370
    25
100
AcDbBlockReference
  2
*X642
 10
0.0
 20
0.0
 30
0.0
  0
TEXT
  5
55C
330
1F
100
AcDbEntity
  8
LC-007-004-----0
 62
     7
370
    25
100
AcDbText
 10
265.341092
 20
143.028262
 30
0.0
 40
25.0
  1
Unterbau Kante
 41
0.8
  7
LCTX0-400-0-0pDIN-Schrift
100
AcDbText
  0
TEXT
  5
55D
330
1F
100
AcDbEntity
  8
LC-007-004-----0
 62
     7
370
    25
100
AcDbText
 10
532.153846
 20
145.0
 30
0.0
 40
25.0
  1
23.07.12
 41
0.8
  7
LCTX0-400-0-0pDIN-Schrift
100
AcDbText
  0
TEXT
  5
55E
330
1F
100
AcDbEntity
  8
LC-007-004-----0
 62
     7
370
    25
100
AcDbText
 10
662.153846
 20
145.0
 30
0.0
 40
25.0
  1
HÄ
 41
0.8
  7
LCTX0-400-0-0pDIN-Schrift
100
AcDbText
  0
DIMENSION
  5
55F
330
1F
100
AcDbEntity
  8
LC-006-003-----0
 62
     7
370
    25
100
AcDbDimension
  2
*D43
 10
1534.245741
 20
724.421477
 30
0.0
 11
1452.393086
 21
795.789683
 31
0.0
 70
   164
 71
     5
 42
4.0
  3
LC-DIM-R-0025-02-02
100
AcDbRadialDimension
 15
1520.757052
 25
739.188171
 35
0.0
 40
1.0
1001
ACAD
1000
DSTYLE
1002
{
1070
   144
1040
0.2
1002
}
  0
DIMENSION
  5
568
102
{ACAD_REACTORS
330
592
102
}
330
1F
100
AcDbEntity
  8
LC-006-003-----0
 62
     7
370
    25
100
AcDbDimension
  2
*D44
 10
1718.460556
 20
1010.600557
 30
0.0
 11
1585.537838
 21
1040.600557
 31
0.0
 70
   160
 71
     5
 42
521.0
  3
LC-DIM-L-0025-02-02
100
AcDbAlignedDimension
 13
1457.960556
 23
1076.864929
 33
0.0
 14
1718.460556
 24
1076.864929
 34
0.0
100
AcDbRotatedDimension
1001
ACAD
1000
DSTYLE
1002
{
1070
   144
1040
2.0
1002
}
  0
DIMENSION
  5
575
102
{ACAD_REACTORS
330
592
102
}
330
1F
100
AcDbEntity
  8
LC-006-003-----0
 62
     7
370
    25
100
AcDbDimension
  2
*D45
 10
1793.444703
 20
1307.364929
 30
0.0
 11
1763.444703
 21
1188.366943
 31
0.0
 70
   160
 71
     5
 42
461.0
 53
90.0
  3
LC-DIM-L-0025-02-02
100
AcDbAlignedDimension
 13
1718.460556
 23
1076.864929
 33
0.0
 14
1718.460556
 24
1307.364929
 34
0.0
 50
90.0
100
AcDbRotatedDimension
1001
ACAD
1000
DSTYLE
1002
{
1070
   144
1040
2.0
1002
}
  0
DIMENSION
  5
582
102
{ACAD_REACTORS
330
592
102
}
330
1F
100
AcDbEntity
  8
LC-006-003-----0
 62
     7
370
    25
100
AcDbDimension
  2
*D46
 10
1465.960556
 20
1299.364929
 30
0.0
 11
1510.998558
 21
1269.953754
 31
0.0
 70
   164
 71
     5
 42
16.0
  3
LC-DIM-R-0025-02-02
100
AcDbRadialDimension
 15
1471.040347
 25
1293.18466
 35
0.0
 40
1.0
1001
ACAD
1000
DSTYLE
1002
{
1070
   144
1040
2.0
1002
}
  0
ENDSEC
  0
SECTION
  2
OBJECTS
  0
DICTIONARY
  5
C
330
0
100
AcDbDictionary
281
     1
  3
ACAD_GROUP
350
D
  3
ACAD_LAYOUT
350
1A
  3
ACAD_MLINESTYLE
350
17
  3
ACAD_PLOTSETTINGS
350
19
  3
ACAD_PLOTSTYLENAME
350
E
  0
DICTIONARY
  5
D
102
{ACAD_REACTORS
330
C
102
}
330
C
100
AcDbDictionary
281
     1
  3
LCGROUP10
350
58B
  3
LCGROUP16
350
58D
  3
LCGROUP1660
350
58E
  3
LCGROUP1865
350
597
  3
LCGROUP1871
350
596
  3
LCGROUP1877
350
599
  3
LCGROUP1883
350
598
  3
LCGROUP1889
350
59A
  3
LCGROUP19
350
58C
  3
LCGROUP2052
350
594
  3
LCGROUP2304
350
593
  3
LCGROUP28
350
58F
  3
LCGROUP35
350
591
  3
LCGROUP37
350
590
  3
LCGROUP54
350
592
  3
LCGROUP706
350
595
  0
DICTIONARY
  5
1A
102
{ACAD_REACTORS
330
C
102
}
330
C
100
AcDbDictionary
281
     1
  3
Layout1
350
1E
  3
Layout2
350
26
  3
Model
350
22
  0
DICTIONARY
  5
17
102
{ACAD_REACTORS
330
C
102
}
330
C
100
AcDbDictionary
281
     1
  3
Standard
350
18
  0
DICTIONARY
  5
19
102
{ACAD_REACTORS
330
C
102
}
330
C
100
AcDbDictionary
281
     1
  0
ACDBDICTIONARYWDFLT
  5
E
102
{ACAD_REACTORS
330
C
102
}
330
C
100
AcDbDictionary
281
     1
  3
Normal
350
F
100
AcDbDictionaryWithDefault
340
F
  0
GROUP
  5
58B
102
{ACAD_REACTORS
330
D
102
}
330
D
100
AcDbGroup
300
GRP10
 70
     1
 71
     1
340
104
340
105
340
106
340
107
340
108
340
10F
340
110
340
111
340
112
340
113
340
114
340
116
340
11C
340
12B
340
12C
340
12D
340
12E
340
12F
340
130
340
131
340
132
340
133
340
134
340
135
340
136
340
137
340
138
340
139
340
13C
340
14A
340
3D0
340
3DD
340
3EA
  0
GROUP
  5
58D
102
{ACAD_REACTORS
330
D
102
}
330
D
100
AcDbGroup
300
GRP16
 70
     1
 71
     1
340
1C3
340
1C4
340
1C5
340
1C6
340
1C7
340
1C8
340
1C9
340
1CA
340
1CB
340
1CC
340
1CD
340
1CE
340
1CF
340
1D0
340
1D1
340
1D2
340
1D3
340
1D4
340
1D5
340
1D6
340
1D7
340
1D8
340
1D9
340
1DA
340
1DB
340
1DC
340
1DD
340
1DE
340
1DF
340
1E0
340
1E1
340
1E2
340
1E3
340
1E4
340
1E5
340
1E6
340
1E7
340
1E8
340
1E9
340
1EA
340
1EB
340
1EC
340
1ED
340
1EE
340
1EF
340
1F0
340
1F1
340
1F2
340
1F3
340
1F4
340
1F5
340
1F6
340
1F7
340
1F8
340
1F9
340
1FA
340
1FB
340
1FC
340
1FD
340
1FE
340
1FF
340
200
340
201
340
202
340
203
340
204
340
205
340
206
340
207
340
208
340
212
340
21C
340
22A
340
238
340
250
340
25A
340
26C
340
296
340
297
340
298
340
299
340
29A
340
29B
340
29C
340
29D
340
29E
340
29F
340
2A0
340
2A1
340
2A2
340
2A3
340
2A4
340
2B4
340
2C2
340
2C3
340
2C4
340
2C5
340
2C6
340
2C7
340
2C8
340
2C9
340
2CA
340
2CB
340
2CC
340
2CD
340
2CE
340
2CF
340
2D0
340
2D1
340
2D2
340
2D3
340
2D4
340
2D5
340
2D6
340
2D7
340
2D8
340
2D9
340
2DA
340
2DB
340
2DC
340
2DD
340
2DE
340
2DF
340
2E0
340
2E1
340
2E2
340
2E3
340
2E4
340
2E5
340
2E6
340
2E7
340
2E8
340
2E9
340
2EA
340
2EB
340
2EC
340
2ED
340
2EE
340
2EF
340
2F0
340
2F1
340
2F2
340
2F3
340
2F4
340
2F5
340
2F6
340
2F7
340
2F8
340
2F9
340
2FA
340
2FB
340
2FC
340
2FD
340
2FE
340
2FF
340
300
340
301
340
302
340
303
340
304
340
305
340
306
340
307
340
308
340
309
340
30A
340
30B
340
30C
340
30D
340
30E
340
30F
340
310
340
311
340
312
340
313
340
314
340
315
340
316
340
317
340
318
340
319
340
31A
340
31F
340
320
340
321
340
322
340
323
340
324
340
325
340
326
340
327
340
328
340
329
340
32A
340
32B
340
32C
340
32D
340
32E
340
32F
340
33F
340
340
340
350
340
351
340
361
340
370
  0
GROUP
  5
58E
102
{ACAD_REACTORS
330
D
102
}
330
D
100
AcDbGroup
300
GRP1660
 70
     1
 71
     1
340
122
340
127
340
12A
340
363
340
371
340
372
340
373
340
374
340
375
340
376
340
377
340
378
340
379
340
37A
340
37B
340
37C
340
37D
340
37E
340
37F
340
380
340
381
340
382
340
383
340
384
340
385
340
387
340
388
340
389
340
38A
340
38B
340
38C
340
38D
340
38E
340
38F
340
390
340
391
340
392
340
393
340
394
340
395
340
396
340
397
340
398
340
399
340
39A
340
39B
340
39C
340
39D
340
39E
340
39F
340
3A0
340
3A1
340
3A2
340
3A3
340
3A4
340
3A5
340
3A6
340
3A7
340
3A8
340
3A9
340
3AA
340
3AB
340
3AC
340
3AD
340
3AE
340
3AF
340
3B0
340
3B1
340
3B2
340
3B3
340
3B4
340
3B5
340
3B6
340
3B7
340
3B8
340
3B9
340
3BA
340
3BB
340
3BC
340
3BD
340
3BE
340
3BF
340
3C0
340
3C1
340
3CD
  0
GROUP
  5
597
102
{ACAD_REACTORS
330
D
102
}
330
D
100
AcDbGroup
300
GRP1865
 70
     1
 71
     1
340
438
340
439
340
43A
340
43B
340
43C
  0
GROUP
  5
596
102
{ACAD_REACTORS
330
D
102
}
330
D
100
AcDbGroup
300
GRP1871
 70
     1
 71
     1
340
43D
340
43E
340
43F
340
440
340
441
  0
GROUP
  5
599
102
{ACAD_REACTORS
330
D
102
}
330
D
100
AcDbGroup
300
GRP1877
 70
     1
 71
     1
340
442
340
443
340
444
340
445
340
446
  0
GROUP
  5
598
102
{ACAD_REACTORS
330
D
102
}
330
D
100
AcDbGroup
300
GRP1883
 70
     1
 71
     1
340
447
340
448
340
449
340
44A
340
44B
  0
GROUP
  5
59A
102
{ACAD_REACTORS
330
D
102
}
330
D
100
AcDbGroup
300
GRP1889
 70
     1
 71
     1
340
44C
340
44D
340
44E
340
44F
340
450
  0
GROUP
  5
58C
102
{ACAD_REACTORS
330
D
102
}
330
D
100
AcDbGroup
300
GRP19
 70
     1
 71
     1
340
495
340
496
340
497
340
498
340
499
340
49A
340
49B
340
49C
340
49D
340
49E
340
4AB
340
4BB
  0
GROUP
  5
594
102
{ACAD_REACTORS
330
D
102
}
330
D
100
AcDbGroup
300
GRP2052
 70
     1
 71
     1
340
46B
340
46C
340
46D
340
46E
340
46F
340
470
340
471
340
472
340
473
340
474
340
475
340
476
340
477
340
478
340
479
340
47A
340
47B
340
47C
340
47D
340
47E
340
47F
340
480
340
481
340
482
340
483
340
484
340
485
340
486
340
487
340
488
340
489
340
48A
340
48B
340
48C
340
48D
340
48E
340
48F
340
490
340
491
340
492
340
493
340
494
  0
GROUP
  5
593
102
{ACAD_REACTORS
330
D
102
}
330
D
100
AcDbGroup
300
GRP2304
 70
     1
 71
     1
340
52F
340
530
340
531
340
532
340
533
340
534
340
535
340
536
340
537
340
538
340
539
340
53A
340
53B
340
53C
340
53D
340
53E
340
550
  0
GROUP
  5
58F
102
{ACAD_REACTORS
330
D
102
}
330
D
100
AcDbGroup
300
Äquidistante
 70
     1
 71
     1
340
115
340
117
340
118
340
119
340
1A3
340
1A4
340
1A5
340
1A6
340
1A7
340
1B4
340
1C2
340
422
  0
GROUP
  5
591
102
{ACAD_REACTORS
330
D
102
}
330
D
100
AcDbGroup
300
Äquidistante 1845
 70
     1
 71
     1
340
10E
340
11A
340
120
340
121
340
3FA
340
3FB
340
3FC
340
3FD
340
3FE
340
40B
340
419
  0
GROUP
  5
590
102
{ACAD_REACTORS
330
D
102
}
330
D
100
AcDbGroup
300
GRP37
 70
     1
 71
     1
340
11D
340
11E
340
4D9
340
4DA
340
4DB
340
4DC
340
4DD
340
4DE
340
4DF
340
4E0
340
4E1
340
4E2
340
4E3
340
4E4
340
4E5
340
4E6
340
4F8
340
4FA
  0
GROUP
  5
592
102
{ACAD_REACTORS
330
D
102
}
330
D
100
AcDbGroup
300
GRP54
 70
     1
 71
     1
340
11B
340
11F
340
123
340
124
340
125
340
126
340
128
340
129
340
52D
340
52E
340
568
340
575
340
582
  0
GROUP
  5
595
102
{ACAD_REACTORS
330
D
102
}
330
D
100
AcDbGroup
300
GRP706
 70
     1
 71
     1
340
109
340
10C
340
157
340
158
340
159
340
15A
340
15B
340
15C
340
15D
340
15E
340
15F
340
160
340
161
340
162
340
163
340
164
340
165
340
166
340
167
340
168
340
169
340
16A
340
16B
340
16C
340
16D
340
16E
340
16F
340
170
340
171
340
172
340
173
340
174
340
175
340
176
340
177
340
178
340
179
340
17A
340
17B
340
17C
340
17D
340
17E
340
17F
340
180
340
181
340
182
340
183
340
184
340
185
340
186
340
187
340
188
340
189
340
18A
340
18B
340
18C
340
18D
340
18E
340
18F
340
190
340
191
340
192
340
193
340
194
340
195
340
196
340
197
340
198
340
199
340
19A
340
19B
340
19C
340
19D
340
19E
340
19F
340
1A0
340
1A1
340
1A2
340
3CE
  0
LAYOUT
  5
1E
102
{ACAD_REACTORS
330
1A
102
}
330
1A
100
AcDbPlotSettings
  1

  2

  4

  6

 40
0.0
 41
0.0
 42
0.0
 43
0.0
 44
0.0
 45
0.0
 46
0.0
 47
0.0
 48
0.0
 49
0.0
140
0.0
141
0.0
142
1.0
143
1.0
 70
   688
 72
     0
 73
     0
 74
     5
  7

 75
    16
 76
     0
 77
     2
 78
   300
147
1.0
148
0.0
149
0.0
100
AcDbLayout
  1
Layout1
 70
     1
 71
     1
 10
0.0
 20
0.0
 11
2100.0
 21
2970.0
 12
0.0
 22
0.0
 32
0.0
 14
0.0
 24
0.0
 34
0.0
 15
2100.0
 25
2970.0
 35
0.0
146
0.0
 13
0.0
 23
0.0
 33
0.0
 16
1.0
 26
0.0
 36
0.0
 17
0.0
 27
1.0
 37
0.0
 76
     0
330
1B
  0
LAYOUT
  5
26
102
{ACAD_REACTORS
330
1A
102
}
330
1A
100
AcDbPlotSettings
  1

  2

  4

  6

 40
0.0
 41
0.0
 42
0.0
 43
0.0
 44
0.0
 45
0.0
 46
0.0
 47
0.0
 48
0.0
 49
0.0
140
0.0
141
0.0
142
1.0
143
1.0
 70
   688
 72
     0
 73
     0
 74
     5
  7

 75
    16
 76
     0
 77
     2
 78
   300
147
1.0
148
0.0
149
0.0
100
AcDbLayout
  1
Layout2
 70
     1
 71
     2
 10
0.0
 20
0.0
 11
0.0
 21
0.0
 12
0.0
 22
0.0
 32
0.0
 14
0.0
 24
0.0
 34
0.0
 15
0.0
 25
0.0
 35
0.0
146
0.0
 13
0.0
 23
0.0
 33
0.0
 16
1.0
 26
0.0
 36
0.0
 17
0.0
 27
1.0
 37
0.0
 76
     0
330
23
  0
LAYOUT
  5
22
102
{ACAD_REACTORS
330
1A
102
}
330
1A
100
AcDbPlotSettings
  1

  2

  4

  6

 40
0.0
 41
0.0
 42
0.0
 43
0.0
 44
0.0
 45
0.0
 46
0.0
 47
0.0
 48
0.0
 49
0.0
140
0.0
141
0.0
142
1.0
143
1.0
 70
  1776
 72
     0
 73
     0
 74
     0
  7

 75
     0
 76
     0
 77
     2
 78
   300
147
1.0
148
0.0
149
0.0
100
AcDbLayout
  1
Model
 70
     1
 71
     0
 10
0.0
 20
0.0
 11
2100.0
 21
2970.0
 12
0.0
 22
0.0
 32
0.0
 14
0.0
 24
0.0
 34
0.0
 15
2100.0
 25
2970.0
 35
0.0
146
0.0
 13
0.0
 23
0.0
 33
0.0
 16
1.0
 26
0.0
 36
0.0
 17
0.0
 27
1.0
 37
0.0
 76
     0
330
1F
  0
MLINESTYLE
  5
18
102
{ACAD_REACTORS
330
17
102
}
330
17
100
AcDbMlineStyle
  2
Standard
 70
     0
  3

 62
   256
 51
90.0
 52
90.0
 71
     2
 49
0.5
 62
   256
  6
BYLAYER
 49
-0.5
 62
   256
  6
BYLAYER
  0
ACDBPLACEHOLDER
  5
F
102
{ACAD_REACTORS
330
E
102
}
330
E
  0
ENDSEC
  0
EOF
