  0
SECTION
  2
HEADER
  9
$ACADVER
  1
AC1018
  9
$ACADMAINTVER
 70
     0
  9
$DWGCODEPAGE
  3
ANSI_1252
  9
$INSBASE
 10
0.0
 20
0.0
 30
0.0
  9
$EXTMIN
 10
0.0
 20
0.0
 30
0.0
  9
$EXTMAX
 10
2100.0
 20
2970.0
 30
0.0
  9
$LIMMIN
 10
0.0
 20
0.0
  9
$LIMMAX
 10
2100.0
 20
2970.0
  9
$ORTHOMODE
 70
     0
  9
$REGENMODE
 70
     1
  9
$FILLMODE
 70
     1
  9
$QTEXTMODE
 70
     0
  9
$MIRRTEXT
 70
     1
  9
$LTSCALE
 40
10.0
  9
$ATTMODE
 70
     1
  9
$TEXTSIZE
 40
2.5
  9
$TRACEWID
 40
1.0
  9
$TEXTSTYLE
  7
Standard
  9
$CLAYER
  8
0
  9
$CELTYPE
  6
ByLayer
  9
$CECOLOR
 62
     7
  9
$CELTSCALE
 40
1.0
  9
$DISPSILH
 70
     0
  9
$DIMSCALE
 40
10.0
  9
$DIMASZ
 40
3.5
  9
$DIMEXO
 40
0.625
  9
$DIMDLI
 40
3.75
  9
$DIMRND
 40
0.0
  9
$DIMDLE
 40
0.0
  9
$DIMEXE
 40
1.25
  9
$DIMTP
 40
0.0
  9
$DIMTM
 40
0.0
  9
$DIMTXT
 40
3.5
  9
$DIMCEN
 40
2.5
  9
$DIMTSZ
 40
0.0
  9
$DIMTOL
 70
     0
  9
$DIMLIM
 70
     0
  9
$DIMTIH
 70
     0
  9
$DIMTOH
 70
     0
  9
$DIMSE1
 70
     0
  9
$DIMSE2
 70
     0
  9
$DIMTAD
 70
     1
  9
$DIMZIN
 70
     8
  9
$DIMBLK
  1

  9
$DIMASO
 70
     1
  9
$DIMSHO
 70
     1
  9
$DIMPOST
  1

  9
$DIMAPOST
  1

  9
$DIMALT
 70
     0
  9
$DIMALTD
 70
     3
  9
$DIMALTF
 40
0.03937
  9
$DIMLFAC
 40
1.0
  9
$DIMTOFL
 70
     1
  9
$DIMTVP
 40
0.0
  9
$DIMTIX
 70
     0
  9
$DIMSOXD
 70
     0
  9
$DIMSAH
 70
     0
  9
$DIMBLK1
  1

  9
$DIMBLK2
  1

  9
$DIMSTYLE
  2
ISO-25
  9
$DIMCLRD
 70
     0
  9
$DIMCLRE
 70
     0
  9
$DIMCLRT
 70
     0
  9
$DIMTFAC
 40
1.0
  9
$DIMGAP
 40
0.625
  9
$DIMJUST
 70
     0
  9
$DIMSD1
 70
     0
  9
$DIMSD2
 70
     0
  9
$DIMTOLJ
 70
     0
  9
$DIMTZIN
 70
     8
  9
$DIMALTZ
 70
     0
  9
$DIMALTTZ
 70
     0
  9
$DIMUPT
 70
     0
  9
$DIMDEC
 70
     2
  9
$DIMTDEC
 70
     2
  9
$DIMALTU
 70
     2
  9
$DIMALTTD
 70
     3
  9
$DIMTXSTY
  7
Standard
  9
$DIMAUNIT
 70
     0
  9
$DIMADEC
 70
     0
  9
$DIMALTRND
 40
0.0
  9
$DIMAZIN
 70
     0
  9
$DIMDSEP
 70
    44
  9
$DIMATFIT
 70
     3
  9
$DIMFRAC
 70
     0
  9
$DIMLDRBLK
  1

  9
$DIMLUNIT
 70
     2
  9
$DIMLWD
 70
    -2
  9
$DIMLWE
 70
    -2
  9
$DIMTMOVE
 70
     0
  9
$LUNITS
 70
     2
  9
$LUPREC
 70
     4
  9
$SKETCHINC
 40
1.0
  9
$FILLETRAD
 40
10.0
  9
$AUNITS
 70
     0
  9
$AUPREC
 70
     0
  9
$MENU
  1
.
  9
$ELEVATION
 40
0.0
  9
$PELEVATION
 40
0.0
  9
$THICKNESS
 40
0.0
  9
$LIMCHECK
 70
     0
  9
$CHAMFERA
 40
10.0
  9
$CHAMFERB
 40
10.0
  9
$CHAMFERC
 40
20.0
  9
$CHAMFERD
 40
0.0
  9
$SKPOLY
 70
     0
  9
$TDCREATE
 40
2456637.511883495
  9
$TDUCREATE
 40
2456637.470216829
  9
$TDUPDATE
 40
2456637.511883507
  9
$TDUUPDATE
 40
2456637.470216841
  9
$TDINDWG
 40
0.0000000116
  9
$TDUSRTIMER
 40
0.0000000116
  9
$USRTIMER
 70
     1
  9
$ANGBASE
 50
0.0
  9
$ANGDIR
 70
     0
  9
$PDMODE
 70
     0
  9
$PDSIZE
 40
0.0
  9
$PLINEWID
 40
0.0
  9
$SPLFRAME
 70
     0
  9
$SPLINETYPE
 70
     6
  9
$SPLINESEGS
 70
     8
  9
$HANDSEED
  5
346
  9
$SURFTAB1
 70
     6
  9
$SURFTAB2
 70
     6
  9
$SURFTYPE
 70
     6
  9
$SURFU
 70
     6
  9
$SURFV
 70
     6
  9
$UCSBASE
  2

  9
$UCSNAME
  2

  9
$UCSORG
 10
0.0
 20
0.0
 30
0.0
  9
$UCSXDIR
 10
1.0
 20
0.0
 30
0.0
  9
$UCSYDIR
 10
0.0
 20
1.0
 30
0.0
  9
$UCSORTHOREF
  2

  9
$UCSORTHOVIEW
 70
     0
  9
$UCSORGTOP
 10
0.0
 20
0.0
 30
0.0
  9
$UCSORGBOTTOM
 10
0.0
 20
0.0
 30
0.0
  9
$UCSORGLEFT
 10
0.0
 20
0.0
 30
0.0
  9
$UCSORGRIGHT
 10
0.0
 20
0.0
 30
0.0
  9
$UCSORGFRONT
 10
0.0
 20
0.0
 30
0.0
  9
$UCSORGBACK
 10
0.0
 20
0.0
 30
0.0
  9
$PUCSBASE
  2

  9
$PUCSNAME
  2

  9
$PUCSORG
 10
0.0
 20
0.0
 30
0.0
  9
$PUCSXDIR
 10
1.0
 20
0.0
 30
0.0
  9
$PUCSYDIR
 10
0.0
 20
1.0
 30
0.0
  9
$PUCSORTHOREF
  2

  9
$PUCSORTHOVIEW
 70
     0
  9
$PUCSORGTOP
 10
0.0
 20
0.0
 30
0.0
  9
$PUCSORGBOTTOM
 10
0.0
 20
0.0
 30
0.0
  9
$PUCSORGLEFT
 10
0.0
 20
0.0
 30
0.0
  9
$PUCSORGRIGHT
 10
0.0
 20
0.0
 30
0.0
  9
$PUCSORGFRONT
 10
0.0
 20
0.0
 30
0.0
  9
$PUCSORGBACK
 10
0.0
 20
0.0
 30
0.0
  9
$USERI1
 70
     0
  9
$USERI2
 70
     0
  9
$USERI3
 70
     0
  9
$USERI4
 70
     0
  9
$USERI5
 70
     0
  9
$USERR1
 40
0.0
  9
$USERR2
 40
0.0
  9
$USERR3
 40
0.0
  9
$USERR4
 40
0.0
  9
$USERR5
 40
0.0
  9
$WORLDVIEW
 70
     1
  9
$SHADEDGE
 70
     3
  9
$SHADEDIF
 70
    70
  9
$TILEMODE
 70
     1
  9
$MAXACTVP
 70
    64
  9
$PINSBASE
 10
0.0
 20
0.0
 30
0.0
  9
$PLIMCHECK
 70
     0
  9
$PEXTMIN
 10
0.0
 20
0.0
 30
0.0
  9
$PEXTMAX
 10
2100.0
 20
2970.0
 30
0.0
  9
$PLIMMIN
 10
0.0
 20
0.0
  9
$PLIMMAX
 10
2100.0
 20
2970.0
  9
$UNITMODE
 70
     0
  9
$VISRETAIN
 70
     1
  9
$PLINEGEN
 70
     0
  9
$PSLTSCALE
 70
     1
  9
$TREEDEPTH
 70
  3020
  9
$CMLSTYLE
  2
Standard
  9
$CMLJUST
 70
     0
  9
$CMLSCALE
 40
20.0
  9
$PROXYGRAPHICS
 70
     1
  9
$MEASUREMENT
 70
     1
  9
$CELWEIGHT
370
    -1
  9
$ENDCAPS
280
     0
  9
$JOINSTYLE
280
     0
  9
$LWDISPLAY
290
     0
  9
$INSUNITS
 70
     4
  9
$HYPERLINKBASE
  1

  9
$STYLESHEET
  1

  9
$XEDIT
290
     1
  9
$CEPSNTYPE
380
     0
  9
$PSTYLEMODE
290
     1
  9
$FINGERPRINTGUID
  2
{FAEB1C30-E019-11D5-929B-00C0DF256EC4}
  9
$VERSIONGUID
  2
{FAEB1C32-E019-11D5-929B-00C0DF256EC4}
  9
$EXTNAMES
290
     1
  9
$PSVPSCALE
 40
0.0
  9
$OLESTARTUP
290
     0
  9
$SORTENTS
280
   127
  9
$INDEXCTL
280
     0
  9
$HIDETEXT
280
     1
  9
$XCLIPFRAME
290
     0
  9
$HALOGAP
280
     0
  9
$OBSCOLOR
 70
   257
  9
$OBSLTYPE
280
     0
  9
$INTERSECTIONDISPLAY
280
     0
  9
$INTERSECTIONCOLOR
 70
   257
  9
$DIMASSOC
280
     2
  9
$PROJECTNAME
  1

  0
ENDSEC
  0
SECTION
  2
CLASSES
  0
CLASS
  1
ACDBDICTIONARYWDFLT
  2
AcDbDictionaryWithDefault
  3
ObjectDBX Classes
 90
        0
 91
        1
280
     0
281
     0
  0
ENDSEC
  0
SECTION
  2
TABLES
  0
TABLE
  2
VPORT
  5
8
330
0
100
AcDbSymbolTable
 70
     2
  0
VPORT
  5
29
330
8
100
AcDbSymbolTableRecord
100
AcDbViewportTableRecord
  2
*ACTIVE
 70
     0
 10
0.0
 20
0.0
 11
1.0
 21
1.0
 12
1050.0
 22
1485.0
 13
0.0
 23
0.0
 14
1.0
 24
1.0
 15
0.0
 25
0.0
 16
0.0
 26
0.0
 36
1.0
 17
0.0
 27
0.0
 37
0.0
 40
2970.0
 41
0.707071
 42
50.0
 43
0.0
 44
0.0
 50
0.0
 51
0.0
 71
    16
 72
   100
 73
     1
 74
     0
 75
     0
 76
     0
 77
     0
 78
     0
281
     0
 65
     0
110
0.0
120
0.0
130
0.0
111
1.0
121
0.0
131
0.0
112
0.0
122
1.0
132
0.0
 79
     0
146
0.0
  0
ENDTAB
  0
TABLE
  2
LTYPE
  5
5
330
0
100
AcDbSymbolTable
 70
     3
  0
LTYPE
  5
14
330
5
100
AcDbSymbolTableRecord
100
AcDbLinetypeTableRecord
  2
ByBlock
 70
     0
  3

 72
    65
 73
     0
 40
0.0
  0
LTYPE
  5
15
330
5
100
AcDbSymbolTableRecord
100
AcDbLinetypeTableRecord
  2
ByLayer
 70
     0
  3

 72
    65
 73
     0
 40
0.0
  0
LTYPE
  5
16
330
5
100
AcDbSymbolTableRecord
100
AcDbLinetypeTableRecord
  2
Continuous
 70
     0
  3
Solid line
 72
    65
 73
     0
 40
0.0
  0
LTYPE
  5
2A
330
5
100
AcDbSymbolTableRecord
100
AcDbLinetypeTableRecord
  2
DASHED
 70
     0
  3
__ __ __ __ __
 72
    65
 73
     2
 40
6.25
 49
5.0
 74
     4
 75
     0
340
0
 46
1.0
 50
0.0
 44
0.0
 45
0.0
 49
-1.25
 74
     4
 75
     0
340
0
 46
1.0
 50
0.0
 44
0.0
 45
0.0
  0
LTYPE
  5
106
330
5
100
AcDbSymbolTableRecord
100
AcDbLinetypeTableRecord
  2
DASHDOT
 70
     0
  3
__ . __ . __ . __ . __
 72
    65
 73
     4
 40
7.5
 49
5.0
 74
     4
 75
     0
340
0
 46
1.0
 50
0.0
 44
0.0
 45
0.0
 49
-1.25
 74
     4
 75
     0
340
0
 46
1.0
 50
0.0
 44
0.0
 45
0.0
 49
0.0
 74
     4
 75
     0
340
0
 46
1.0
 50
0.0
 44
0.0
 45
0.0
 49
-1.25
 74
     4
 75
     0
340
0
 46
1.0
 50
0.0
 44
0.0
 45
0.0
  0
ENDTAB
  0
TABLE
  2
LAYER
  5
2
330
0
100
AcDbSymbolTable
 70
    14
  0
LAYER
  5
10
330
2
100
AcDbSymbolTableRecord
100
AcDbLayerTableRecord
  2
0
 70
     0
 62
     7
  6
Continuous
370
    -3
390
F
  0
LAYER
  5
2B
330
2
100
AcDbSymbolTableRecord
100
AcDbLayerTableRecord
  2
LC-INFO-1-10-mm-A4H-0
 70
     1
 62
     7
  6
ByBlock
370
    -3
390
F
  0
LAYER
  5
2C
330
2
100
AcDbSymbolTableRecord
100
AcDbLayerTableRecord
  2
LC-CUT-HIDDEN
 70
     0
 62
     7
  6
DASHED
370
    -3
390
F
  0
LAYER
  5
2D
330
2
100
AcDbSymbolTableRecord
100
AcDbLayerTableRecord
  2
LC-VIEWPORT
 70
     0
 62
     7
  6
ByBlock
370
    -3
390
F
  0
LAYER
  5
2E
330
2
100
AcDbSymbolTableRecord
100
AcDbLayerTableRecord
  2
LC-3D-HIDDEN
 70
     0
 62
     9
  6
DASHED
370
    -3
390
F
  0
LAYER
  5
33
330
2
100
AcDbSymbolTableRecord
100
AcDbLayerTableRecord
  2
LC-001-111-----0
 70
     0
 62
   253
  6
ByBlock
370
    -3
390
F
  0
LAYER
  5
A2
330
2
100
AcDbSymbolTableRecord
100
AcDbLayerTableRecord
  2
LC-002-002-----0
 70
     0
 62
     1
  6
ByBlock
370
    -3
390
F
  0
LAYER
  5
104
330
2
100
AcDbSymbolTableRecord
100
AcDbLayerTableRecord
  2
LC-003-230-ZVN-0
 70
     0
 62
     1
  6
ByBlock
370
    -3
390
F
  0
LAYER
  5
10C
330
2
100
AcDbSymbolTableRecord
100
AcDbLayerTableRecord
  2
LC-004-003-----0
 70
     0
 62
     2
  6
ByBlock
370
    -3
390
F
  0
LAYER
  5
10E
330
2
100
AcDbSymbolTableRecord
100
AcDbLayerTableRecord
  2
Defpoints
 70
     0
 62
     7
  6
Continuous
290
     0
370
    -3
390
F
  0
LAYER
  5
17C
330
2
100
AcDbSymbolTableRecord
100
AcDbLayerTableRecord
  2
LC-005-005-----0
 70
     0
 62
     2
  6
ByBlock
370
    -3
390
F
  0
LAYER
  5
1B1
330
2
100
AcDbSymbolTableRecord
100
AcDbLayerTableRecord
  2
LC-006-004-----0
 70
     0
 62
     7
  6
ByBlock
370
    -3
390
F
  0
LAYER
  5
1C8
330
2
100
AcDbSymbolTableRecord
100
AcDbLayerTableRecord
  2
LC-007-002-RND-0
 70
     0
 62
     1
  6
ByBlock
370
    -3
390
F
  0
LAYER
  5
2F6
330
2
100
AcDbSymbolTableRecord
100
AcDbLayerTableRecord
  2
LC-008-003-MTG-0
 70
     0
 62
     2
  6
ByBlock
370
    -3
390
F
  0
ENDTAB
  0
TABLE
  2
STYLE
  5
3
330
0
100
AcDbSymbolTable
 70
     2
  0
STYLE
  5
11
330
3
100
AcDbSymbolTableRecord
100
AcDbTextStyleTableRecord
  2
Standard
 70
     0
 40
0.0
 41
1.0
 50
0.0
 71
     0
 42
2.5
  3
txt
  4

  0
STYLE
  5
2F
330
3
100
AcDbSymbolTableRecord
100
AcDbTextStyleTableRecord
  2
LCTX0-400-0-0pDIN-Schrift
 70
     0
 40
0.0
 41
0.7
 50
0.0
 71
     0
 42
3.5
  3
TXT
  4

  0
ENDTAB
  0
TABLE
  2
VIEW
  5
6
330
0
100
AcDbSymbolTable
 70
     0
  0
ENDTAB
  0
TABLE
  2
UCS
  5
7
330
0
100
AcDbSymbolTable
 70
     0
  0
ENDTAB
  0
TABLE
  2
APPID
  5
9
330
0
100
AcDbSymbolTable
 70
     1
  0
APPID
  5
12
330
9
100
AcDbSymbolTableRecord
100
AcDbRegAppTableRecord
  2
ACAD
 70
     0
  0
ENDTAB
  0
TABLE
  2
DIMSTYLE
  5
A
330
0
100
AcDbSymbolTable
 70
     7
100
AcDbDimStyleTable
  0
DIMSTYLE
105
27
330
A
100
AcDbSymbolTableRecord
100
AcDbDimStyleTableRecord
  2
ISO-25
 70
     0
 41
2.5
 42
0.625
 43
3.75
 44
1.25
 73
     0
 74
     0
 77
     1
 78
     8
140
2.5
141
2.5
143
0.03937
147
0.625
171
     3
172
     1
271
     2
272
     2
274
     3
278
    44
283
     0
284
     8
340
11
  0
DIMSTYLE
105
10B
102
{ACAD_REACTORS
330
10D
330
11C
330
141
330
14F
330
15C
330
225
330
241
330
250
330
25F
330
26D
102
}
330
A
100
AcDbSymbolTableRecord
100
AcDbDimStyleTableRecord
  2
LC-DIM-L-0025-01-02
 70
     0
 40
10.0
 41
2.5
 42
0.0
 43
7.5
 44
1.8
 73
     0
 74
     0
 77
     1
 78
     8
 79
     2
140
2.5
141
0.0
146
0.71
147
1.5
172
     1
176
     2
177
     2
178
     2
179
     1
271
     1
278
    44
289
     1
340
2F
  0
DIMSTYLE
105
12A
102
{ACAD_REACTORS
330
12B
330
136
102
}
330
A
100
AcDbSymbolTableRecord
100
AcDbDimStyleTableRecord
  2
LC-DIM-L-0025-02-32
 70
     0
 40
10.0
 41
2.5
 42
0.0
 43
7.5
 44
1.8
 73
     0
 74
     0
 75
     1
 76
     1
 77
     1
 78
     8
 79
     2
140
2.5
141
0.0
146
0.71
147
1.5
172
     1
176
     2
177
     2
178
     2
179
     2
271
     2
278
    44
289
     1
340
2F
  0
DIMSTYLE
105
169
102
{ACAD_REACTORS
330
16A
330
218
330
234
102
}
330
A
100
AcDbSymbolTableRecord
100
AcDbDimStyleTableRecord
  2
LC-DIM-L-0025-02-02
 70
     0
 40
10.0
 41
2.5
 42
0.0
 43
7.5
 44
1.8
 73
     0
 74
     0
 77
     1
 78
     8
 79
     2
140
2.5
141
0.0
146
0.71
147
1.5
172
     1
176
     2
177
     2
178
     2
179
     2
271
     2
278
    44
289
     1
340
2F
  0
DIMSTYLE
105
1B6
102
{ACAD_REACTORS
330
1B7
102
}
330
A
100
AcDbSymbolTableRecord
100
AcDbDimStyleTableRecord
  2
LC-DIM-L-0025-02-22
 70
     0
 40
10.0
 41
2.5
 42
0.0
 43
7.5
 44
1.8
 73
     0
 74
     0
 75
     1
 77
     1
 78
     8
 79
     2
140
2.5
141
0.0
146
0.71
147
1.5
172
     1
176
     2
177
     2
178
     2
179
     2
271
     2
278
    44
289
     1
340
2F
  0
DIMSTYLE
105
2D2
102
{ACAD_REACTORS
330
2D3
102
}
330
A
100
AcDbSymbolTableRecord
100
AcDbDimStyleTableRecord
  2
LC-DIM-L-0025-01-22
 70
     0
 40
10.0
 41
2.5
 42
0.0
 43
7.5
 44
1.8
 73
     0
 74
     0
 75
     1
 77
     1
 78
     8
 79
     2
140
2.5
141
0.0
146
0.71
147
1.5
172
     1
176
     2
177
     2
178
     2
179
     1
271
     1
278
    44
289
     1
340
2F
  0
DIMSTYLE
105
2E0
102
{ACAD_REACTORS
330
2E1
330
2EB
330
335
102
}
330
A
100
AcDbSymbolTableRecord
100
AcDbDimStyleTableRecord
  2
LC-DIM-R-0025-02-02
 70
     0
 40
10.0
 41
2.5
 42
0.0
 43
7.5
 44
1.8
 73
     0
 77
     1
 78
     8
 79
     2
140
2.5
141
0.0
146
0.71
147
1.5
176
     2
177
     2
178
     2
179
     2
271
     2
278
    44
289
     1
340
2F
  0
ENDTAB
  0
TABLE
  2
BLOCK_RECORD
  5
1
330
0
100
AcDbSymbolTable
 70
    25
  0
BLOCK_RECORD
  5
1F
330
1
100
AcDbSymbolTableRecord
100
AcDbBlockTableRecord
  2
*Model_Space
340
22
  0
BLOCK_RECORD
  5
1B
330
1
100
AcDbSymbolTableRecord
100
AcDbBlockTableRecord
  2
*Paper_Space
340
1E
  0
BLOCK_RECORD
  5
23
330
1
100
AcDbSymbolTableRecord
100
AcDbBlockTableRecord
  2
*Paper_Space0
340
26
  0
BLOCK_RECORD
  5
30
330
1
100
AcDbSymbolTableRecord
100
AcDbBlockTableRecord
  2
SYM1
340
0
102
{BLKREFS
331
105
102
}
  0
BLOCK_RECORD
  5
10F
330
1
100
AcDbSymbolTableRecord
100
AcDbBlockTableRecord
  2
*D2
340
0
  0
BLOCK_RECORD
  5
11D
330
1
100
AcDbSymbolTableRecord
100
AcDbBlockTableRecord
  2
*D3
340
0
  0
BLOCK_RECORD
  5
12C
330
1
100
AcDbSymbolTableRecord
100
AcDbBlockTableRecord
  2
*D4
340
0
  0
BLOCK_RECORD
  5
137
330
1
100
AcDbSymbolTableRecord
100
AcDbBlockTableRecord
  2
*D5
340
0
  0
BLOCK_RECORD
  5
142
330
1
100
AcDbSymbolTableRecord
100
AcDbBlockTableRecord
  2
*D6
340
0
  0
BLOCK_RECORD
  5
150
330
1
100
AcDbSymbolTableRecord
100
AcDbBlockTableRecord
  2
*D7
340
0
  0
BLOCK_RECORD
  5
15D
330
1
100
AcDbSymbolTableRecord
100
AcDbBlockTableRecord
  2
*D8
340
0
  0
BLOCK_RECORD
  5
16B
330
1
100
AcDbSymbolTableRecord
100
AcDbBlockTableRecord
  2
*D9
340
0
  0
BLOCK_RECORD
  5
179
330
1
100
AcDbSymbolTableRecord
100
AcDbBlockTableRecord
  2
*X110
340
0
102
{BLKREFS
331
1B0
102
}
  0
BLOCK_RECORD
  5
1B8
330
1
100
AcDbSymbolTableRecord
100
AcDbBlockTableRecord
  2
*D11
340
0
  0
BLOCK_RECORD
  5
219
330
1
100
AcDbSymbolTableRecord
100
AcDbBlockTableRecord
  2
*D12
340
0
  0
BLOCK_RECORD
  5
226
330
1
100
AcDbSymbolTableRecord
100
AcDbBlockTableRecord
  2
*D13
340
0
  0
BLOCK_RECORD
  5
235
330
1
100
AcDbSymbolTableRecord
100
AcDbBlockTableRecord
  2
*D14
340
0
  0
BLOCK_RECORD
  5
242
330
1
100
AcDbSymbolTableRecord
100
AcDbBlockTableRecord
  2
*D15
340
0
  0
BLOCK_RECORD
  5
251
330
1
100
AcDbSymbolTableRecord
100
AcDbBlockTableRecord
  2
*D16
340
0
  0
BLOCK_RECORD
  5
260
330
1
100
AcDbSymbolTableRecord
100
AcDbBlockTableRecord
  2
*D17
340
0
  0
BLOCK_RECORD
  5
26E
330
1
100
AcDbSymbolTableRecord
100
AcDbBlockTableRecord
  2
*D18
340
0
  0
BLOCK_RECORD
  5
2D4
330
1
100
AcDbSymbolTableRecord
100
AcDbBlockTableRecord
  2
*D19
340
0
  0
BLOCK_RECORD
  5
2E2
330
1
100
AcDbSymbolTableRecord
100
AcDbBlockTableRecord
  2
*D20
340
0
  0
BLOCK_RECORD
  5
2EC
330
1
100
AcDbSymbolTableRecord
100
AcDbBlockTableRecord
  2
*D21
340
0
  0
BLOCK_RECORD
  5
31A
330
1
100
AcDbSymbolTableRecord
100
AcDbBlockTableRecord
  2
*X222
340
0
102
{BLKREFS
331
325
102
}
  0
BLOCK_RECORD
  5
327
330
1
100
AcDbSymbolTableRecord
100
AcDbBlockTableRecord
  2
*X323
340
0
102
{BLKREFS
331
334
102
}
  0
BLOCK_RECORD
  5
336
330
1
100
AcDbSymbolTableRecord
100
AcDbBlockTableRecord
  2
*D24
340
0
  0
ENDTAB
  0
ENDSEC
  0
SECTION
  2
BLOCKS
  0
BLOCK
  5
20
330
1F
100
AcDbEntity
  8
0
100
AcDbBlockBegin
  2
*Model_Space
 70
     0
 71
     0
 10
0.0
 20
0.0
 30
0.0
  3
*Model_Space
  1

  0
ENDBLK
  5
21
330
1F
100
AcDbEntity
  8
0
100
AcDbBlockEnd
  0
BLOCK
  5
1C
330
1B
100
AcDbEntity
 67
     1
  8
0
100
AcDbBlockBegin
  2
*Paper_Space
 70
     0
 71
     0
 10
0.0
 20
0.0
 30
0.0
  3
*Paper_Space
  1

  0
ENDBLK
  5
1D
330
1B
100
AcDbEntity
 67
     1
  8
0
100
AcDbBlockEnd
  0
BLOCK
  5
24
330
23
100
AcDbEntity
  8
0
100
AcDbBlockBegin
  2
*Paper_Space0
 70
     0
 71
     0
 10
0.0
 20
0.0
 30
0.0
  3
*Paper_Space0
  1

  0
ENDBLK
  5
25
330
23
100
AcDbEntity
  8
0
100
AcDbBlockEnd
  0
BLOCK
  5
31
330
30
100
AcDbEntity
  8
0
100
AcDbBlockBegin
  2
SYM1
 70
     0
 71
     0
 10
0.0
 20
0.0
 30
0.0
  3
SYM1
  1

  4
SYM1
  0
LINE
  5
34
330
30
100
AcDbEntity
  8
LC-001-111-----0
 62
   253
370
    50
100
AcDbLine
 10
2050.0
 20
50.0
 30
0.0
 11
2050.0
 21
2920.0
 31
0.0
  0
LINE
  5
35
330
30
100
AcDbEntity
  8
LC-001-111-----0
 62
   253
370
    25
100
AcDbLine
 10
178.0
 20
220.0
 30
0.0
 11
724.0
 21
220.0
 31
0.0
  0
LINE
  5
36
330
30
100
AcDbEntity
  8
LC-001-111-----0
 62
   253
370
    35
100
AcDbLine
 10
724.0
 20
220.0
 30
0.0
 11
2050.0
 21
220.0
 31
0.0
  0
LINE
  5
37
330
30
100
AcDbEntity
  8
LC-001-111-----0
 62
   253
370
    50
100
AcDbLine
 10
178.0
 20
602.5
 30
0.0
 11
2050.0
 21
602.5
 31
0.0
  0
LINE
  5
38
330
30
100
AcDbEntity
  8
LC-001-111-----0
 62
   253
370
    25
100
AcDbLine
 10
178.0
 20
92.5
 30
0.0
 11
2050.0
 21
92.5
 31
0.0
  0
LINE
  5
39
330
30
100
AcDbEntity
  8
LC-001-111-----0
 62
   253
370
    25
100
AcDbLine
 10
178.0
 20
135.0
 30
0.0
 11
724.0
 21
135.0
 31
0.0
  0
LINE
  5
3A
330
30
100
AcDbEntity
  8
LC-001-111-----0
 62
   253
370
    25
100
AcDbLine
 10
178.0
 20
177.5
 30
0.0
 11
724.0
 21
177.5
 31
0.0
  0
LINE
  5
3B
330
30
100
AcDbEntity
  8
LC-001-111-----0
 62
   253
370
    25
100
AcDbLine
 10
178.0
 20
262.5
 30
0.0
 11
1166.0
 21
262.5
 31
0.0
  0
LINE
  5
3C
330
30
100
AcDbEntity
  8
LC-001-111-----0
 62
   253
370
    25
100
AcDbLine
 10
178.0
 20
305.0
 30
0.0
 11
1166.0
 21
305.0
 31
0.0
  0
LINE
  5
3D
330
30
100
AcDbEntity
  8
LC-001-111-----0
 62
   253
370
    25
100
AcDbLine
 10
178.0
 20
347.5
 30
0.0
 11
1166.0
 21
347.5
 31
0.0
  0
LINE
  5
3E
330
30
100
AcDbEntity
  8
LC-001-111-----0
 62
   253
370
    25
100
AcDbLine
 10
178.0
 20
390.0
 30
0.0
 11
1166.0
 21
390.0
 31
0.0
  0
LINE
  5
3F
330
30
100
AcDbEntity
  8
LC-001-111-----0
 62
   253
370
    35
100
AcDbLine
 10
178.0
 20
432.5
 30
0.0
 11
2050.0
 21
432.5
 31
0.0
  0
LINE
  5
40
330
30
100
AcDbEntity
  8
LC-001-111-----0
 62
   253
370
    25
100
AcDbLine
 10
828.0
 20
262.5
 30
0.0
 11
828.0
 21
432.5
 31
0.0
  0
LINE
  5
41
330
30
100
AcDbEntity
  8
LC-001-111-----0
 62
   253
370
    35
100
AcDbLine
 10
1920.0
 20
92.5
 30
0.0
 11
1920.0
 21
220.0
 31
0.0
  0
LINE
  5
42
330
30
100
AcDbEntity
  8
LC-001-111-----0
 62
   253
370
    25
100
AcDbLine
 10
1166.0
 20
538.75
 30
0.0
 11
2050.0
 21
538.75
 31
0.0
  0
LINE
  5
43
330
30
100
AcDbEntity
  8
LC-001-111-----0
 62
   253
370
    25
100
AcDbLine
 10
256.0
 20
50.0
 30
0.0
 11
256.0
 21
432.5
 31
0.0
  0
LINE
  5
44
330
30
100
AcDbEntity
  8
LC-001-111-----0
 62
   253
370
    25
100
AcDbLine
 10
516.0
 20
50.0
 30
0.0
 11
516.0
 21
432.5
 31
0.0
  0
LINE
  5
45
330
30
100
AcDbEntity
  8
LC-001-111-----0
 62
   253
370
    25
100
AcDbLine
 10
646.0
 20
50.0
 30
0.0
 11
646.0
 21
432.5
 31
0.0
  0
LINE
  5
46
330
30
100
AcDbEntity
  8
LC-001-111-----0
 62
   253
370
    35
100
AcDbLine
 10
724.0
 20
50.0
 30
0.0
 11
724.0
 21
602.5
 31
0.0
  0
LINE
  5
47
330
30
100
AcDbEntity
  8
LC-001-111-----0
 62
   253
370
    35
100
AcDbLine
 10
1166.0
 20
50.0
 30
0.0
 11
1166.0
 21
602.5
 31
0.0
  0
LINE
  5
48
330
30
100
AcDbEntity
  8
LC-001-111-----0
 62
   253
370
    25
100
AcDbLine
 10
1920.0
 20
135.0
 30
0.0
 11
2050.0
 21
135.0
 31
0.0
  0
LINE
  5
49
330
30
100
AcDbEntity
  8
LC-001-111-----0
 62
   253
370
    25
100
AcDbLine
 10
984.0
 20
220.0
 30
0.0
 11
984.0
 21
602.5
 31
0.0
  0
LINE
  5
4A
330
30
100
AcDbEntity
  8
LC-001-111-----0
 62
   253
370
    25
100
AcDbLine
 10
1686.0
 20
538.75
 30
0.0
 11
1686.0
 21
602.5
 31
0.0
  0
LINE
  5
4B
330
30
100
AcDbEntity
  8
LC-001-111-----0
 62
   253
370
    25
100
AcDbLine
 10
1608.0
 20
50.0
 30
0.0
 11
1608.0
 21
92.5
 31
0.0
  0
LINE
  5
4C
330
30
100
AcDbEntity
  8
LC-001-111-----0
 62
   253
370
    50
100
AcDbLine
 10
178.0
 20
50.0
 30
0.0
 11
178.0
 21
2920.0
 31
0.0
  0
LINE
  5
4D
330
30
100
AcDbEntity
  8
LC-001-111-----0
 62
   253
370
    50
100
AcDbLine
 10
178.0
 20
2920.0
 30
0.0
 11
2050.0
 21
2920.0
 31
0.0
  0
TEXT
  5
4E
330
30
100
AcDbEntity
  8
LC-001-111-----0
 62
     7
370
    25
100
AcDbText
 10
1414.9
 20
558.125
 30
0.0
 40
25.0
  1
1:10  -  mm
 41
0.75
  7
LCTX0-400-0-0pDIN-Schrift
 72
     1
 11
1504.0
 21
558.125
 31
0.0
100
AcDbText
  0
TEXT
  5
4F
330
30
100
AcDbEntity
  8
LC-001-111-----0
 62
     7
370
    25
100
AcDbText
 10
1948.821875
 20
101.25
 30
0.0
 40
25.0
  1
1
 41
0.75
  7
LCTX0-400-0-0pDIN-Schrift
 72
     1
 11
1955.0
 21
101.25
 31
0.0
100
AcDbText
  0
TEXT
  5
50
330
30
100
AcDbEntity
  8
LC-001-111-----0
 62
     7
370
    25
100
AcDbText
 10
743.178125
 20
398.75
 30
0.0
 40
25.0
  1
2013
 41
0.75
  7
LCTX0-400-0-0pDIN-Schrift
 72
     1
 11
776.0
 21
398.75
 31
0.0
100
AcDbText
  0
TEXT
  5
51
330
30
100
AcDbEntity
  8
LC-001-111-----0
 62
     7
370
    25
100
AcDbText
 10
868.490625
 20
356.25
 30
0.0
 40
25.0
  1
25.11.
 41
0.75
  7
LCTX0-400-0-0pDIN-Schrift
 72
     1
 11
906.0
 21
356.25
 31
0.0
100
AcDbText
  0
TEXT
  5
52
330
30
100
AcDbEntity
  8
LC-001-111-----0
 62
     7
370
    25
100
AcDbText
 10
1056.25
 20
356.25
 30
0.0
 40
25.0
  1
KM
 41
0.75
  7
LCTX0-400-0-0pDIN-Schrift
 72
     1
 11
1075.0
 21
356.25
 31
0.0
100
AcDbText
  0
TEXT
  5
53
330
30
100
AcDbEntity
  8
LC-001-111-----0
 62
   253
370
    20
100
AcDbText
 10
1183.923077
 20
560.625
 30
0.0
 40
20.0
  1
Maßstab
 41
0.75
  7
LCTX0-400-0-0pDIN-Schrift
100
AcDbText
  0
TEXT
  5
54
330
30
100
AcDbEntity
  8
LC-001-111-----0
 62
   253
370
    20
100
AcDbText
 10
868.4175
 20
401.25
 30
0.0
 40
20.0
  1
Datum
 41
0.75
  7
LCTX0-400-0-0pDIN-Schrift
 72
     1
 11
906.0
 21
401.25
 31
0.0
100
AcDbText
  0
TEXT
  5
55
330
30
100
AcDbEntity
  8
LC-001-111-----0
 62
   253
370
    20
100
AcDbText
 10
1044.9625
 20
401.25
 30
0.0
 40
20.0
  1
Name
 41
0.75
  7
LCTX0-400-0-0pDIN-Schrift
 72
     1
 11
1075.0
 21
401.25
 31
0.0
100
AcDbText
  0
TEXT
  5
56
330
30
100
AcDbEntity
  8
LC-001-111-----0
 62
   253
370
    20
100
AcDbText
 10
741.923077
 20
358.75
 30
0.0
 40
20.0
  1
Bearb.
 41
0.75
  7
LCTX0-400-0-0pDIN-Schrift
100
AcDbText
  0
TEXT
  5
57
330
30
100
AcDbEntity
  8
LC-001-111-----0
 62
   253
370
    20
100
AcDbText
 10
741.923077
 20
316.25
 30
0.0
 40
20.0
  1
Gepr.
 41
0.75
  7
LCTX0-400-0-0pDIN-Schrift
100
AcDbText
  0
TEXT
  5
58
330
30
100
AcDbEntity
  8
LC-001-111-----0
 62
   253
370
    20
100
AcDbText
 10
741.923077
 20
273.75
 30
0.0
 40
20.0
  1
Norm
 41
0.75
  7
LCTX0-400-0-0pDIN-Schrift
100
AcDbText
  0
TEXT
  5
59
330
30
100
AcDbEntity
  8
LC-001-111-----0
 62
   253
370
    20
100
AcDbText
 10
1937.923077
 20
188.75
 30
0.0
 40
20.0
  1
Blatt
 41
0.75
  7
LCTX0-400-0-0pDIN-Schrift
100
AcDbText
  0
TEXT
  5
5A
330
30
100
AcDbEntity
  8
LC-001-111-----0
 62
   253
370
    20
100
AcDbText
 10
2011.906923
 20
103.75
 30
0.0
 40
20.0
  1
Bl.
 41
0.75
  7
LCTX0-400-0-0pDIN-Schrift
 72
     2
 11
2037.076923
 21
103.75
 31
0.0
100
AcDbText
  0
TEXT
  5
5B
330
30
100
AcDbEntity
  8
LC-001-111-----0
 62
   253
370
    20
100
AcDbText
 10
196.056
 20
61.25
 30
0.0
 40
20.0
  1
Zust.
 41
0.6
  7
LCTX0-400-0-0pDIN-Schrift
 72
     1
 11
222.0
 21
61.25
 31
0.0
100
AcDbText
  0
TEXT
  5
5C
330
30
100
AcDbEntity
  8
LC-001-111-----0
 62
   253
370
    20
100
AcDbText
 10
326.0
 20
61.25
 30
0.0
 40
20.0
  1
Änderung
 41
0.75
  7
LCTX0-400-0-0pDIN-Schrift
 72
     1
 11
386.0
 21
61.25
 31
0.0
100
AcDbText
  0
TEXT
  5
5D
330
30
100
AcDbEntity
  8
LC-001-111-----0
 62
   253
370
    20
100
AcDbText
 10
543.4175
 20
61.25
 30
0.0
 40
20.0
  1
Datum
 41
0.75
  7
LCTX0-400-0-0pDIN-Schrift
 72
     1
 11
581.0
 21
61.25
 31
0.0
100
AcDbText
  0
TEXT
  5
5E
330
30
100
AcDbEntity
  8
LC-001-111-----0
 62
   253
370
    20
100
AcDbText
 10
654.9625
 20
61.25
 30
0.0
 40
20.0
  1
Name
 41
0.75
  7
LCTX0-400-0-0pDIN-Schrift
 72
     1
 11
685.0
 21
61.25
 31
0.0
100
AcDbText
  0
TEXT
  5
5F
330
30
100
AcDbEntity
  8
LC-001-111-----0
 62
     7
370
    50
100
AcDbText
 10
1464.225
 20
343.75
 30
0.0
 40
50.0
  1
Ash-N200
 41
0.75
  7
LCTX0-400-0-0pDIN-Schrift
 72
     1
 11
1608.0
 21
343.75
 31
0.0
100
AcDbText
  0
TEXT
  5
60
330
30
100
AcDbEntity
  8
LC-001-111-----0
 62
     7
370
    35
100
AcDbText
 10
1485.731148
 20
266.25
 30
0.0
 40
35.0
  1
- Unterbau -
 41
0.75
  7
LCTX0-400-0-0pDIN-Schrift
100
AcDbText
  0
TEXT
  5
61
330
30
100
AcDbEntity
  8
LC-001-111-----0
 62
     7
370
    50
100
AcDbText
 10
1346.33125
 20
131.25
 30
0.0
 40
50.0
  1
4.13.828.04.00
 41
0.75
  7
LCTX0-400-0-0pDIN-Schrift
 72
     1
 11
1543.0
 21
131.25
 31
0.0
100
AcDbText
  0
ARC
  5
62
330
30
100
AcDbEntity
  8
LC-001-111-----0
 62
   253
370
    25
100
AcDbCircle
 10
758.903191
 20
174.567744
 30
0.0
 40
20.81533311668208
100
AcDbArc
 50
62.408264
 51
94.48185
  0
LINE
  5
63
330
30
100
AcDbEntity
  8
LC-001-111-----0
 62
   253
370
    50
100
AcDbLine
 10
178.0
 20
50.0
 30
0.0
 11
2050.0
 21
50.0
 31
0.0
  0
LINE
  5
64
330
30
100
AcDbEntity
  8
LC-001-111-----0
 62
   253
370
    25
100
AcDbLine
 10
50.0
 20
1485.0
 30
0.0
 11
0.0
 21
1485.0
 31
0.0
  0
LINE
  5
65
330
30
100
AcDbEntity
  8
LC-001-111-----0
 62
   253
370
    25
100
AcDbLine
 10
1063.835603
 20
195.169147
 30
0.0
 11
1063.835603
 21
157.149147
 31
0.0
  0
LINE
  5
66
330
30
100
AcDbEntity
  8
LC-001-111-----0
 62
   253
370
    25
100
AcDbLine
 10
2100.0
 20
2970.0
 30
0.0
 11
2100.0
 21
0.0
 31
0.0
  0
LINE
  5
67
330
30
100
AcDbEntity
  8
LC-001-111-----0
 62
   253
370
    25
100
AcDbLine
 10
2100.0
 20
0.0
 30
0.0
 11
0.0
 21
0.0
 31
0.0
  0
LINE
  5
68
330
30
100
AcDbEntity
  8
LC-001-111-----0
 62
   253
370
    25
100
AcDbLine
 10
0.0
 20
0.0
 30
0.0
 11
0.0
 21
2970.0
 31
0.0
  0
LINE
  5
69
330
30
100
AcDbEntity
  8
LC-001-111-----0
 62
   253
370
    25
100
AcDbLine
 10
2100.0
 20
2970.0
 30
0.0
 11
0.0
 21
2970.0
 31
0.0
  0
TEXT
  5
6A
330
30
100
AcDbEntity
  8
LC-001-111-----0
 62
   253
370
    20
100
AcDbText
 10
729.2325
 20
111.159147
 30
0.0
 40
20.0
  1
Hofbauerstraße 1  ·  D-94209 REGEN
 41
0.65
  7
LCTX0-400-0-0pDIN-Schrift
 72
     1
 11
945.0
 21
111.159147
 31
0.0
100
AcDbText
  0
ARC
  5
6B
330
30
100
AcDbEntity
  8
LC-001-111-----0
 62
   253
370
    25
100
AcDbCircle
 10
758.032826
 20
185.671748
 30
0.0
 40
9.677270814709853
100
AcDbArc
 50
94.48185
 51
252.731329
  0
ARC
  5
6C
330
30
100
AcDbEntity
  8
LC-001-111-----0
 62
   253
370
    25
100
AcDbCircle
 10
823.845603
 20
176.159147
 30
0.0
 40
19.01000000000008
100
AcDbArc
 50
74.719456
 51
285.280544
  0
LINE
  5
6D
330
30
100
AcDbEntity
  8
LC-001-111-----0
 62
   253
370
    25
100
AcDbLine
 10
828.855603
 20
157.821208
 30
0.0
 11
828.855603
 21
163.204148
 31
0.0
  0
ARC
  5
6E
330
30
100
AcDbEntity
  8
LC-001-111-----0
 62
   253
370
    25
100
AcDbCircle
 10
823.845603
 20
176.159147
 30
0.0
 40
13.88999999999995
100
AcDbArc
 50
68.857352
 51
291.142648
  0
ARC
  5
6F
330
30
100
AcDbEntity
  8
LC-001-111-----0
 62
   253
370
    25
100
AcDbCircle
 10
823.845603
 20
176.159147
 30
0.0
 40
12.39000000000002
100
AcDbArc
 50
58.303227
 51
301.696773
  0
ARC
  5
70
330
30
100
AcDbEntity
  8
LC-001-111-----0
 62
   253
370
    25
100
AcDbCircle
 10
1019.845603
 20
176.159147
 30
0.0
 40
19.01000000000008
100
AcDbArc
 50
74.719456
 51
285.280544
  0
LINE
  5
71
330
30
100
AcDbEntity
  8
LC-001-111-----0
 62
   253
370
    25
100
AcDbLine
 10
830.355603
 20
165.617231
 30
0.0
 11
830.355603
 21
156.709726
 31
0.0
  0
LINE
  5
72
330
30
100
AcDbEntity
  8
LC-001-111-----0
 62
   253
370
    25
100
AcDbLine
 10
755.160101
 20
176.430697
 30
0.0
 11
762.683613
 21
174.091896
 31
0.0
  0
ARC
  5
73
330
30
100
AcDbEntity
  8
LC-001-111-----0
 62
   253
370
    25
100
AcDbCircle
 10
823.845603
 20
176.159147
 30
0.0
 40
20.51000000000012
100
AcDbArc
 50
71.493868
 51
288.506132
  0
LINE
  5
74
330
30
100
AcDbEntity
  8
LC-001-111-----0
 62
   253
370
    25
100
AcDbLine
 10
1024.855603
 20
157.821208
 30
0.0
 11
1024.855603
 21
163.204148
 31
0.0
  0
LINE
  5
75
330
30
100
AcDbEntity
  8
LC-001-111-----0
 62
   253
370
    25
100
AcDbLine
 10
830.355603
 20
195.608569
 30
0.0
 11
830.355603
 21
186.701063
 31
0.0
  0
ARC
  5
76
330
30
100
AcDbEntity
  8
LC-001-111-----0
 62
   253
370
    25
100
AcDbCircle
 10
1019.845603
 20
176.159147
 30
0.0
 40
13.88999999999995
100
AcDbArc
 50
68.857352
 51
291.142648
  0
LINE
  5
77
330
30
100
AcDbEntity
  8
LC-001-111-----0
 62
   253
370
    25
100
AcDbLine
 10
862.835603
 20
155.649147
 30
0.0
 11
862.835603
 21
196.669147
 31
0.0
  0
LINE
  5
78
330
30
100
AcDbEntity
  8
LC-001-111-----0
 62
   253
370
    25
100
AcDbLine
 10
862.835603
 20
196.669147
 30
0.0
 11
872.355603
 21
196.669147
 31
0.0
  0
LINE
  5
79
330
30
100
AcDbEntity
  8
LC-001-111-----0
 62
   253
370
    25
100
AcDbLine
 10
872.355603
 20
196.669147
 30
0.0
 11
872.355603
 21
179.519147
 31
0.0
  0
LINE
  5
7A
330
30
100
AcDbEntity
  8
LC-001-111-----0
 62
   253
370
    25
100
AcDbLine
 10
872.355603
 20
179.519147
 30
0.0
 11
887.335603
 21
179.519147
 31
0.0
  0
LINE
  5
7B
330
30
100
AcDbEntity
  8
LC-001-111-----0
 62
   253
370
    25
100
AcDbLine
 10
887.335603
 20
179.519147
 30
0.0
 11
887.335603
 21
196.669147
 31
0.0
  0
LINE
  5
7C
330
30
100
AcDbEntity
  8
LC-001-111-----0
 62
   253
370
    25
100
AcDbLine
 10
887.335603
 20
196.669147
 30
0.0
 11
896.855603
 21
196.669147
 31
0.0
  0
LINE
  5
7D
330
30
100
AcDbEntity
  8
LC-001-111-----0
 62
   253
370
    25
100
AcDbLine
 10
896.855603
 20
196.669147
 30
0.0
 11
896.855603
 21
155.649147
 31
0.0
  0
LINE
  5
7E
330
30
100
AcDbEntity
  8
LC-001-111-----0
 62
   253
370
    25
100
AcDbLine
 10
896.855603
 20
155.649147
 30
0.0
 11
887.335603
 21
155.649147
 31
0.0
  0
LINE
  5
7F
330
30
100
AcDbEntity
  8
LC-001-111-----0
 62
   253
370
    25
100
AcDbLine
 10
887.335603
 20
155.649147
 30
0.0
 11
887.335603
 21
172.799147
 31
0.0
  0
LINE
  5
80
330
30
100
AcDbEntity
  8
LC-001-111-----0
 62
   253
370
    25
100
AcDbLine
 10
887.335603
 20
172.799147
 30
0.0
 11
872.355603
 21
172.799147
 31
0.0
  0
LINE
  5
81
330
30
100
AcDbEntity
  8
LC-001-111-----0
 62
   253
370
    25
100
AcDbLine
 10
872.355603
 20
172.799147
 30
0.0
 11
872.355603
 21
155.649147
 31
0.0
  0
LINE
  5
82
330
30
100
AcDbEntity
  8
LC-001-111-----0
 62
   253
370
    25
100
AcDbLine
 10
872.355603
 20
155.649147
 30
0.0
 11
862.835603
 21
155.649147
 31
0.0
  0
CIRCLE
  5
83
330
30
100
AcDbEntity
  8
LC-001-111-----0
 62
   253
370
    25
100
AcDbCircle
 10
946.345603
 20
176.159147
 30
0.0
 40
12.39000000000044
  0
CIRCLE
  5
84
330
30
100
AcDbEntity
  8
LC-001-111-----0
 62
   253
370
    25
100
AcDbCircle
 10
946.345603
 20
176.159147
 30
0.0
 40
20.51000000000049
  0
ARC
  5
85
330
30
100
AcDbEntity
  8
LC-001-111-----0
 62
   253
370
    25
100
AcDbCircle
 10
1019.845603
 20
176.159147
 30
0.0
 40
12.39000000000002
100
AcDbArc
 50
58.303227
 51
301.696773
  0
LINE
  5
86
330
30
100
AcDbEntity
  8
LC-001-111-----0
 62
   253
370
    25
100
AcDbLine
 10
864.335603
 20
195.169147
 30
0.0
 11
864.335603
 21
157.149147
 31
0.0
  0
LINE
  5
87
330
30
100
AcDbEntity
  8
LC-001-111-----0
 62
   253
370
    25
100
AcDbLine
 10
1026.355603
 20
165.617231
 30
0.0
 11
1026.355603
 21
156.709726
 31
0.0
  0
LINE
  5
88
330
30
100
AcDbEntity
  8
LC-001-111-----0
 62
   253
370
    25
100
AcDbLine
 10
864.335603
 20
157.149147
 30
0.0
 11
870.855603
 21
157.149147
 31
0.0
  0
LINE
  5
89
330
30
100
AcDbEntity
  8
LC-001-111-----0
 62
   253
370
    25
100
AcDbLine
 10
870.855603
 20
157.149147
 30
0.0
 11
870.855603
 21
174.299147
 31
0.0
  0
LINE
  5
8A
330
30
100
AcDbEntity
  8
LC-001-111-----0
 62
   253
370
    25
100
AcDbLine
 10
870.855603
 20
174.299147
 30
0.0
 11
888.835603
 21
174.299147
 31
0.0
  0
LINE
  5
8B
330
30
100
AcDbEntity
  8
LC-001-111-----0
 62
   253
370
    25
100
AcDbLine
 10
888.835603
 20
174.299147
 30
0.0
 11
888.835603
 21
157.149147
 31
0.0
  0
LINE
  5
8C
330
30
100
AcDbEntity
  8
LC-001-111-----0
 62
   253
370
    25
100
AcDbLine
 10
888.835603
 20
157.149147
 30
0.0
 11
895.355603
 21
157.149147
 31
0.0
  0
LINE
  5
8D
330
30
100
AcDbEntity
  8
LC-001-111-----0
 62
   253
370
    25
100
AcDbLine
 10
895.355603
 20
157.149147
 30
0.0
 11
895.355603
 21
195.169147
 31
0.0
  0
LINE
  5
8E
330
30
100
AcDbEntity
  8
LC-001-111-----0
 62
   253
370
    25
100
AcDbLine
 10
895.355603
 20
195.169147
 30
0.0
 11
888.835603
 21
195.169147
 31
0.0
  0
LINE
  5
8F
330
30
100
AcDbEntity
  8
LC-001-111-----0
 62
   253
370
    25
100
AcDbLine
 10
888.835603
 20
195.169147
 30
0.0
 11
888.835603
 21
178.019147
 31
0.0
  0
LINE
  5
90
330
30
100
AcDbEntity
  8
LC-001-111-----0
 62
   253
370
    25
100
AcDbLine
 10
888.835603
 20
178.019147
 30
0.0
 11
870.855603
 21
178.019147
 31
0.0
  0
LINE
  5
91
330
30
100
AcDbEntity
  8
LC-001-111-----0
 62
   253
370
    25
100
AcDbLine
 10
870.855603
 20
178.019147
 30
0.0
 11
870.855603
 21
195.169147
 31
0.0
  0
CIRCLE
  5
92
330
30
100
AcDbEntity
  8
LC-001-111-----0
 62
   253
370
    25
100
AcDbCircle
 10
946.345603
 20
176.159147
 30
0.0
 40
19.01000000000055
  0
ARC
  5
93
330
30
100
AcDbEntity
  8
LC-001-111-----0
 62
   253
370
    25
100
AcDbCircle
 10
760.836588
 20
168.15034
 30
0.0
 40
6.222024781007809
100
AcDbArc
 50
268.246912
 51
72.731329
  0
ARC
  5
94
330
30
100
AcDbEntity
  8
LC-001-111-----0
 62
   253
370
    25
100
AcDbCircle
 10
761.412387
 20
186.963179
 30
0.0
 40
25.04367341134793
100
AcDbArc
 50
239.19233
 51
268.246912
  0
LINE
  5
95
330
30
100
AcDbEntity
  8
LC-001-111-----0
 62
   253
370
    25
100
AcDbLine
 10
748.586073
 20
165.453385
 30
0.0
 11
748.586073
 21
160.350534
 31
0.0
  0
ARC
  5
96
330
30
100
AcDbEntity
  8
LC-001-111-----0
 62
   253
370
    25
100
AcDbCircle
 10
760.81067
 20
180.45076
 30
0.0
 40
23.52572762426598
100
AcDbArc
 50
238.692783
 51
274.343327
  0
ARC
  5
97
330
30
100
AcDbEntity
  8
LC-001-111-----0
 62
   253
370
    25
100
AcDbCircle
 10
1019.845603
 20
176.159147
 30
0.0
 40
20.51000000000012
100
AcDbArc
 50
71.493868
 51
288.506132
  0
ARC
  5
98
330
30
100
AcDbEntity
  8
LC-001-111-----0
 62
   253
370
    25
100
AcDbCircle
 10
761.779647
 20
167.692822
 30
0.0
 40
10.73104525444839
100
AcDbArc
 50
274.343327
 51
74.255463
  0
LINE
  5
99
330
30
100
AcDbEntity
  8
LC-001-111-----0
 62
   253
370
    25
100
AcDbLine
 10
1026.355603
 20
195.608569
 30
0.0
 11
1026.355603
 21
186.701063
 31
0.0
  0
LINE
  5
9A
330
30
100
AcDbEntity
  8
LC-001-111-----0
 62
   253
370
    25
100
AcDbLine
 10
764.691502
 20
178.02125
 30
0.0
 11
757.135251
 21
180.151556
 31
0.0
  0
LINE
  5
9B
330
30
100
AcDbEntity
  8
LC-001-111-----0
 62
   253
370
    25
100
AcDbLine
 10
1024.855603
 20
189.114146
 30
0.0
 11
1024.855603
 21
194.497086
 31
0.0
  0
ARC
  5
9C
330
30
100
AcDbEntity
  8
LC-001-111-----0
 62
   253
370
    25
100
AcDbCircle
 10
758.632108
 20
185.460948
 30
0.0
 40
5.51636013010035
100
AcDbArc
 50
90.951212
 51
254.255463
  0
ARC
  5
9D
330
30
100
AcDbEntity
  8
LC-001-111-----0
 62
   253
370
    25
100
AcDbCircle
 10
758.906662
 20
168.924866
 30
0.0
 40
22.05472179307849
100
AcDbArc
 50
64.088485
 51
90.951212
  0
LINE
  5
9E
330
30
100
AcDbEntity
  8
LC-001-111-----0
 62
   253
370
    25
100
AcDbLine
 10
768.544191
 20
188.762426
 30
0.0
 11
768.544191
 21
193.015758
 31
0.0
  0
LINE
  5
9F
330
30
100
AcDbEntity
  8
LC-001-111-----0
 62
   253
370
    25
100
AcDbLine
 10
1071.855603
 20
177.513832
 30
0.0
 11
1087.818366
 21
196.669147
 31
0.0
  0
LINE
  5
A0
330
30
100
AcDbEntity
  8
LC-001-111-----0
 62
   253
370
    25
100
AcDbLine
 10
1087.818366
 20
196.669147
 30
0.0
 11
1099.299433
 21
196.669147
 31
0.0
  0
LINE
  5
A1
330
30
100
AcDbEntity
  8
LC-001-111-----0
 62
   253
370
    25
100
AcDbLine
 10
1099.299433
 20
196.669147
 30
0.0
 11
1082.207766
 21
176.159147
 31
0.0
  0
LINE
  5
A3
330
30
100
AcDbEntity
  8
LC-002-002-----0
 62
     1
370
    25
100
AcDbLine
 10
1143.855603
 20
159.963432
 30
0.0
 11
1143.855603
 21
192.354862
 31
0.0
  0
LINE
  5
A4
330
30
100
AcDbEntity
  8
LC-002-002-----0
 62
     1
370
    25
100
AcDbLine
 10
1143.855603
 20
192.354862
 30
0.0
 11
1127.659888
 21
176.159147
 31
0.0
  0
LINE
  5
A5
330
30
100
AcDbEntity
  8
LC-002-002-----0
 62
     1
370
    25
100
AcDbLine
 10
1127.659888
 20
176.159147
 30
0.0
 11
1143.855603
 21
159.963432
 31
0.0
  0
LINE
  5
A6
330
30
100
AcDbEntity
  8
LC-002-002-----0
 62
     1
370
    25
100
AcDbLine
 10
1142.355603
 20
163.584752
 30
0.0
 11
1142.355603
 21
188.733542
 31
0.0
  0
LINE
  5
A7
330
30
100
AcDbEntity
  8
LC-001-111-----0
 62
   253
370
    25
100
AcDbLine
 10
1082.207766
 20
176.159147
 30
0.0
 11
1099.299433
 21
155.649147
 31
0.0
  0
LINE
  5
A8
330
30
100
AcDbEntity
  8
LC-001-111-----0
 62
   253
370
    25
100
AcDbLine
 10
1099.299433
 20
155.649147
 30
0.0
 11
1087.818366
 21
155.649147
 31
0.0
  0
LINE
  5
A9
330
30
100
AcDbEntity
  8
LC-001-111-----0
 62
   253
370
    25
100
AcDbLine
 10
1087.818366
 20
155.649147
 30
0.0
 11
1071.855603
 21
174.804462
 31
0.0
  0
LINE
  5
AA
330
30
100
AcDbEntity
  8
LC-001-111-----0
 62
   253
370
    25
100
AcDbLine
 10
1062.335603
 20
155.649147
 30
0.0
 11
1062.335603
 21
196.669147
 31
0.0
  0
LINE
  5
AB
330
30
100
AcDbEntity
  8
LC-001-111-----0
 62
   253
370
    25
100
AcDbLine
 10
828.855603
 20
189.114146
 30
0.0
 11
828.855603
 21
194.497086
 31
0.0
  0
ARC
  5
AC
330
30
100
AcDbEntity
  8
LC-001-111-----0
 62
   253
370
    25
100
AcDbCircle
 10
758.903191
 20
174.567744
 30
0.0
 40
19.31533311668209
100
AcDbArc
 50
65.072024
 51
94.48185
  0
LINE
  5
AD
330
30
100
AcDbEntity
  8
LC-001-111-----0
 62
   253
370
    25
100
AcDbLine
 10
1063.835603
 20
157.149147
 30
0.0
 11
1070.355603
 21
157.149147
 31
0.0
  0
LINE
  5
AE
330
30
100
AcDbEntity
  8
LC-001-111-----0
 62
   253
370
    25
100
AcDbLine
 10
1070.355603
 20
157.149147
 30
0.0
 11
1070.355603
 21
195.169147
 31
0.0
  0
LINE
  5
AF
330
30
100
AcDbEntity
  8
LC-001-111-----0
 62
   253
370
    25
100
AcDbLine
 10
1070.355603
 20
195.169147
 30
0.0
 11
1063.835603
 21
195.169147
 31
0.0
  0
LINE
  5
B0
330
30
100
AcDbEntity
  8
LC-001-111-----0
 62
   253
370
    25
100
AcDbLine
 10
1065.335603
 20
193.669147
 30
0.0
 11
1065.335603
 21
158.649147
 31
0.0
  0
LINE
  5
B1
330
30
100
AcDbEntity
  8
LC-002-002-----0
 62
     1
370
    25
100
AcDbLine
 10
1142.355603
 20
188.733542
 30
0.0
 11
1129.781208
 21
176.159147
 31
0.0
  0
LINE
  5
B2
330
30
100
AcDbEntity
  8
LC-002-002-----0
 62
     1
370
    25
100
AcDbLine
 10
1129.781208
 20
176.159147
 30
0.0
 11
1142.355603
 21
163.584752
 31
0.0
  0
LINE
  5
B3
330
30
100
AcDbEntity
  8
LC-001-111-----0
 62
   253
370
    25
100
AcDbLine
 10
1062.335603
 20
196.669147
 30
0.0
 11
1071.855603
 21
196.669147
 31
0.0
  0
LINE
  5
B4
330
30
100
AcDbEntity
  8
LC-001-111-----0
 62
   253
370
    25
100
AcDbLine
 10
1071.855603
 20
196.669147
 30
0.0
 11
1071.855603
 21
155.649147
 31
0.0
  0
LINE
  5
B5
330
30
100
AcDbEntity
  8
LC-001-111-----0
 62
   253
370
    25
100
AcDbLine
 10
1071.855603
 20
155.649147
 30
0.0
 11
1062.335603
 21
155.649147
 31
0.0
  0
ARC
  5
B6
330
30
100
AcDbEntity
  8
LC-001-111-----0
 62
   253
370
    25
100
AcDbCircle
 10
758.032826
 20
185.671748
 30
0.0
 40
8.177270814709827
100
AcDbArc
 50
94.48185
 51
252.731329
  0
LINE
  5
B7
330
30
100
AcDbEntity
  8
LC-001-111-----0
 62
   253
370
    25
100
AcDbLine
 10
755.60538
 20
177.863082
 30
0.0
 11
763.128892
 21
175.524281
 31
0.0
  0
ARC
  5
B8
330
30
100
AcDbEntity
  8
LC-001-111-----0
 62
   253
370
    25
100
AcDbCircle
 10
760.836588
 20
168.15034
 30
0.0
 40
7.72202478100773
100
AcDbArc
 50
268.246912
 51
72.731329
  0
LINE
  5
B9
330
30
100
AcDbEntity
  8
LC-001-111-----0
 62
   253
370
    25
100
AcDbLine
 10
827.355603
 20
191.143539
 30
0.0
 11
827.355603
 21
193.313738
 31
0.0
  0
ARC
  5
BA
330
30
100
AcDbEntity
  8
LC-001-111-----0
 62
   253
370
    25
100
AcDbCircle
 10
823.845603
 20
176.159147
 30
0.0
 40
17.50999999999996
100
AcDbArc
 50
78.436322
 51
281.563678
  0
LINE
  5
BB
330
30
100
AcDbEntity
  8
LC-001-111-----0
 62
   253
370
    25
100
AcDbLine
 10
827.355603
 20
159.004556
 30
0.0
 11
827.355603
 21
161.174755
 31
0.0
  0
LINE
  5
BC
330
30
100
AcDbEntity
  8
LC-002-002-----0
 62
     1
370
    25
100
AcDbLine
 10
1145.355603
 20
195.976182
 30
0.0
 11
1145.355603
 21
156.342112
 31
0.0
  0
LINE
  5
BD
330
30
100
AcDbEntity
  8
LC-002-002-----0
 62
     1
370
    25
100
AcDbLine
 10
1145.355603
 20
156.342112
 30
0.0
 11
1125.538568
 21
176.159147
 31
0.0
  0
LINE
  5
BE
330
30
100
AcDbEntity
  8
LC-002-002-----0
 62
     1
370
    25
100
AcDbLine
 10
1125.538568
 20
176.159147
 30
0.0
 11
1145.355603
 21
195.976182
 31
0.0
  0
LINE
  5
BF
330
30
100
AcDbEntity
  8
LC-001-111-----0
 62
   253
370
    25
100
AcDbLine
 10
1065.335603
 20
158.649147
 30
0.0
 11
1068.855603
 21
158.649147
 31
0.0
  0
LINE
  5
C0
330
30
100
AcDbEntity
  8
LC-001-111-----0
 62
   253
370
    25
100
AcDbLine
 10
1068.855603
 20
158.649147
 30
0.0
 11
1068.855603
 21
193.669147
 31
0.0
  0
LINE
  5
C1
330
30
100
AcDbEntity
  8
LC-001-111-----0
 62
   253
370
    25
100
AcDbLine
 10
1068.855603
 20
193.669147
 30
0.0
 11
1065.335603
 21
193.669147
 31
0.0
  0
LINE
  5
C2
330
30
100
AcDbEntity
  8
LC-001-111-----0
 62
   253
370
    25
100
AcDbLine
 10
1067.095603
 20
192.169147
 30
0.0
 11
1067.095603
 21
160.149147
 31
0.0
  0
ARC
  5
C3
330
30
100
AcDbEntity
  8
LC-001-111-----0
 62
   253
370
    25
100
AcDbCircle
 10
823.845603
 20
176.159147
 30
0.0
 40
15.38999999999992
100
AcDbArc
 50
76.816519
 51
283.183481
  0
LINE
  5
C4
330
30
100
AcDbEntity
  8
LC-001-111-----0
 62
   253
370
    25
100
AcDbLine
 10
870.855603
 20
195.169147
 30
0.0
 11
864.335603
 21
195.169147
 31
0.0
  0
LINE
  5
C5
330
30
100
AcDbEntity
  8
LC-001-111-----0
 62
   253
370
    25
100
AcDbLine
 10
1096.09687
 20
195.169147
 30
0.0
 11
1088.520928
 21
195.169147
 31
0.0
  0
LINE
  5
C6
330
30
100
AcDbEntity
  8
LC-001-111-----0
 62
   253
370
    25
100
AcDbLine
 10
865.835603
 20
158.649147
 30
0.0
 11
869.355603
 21
158.649147
 31
0.0
  0
LINE
  5
C7
330
30
100
AcDbEntity
  8
LC-001-111-----0
 62
   253
370
    25
100
AcDbLine
 10
1023.355603
 20
191.143539
 30
0.0
 11
1023.355603
 21
193.313738
 31
0.0
  0
LINE
  5
C8
330
30
100
AcDbEntity
  8
LC-001-111-----0
 62
   253
370
    25
100
AcDbLine
 10
892.095603
 20
192.169147
 30
0.0
 11
892.095603
 21
160.149147
 31
0.0
  0
TEXT
  5
C9
330
30
100
AcDbEntity
  8
LC-001-111-----0
 62
     1
370
    15
100
AcDbText
 10
1105.9925
 20
21.25
 30
0.0
 40
15.0
  1
Ash-N200_mm
 41
0.75
  7
LCTX0-400-0-0pDIN-Schrift
 72
     1
 11
1166.0
 21
21.25
 31
0.0
100
AcDbText
  0
CIRCLE
  5
CA
330
30
100
AcDbEntity
  8
LC-001-111-----0
 62
   253
370
    25
100
AcDbCircle
 10
946.345603
 20
176.159147
 30
0.0
 40
17.51000000000047
  0
LINE
  5
CB
330
30
100
AcDbEntity
  8
LC-001-111-----0
 62
   253
370
    25
100
AcDbLine
 10
1088.520928
 20
195.169147
 30
0.0
 11
1072.679261
 21
176.159147
 31
0.0
  0
ARC
  5
CC
330
30
100
AcDbEntity
  8
LC-001-111-----0
 62
   253
370
    25
100
AcDbCircle
 10
1019.845603
 20
176.159147
 30
0.0
 40
17.50999999999996
100
AcDbArc
 50
78.436322
 51
281.563678
  0
ARC
  5
CD
330
30
100
AcDbEntity
  8
LC-001-111-----0
 62
   253
370
    25
100
AcDbCircle
 10
761.412387
 20
186.963179
 30
0.0
 40
26.54367341134783
100
AcDbArc
 50
244.741378
 51
268.246912
  0
LINE
  5
CE
330
30
100
AcDbEntity
  8
LC-001-111-----0
 62
   253
370
    25
100
AcDbLine
 10
1023.355603
 20
159.004556
 30
0.0
 11
1023.355603
 21
161.174755
 31
0.0
  0
LINE
  5
CF
330
30
100
AcDbEntity
  8
LC-002-002-----0
 62
     1
370
    25
100
AcDbLine
 10
1140.855603
 20
167.206073
 30
0.0
 11
1140.855603
 21
185.112221
 31
0.0
  0
LINE
  5
D0
330
30
100
AcDbEntity
  8
LC-002-002-----0
 62
     1
370
    25
100
AcDbLine
 10
1140.855603
 20
185.112221
 30
0.0
 11
1131.902529
 21
176.159147
 31
0.0
  0
LINE
  5
D1
330
30
100
AcDbEntity
  8
LC-002-002-----0
 62
     1
370
    25
100
AcDbLine
 10
1131.902529
 20
176.159147
 30
0.0
 11
1140.855603
 21
167.206073
 31
0.0
  0
CIRCLE
  5
D2
330
30
100
AcDbEntity
  8
LC-001-111-----0
 62
   253
370
    25
100
AcDbCircle
 10
946.345603
 20
176.159147
 30
0.0
 40
13.89000000000002
  0
LINE
  5
D3
330
30
100
AcDbEntity
  8
LC-001-111-----0
 62
   253
370
    25
100
AcDbLine
 10
890.335603
 20
158.649147
 30
0.0
 11
893.855603
 21
158.649147
 31
0.0
  0
LINE
  5
D4
330
30
100
AcDbEntity
  8
LC-001-111-----0
 62
   253
370
    25
100
AcDbLine
 10
893.855603
 20
158.649147
 30
0.0
 11
893.855603
 21
193.669147
 31
0.0
  0
ARC
  5
D5
330
30
100
AcDbEntity
  8
LC-001-111-----0
 62
   253
370
    25
100
AcDbCircle
 10
758.906662
 20
168.924866
 30
0.0
 40
20.55472179307891
100
AcDbArc
 50
57.190491
 51
90.951212
  0
ARC
  5
D6
330
30
100
AcDbEntity
  8
LC-001-111-----0
 62
   253
370
    25
100
AcDbCircle
 10
761.779647
 20
167.692822
 30
0.0
 40
12.23104525444841
100
AcDbArc
 50
274.343327
 51
74.255463
  0
LINE
  5
D7
330
30
100
AcDbEntity
  8
LC-001-111-----0
 62
   253
370
    25
100
AcDbLine
 10
893.855603
 20
193.669147
 30
0.0
 11
890.335603
 21
193.669147
 31
0.0
  0
LINE
  5
D8
330
30
100
AcDbEntity
  8
LC-001-111-----0
 62
   253
370
    25
100
AcDbLine
 10
890.335603
 20
193.669147
 30
0.0
 11
890.335603
 21
158.649147
 31
0.0
  0
LINE
  5
D9
330
30
100
AcDbEntity
  8
LC-001-111-----0
 62
   253
370
    25
100
AcDbLine
 10
890.335603
 20
176.159147
 30
0.0
 11
869.355603
 21
176.159147
 31
0.0
  0
TEXT
  5
DA
330
30
100
AcDbEntity
  8
LC-001-111-----0
 62
     7
370
    25
100
AcDbText
 10
1978.821875
 20
143.75
 30
0.0
 40
25.0
  1
1
 41
0.75
  7
LCTX0-400-0-0pDIN-Schrift
 72
     1
 11
1985.0
 21
143.75
 31
0.0
100
AcDbText
  0
LINE
  5
DB
330
30
100
AcDbEntity
  8
LC-001-111-----0
 62
   253
370
    25
100
AcDbLine
 10
869.355603
 20
158.649147
 30
0.0
 11
869.355603
 21
193.669147
 31
0.0
  0
LINE
  5
DC
330
30
100
AcDbEntity
  8
LC-001-111-----0
 62
   253
370
    25
100
AcDbLine
 10
869.355603
 20
193.669147
 30
0.0
 11
865.835603
 21
193.669147
 31
0.0
  0
LINE
  5
DD
330
30
100
AcDbEntity
  8
LC-001-111-----0
 62
   253
370
    25
100
AcDbLine
 10
865.835603
 20
193.669147
 30
0.0
 11
865.835603
 21
158.649147
 31
0.0
  0
LINE
  5
DE
330
30
100
AcDbEntity
  8
LC-001-111-----0
 62
   253
370
    25
100
AcDbLine
 10
867.595603
 20
192.169147
 30
0.0
 11
867.595603
 21
160.149147
 31
0.0
  0
CIRCLE
  5
DF
330
30
100
AcDbEntity
  8
LC-001-111-----0
 62
   253
370
    25
100
AcDbCircle
 10
946.345603
 20
176.159147
 30
0.0
 40
15.38999999999984
  0
LINE
  5
E0
330
30
100
AcDbEntity
  8
LC-001-111-----0
 62
   253
370
    25
100
AcDbLine
 10
1072.679261
 20
176.159147
 30
0.0
 11
1088.520928
 21
157.149147
 31
0.0
  0
LINE
  5
E1
330
30
100
AcDbEntity
  8
LC-001-111-----0
 62
   253
370
    25
100
AcDbLine
 10
1088.520928
 20
157.149147
 30
0.0
 11
1096.09687
 21
157.149147
 31
0.0
  0
LINE
  5
E2
330
30
100
AcDbEntity
  8
LC-001-111-----0
 62
   253
370
    25
100
AcDbLine
 10
1096.09687
 20
157.149147
 30
0.0
 11
1080.255204
 21
176.159147
 31
0.0
  0
LINE
  5
E3
330
30
100
AcDbEntity
  8
LC-001-111-----0
 62
   253
370
    25
100
AcDbLine
 10
770.044191
 20
186.20063
 30
0.0
 11
770.044191
 21
193.903002
 31
0.0
  0
ARC
  5
E4
330
30
100
AcDbEntity
  8
LC-001-111-----0
 62
   253
370
    25
100
AcDbCircle
 10
761.412387
 20
186.963179
 30
0.0
 40
23.54367341134796
100
AcDbArc
 50
232.518913
 51
268.246912
  0
ARC
  5
E5
330
30
100
AcDbEntity
  8
LC-001-111-----0
 62
   253
370
    25
100
AcDbCircle
 10
760.836588
 20
168.15034
 30
0.0
 40
4.722024781007908
100
AcDbArc
 50
268.246912
 51
72.731329
  0
LINE
  5
E6
330
30
100
AcDbEntity
  8
LC-001-111-----0
 62
   253
370
    25
100
AcDbLine
 10
757.542274
 20
181.595277
 30
0.0
 11
765.098525
 21
179.464972
 31
0.0
  0
ARC
  5
E7
330
30
100
AcDbEntity
  8
LC-001-111-----0
 62
   253
370
    25
100
AcDbCircle
 10
758.632108
 20
185.460948
 30
0.0
 40
4.016360130100384
100
AcDbArc
 50
90.951212
 51
254.255463
  0
ARC
  5
E8
330
30
100
AcDbEntity
  8
LC-001-111-----0
 62
   253
370
    25
100
AcDbCircle
 10
758.032826
 20
185.671748
 30
0.0
 40
11.17727081470983
100
AcDbArc
 50
94.48185
 51
252.731329
  0
LINE
  5
E9
330
30
100
AcDbEntity
  8
LC-001-111-----0
 62
   253
370
    25
100
AcDbLine
 10
762.238334
 20
172.659511
 30
0.0
 11
754.714822
 21
174.998312
 31
0.0
  0
LINE
  5
EA
330
30
100
AcDbEntity
  8
LC-001-111-----0
 62
   253
370
    25
100
AcDbLine
 10
747.086073
 20
168.279997
 30
0.0
 11
747.086073
 21
159.524163
 31
0.0
  0
ARC
  5
EB
330
30
100
AcDbEntity
  8
LC-001-111-----0
 62
   253
370
    25
100
AcDbCircle
 10
758.903191
 20
174.567744
 30
0.0
 40
22.31533311668187
100
AcDbArc
 50
60.049399
 51
94.48185
  0
ARC
  5
EC
330
30
100
AcDbEntity
  8
LC-001-111-----0
 62
   253
370
    25
100
AcDbCircle
 10
760.81067
 20
180.45076
 30
0.0
 40
25.02572762426604
100
AcDbArc
 50
236.741348
 51
274.343327
  0
LINE
  5
ED
330
30
100
AcDbEntity
  8
LC-001-111-----0
 62
   253
370
    25
100
AcDbLine
 10
1080.255204
 20
176.159147
 30
0.0
 11
1096.09687
 21
195.169147
 31
0.0
  0
LINE
  5
EE
330
30
100
AcDbEntity
  8
LC-001-111-----0
 62
   253
370
    25
100
AcDbLine
 10
750.086073
 20
162.957321
 30
0.0
 11
750.086073
 21
161.212369
 31
0.0
  0
LINE
  5
EF
330
30
100
AcDbEntity
  8
LC-001-111-----0
 62
   253
370
    25
100
AcDbLine
 10
1078.302641
 20
176.159147
 30
0.0
 11
1092.894308
 21
193.669147
 31
0.0
  0
LINE
  5
F0
330
30
100
AcDbEntity
  8
LC-002-002-----0
 62
     1
370
    25
100
AcDbLine
 10
1139.355603
 20
170.827393
 30
0.0
 11
1139.355603
 21
181.490901
 31
0.0
  0
LINE
  5
F1
330
30
100
AcDbEntity
  8
LC-002-002-----0
 62
     1
370
    25
100
AcDbLine
 10
1139.355603
 20
181.490901
 30
0.0
 11
1134.023849
 21
176.159147
 31
0.0
  0
LINE
  5
F2
330
30
100
AcDbEntity
  8
LC-002-002-----0
 62
     1
370
    25
100
AcDbLine
 10
1134.023849
 20
176.159147
 30
0.0
 11
1139.355603
 21
170.827393
 31
0.0
  0
LINE
  5
F3
330
30
100
AcDbEntity
  8
LC-002-002-----0
 62
     1
370
    25
100
AcDbLine
 10
1137.855603
 20
174.448713
 30
0.0
 11
1137.855603
 21
177.869581
 31
0.0
  0
LINE
  5
F4
330
30
100
AcDbEntity
  8
LC-002-002-----0
 62
     1
370
    25
100
AcDbLine
 10
1137.855603
 20
177.869581
 30
0.0
 11
1136.145169
 21
176.159147
 31
0.0
  0
LINE
  5
F5
330
30
100
AcDbEntity
  8
LC-002-002-----0
 62
     1
370
    25
100
AcDbLine
 10
1136.145169
 20
176.159147
 30
0.0
 11
1137.855603
 21
174.448713
 31
0.0
  0
LINE
  5
F6
330
30
100
AcDbEntity
  8
LC-001-111-----0
 62
   253
370
    25
100
AcDbLine
 10
1092.894308
 20
193.669147
 30
0.0
 11
1089.22349
 21
193.669147
 31
0.0
  0
LINE
  5
F7
330
30
100
AcDbEntity
  8
LC-001-111-----0
 62
   253
370
    25
100
AcDbLine
 10
1089.22349
 20
193.669147
 30
0.0
 11
1074.631824
 21
176.159147
 31
0.0
  0
ARC
  5
F8
330
30
100
AcDbEntity
  8
LC-001-111-----0
 62
   253
370
    25
100
AcDbCircle
 10
1019.845603
 20
176.159147
 30
0.0
 40
15.38999999999992
100
AcDbArc
 50
76.816519
 51
283.183481
  0
LINE
  5
F9
330
30
100
AcDbEntity
  8
LC-001-111-----0
 62
   253
370
    25
100
AcDbLine
 10
1074.631824
 20
176.159147
 30
0.0
 11
1089.22349
 21
158.649147
 31
0.0
  0
LINE
  5
FA
330
30
100
AcDbEntity
  8
LC-001-111-----0
 62
   253
370
    25
100
AcDbLine
 10
1089.22349
 20
158.649147
 30
0.0
 11
1092.894308
 21
158.649147
 31
0.0
  0
LINE
  5
FB
330
30
100
AcDbEntity
  8
LC-001-111-----0
 62
   253
370
    25
100
AcDbLine
 10
1092.894308
 20
158.649147
 30
0.0
 11
1078.302641
 21
176.159147
 31
0.0
  0
LINE
  5
FC
330
30
100
AcDbEntity
  8
LC-001-111-----0
 62
   253
370
    25
100
AcDbLine
 10
1076.467232
 20
176.159147
 30
0.0
 11
1090.098623
 21
192.516815
 31
0.0
  0
LINE
  5
FD
330
30
100
AcDbEntity
  8
LC-001-111-----0
 62
   253
370
    25
100
AcDbLine
 10
1076.467232
 20
176.159147
 30
0.0
 11
1090.098623
 21
159.801479
 31
0.0
  0
ARC
  5
FE
330
30
100
AcDbEntity
  8
LC-001-111-----0
 62
   253
370
    25
100
AcDbCircle
 10
760.81067
 20
180.45076
 30
0.0
 40
22.02572762426587
100
AcDbArc
 50
240.862164
 51
274.343327
  0
ARC
  5
FF
330
30
100
AcDbEntity
  8
LC-001-111-----0
 62
   253
370
    25
100
AcDbCircle
 10
761.779647
 20
167.692822
 30
0.0
 40
9.231045254448425
100
AcDbArc
 50
274.343327
 51
74.255463
  0
LINE
  5
100
330
30
100
AcDbEntity
  8
LC-001-111-----0
 62
   253
370
    25
100
AcDbLine
 10
764.284479
 20
176.577529
 30
0.0
 11
756.728228
 21
178.707834
 31
0.0
  0
ARC
  5
101
330
30
100
AcDbEntity
  8
LC-001-111-----0
 62
   253
370
    25
100
AcDbCircle
 10
758.632108
 20
185.460948
 30
0.0
 40
7.016360130100396
100
AcDbArc
 50
90.951212
 51
254.255463
  0
ARC
  5
102
330
30
100
AcDbEntity
  8
LC-001-111-----0
 62
   253
370
    25
100
AcDbCircle
 10
758.906662
 20
168.924866
 30
0.0
 40
23.55472179307856
100
AcDbArc
 50
69.789306
 51
90.951212
  0
LINE
  5
103
330
30
100
AcDbEntity
  8
LC-001-111-----0
 62
   253
370
    25
100
AcDbLine
 10
767.044191
 20
191.029289
 30
0.0
 11
767.044191
 21
192.083629
 31
0.0
  0
ENDBLK
  5
32
330
30
100
AcDbEntity
  8
0
100
AcDbBlockEnd
  0
BLOCK
  5
11A
330
10F
100
AcDbEntity
  8
0
100
AcDbBlockBegin
  2
*D2
 70
     1
 71
     0
 10
0.0
 20
0.0
 30
0.0
  3
*D2
  1

  0
LINE
  5
110
330
10F
100
AcDbEntity
  8
LC-004-003-----0
 62
     2
370
    -2
100
AcDbLine
 10
610.591262
 20
821.112041
 30
0.0
 11
610.591262
 21
732.0
 31
0.0
  0
LINE
  5
111
330
10F
100
AcDbEntity
  8
LC-004-003-----0
 62
     2
370
    -2
100
AcDbLine
 10
994.766262
 20
821.112041
 30
0.0
 11
994.766262
 21
732.0
 31
0.0
  0
LINE
  5
112
330
10F
100
AcDbEntity
  8
LC-004-003-----0
 62
     2
370
    -2
100
AcDbLine
 10
635.591262
 20
750.0
 30
0.0
 11
751.226263
 21
750.0
 31
0.0
  0
LINE
  5
113
330
10F
100
AcDbEntity
  8
LC-004-003-----0
 62
     2
370
    -2
100
AcDbLine
 10
969.766262
 20
750.0
 30
0.0
 11
854.131261
 21
750.0
 31
0.0
  0
SOLID
  5
114
330
10F
100
AcDbEntity
  8
LC-004-003-----0
 62
     2
100
AcDbTrace
 10
635.591262
 20
754.166667
 30
0.0
 11
635.591262
 21
745.833333
 31
0.0
 12
610.591262
 22
750.0
 32
0.0
 13
610.591262
 23
750.0
 33
0.0
  0
SOLID
  5
115
330
10F
100
AcDbEntity
  8
LC-004-003-----0
 62
     2
100
AcDbTrace
 10
969.766262
 20
745.833333
 30
0.0
 11
969.766262
 21
754.166667
 31
0.0
 12
994.766262
 22
750.0
 32
0.0
 13
994.766262
 23
750.0
 33
0.0
  0
MTEXT
  5
116
330
10F
100
AcDbEntity
  8
LC-004-003-----0
 62
     2
100
AcDbMText
 10
802.678762
 20
780.0
 30
0.0
 40
25.0
 41
0.0
 71
     5
 72
     1
  1
\A1;768,4
  7
LCTX0-400-0-0pDIN-Schrift
 73
     1
 44
1.0
  0
POINT
  5
117
330
10F
100
AcDbEntity
  8
Defpoints
 62
     0
100
AcDbPoint
 10
610.591262
 20
821.112041
 30
0.0
  0
POINT
  5
118
330
10F
100
AcDbEntity
  8
Defpoints
 62
     0
100
AcDbPoint
 10
994.766262
 20
821.112041
 30
0.0
  0
POINT
  5
119
330
10F
100
AcDbEntity
  8
Defpoints
 62
     0
100
AcDbPoint
 10
994.766262
 20
750.0
 30
0.0
  0
ENDBLK
  5
11B
330
10F
100
AcDbEntity
  8
0
100
AcDbBlockEnd
  0
BLOCK
  5
128
330
11D
100
AcDbEntity
  8
0
100
AcDbBlockBegin
  2
*D3
 70
     1
 71
     0
 10
0.0
 20
0.0
 30
0.0
  3
*D3
  1

  0
LINE
  5
11E
330
11D
100
AcDbEntity
  8
LC-004-003-----0
 62
     2
370
    -2
100
AcDbLine
 10
547.678762
 20
1103.824541
 30
0.0
 11
482.0
 21
1103.824541
 31
0.0
  0
LINE
  5
11F
330
11D
100
AcDbEntity
  8
LC-004-003-----0
 62
     2
370
    -2
100
AcDbLine
 10
547.678762
 20
878.399541
 30
0.0
 11
482.0
 21
878.399541
 31
0.0
  0
LINE
  5
120
330
11D
100
AcDbEntity
  8
LC-004-003-----0
 62
     2
370
    -2
100
AcDbLine
 10
500.0
 20
1078.824541
 30
0.0
 11
500.0
 21
1041.40954
 31
0.0
  0
LINE
  5
121
330
11D
100
AcDbEntity
  8
LC-004-003-----0
 62
     2
370
    -2
100
AcDbLine
 10
500.0
 20
903.399541
 30
0.0
 11
500.0
 21
940.814542
 31
0.0
  0
SOLID
  5
122
330
11D
100
AcDbEntity
  8
LC-004-003-----0
 62
     2
100
AcDbTrace
 10
504.166667
 20
1078.824541
 30
0.0
 11
495.833333
 21
1078.824541
 31
0.0
 12
500.0
 22
1103.824541
 32
0.0
 13
500.0
 23
1103.824541
 33
0.0
  0
SOLID
  5
123
330
11D
100
AcDbEntity
  8
LC-004-003-----0
 62
     2
100
AcDbTrace
 10
495.833333
 20
903.399541
 30
0.0
 11
504.166667
 21
903.399541
 31
0.0
 12
500.0
 22
878.399541
 32
0.0
 13
500.0
 23
878.399541
 33
0.0
  0
MTEXT
  5
124
330
11D
100
AcDbEntity
  8
LC-004-003-----0
 62
     2
100
AcDbMText
 10
470.0
 20
991.112041
 30
0.0
 40
25.0
 41
0.0
 71
     5
 72
     1
  1
\A1;450,9
  7
LCTX0-400-0-0pDIN-Schrift
 11
6.123031769111886E-17
 21
1.0
 31
0.0
 73
     1
 44
1.0
  0
POINT
  5
125
330
11D
100
AcDbEntity
  8
Defpoints
 62
     0
100
AcDbPoint
 10
547.678762
 20
1103.824541
 30
0.0
  0
POINT
  5
126
330
11D
100
AcDbEntity
  8
Defpoints
 62
     0
100
AcDbPoint
 10
547.678762
 20
878.399541
 30
0.0
  0
POINT
  5
127
330
11D
100
AcDbEntity
  8
Defpoints
 62
     0
100
AcDbPoint
 10
500.0
 20
878.399541
 30
0.0
  0
ENDBLK
  5
129
330
11D
100
AcDbEntity
  8
0
100
AcDbBlockEnd
  0
BLOCK
  5
134
330
12C
100
AcDbEntity
  8
0
100
AcDbBlockBegin
  2
*D4
 70
     1
 71
     0
 10
0.0
 20
0.0
 30
0.0
  3
*D4
  1

  0
LINE
  5
12D
330
12C
100
AcDbEntity
  8
LC-004-003-----0
 62
     2
370
    -2
100
AcDbLine
 10
700.0
 20
2524.24
 30
0.0
 11
700.0
 21
2320.24
 31
0.0
  0
SOLID
  5
12E
330
12C
100
AcDbEntity
  8
LC-004-003-----0
 62
     2
100
AcDbTrace
 10
704.166667
 20
2524.24
 30
0.0
 11
695.833333
 21
2524.24
 31
0.0
 12
700.0
 22
2549.24
 32
0.0
 13
700.0
 23
2549.24
 33
0.0
  0
SOLID
  5
12F
330
12C
100
AcDbEntity
  8
LC-004-003-----0
 62
     2
100
AcDbTrace
 10
695.833333
 20
2320.24
 30
0.0
 11
704.166667
 21
2320.24
 31
0.0
 12
700.0
 22
2295.24
 32
0.0
 13
700.0
 23
2295.24
 33
0.0
  0
MTEXT
  5
130
330
12C
100
AcDbEntity
  8
LC-004-003-----0
 62
     2
100
AcDbMText
 10
670.0
 20
2422.24
 30
0.0
 40
25.0
 41
0.0
 71
     5
 72
     1
  1
\A1;254
  7
LCTX0-400-0-0pDIN-Schrift
 11
6.123031769111886E-17
 21
1.0
 31
0.0
 73
     1
 44
1.0
  0
POINT
  5
131
330
12C
100
AcDbEntity
  8
Defpoints
 62
     0
100
AcDbPoint
 10
882.859738
 20
2549.24
 30
0.0
  0
POINT
  5
132
330
12C
100
AcDbEntity
  8
Defpoints
 62
     0
100
AcDbPoint
 10
715.999738
 20
2295.24
 30
0.0
  0
POINT
  5
133
330
12C
100
AcDbEntity
  8
Defpoints
 62
     0
100
AcDbPoint
 10
700.0
 20
2295.24
 30
0.0
  0
ENDBLK
  5
135
330
12C
100
AcDbEntity
  8
0
100
AcDbBlockEnd
  0
BLOCK
  5
13F
330
137
100
AcDbEntity
  8
0
100
AcDbBlockBegin
  2
*D5
 70
     1
 71
     0
 10
0.0
 20
0.0
 30
0.0
  3
*D5
  1

  0
LINE
  5
138
330
137
100
AcDbEntity
  8
LC-004-003-----0
 62
     2
370
    -2
100
AcDbLine
 10
1100.0
 20
2524.24
 30
0.0
 11
1100.0
 21
2320.24
 31
0.0
  0
SOLID
  5
139
330
137
100
AcDbEntity
  8
LC-004-003-----0
 62
     2
100
AcDbTrace
 10
1104.166667
 20
2524.24
 30
0.0
 11
1095.833333
 21
2524.24
 31
0.0
 12
1100.0
 22
2549.24
 32
0.0
 13
1100.0
 23
2549.24
 33
0.0
  0
SOLID
  5
13A
330
137
100
AcDbEntity
  8
LC-004-003-----0
 62
     2
100
AcDbTrace
 10
1095.833333
 20
2320.24
 30
0.0
 11
1104.166667
 21
2320.24
 31
0.0
 12
1100.0
 22
2295.24
 32
0.0
 13
1100.0
 23
2295.24
 33
0.0
  0
MTEXT
  5
13B
330
137
100
AcDbEntity
  8
LC-004-003-----0
 62
     2
100
AcDbMText
 10
1070.0
 20
2422.24
 30
0.0
 40
25.0
 41
0.0
 71
     5
 72
     1
  1
\A1;254
  7
LCTX0-400-0-0pDIN-Schrift
 11
6.123031769111886E-17
 21
1.0
 31
0.0
 73
     1
 44
1.0
  0
POINT
  5
13C
330
137
100
AcDbEntity
  8
Defpoints
 62
     0
100
AcDbPoint
 10
882.859738
 20
2549.24
 30
0.0
  0
POINT
  5
13D
330
137
100
AcDbEntity
  8
Defpoints
 62
     0
100
AcDbPoint
 10
1101.659738
 20
2295.24
 30
0.0
  0
POINT
  5
13E
330
137
100
AcDbEntity
  8
Defpoints
 62
     0
100
AcDbPoint
 10
1100.0
 20
2295.24
 30
0.0
  0
ENDBLK
  5
140
330
137
100
AcDbEntity
  8
0
100
AcDbBlockEnd
  0
BLOCK
  5
14D
330
142
100
AcDbEntity
  8
0
100
AcDbBlockBegin
  2
*D6
 70
     1
 71
     0
 10
0.0
 20
0.0
 30
0.0
  3
*D6
  1

  0
LINE
  5
143
330
142
100
AcDbEntity
  8
LC-004-003-----0
 62
     2
370
    -2
100
AcDbLine
 10
498.684738
 20
2559.24
 30
0.0
 11
498.684738
 21
2718.0
 31
0.0
  0
LINE
  5
144
330
142
100
AcDbEntity
  8
LC-004-003-----0
 62
     2
370
    -2
100
AcDbLine
 10
1267.034738
 20
2559.24
 30
0.0
 11
1267.034738
 21
2718.0
 31
0.0
  0
LINE
  5
145
330
142
100
AcDbEntity
  8
LC-004-003-----0
 62
     2
370
    -2
100
AcDbLine
 10
523.684738
 20
2700.0
 30
0.0
 11
831.407238
 21
2700.0
 31
0.0
  0
LINE
  5
146
330
142
100
AcDbEntity
  8
LC-004-003-----0
 62
     2
370
    -2
100
AcDbLine
 10
1242.034738
 20
2700.0
 30
0.0
 11
934.312237
 21
2700.0
 31
0.0
  0
SOLID
  5
147
330
142
100
AcDbEntity
  8
LC-004-003-----0
 62
     2
100
AcDbTrace
 10
523.684738
 20
2704.166667
 30
0.0
 11
523.684738
 21
2695.833333
 31
0.0
 12
498.684738
 22
2700.0
 32
0.0
 13
498.684738
 23
2700.0
 33
0.0
  0
SOLID
  5
148
330
142
100
AcDbEntity
  8
LC-004-003-----0
 62
     2
100
AcDbTrace
 10
1242.034738
 20
2695.833333
 30
0.0
 11
1242.034738
 21
2704.166667
 31
0.0
 12
1267.034738
 22
2700.0
 32
0.0
 13
1267.034738
 23
2700.0
 33
0.0
  0
MTEXT
  5
149
330
142
100
AcDbEntity
  8
LC-004-003-----0
 62
     2
100
AcDbMText
 10
882.859738
 20
2730.0
 30
0.0
 40
25.0
 41
0.0
 71
     5
 72
     1
  1
\A1;768,4
  7
LCTX0-400-0-0pDIN-Schrift
 73
     1
 44
1.0
  0
POINT
  5
14A
330
142
100
AcDbEntity
  8
Defpoints
 62
     0
100
AcDbPoint
 10
498.684738
 20
2559.24
 30
0.0
  0
POINT
  5
14B
330
142
100
AcDbEntity
  8
Defpoints
 62
     0
100
AcDbPoint
 10
1267.034738
 20
2559.24
 30
0.0
  0
POINT
  5
14C
330
142
100
AcDbEntity
  8
Defpoints
 62
     0
100
AcDbPoint
 10
1267.034738
 20
2700.0
 30
0.0
  0
ENDBLK
  5
14E
330
142
100
AcDbEntity
  8
0
100
AcDbBlockEnd
  0
BLOCK
  5
15A
330
150
100
AcDbEntity
  8
0
100
AcDbBlockBegin
  2
*D7
 70
     1
 71
     0
 10
0.0
 20
0.0
 30
0.0
  3
*D7
  1

  0
LINE
  5
151
330
150
100
AcDbEntity
  8
LC-004-003-----0
 62
     2
370
    -2
100
AcDbLine
 10
867.859738
 20
2559.24
 30
0.0
 11
867.859738
 21
2668.0
 31
0.0
  0
LINE
  5
152
330
150
100
AcDbEntity
  8
LC-004-003-----0
 62
     2
370
    -2
100
AcDbLine
 10
498.684738
 20
2559.24
 30
0.0
 11
498.684738
 21
2668.0
 31
0.0
  0
LINE
  5
153
330
150
100
AcDbEntity
  8
LC-004-003-----0
 62
     2
370
    -2
100
AcDbLine
 10
842.859738
 20
2650.0
 30
0.0
 11
523.684738
 21
2650.0
 31
0.0
  0
SOLID
  5
154
330
150
100
AcDbEntity
  8
LC-004-003-----0
 62
     2
100
AcDbTrace
 10
842.859738
 20
2645.833333
 30
0.0
 11
842.859738
 21
2654.166667
 31
0.0
 12
867.859738
 22
2650.0
 32
0.0
 13
867.859738
 23
2650.0
 33
0.0
  0
SOLID
  5
155
330
150
100
AcDbEntity
  8
LC-004-003-----0
 62
     2
100
AcDbTrace
 10
523.684738
 20
2654.166667
 30
0.0
 11
523.684738
 21
2645.833333
 31
0.0
 12
498.684738
 22
2650.0
 32
0.0
 13
498.684738
 23
2650.0
 33
0.0
  0
MTEXT
  5
156
330
150
100
AcDbEntity
  8
LC-004-003-----0
 62
     2
100
AcDbMText
 10
683.272238
 20
2680.0
 30
0.0
 40
25.0
 41
0.0
 71
     5
 72
     1
  1
\A1;369,2
  7
LCTX0-400-0-0pDIN-Schrift
 73
     1
 44
1.0
  0
POINT
  5
157
330
150
100
AcDbEntity
  8
Defpoints
 62
     0
100
AcDbPoint
 10
867.859738
 20
2559.24
 30
0.0
  0
POINT
  5
158
330
150
100
AcDbEntity
  8
Defpoints
 62
     0
100
AcDbPoint
 10
498.684738
 20
2559.24
 30
0.0
  0
POINT
  5
159
330
150
100
AcDbEntity
  8
Defpoints
 62
     0
100
AcDbPoint
 10
498.684738
 20
2650.0
 30
0.0
  0
ENDBLK
  5
15B
330
150
100
AcDbEntity
  8
0
100
AcDbBlockEnd
  0
BLOCK
  5
167
330
15D
100
AcDbEntity
  8
0
100
AcDbBlockBegin
  2
*D8
 70
     1
 71
     0
 10
0.0
 20
0.0
 30
0.0
  3
*D8
  1

  0
LINE
  5
15E
330
15D
100
AcDbEntity
  8
LC-004-003-----0
 62
     2
370
    -2
100
AcDbLine
 10
897.859738
 20
2559.24
 30
0.0
 11
897.859738
 21
2668.0
 31
0.0
  0
LINE
  5
15F
330
15D
100
AcDbEntity
  8
LC-004-003-----0
 62
     2
370
    -2
100
AcDbLine
 10
1267.034738
 20
2559.24
 30
0.0
 11
1267.034738
 21
2668.0
 31
0.0
  0
LINE
  5
160
330
15D
100
AcDbEntity
  8
LC-004-003-----0
 62
     2
370
    -2
100
AcDbLine
 10
922.859738
 20
2650.0
 30
0.0
 11
1242.034738
 21
2650.0
 31
0.0
  0
SOLID
  5
161
330
15D
100
AcDbEntity
  8
LC-004-003-----0
 62
     2
100
AcDbTrace
 10
922.859738
 20
2654.166667
 30
0.0
 11
922.859738
 21
2645.833333
 31
0.0
 12
897.859738
 22
2650.0
 32
0.0
 13
897.859738
 23
2650.0
 33
0.0
  0
SOLID
  5
162
330
15D
100
AcDbEntity
  8
LC-004-003-----0
 62
     2
100
AcDbTrace
 10
1242.034738
 20
2645.833333
 30
0.0
 11
1242.034738
 21
2654.166667
 31
0.0
 12
1267.034738
 22
2650.0
 32
0.0
 13
1267.034738
 23
2650.0
 33
0.0
  0
MTEXT
  5
163
330
15D
100
AcDbEntity
  8
LC-004-003-----0
 62
     2
100
AcDbMText
 10
1082.447238
 20
2680.0
 30
0.0
 40
25.0
 41
0.0
 71
     5
 72
     1
  1
\A1;369,2
  7
LCTX0-400-0-0pDIN-Schrift
 73
     1
 44
1.0
  0
POINT
  5
164
330
15D
100
AcDbEntity
  8
Defpoints
 62
     0
100
AcDbPoint
 10
897.859738
 20
2559.24
 30
0.0
  0
POINT
  5
165
330
15D
100
AcDbEntity
  8
Defpoints
 62
     0
100
AcDbPoint
 10
1267.034738
 20
2559.24
 30
0.0
  0
POINT
  5
166
330
15D
100
AcDbEntity
  8
Defpoints
 62
     0
100
AcDbPoint
 10
1267.034738
 20
2650.0
 30
0.0
  0
ENDBLK
  5
168
330
15D
100
AcDbEntity
  8
0
100
AcDbBlockEnd
  0
BLOCK
  5
177
330
16B
100
AcDbEntity
  8
0
100
AcDbBlockBegin
  2
*D9
 70
     1
 71
     0
 10
0.0
 20
0.0
 30
0.0
  3
*D9
  1

  0
LINE
  5
16C
330
16B
100
AcDbEntity
  8
LC-004-003-----0
 62
     2
370
    -2
100
AcDbLine
 10
867.859738
 20
2559.24
 30
0.0
 11
867.859738
 21
2618.0
 31
0.0
  0
LINE
  5
16D
330
16B
100
AcDbEntity
  8
LC-004-003-----0
 62
     2
370
    -2
100
AcDbLine
 10
897.859738
 20
2559.24
 30
0.0
 11
897.859738
 21
2618.0
 31
0.0
  0
LINE
  5
16E
330
16B
100
AcDbEntity
  8
LC-004-003-----0
 62
     2
370
    -2
100
AcDbLine
 10
922.859738
 20
2600.0
 30
0.0
 11
947.859738
 21
2600.0
 31
0.0
  0
LINE
  5
16F
330
16B
100
AcDbEntity
  8
LC-004-003-----0
 62
     2
370
    -2
100
AcDbLine
 10
842.859738
 20
2600.0
 30
0.0
 11
827.714284
 21
2600.0
 31
0.0
  0
LINE
  5
170
330
16B
100
AcDbEntity
  8
LC-004-003-----0
 62
     2
370
    -2
100
AcDbLine
 10
867.859738
 20
2600.0
 30
0.0
 11
897.859738
 21
2600.0
 31
0.0
  0
SOLID
  5
171
330
16B
100
AcDbEntity
  8
LC-004-003-----0
 62
     2
100
AcDbTrace
 10
842.859738
 20
2595.833333
 30
0.0
 11
842.859738
 21
2604.166667
 31
0.0
 12
867.859738
 22
2600.0
 32
0.0
 13
867.859738
 23
2600.0
 33
0.0
  0
SOLID
  5
172
330
16B
100
AcDbEntity
  8
LC-004-003-----0
 62
     2
100
AcDbTrace
 10
922.859738
 20
2604.166667
 30
0.0
 11
922.859738
 21
2595.833333
 31
0.0
 12
897.859738
 22
2600.0
 32
0.0
 13
897.859738
 23
2600.0
 33
0.0
  0
MTEXT
  5
173
330
16B
100
AcDbEntity
  8
LC-004-003-----0
 62
     2
100
AcDbMText
 10
856.005533
 20
2630.0
 30
0.0
 40
25.0
 41
0.0
 71
     5
 72
     1
  1
\A1;30
  7
LCTX0-400-0-0pDIN-Schrift
 73
     1
 44
1.0
  0
POINT
  5
174
330
16B
100
AcDbEntity
  8
Defpoints
 62
     0
100
AcDbPoint
 10
867.859738
 20
2559.24
 30
0.0
  0
POINT
  5
175
330
16B
100
AcDbEntity
  8
Defpoints
 62
     0
100
AcDbPoint
 10
897.859738
 20
2559.24
 30
0.0
  0
POINT
  5
176
330
16B
100
AcDbEntity
  8
Defpoints
 62
     0
100
AcDbPoint
 10
897.859738
 20
2600.0
 30
0.0
  0
ENDBLK
  5
178
330
16B
100
AcDbEntity
  8
0
100
AcDbBlockEnd
  0
BLOCK
  5
17A
330
179
100
AcDbEntity
  8
0
100
AcDbBlockBegin
  2
*X110
 70
     1
 71
     0
 10
0.0
 20
0.0
 30
0.0
  3
*X110
  1

  4
*X1
  0
LINE
  5
17D
330
179
100
AcDbEntity
  8
LC-005-005-----0
 62
     7
370
    25
100
AcDbLine
 10
1052.678762
 20
1153.494395
 30
0.0
 11
1050.061117
 21
1156.112041
 31
0.0
  0
LINE
  5
17E
330
179
100
AcDbEntity
  8
LC-005-005-----0
 62
     7
370
    25
100
AcDbLine
 10
1052.678762
 20
1125.210124
 30
0.0
 11
1021.776845
 21
1156.112041
 31
0.0
  0
LINE
  5
17F
330
179
100
AcDbEntity
  8
LC-005-005-----0
 62
     7
370
    25
100
AcDbLine
 10
1052.678762
 20
1096.925853
 30
0.0
 11
993.492574
 21
1156.112041
 31
0.0
  0
LINE
  5
180
330
179
100
AcDbEntity
  8
LC-005-005-----0
 62
     7
370
    25
100
AcDbLine
 10
1052.678762
 20
1068.641581
 30
0.0
 11
965.208303
 21
1156.112041
 31
0.0
  0
LINE
  5
181
330
179
100
AcDbEntity
  8
LC-005-005-----0
 62
     7
370
    25
100
AcDbLine
 10
1052.678762
 20
1040.35731
 30
0.0
 11
936.924032
 21
1156.112041
 31
0.0
  0
LINE
  5
182
330
179
100
AcDbEntity
  8
LC-005-005-----0
 62
     7
370
    25
100
AcDbLine
 10
1052.678762
 20
1012.073039
 30
0.0
 11
994.766262
 21
1069.985539
 31
0.0
  0
LINE
  5
183
330
179
100
AcDbEntity
  8
LC-005-005-----0
 62
     7
370
    25
100
AcDbLine
 10
967.747379
 20
1097.004422
 30
0.0
 11
908.63976
 21
1156.112041
 31
0.0
  0
LINE
  5
184
330
179
100
AcDbEntity
  8
LC-005-005-----0
 62
     7
370
    25
100
AcDbLine
 10
1052.678762
 20
983.788768
 30
0.0
 11
994.766262
 21
1041.701268
 31
0.0
  0
LINE
  5
185
330
179
100
AcDbEntity
  8
LC-005-005-----0
 62
     7
370
    25
100
AcDbLine
 10
932.972791
 20
1103.494739
 30
0.0
 11
880.355489
 21
1156.112041
 31
0.0
  0
LINE
  5
186
330
179
100
AcDbEntity
  8
LC-005-005-----0
 62
     7
370
    25
100
AcDbLine
 10
1052.678762
 20
955.504496
 30
0.0
 11
994.766262
 21
1013.416996
 31
0.0
  0
LINE
  5
187
330
179
100
AcDbEntity
  8
LC-005-005-----0
 62
     7
370
    25
100
AcDbLine
 10
905.398694
 20
1102.784565
 30
0.0
 11
852.071218
 21
1156.112041
 31
0.0
  0
LINE
  5
188
330
179
100
AcDbEntity
  8
LC-005-005-----0
 62
     7
370
    25
100
AcDbLine
 10
1052.678762
 20
927.220225
 30
0.0
 11
994.766262
 21
985.132725
 31
0.0
  0
LINE
  5
189
330
179
100
AcDbEntity
  8
LC-005-005-----0
 62
     7
370
    25
100
AcDbLine
 10
881.797059
 20
1098.101929
 30
0.0
 11
823.786947
 21
1156.112041
 31
0.0
  0
LINE
  5
18A
330
179
100
AcDbEntity
  8
LC-005-005-----0
 62
     7
370
    25
100
AcDbLine
 10
1052.678762
 20
898.935954
 30
0.0
 11
994.766262
 21
956.848454
 31
0.0
  0
LINE
  5
18B
330
179
100
AcDbEntity
  8
LC-005-005-----0
 62
     7
370
    25
100
AcDbLine
 10
858.4663
 20
1093.148416
 30
0.0
 11
795.502675
 21
1156.112041
 31
0.0
  0
LINE
  5
18C
330
179
100
AcDbEntity
  8
LC-005-005-----0
 62
     7
370
    25
100
AcDbLine
 10
1052.678762
 20
870.651683
 30
0.0
 11
994.766262
 21
928.564183
 31
0.0
  0
LINE
  5
18D
330
179
100
AcDbEntity
  8
LC-005-005-----0
 62
     7
370
    25
100
AcDbLine
 10
833.537563
 20
1089.792882
 30
0.0
 11
767.218404
 21
1156.112041
 31
0.0
  0
LINE
  5
18E
330
179
100
AcDbEntity
  8
LC-005-005-----0
 62
     7
370
    25
100
AcDbLine
 10
1052.678762
 20
842.367411
 30
0.0
 11
994.766262
 21
900.279911
 31
0.0
  0
LINE
  5
18F
330
179
100
AcDbEntity
  8
LC-005-005-----0
 62
     7
370
    25
100
AcDbLine
 10
806.696794
 20
1088.34938
 30
0.0
 11
738.934133
 21
1156.112041
 31
0.0
  0
LINE
  5
190
330
179
100
AcDbEntity
  8
LC-005-005-----0
 62
     7
370
    25
100
AcDbLine
 10
1040.649862
 20
826.112041
 30
0.0
 11
986.676063
 21
880.085839
 31
0.0
  0
LINE
  5
191
330
179
100
AcDbEntity
  8
LC-005-005-----0
 62
     7
370
    25
100
AcDbLine
 10
777.457229
 20
1089.304674
 30
0.0
 11
710.649862
 21
1156.112041
 31
0.0
  0
LINE
  5
192
330
179
100
AcDbEntity
  8
LC-005-005-----0
 62
     7
370
    25
100
AcDbLine
 10
1012.36559
 20
826.112041
 30
0.0
 11
960.07809
 21
878.399541
 31
0.0
  0
LINE
  5
193
330
179
100
AcDbEntity
  8
LC-005-005-----0
 62
     7
370
    25
100
AcDbLine
 10
744.99259
 20
1093.485041
 30
0.0
 11
682.36559
 21
1156.112041
 31
0.0
  0
LINE
  5
194
330
179
100
AcDbEntity
  8
LC-005-005-----0
 62
     7
370
    25
100
AcDbLine
 10
984.081319
 20
826.112041
 30
0.0
 11
931.793819
 21
878.399541
 31
0.0
  0
LINE
  5
195
330
179
100
AcDbEntity
  8
LC-005-005-----0
 62
     7
370
    25
100
AcDbLine
 10
708.706842
 20
1101.486517
 30
0.0
 11
654.081319
 21
1156.112041
 31
0.0
  0
LINE
  5
196
330
179
100
AcDbEntity
  8
LC-005-005-----0
 62
     7
370
    25
100
AcDbLine
 10
955.797048
 20
826.112041
 30
0.0
 11
903.509548
 21
878.399541
 31
0.0
  0
LINE
  5
197
330
179
100
AcDbEntity
  8
LC-005-005-----0
 62
     7
370
    25
100
AcDbLine
 10
678.142892
 20
1103.766197
 30
0.0
 11
625.797048
 21
1156.112041
 31
0.0
  0
LINE
  5
198
330
179
100
AcDbEntity
  8
LC-005-005-----0
 62
     7
370
    25
100
AcDbLine
 10
927.512777
 20
826.112041
 30
0.0
 11
875.225277
 21
878.399541
 31
0.0
  0
LINE
  5
199
330
179
100
AcDbEntity
  8
LC-005-005-----0
 62
     7
370
    25
100
AcDbLine
 10
652.745847
 20
1100.878971
 30
0.0
 11
597.512777
 21
1156.112041
 31
0.0
  0
LINE
  5
19A
330
179
100
AcDbEntity
  8
LC-005-005-----0
 62
     7
370
    25
100
AcDbLine
 10
899.228505
 20
826.112041
 30
0.0
 11
846.941005
 21
878.399541
 31
0.0
  0
LINE
  5
19B
330
179
100
AcDbEntity
  8
LC-005-005-----0
 62
     7
370
    25
100
AcDbLine
 10
630.68547
 20
1094.655076
 30
0.0
 11
569.228505
 21
1156.112041
 31
0.0
  0
LINE
  5
19C
330
179
100
AcDbEntity
  8
LC-005-005-----0
 62
     7
370
    25
100
AcDbLine
 10
870.944234
 20
826.112041
 30
0.0
 11
818.656734
 21
878.399541
 31
0.0
  0
LINE
  5
19D
330
179
100
AcDbEntity
  8
LC-005-005-----0
 62
     7
370
    25
100
AcDbLine
 10
612.837105
 20
1084.219169
 30
0.0
 11
552.678762
 21
1144.377513
 31
0.0
  0
LINE
  5
19E
330
179
100
AcDbEntity
  8
LC-005-005-----0
 62
     7
370
    25
100
AcDbLine
 10
842.659963
 20
826.112041
 30
0.0
 11
790.372463
 21
878.399541
 31
0.0
  0
LINE
  5
19F
330
179
100
AcDbEntity
  8
LC-005-005-----0
 62
     7
370
    25
100
AcDbLine
 10
610.591262
 20
1058.180741
 30
0.0
 11
552.678762
 21
1116.093241
 31
0.0
  0
LINE
  5
1A0
330
179
100
AcDbEntity
  8
LC-005-005-----0
 62
     7
370
    25
100
AcDbLine
 10
814.375692
 20
826.112041
 30
0.0
 11
762.088192
 21
878.399541
 31
0.0
  0
LINE
  5
1A1
330
179
100
AcDbEntity
  8
LC-005-005-----0
 62
     7
370
    25
100
AcDbLine
 10
610.591262
 20
1029.89647
 30
0.0
 11
552.678762
 21
1087.80897
 31
0.0
  0
LINE
  5
1A2
330
179
100
AcDbEntity
  8
LC-005-005-----0
 62
     7
370
    25
100
AcDbLine
 10
786.09142
 20
826.112041
 30
0.0
 11
733.80392
 21
878.399541
 31
0.0
  0
LINE
  5
1A3
330
179
100
AcDbEntity
  8
LC-005-005-----0
 62
     7
370
    25
100
AcDbLine
 10
610.591262
 20
1001.612199
 30
0.0
 11
552.678762
 21
1059.524699
 31
0.0
  0
LINE
  5
1A4
330
179
100
AcDbEntity
  8
LC-005-005-----0
 62
     7
370
    25
100
AcDbLine
 10
757.807149
 20
826.112041
 30
0.0
 11
705.519649
 21
878.399541
 31
0.0
  0
LINE
  5
1A5
330
179
100
AcDbEntity
  8
LC-005-005-----0
 62
     7
370
    25
100
AcDbLine
 10
610.591262
 20
973.327928
 30
0.0
 11
552.678762
 21
1031.240428
 31
0.0
  0
LINE
  5
1A6
330
179
100
AcDbEntity
  8
LC-005-005-----0
 62
     7
370
    25
100
AcDbLine
 10
729.522878
 20
826.112041
 30
0.0
 11
677.235378
 21
878.399541
 31
0.0
  0
LINE
  5
1A7
330
179
100
AcDbEntity
  8
LC-005-005-----0
 62
     7
370
    25
100
AcDbLine
 10
610.591262
 20
945.043656
 30
0.0
 11
552.678762
 21
1002.956156
 31
0.0
  0
LINE
  5
1A8
330
179
100
AcDbEntity
  8
LC-005-005-----0
 62
     7
370
    25
100
AcDbLine
 10
701.238607
 20
826.112041
 30
0.0
 11
648.951107
 21
878.399541
 31
0.0
  0
LINE
  5
1A9
330
179
100
AcDbEntity
  8
LC-005-005-----0
 62
     7
370
    25
100
AcDbLine
 10
610.591262
 20
916.759385
 30
0.0
 11
552.678762
 21
974.671885
 31
0.0
  0
LINE
  5
1AA
330
179
100
AcDbEntity
  8
LC-005-005-----0
 62
     7
370
    25
100
AcDbLine
 10
672.954335
 20
826.112041
 30
0.0
 11
619.269695
 21
879.796681
 31
0.0
  0
LINE
  5
1AB
330
179
100
AcDbEntity
  8
LC-005-005-----0
 62
     7
370
    25
100
AcDbLine
 10
611.988403
 20
887.077974
 30
0.0
 11
552.678762
 21
946.387614
 31
0.0
  0
LINE
  5
1AC
330
179
100
AcDbEntity
  8
LC-005-005-----0
 62
     7
370
    25
100
AcDbLine
 10
644.670064
 20
826.112041
 30
0.0
 11
552.678762
 21
918.103343
 31
0.0
  0
LINE
  5
1AD
330
179
100
AcDbEntity
  8
LC-005-005-----0
 62
     7
370
    25
100
AcDbLine
 10
616.385793
 20
826.112041
 30
0.0
 11
552.678762
 21
889.819071
 31
0.0
  0
LINE
  5
1AE
330
179
100
AcDbEntity
  8
LC-005-005-----0
 62
     7
370
    25
100
AcDbLine
 10
588.101522
 20
826.112041
 30
0.0
 11
552.678762
 21
861.5348
 31
0.0
  0
LINE
  5
1AF
330
179
100
AcDbEntity
  8
LC-005-005-----0
 62
     7
370
    25
100
AcDbLine
 10
559.81725
 20
826.112041
 30
0.0
 11
552.678762
 21
833.250529
 31
0.0
  0
ENDBLK
  5
17B
330
179
100
AcDbEntity
  8
0
100
AcDbBlockEnd
  0
BLOCK
  5
1C3
330
1B8
100
AcDbEntity
  8
0
100
AcDbBlockBegin
  2
*D11
 70
     1
 71
     0
 10
0.0
 20
0.0
 30
0.0
  3
*D11
  1

  0
LINE
  5
1B9
330
1B8
100
AcDbEntity
  8
LC-004-003-----0
 62
     2
370
    -2
100
AcDbLine
 10
862.859738
 20
2504.239804
 30
0.0
 11
782.0
 21
2504.239804
 31
0.0
  0
LINE
  5
1BA
330
1B8
100
AcDbEntity
  8
LC-004-003-----0
 62
     2
370
    -2
100
AcDbLine
 10
800.0
 20
2574.239853
 30
0.0
 11
800.0
 21
2599.239853
 31
0.0
  0
LINE
  5
1BB
330
1B8
100
AcDbEntity
  8
LC-004-003-----0
 62
     2
370
    -2
100
AcDbLine
 10
800.0
 20
2479.239804
 30
0.0
 11
800.0
 21
2454.239804
 31
0.0
  0
LINE
  5
1BC
330
1B8
100
AcDbEntity
  8
LC-004-003-----0
 62
     2
370
    -2
100
AcDbLine
 10
800.0
 20
2549.239853
 30
0.0
 11
800.0
 21
2504.239804
 31
0.0
  0
SOLID
  5
1BD
330
1B8
100
AcDbEntity
  8
LC-004-003-----0
 62
     2
100
AcDbTrace
 10
795.833333
 20
2574.239853
 30
0.0
 11
804.166667
 21
2574.239853
 31
0.0
 12
800.0
 22
2549.239853
 32
0.0
 13
800.0
 23
2549.239853
 33
0.0
  0
SOLID
  5
1BE
330
1B8
100
AcDbEntity
  8
LC-004-003-----0
 62
     2
100
AcDbTrace
 10
804.166667
 20
2479.239804
 30
0.0
 11
795.833333
 21
2479.239804
 31
0.0
 12
800.0
 22
2504.239804
 32
0.0
 13
800.0
 23
2504.239804
 33
0.0
  0
MTEXT
  5
1BF
330
1B8
100
AcDbEntity
  8
LC-004-003-----0
 62
     2
100
AcDbMText
 10
770.0
 20
2526.739828
 30
0.0
 40
25.0
 41
0.0
 71
     5
 72
     1
  1
\A1;45
  7
LCTX0-400-0-0pDIN-Schrift
 11
6.123031769111886E-17
 21
1.0
 31
0.0
 73
     1
 44
1.0
  0
POINT
  5
1C0
330
1B8
100
AcDbEntity
  8
Defpoints
 62
     0
100
AcDbPoint
 10
810.859738
 20
2549.239853
 30
0.0
  0
POINT
  5
1C1
330
1B8
100
AcDbEntity
  8
Defpoints
 62
     0
100
AcDbPoint
 10
862.859738
 20
2504.239804
 30
0.0
  0
POINT
  5
1C2
330
1B8
100
AcDbEntity
  8
Defpoints
 62
     0
100
AcDbPoint
 10
800.0
 20
2504.239804
 30
0.0
  0
ENDBLK
  5
1C4
330
1B8
100
AcDbEntity
  8
0
100
AcDbBlockEnd
  0
BLOCK
  5
223
330
219
100
AcDbEntity
  8
0
100
AcDbBlockBegin
  2
*D12
 70
     1
 71
     0
 10
0.0
 20
0.0
 30
0.0
  3
*D12
  1

  0
LINE
  5
21A
330
219
100
AcDbEntity
  8
LC-004-003-----0
 62
     2
370
    -2
100
AcDbLine
 10
540.109738
 20
2100.74
 30
0.0
 11
332.0
 21
2100.74
 31
0.0
  0
LINE
  5
21B
330
219
100
AcDbEntity
  8
LC-004-003-----0
 62
     2
370
    -2
100
AcDbLine
 10
460.109738
 20
1592.74
 30
0.0
 11
332.0
 21
1592.74
 31
0.0
  0
LINE
  5
21C
330
219
100
AcDbEntity
  8
LC-004-003-----0
 62
     2
370
    -2
100
AcDbLine
 10
350.0
 20
2075.74
 30
0.0
 11
350.0
 21
1617.74
 31
0.0
  0
SOLID
  5
21D
330
219
100
AcDbEntity
  8
LC-004-003-----0
 62
     2
100
AcDbTrace
 10
354.166667
 20
2075.74
 30
0.0
 11
345.833333
 21
2075.74
 31
0.0
 12
350.0
 22
2100.74
 32
0.0
 13
350.0
 23
2100.74
 33
0.0
  0
SOLID
  5
21E
330
219
100
AcDbEntity
  8
LC-004-003-----0
 62
     2
100
AcDbTrace
 10
345.833333
 20
1617.74
 30
0.0
 11
354.166667
 21
1617.74
 31
0.0
 12
350.0
 22
1592.74
 32
0.0
 13
350.0
 23
1592.74
 33
0.0
  0
MTEXT
  5
21F
330
219
100
AcDbEntity
  8
LC-004-003-----0
 62
     2
100
AcDbMText
 10
320.0
 20
1846.74
 30
0.0
 40
25.0
 41
0.0
 71
     5
 72
     1
  1
\A1;508
  7
LCTX0-400-0-0pDIN-Schrift
 11
6.123031769111886E-17
 21
1.0
 31
0.0
 73
     1
 44
1.0
  0
POINT
  5
220
330
219
100
AcDbEntity
  8
Defpoints
 62
     0
100
AcDbPoint
 10
540.109738
 20
2100.74
 30
0.0
  0
POINT
  5
221
330
219
100
AcDbEntity
  8
Defpoints
 62
     0
100
AcDbPoint
 10
460.109738
 20
1592.74
 30
0.0
  0
POINT
  5
222
330
219
100
AcDbEntity
  8
Defpoints
 62
     0
100
AcDbPoint
 10
350.0
 20
1592.74
 30
0.0
  0
ENDBLK
  5
224
330
219
100
AcDbEntity
  8
0
100
AcDbBlockEnd
  0
BLOCK
  5
232
330
226
100
AcDbEntity
  8
0
100
AcDbBlockBegin
  2
*D13
 70
     1
 71
     0
 10
0.0
 20
0.0
 30
0.0
  3
*D13
  1

  0
LINE
  5
227
330
226
100
AcDbEntity
  8
LC-004-003-----0
 62
     2
370
    -2
100
AcDbLine
 10
460.109738
 20
1621.315
 30
0.0
 11
382.0
 21
1621.315
 31
0.0
  0
LINE
  5
228
330
226
100
AcDbEntity
  8
LC-004-003-----0
 62
     2
370
    -2
100
AcDbLine
 10
460.109738
 20
1592.74
 30
0.0
 11
382.0
 21
1592.74
 31
0.0
  0
LINE
  5
229
330
226
100
AcDbEntity
  8
LC-004-003-----0
 62
     2
370
    -2
100
AcDbLine
 10
400.0
 20
1646.315
 30
0.0
 11
400.0
 21
1671.315
 31
0.0
  0
LINE
  5
22A
330
226
100
AcDbEntity
  8
LC-004-003-----0
 62
     2
370
    -2
100
AcDbLine
 10
400.0
 20
1567.74
 30
0.0
 11
400.0
 21
1542.74
 31
0.0
  0
LINE
  5
22B
330
226
100
AcDbEntity
  8
LC-004-003-----0
 62
     2
370
    -2
100
AcDbLine
 10
400.0
 20
1621.315
 30
0.0
 11
400.0
 21
1592.74
 31
0.0
  0
SOLID
  5
22C
330
226
100
AcDbEntity
  8
LC-004-003-----0
 62
     2
100
AcDbTrace
 10
395.833333
 20
1646.315
 30
0.0
 11
404.166667
 21
1646.315
 31
0.0
 12
400.0
 22
1621.315
 32
0.0
 13
400.0
 23
1621.315
 33
0.0
  0
SOLID
  5
22D
330
226
100
AcDbEntity
  8
LC-004-003-----0
 62
     2
100
AcDbTrace
 10
404.166667
 20
1567.74
 30
0.0
 11
395.833333
 21
1567.74
 31
0.0
 12
400.0
 22
1592.74
 32
0.0
 13
400.0
 23
1592.74
 33
0.0
  0
MTEXT
  5
22E
330
226
100
AcDbEntity
  8
LC-004-003-----0
 62
     2
100
AcDbMText
 10
370.0
 20
1607.0275
 30
0.0
 40
25.0
 41
0.0
 71
     5
 72
     1
  1
\A1;28,6
  7
LCTX0-400-0-0pDIN-Schrift
 11
6.123031769111886E-17
 21
1.0
 31
0.0
 73
     1
 44
1.0
  0
POINT
  5
22F
330
226
100
AcDbEntity
  8
Defpoints
 62
     0
100
AcDbPoint
 10
460.109738
 20
1621.315
 30
0.0
  0
POINT
  5
230
330
226
100
AcDbEntity
  8
Defpoints
 62
     0
100
AcDbPoint
 10
460.109738
 20
1592.74
 30
0.0
  0
POINT
  5
231
330
226
100
AcDbEntity
  8
Defpoints
 62
     0
100
AcDbPoint
 10
400.0
 20
1592.74
 30
0.0
  0
ENDBLK
  5
233
330
226
100
AcDbEntity
  8
0
100
AcDbBlockEnd
  0
BLOCK
  5
23F
330
235
100
AcDbEntity
  8
0
100
AcDbBlockBegin
  2
*D14
 70
     1
 71
     0
 10
0.0
 20
0.0
 30
0.0
  3
*D14
  1

  0
LINE
  5
236
330
235
100
AcDbEntity
  8
LC-004-003-----0
 62
     2
370
    -2
100
AcDbLine
 10
470.109738
 20
1582.74
 30
0.0
 11
470.109738
 21
1432.0
 31
0.0
  0
LINE
  5
237
330
235
100
AcDbEntity
  8
LC-004-003-----0
 62
     2
370
    -2
100
AcDbLine
 10
1295.609738
 20
1582.74
 30
0.0
 11
1295.609738
 21
1432.0
 31
0.0
  0
LINE
  5
238
330
235
100
AcDbEntity
  8
LC-004-003-----0
 62
     2
370
    -2
100
AcDbLine
 10
495.109738
 20
1450.0
 30
0.0
 11
1270.609738
 21
1450.0
 31
0.0
  0
SOLID
  5
239
330
235
100
AcDbEntity
  8
LC-004-003-----0
 62
     2
100
AcDbTrace
 10
495.109738
 20
1454.166667
 30
0.0
 11
495.109738
 21
1445.833333
 31
0.0
 12
470.109738
 22
1450.0
 32
0.0
 13
470.109738
 23
1450.0
 33
0.0
  0
SOLID
  5
23A
330
235
100
AcDbEntity
  8
LC-004-003-----0
 62
     2
100
AcDbTrace
 10
1270.609738
 20
1445.833333
 30
0.0
 11
1270.609738
 21
1454.166667
 31
0.0
 12
1295.609738
 22
1450.0
 32
0.0
 13
1295.609738
 23
1450.0
 33
0.0
  0
MTEXT
  5
23B
330
235
100
AcDbEntity
  8
LC-004-003-----0
 62
     2
100
AcDbMText
 10
882.859738
 20
1480.0
 30
0.0
 40
25.0
 41
0.0
 71
     5
 72
     1
  1
\A1;825,5
  7
LCTX0-400-0-0pDIN-Schrift
 73
     1
 44
1.0
  0
POINT
  5
23C
330
235
100
AcDbEntity
  8
Defpoints
 62
     0
100
AcDbPoint
 10
470.109738
 20
1582.74
 30
0.0
  0
POINT
  5
23D
330
235
100
AcDbEntity
  8
Defpoints
 62
     0
100
AcDbPoint
 10
1295.609738
 20
1582.74
 30
0.0
  0
POINT
  5
23E
330
235
100
AcDbEntity
  8
Defpoints
 62
     0
100
AcDbPoint
 10
1295.609738
 20
1450.0
 30
0.0
  0
ENDBLK
  5
240
330
235
100
AcDbEntity
  8
0
100
AcDbBlockEnd
  0
BLOCK
  5
24E
330
242
100
AcDbEntity
  8
0
100
AcDbBlockBegin
  2
*D15
 70
     1
 71
     0
 10
0.0
 20
0.0
 30
0.0
  3
*D15
  1

  0
LINE
  5
243
330
242
100
AcDbEntity
  8
LC-004-003-----0
 62
     2
370
    -2
100
AcDbLine
 10
470.109738
 20
1582.74
 30
0.0
 11
470.109738
 21
1482.0
 31
0.0
  0
LINE
  5
244
330
242
100
AcDbEntity
  8
LC-004-003-----0
 62
     2
370
    -2
100
AcDbLine
 10
498.684738
 20
1582.74
 30
0.0
 11
498.684738
 21
1482.0
 31
0.0
  0
LINE
  5
245
330
242
100
AcDbEntity
  8
LC-004-003-----0
 62
     2
370
    -2
100
AcDbLine
 10
445.109738
 20
1500.0
 30
0.0
 11
420.109738
 21
1500.0
 31
0.0
  0
LINE
  5
246
330
242
100
AcDbEntity
  8
LC-004-003-----0
 62
     2
370
    -2
100
AcDbLine
 10
523.684738
 20
1500.0
 30
0.0
 11
548.684738
 21
1500.0
 31
0.0
  0
LINE
  5
247
330
242
100
AcDbEntity
  8
LC-004-003-----0
 62
     2
370
    -2
100
AcDbLine
 10
470.109738
 20
1500.0
 30
0.0
 11
498.684738
 21
1500.0
 31
0.0
  0
SOLID
  5
248
330
242
100
AcDbEntity
  8
LC-004-003-----0
 62
     2
100
AcDbTrace
 10
445.109738
 20
1495.833333
 30
0.0
 11
445.109738
 21
1504.166667
 31
0.0
 12
470.109738
 22
1500.0
 32
0.0
 13
470.109738
 23
1500.0
 33
0.0
  0
SOLID
  5
249
330
242
100
AcDbEntity
  8
LC-004-003-----0
 62
     2
100
AcDbTrace
 10
523.684738
 20
1504.166667
 30
0.0
 11
523.684738
 21
1495.833333
 31
0.0
 12
498.684738
 22
1500.0
 32
0.0
 13
498.684738
 23
1500.0
 33
0.0
  0
MTEXT
  5
24A
330
242
100
AcDbEntity
  8
LC-004-003-----0
 62
     2
100
AcDbMText
 10
488.0526
 20
1530.0
 30
0.0
 40
25.0
 41
0.0
 71
     5
 72
     1
  1
\A1;28,6
  7
LCTX0-400-0-0pDIN-Schrift
 73
     1
 44
1.0
  0
POINT
  5
24B
330
242
100
AcDbEntity
  8
Defpoints
 62
     0
100
AcDbPoint
 10
470.109738
 20
1582.74
 30
0.0
  0
POINT
  5
24C
330
242
100
AcDbEntity
  8
Defpoints
 62
     0
100
AcDbPoint
 10
498.684738
 20
1582.74
 30
0.0
  0
POINT
  5
24D
330
242
100
AcDbEntity
  8
Defpoints
 62
     0
100
AcDbPoint
 10
498.684738
 20
1500.0
 30
0.0
  0
ENDBLK
  5
24F
330
242
100
AcDbEntity
  8
0
100
AcDbBlockEnd
  0
BLOCK
  5
25D
330
251
100
AcDbEntity
  8
0
100
AcDbBlockBegin
  2
*D16
 70
     1
 71
     0
 10
0.0
 20
0.0
 30
0.0
  3
*D16
  1

  0
LINE
  5
252
330
251
100
AcDbEntity
  8
LC-004-003-----0
 62
     2
370
    -2
100
AcDbLine
 10
1295.609738
 20
1582.74
 30
0.0
 11
1295.609738
 21
1482.0
 31
0.0
  0
LINE
  5
253
330
251
100
AcDbEntity
  8
LC-004-003-----0
 62
     2
370
    -2
100
AcDbLine
 10
1267.034738
 20
1582.74
 30
0.0
 11
1267.034738
 21
1482.0
 31
0.0
  0
LINE
  5
254
330
251
100
AcDbEntity
  8
LC-004-003-----0
 62
     2
370
    -2
100
AcDbLine
 10
1320.609738
 20
1500.0
 30
0.0
 11
1345.609738
 21
1500.0
 31
0.0
  0
LINE
  5
255
330
251
100
AcDbEntity
  8
LC-004-003-----0
 62
     2
370
    -2
100
AcDbLine
 10
1242.034738
 20
1500.0
 30
0.0
 11
1217.034738
 21
1500.0
 31
0.0
  0
LINE
  5
256
330
251
100
AcDbEntity
  8
LC-004-003-----0
 62
     2
370
    -2
100
AcDbLine
 10
1295.609738
 20
1500.0
 30
0.0
 11
1267.034738
 21
1500.0
 31
0.0
  0
SOLID
  5
257
330
251
100
AcDbEntity
  8
LC-004-003-----0
 62
     2
100
AcDbTrace
 10
1320.609738
 20
1504.166667
 30
0.0
 11
1320.609738
 21
1495.833333
 31
0.0
 12
1295.609738
 22
1500.0
 32
0.0
 13
1295.609738
 23
1500.0
 33
0.0
  0
SOLID
  5
258
330
251
100
AcDbEntity
  8
LC-004-003-----0
 62
     2
100
AcDbTrace
 10
1242.034738
 20
1495.833333
 30
0.0
 11
1242.034738
 21
1504.166667
 31
0.0
 12
1267.034738
 22
1500.0
 32
0.0
 13
1267.034738
 23
1500.0
 33
0.0
  0
MTEXT
  5
259
330
251
100
AcDbEntity
  8
LC-004-003-----0
 62
     2
100
AcDbMText
 10
1271.685672
 20
1530.0
 30
0.0
 40
25.0
 41
0.0
 71
     5
 72
     1
  1
\A1;28,6
  7
LCTX0-400-0-0pDIN-Schrift
 73
     1
 44
1.0
  0
POINT
  5
25A
330
251
100
AcDbEntity
  8
Defpoints
 62
     0
100
AcDbPoint
 10
1295.609738
 20
1582.74
 30
0.0
  0
POINT
  5
25B
330
251
100
AcDbEntity
  8
Defpoints
 62
     0
100
AcDbPoint
 10
1267.034738
 20
1582.74
 30
0.0
  0
POINT
  5
25C
330
251
100
AcDbEntity
  8
Defpoints
 62
     0
100
AcDbPoint
 10
1267.034738
 20
1500.0
 30
0.0
  0
ENDBLK
  5
25E
330
251
100
AcDbEntity
  8
0
100
AcDbBlockEnd
  0
BLOCK
  5
26B
330
260
100
AcDbEntity
  8
0
100
AcDbBlockBegin
  2
*D17
 70
     1
 71
     0
 10
0.0
 20
0.0
 30
0.0
  3
*D17
  1

  0
LINE
  5
261
330
260
100
AcDbEntity
  8
LC-004-003-----0
 62
     2
370
    -2
100
AcDbLine
 10
1814.007392
 20
2072.165
 30
0.0
 11
1918.0
 21
2072.165
 31
0.0
  0
LINE
  5
262
330
260
100
AcDbEntity
  8
LC-004-003-----0
 62
     2
370
    -2
100
AcDbLine
 10
1814.007392
 20
1621.315
 30
0.0
 11
1918.0
 21
1621.315
 31
0.0
  0
LINE
  5
263
330
260
100
AcDbEntity
  8
LC-004-003-----0
 62
     2
370
    -2
100
AcDbLine
 10
1900.0
 20
2047.165
 30
0.0
 11
1900.0
 21
1897.037499
 31
0.0
  0
LINE
  5
264
330
260
100
AcDbEntity
  8
LC-004-003-----0
 62
     2
370
    -2
100
AcDbLine
 10
1900.0
 20
1646.315
 30
0.0
 11
1900.0
 21
1796.442501
 31
0.0
  0
SOLID
  5
265
330
260
100
AcDbEntity
  8
LC-004-003-----0
 62
     2
100
AcDbTrace
 10
1904.166667
 20
2047.165
 30
0.0
 11
1895.833333
 21
2047.165
 31
0.0
 12
1900.0
 22
2072.165
 32
0.0
 13
1900.0
 23
2072.165
 33
0.0
  0
SOLID
  5
266
330
260
100
AcDbEntity
  8
LC-004-003-----0
 62
     2
100
AcDbTrace
 10
1895.833333
 20
1646.315
 30
0.0
 11
1904.166667
 21
1646.315
 31
0.0
 12
1900.0
 22
1621.315
 32
0.0
 13
1900.0
 23
1621.315
 33
0.0
  0
MTEXT
  5
267
330
260
100
AcDbEntity
  8
LC-004-003-----0
 62
     2
100
AcDbMText
 10
1870.0
 20
1846.74
 30
0.0
 40
25.0
 41
0.0
 71
     5
 72
     1
  1
\A1;450,9
  7
LCTX0-400-0-0pDIN-Schrift
 11
6.123031769111886E-17
 21
1.0
 31
0.0
 73
     1
 44
1.0
  0
POINT
  5
268
330
260
100
AcDbEntity
  8
Defpoints
 62
     0
100
AcDbPoint
 10
1814.007392
 20
2072.165
 30
0.0
  0
POINT
  5
269
330
260
100
AcDbEntity
  8
Defpoints
 62
     0
100
AcDbPoint
 10
1814.007392
 20
1621.315
 30
0.0
  0
POINT
  5
26A
330
260
100
AcDbEntity
  8
Defpoints
 62
     0
100
AcDbPoint
 10
1900.0
 20
1621.315
 30
0.0
  0
ENDBLK
  5
26C
330
260
100
AcDbEntity
  8
0
100
AcDbBlockEnd
  0
BLOCK
  5
27A
330
26E
100
AcDbEntity
  8
0
100
AcDbBlockBegin
  2
*D18
 70
     1
 71
     0
 10
0.0
 20
0.0
 30
0.0
  3
*D18
  1

  0
LINE
  5
26F
330
26E
100
AcDbEntity
  8
LC-004-003-----0
 62
     2
370
    -2
100
AcDbLine
 10
540.109738
 20
2100.74
 30
0.0
 11
382.0
 21
2100.74
 31
0.0
  0
LINE
  5
270
330
26E
100
AcDbEntity
  8
LC-004-003-----0
 62
     2
370
    -2
100
AcDbLine
 10
460.109738
 20
2072.165
 30
0.0
 11
382.0
 21
2072.165
 31
0.0
  0
LINE
  5
271
330
26E
100
AcDbEntity
  8
LC-004-003-----0
 62
     2
370
    -2
100
AcDbLine
 10
400.0
 20
2125.74
 30
0.0
 11
400.0
 21
2150.74
 31
0.0
  0
LINE
  5
272
330
26E
100
AcDbEntity
  8
LC-004-003-----0
 62
     2
370
    -2
100
AcDbLine
 10
400.0
 20
2047.165
 30
0.0
 11
400.0
 21
2015.314985
 31
0.0
  0
LINE
  5
273
330
26E
100
AcDbEntity
  8
LC-004-003-----0
 62
     2
370
    -2
100
AcDbLine
 10
400.0
 20
2100.74
 30
0.0
 11
400.0
 21
2072.165
 31
0.0
  0
SOLID
  5
274
330
26E
100
AcDbEntity
  8
LC-004-003-----0
 62
     2
100
AcDbTrace
 10
395.833333
 20
2125.74
 30
0.0
 11
404.166667
 21
2125.74
 31
0.0
 12
400.0
 22
2100.74
 32
0.0
 13
400.0
 23
2100.74
 33
0.0
  0
SOLID
  5
275
330
26E
100
AcDbEntity
  8
LC-004-003-----0
 62
     2
100
AcDbTrace
 10
404.166667
 20
2047.165
 30
0.0
 11
395.833333
 21
2047.165
 31
0.0
 12
400.0
 22
2072.165
 32
0.0
 13
400.0
 23
2072.165
 33
0.0
  0
MTEXT
  5
276
330
26E
100
AcDbEntity
  8
LC-004-003-----0
 62
     2
100
AcDbMText
 10
370.0
 20
2058.209984
 30
0.0
 40
25.0
 41
0.0
 71
     5
 72
     1
  1
\A1;28,6
  7
LCTX0-400-0-0pDIN-Schrift
 11
6.123031769111886E-17
 21
1.0
 31
0.0
 73
     1
 44
1.0
  0
POINT
  5
277
330
26E
100
AcDbEntity
  8
Defpoints
 62
     0
100
AcDbPoint
 10
540.109738
 20
2100.74
 30
0.0
  0
POINT
  5
278
330
26E
100
AcDbEntity
  8
Defpoints
 62
     0
100
AcDbPoint
 10
460.109738
 20
2072.165
 30
0.0
  0
POINT
  5
279
330
26E
100
AcDbEntity
  8
Defpoints
 62
     0
100
AcDbPoint
 10
400.0
 20
2072.165
 30
0.0
  0
ENDBLK
  5
27B
330
26E
100
AcDbEntity
  8
0
100
AcDbBlockEnd
  0
BLOCK
  5
2DE
330
2D4
100
AcDbEntity
  8
0
100
AcDbBlockBegin
  2
*D19
 70
     1
 71
     0
 10
0.0
 20
0.0
 30
0.0
  3
*D19
  1

  0
LINE
  5
2D5
330
2D4
100
AcDbEntity
  8
LC-004-003-----0
 62
     2
370
    -2
100
AcDbLine
 10
752.678762
 20
1088.324541
 30
0.0
 11
682.0
 21
1088.324541
 31
0.0
  0
LINE
  5
2D6
330
2D4
100
AcDbEntity
  8
LC-004-003-----0
 62
     2
370
    -2
100
AcDbLine
 10
700.0
 20
903.399541
 30
0.0
 11
700.0
 21
934.525791
 31
0.0
  0
LINE
  5
2D7
330
2D4
100
AcDbEntity
  8
LC-004-003-----0
 62
     2
370
    -2
100
AcDbLine
 10
700.0
 20
1063.324541
 30
0.0
 11
700.0
 21
1032.19829
 31
0.0
  0
SOLID
  5
2D8
330
2D4
100
AcDbEntity
  8
LC-004-003-----0
 62
     2
100
AcDbTrace
 10
695.833333
 20
903.399541
 30
0.0
 11
704.166667
 21
903.399541
 31
0.0
 12
700.0
 22
878.399541
 32
0.0
 13
700.0
 23
878.399541
 33
0.0
  0
SOLID
  5
2D9
330
2D4
100
AcDbEntity
  8
LC-004-003-----0
 62
     2
100
AcDbTrace
 10
704.166667
 20
1063.324541
 30
0.0
 11
695.833333
 21
1063.324541
 31
0.0
 12
700.0
 22
1088.324541
 32
0.0
 13
700.0
 23
1088.324541
 33
0.0
  0
MTEXT
  5
2DA
330
2D4
100
AcDbEntity
  8
LC-004-003-----0
 62
     2
100
AcDbMText
 10
670.0
 20
983.362041
 30
0.0
 40
25.0
 41
0.0
 71
     5
 72
     1
  1
\A1;419,9
  7
LCTX0-400-0-0pDIN-Schrift
 11
6.123031769111886E-17
 21
1.0
 31
0.0
 73
     1
 44
1.0
  0
POINT
  5
2DB
330
2D4
100
AcDbEntity
  8
Defpoints
 62
     0
100
AcDbPoint
 10
752.678762
 20
878.399541
 30
0.0
  0
POINT
  5
2DC
330
2D4
100
AcDbEntity
  8
Defpoints
 62
     0
100
AcDbPoint
 10
752.678762
 20
1088.324541
 30
0.0
  0
POINT
  5
2DD
330
2D4
100
AcDbEntity
  8
Defpoints
 62
     0
100
AcDbPoint
 10
700.0
 20
1088.324541
 30
0.0
  0
ENDBLK
  5
2DF
330
2D4
100
AcDbEntity
  8
0
100
AcDbBlockEnd
  0
BLOCK
  5
2E9
330
2E2
100
AcDbEntity
  8
0
100
AcDbBlockBegin
  2
*D20
 70
     1
 71
     0
 10
0.0
 20
0.0
 30
0.0
  3
*D20
  1

  0
LINE
  5
2E3
330
2E2
100
AcDbEntity
  8
LC-004-003-----0
 62
     2
370
    -2
100
AcDbLine
 10
983.868416
 20
1031.703039
 30
0.0
 11
933.056787
 21
1031.703039
 31
0.0
  0
LINE
  5
2E4
330
2E2
100
AcDbEntity
  8
LC-004-003-----0
 62
     2
370
    -2
100
AcDbLine
 10
933.056787
 20
1031.703039
 30
0.0
 11
938.991112
 21
1077.801501
 31
0.0
  0
MTEXT
  5
2E5
330
2E2
100
AcDbEntity
  8
LC-004-003-----0
 62
     2
100
AcDbMText
 10
900.962601
 20
1059.465539
 30
0.0
 40
25.0
 41
0.0
 71
     5
 72
     1
  1
\A1;R300
  7
LCTX0-400-0-0pDIN-Schrift
 73
     1
 44
1.0
  0
SOLID
  5
2E6
330
2E2
100
AcDbEntity
  8
LC-004-003-----0
 62
     2
100
AcDbTrace
 10
943.123677
 20
1077.269509
 30
0.0
 11
934.858546
 21
1078.333492
 31
0.0
 12
942.18306
 22
1102.596893
 32
0.0
 13
942.18306
 23
1102.596893
 33
0.0
  0
POINT
  5
2E7
330
2E2
100
AcDbEntity
  8
Defpoints
 62
     0
100
AcDbPoint
 10
942.18306
 20
1102.596893
 30
0.0
  0
POINT
  5
2E8
330
2E2
100
AcDbEntity
  8
Defpoints
 62
     0
100
AcDbPoint
 10
923.031369
 20
953.824541
 30
0.0
  0
ENDBLK
  5
2EA
330
2E2
100
AcDbEntity
  8
0
100
AcDbBlockEnd
  0
BLOCK
  5
2F3
330
2EC
100
AcDbEntity
  8
0
100
AcDbBlockBegin
  2
*D21
 70
     1
 71
     0
 10
0.0
 20
0.0
 30
0.0
  3
*D21
  1

  0
LINE
  5
2ED
330
2EC
100
AcDbEntity
  8
LC-004-003-----0
 62
     2
370
    -2
100
AcDbLine
 10
753.041123
 20
1032.797976
 30
0.0
 11
801.540517
 21
1032.797976
 31
0.0
  0
LINE
  5
2EE
330
2EC
100
AcDbEntity
  8
LC-004-003-----0
 62
     2
370
    -2
100
AcDbLine
 10
801.540517
 20
1032.797976
 30
0.0
 11
801.631834
 21
1063.326107
 31
0.0
  0
MTEXT
  5
2EF
330
2EC
100
AcDbEntity
  8
LC-004-003-----0
 62
     2
100
AcDbMText
 10
769.79082
 20
1060.560476
 30
0.0
 40
25.0
 41
0.0
 71
     5
 72
     1
  1
\A1;R650
  7
LCTX0-400-0-0pDIN-Schrift
 73
     1
 44
1.0
  0
SOLID
  5
2F0
330
2EC
100
AcDbEntity
  8
LC-004-003-----0
 62
     2
100
AcDbTrace
 10
805.798482
 20
1063.313643
 30
0.0
 11
797.465186
 21
1063.33857
 31
0.0
 12
801.706615
 22
1088.325995
 32
0.0
 13
801.706615
 23
1088.325995
 33
0.0
  0
POINT
  5
2F1
330
2EC
100
AcDbEntity
  8
Defpoints
 62
     0
100
AcDbPoint
 10
801.706615
 20
1088.325995
 30
0.0
  0
POINT
  5
2F2
330
2EC
100
AcDbEntity
  8
Defpoints
 62
     0
100
AcDbPoint
 10
802.678762
 20
1413.324541
 30
0.0
  0
ENDBLK
  5
2F4
330
2EC
100
AcDbEntity
  8
0
100
AcDbBlockEnd
  0
BLOCK
  5
31B
330
31A
100
AcDbEntity
  8
0
100
AcDbBlockBegin
  2
*X222
 70
     1
 71
     0
 10
0.0
 20
0.0
 30
0.0
  3
*X222
  1

  4
*X2
  0
LINE
  5
31D
330
31A
100
AcDbEntity
  8
LC-005-005-----0
 62
     7
370
    25
100
AcDbLine
 10
1486.236068
 20
1115.916887
 30
0.0
 11
1443.759871
 21
1158.393084
 31
0.0
  0
LINE
  5
31E
330
31A
100
AcDbEntity
  8
LC-005-005-----0
 62
     7
370
    25
100
AcDbLine
 10
1486.236068
 20
1059.348344
 30
0.0
 11
1387.191328
 21
1158.393084
 31
0.0
  0
LINE
  5
31F
330
31A
100
AcDbEntity
  8
LC-005-005-----0
 62
     7
370
    25
100
AcDbLine
 10
1470.622786
 20
1018.393084
 30
0.0
 11
1330.622786
 21
1158.393084
 31
0.0
  0
LINE
  5
320
330
31A
100
AcDbEntity
  8
LC-005-005-----0
 62
     7
370
    25
100
AcDbLine
 10
1414.054243
 20
1018.393084
 30
0.0
 11
1274.054243
 21
1158.393084
 31
0.0
  0
LINE
  5
321
330
31A
100
AcDbEntity
  8
LC-005-005-----0
 62
     7
370
    25
100
AcDbLine
 10
1357.485701
 20
1018.393084
 30
0.0
 11
1217.485701
 21
1158.393084
 31
0.0
  0
LINE
  5
322
330
31A
100
AcDbEntity
  8
LC-005-005-----0
 62
     7
370
    25
100
AcDbLine
 10
1300.917158
 20
1018.393084
 30
0.0
 11
1186.601569
 21
1132.708673
 31
0.0
  0
LINE
  5
323
330
31A
100
AcDbEntity
  8
LC-005-005-----0
 62
     7
370
    25
100
AcDbLine
 10
1244.348616
 20
1018.393084
 30
0.0
 11
1186.601569
 21
1076.140131
 31
0.0
  0
LINE
  5
324
330
31A
100
AcDbEntity
  8
LC-005-005-----0
 62
     7
370
    25
100
AcDbLine
 10
1187.780073
 20
1018.393084
 30
0.0
 11
1186.601569
 21
1019.571588
 31
0.0
  0
ENDBLK
  5
31C
330
31A
100
AcDbEntity
  8
0
100
AcDbBlockEnd
  0
BLOCK
  5
328
330
327
100
AcDbEntity
  8
0
100
AcDbBlockBegin
  2
*X323
 70
     1
 71
     0
 10
0.0
 20
0.0
 30
0.0
  3
*X323
  1

  4
*X3
  0
LINE
  5
32A
330
327
100
AcDbEntity
  8
LC-005-005-----0
 62
     7
370
    25
100
AcDbLine
 10
1192.77574
 20
825.080214
 30
0.0
 11
1208.116252
 21
840.420725
 31
0.0
  0
LINE
  5
32B
330
327
100
AcDbEntity
  8
LC-005-005-----0
 62
     7
370
    25
100
AcDbLine
 10
1166.494047
 20
827.082792
 30
0.0
 11
1211.438199
 21
872.026944
 31
0.0
  0
LINE
  5
32C
330
327
100
AcDbEntity
  8
LC-005-005-----0
 62
     7
370
    25
100
AcDbLine
 10
1322.804339
 20
983.393084
 30
0.0
 11
1329.040495
 21
989.62924
 31
0.0
  0
LINE
  5
32D
330
327
100
AcDbEntity
  8
LC-005-005-----0
 62
     7
370
    25
100
AcDbLine
 10
1169.815995
 20
858.689011
 30
0.0
 11
1214.760147
 21
903.633163
 31
0.0
  0
LINE
  5
32E
330
327
100
AcDbEntity
  8
LC-005-005-----0
 62
     7
370
    25
100
AcDbLine
 10
1294.520068
 20
983.393084
 30
0.0
 11
1323.080067
 21
1011.953084
 31
0.0
  0
LINE
  5
32F
330
327
100
AcDbEntity
  8
LC-005-005-----0
 62
     7
370
    25
100
AcDbLine
 10
1173.137942
 20
890.29523
 30
0.0
 11
1218.082094
 21
935.239381
 31
0.0
  0
LINE
  5
330
330
327
100
AcDbEntity
  8
LC-005-005-----0
 62
     7
370
    25
100
AcDbLine
 10
1256.235797
 20
973.393084
 30
0.0
 11
1301.235797
 21
1018.393084
 31
0.0
  0
LINE
  5
331
330
327
100
AcDbEntity
  8
LC-005-005-----0
 62
     7
370
    25
100
AcDbLine
 10
1176.45989
 20
921.901448
 30
0.0
 11
1272.951525
 21
1018.393084
 31
0.0
  0
LINE
  5
332
330
327
100
AcDbEntity
  8
LC-005-005-----0
 62
     7
370
    25
100
AcDbLine
 10
1179.781837
 20
953.507667
 30
0.0
 11
1244.667254
 21
1018.393084
 31
0.0
  0
LINE
  5
333
330
327
100
AcDbEntity
  8
LC-005-005-----0
 62
     7
370
    25
100
AcDbLine
 10
1183.103784
 20
985.113886
 30
0.0
 11
1216.382983
 21
1018.393084
 31
0.0
  0
ENDBLK
  5
329
330
327
100
AcDbEntity
  8
0
100
AcDbBlockEnd
  0
BLOCK
  5
33D
330
336
100
AcDbEntity
  8
0
100
AcDbBlockBegin
  2
*D24
 70
     1
 71
     0
 10
0.0
 20
0.0
 30
0.0
  3
*D24
  1

  0
LINE
  5
337
330
336
100
AcDbEntity
  8
LC-004-003-----0
 62
     2
370
    -2
100
AcDbLine
 10
1137.786305
 20
1025.607237
 30
0.0
 11
1156.108535
 21
1025.607237
 31
0.0
  0
LINE
  5
338
330
336
100
AcDbEntity
  8
LC-004-003-----0
 62
     2
370
    -2
100
AcDbLine
 10
1156.108535
 20
1025.607237
 30
0.0
 11
1165.365357
 21
1020.4132
 31
0.0
  0
MTEXT
  5
339
330
336
100
AcDbEntity
  8
LC-004-003-----0
 62
     2
100
AcDbMText
 10
1139.44742
 20
1053.607237
 30
0.0
 40
25.0
 41
0.0
 71
     5
 72
     1
  1
\A1;R4
  7
LCTX0-400-0-0pDIN-Schrift
 73
     1
 44
1.0
  0
SOLID
  5
33A
330
336
100
AcDbEntity
  8
LC-004-003-----0
 62
     2
100
AcDbTrace
 10
1163.326458
 20
1016.779469
 30
0.0
 11
1167.404257
 21
1024.046931
 31
0.0
 12
1187.167742
 22
1008.179802
 32
0.0
 13
1187.167742
 23
1008.179802
 33
0.0
  0
POINT
  5
33B
330
336
100
AcDbEntity
  8
Defpoints
 62
     0
100
AcDbPoint
 10
1187.167742
 20
1008.179802
 30
0.0
  0
POINT
  5
33C
330
336
100
AcDbEntity
  8
Defpoints
 62
     0
100
AcDbPoint
 10
1204.60965
 20
998.393084
 30
0.0
  0
ENDBLK
  5
33E
330
336
100
AcDbEntity
  8
0
100
AcDbBlockEnd
  0
ENDSEC
  0
SECTION
  2
ENTITIES
  0
INSERT
  5
105
330
1F
100
AcDbEntity
  8
LC-003-230-ZVN-0
 62
     7
370
    50
100
AcDbBlockReference
  2
SYM1
 10
0.0
 20
0.0
 30
0.0
  0
LINE
  5
107
330
1F
100
AcDbEntity
  8
LC-002-002-----0
  6
DASHDOT
 62
     7
370
    35
100
AcDbLine
 10
417.742016
 20
1252.929191
 30
0.0
 11
1522.444877
 21
1252.929191
 31
0.0
  0
LINE
  5
108
330
1F
100
AcDbEntity
  8
LC-002-002-----0
  6
DASHDOT
 62
     7
370
    35
100
AcDbLine
 10
1522.444877
 20
1252.929191
 30
0.0
 11
1522.444877
 21
696.433141
 31
0.0
  0
LINE
  5
109
330
1F
100
AcDbEntity
  8
LC-002-002-----0
  6
DASHDOT
 62
     7
370
    35
100
AcDbLine
 10
1522.444877
 20
696.433141
 30
0.0
 11
417.742016
 21
696.433141
 31
0.0
  0
LINE
  5
10A
330
1F
100
AcDbEntity
  8
LC-002-002-----0
  6
DASHDOT
 62
     7
370
    35
100
AcDbLine
 10
417.742016
 20
696.433141
 30
0.0
 11
417.742016
 21
1252.929191
 31
0.0
  0
DIMENSION
  5
10D
330
1F
100
AcDbEntity
  8
LC-004-003-----0
 62
     7
370
    25
100
AcDbDimension
  2
*D2
 10
994.766262
 20
750.0
 30
0.0
 11
802.678762
 21
780.0
 31
0.0
 70
   160
 71
     5
 42
768.35
  3
LC-DIM-L-0025-01-02
100
AcDbAlignedDimension
 13
610.591262
 23
821.112041
 33
0.0
 14
994.766262
 24
821.112041
 34
0.0
100
AcDbRotatedDimension
1001
ACAD
1000
DSTYLE
1002
{
1070
   144
1040
2.0
1002
}
  0
DIMENSION
  5
11C
330
1F
100
AcDbEntity
  8
LC-004-003-----0
 62
     7
370
    25
100
AcDbDimension
  2
*D3
 10
500.0
 20
878.399541
 30
0.0
 11
470.0
 21
991.112041
 31
0.0
 70
   160
 71
     5
 42
450.85
 53
90.0
  3
LC-DIM-L-0025-01-02
100
AcDbAlignedDimension
 13
547.678762
 23
1103.824541
 33
0.0
 14
547.678762
 24
878.399541
 34
0.0
 50
90.0
100
AcDbRotatedDimension
1001
ACAD
1000
DSTYLE
1002
{
1070
   144
1040
2.0
1002
}
  0
DIMENSION
  5
12B
330
1F
100
AcDbEntity
  8
LC-004-003-----0
 62
     7
370
    25
100
AcDbDimension
  2
*D4
 10
700.0
 20
2295.24
 30
0.0
 11
670.0
 21
2422.24
 31
0.0
 70
   160
 71
     5
 42
254.0
 53
90.0
  3
LC-DIM-L-0025-02-32
100
AcDbAlignedDimension
 13
882.859738
 23
2549.24
 33
0.0
 14
715.999738
 24
2295.24
 34
0.0
 50
90.0
100
AcDbRotatedDimension
  0
DIMENSION
  5
136
330
1F
100
AcDbEntity
  8
LC-004-003-----0
 62
     7
370
    25
100
AcDbDimension
  2
*D5
 10
1100.0
 20
2295.24
 30
0.0
 11
1070.0
 21
2422.24
 31
0.0
 70
   160
 71
     5
 42
254.0
 53
90.0
  3
LC-DIM-L-0025-02-32
100
AcDbAlignedDimension
 13
882.859738
 23
2549.24
 33
0.0
 14
1101.659738
 24
2295.24
 34
0.0
 50
90.0
100
AcDbRotatedDimension
  0
DIMENSION
  5
141
330
1F
100
AcDbEntity
  8
LC-004-003-----0
 62
     7
370
    25
100
AcDbDimension
  2
*D6
 10
1267.034738
 20
2700.0
 30
0.0
 11
882.859738
 21
2730.0
 31
0.0
 70
   160
 71
     5
 42
768.35
  3
LC-DIM-L-0025-01-02
100
AcDbAlignedDimension
 13
498.684738
 23
2559.24
 33
0.0
 14
1267.034738
 24
2559.24
 34
0.0
100
AcDbRotatedDimension
  0
DIMENSION
  5
14F
330
1F
100
AcDbEntity
  8
LC-004-003-----0
 62
     7
370
    25
100
AcDbDimension
  2
*D7
 10
498.684738
 20
2650.0
 30
0.0
 11
683.272238
 21
2680.0
 31
0.0
 70
   160
 71
     5
 42
369.175
  3
LC-DIM-L-0025-01-02
100
AcDbAlignedDimension
 13
867.859738
 23
2559.24
 33
0.0
 14
498.684738
 24
2559.24
 34
0.0
100
AcDbRotatedDimension
  0
DIMENSION
  5
15C
330
1F
100
AcDbEntity
  8
LC-004-003-----0
 62
     7
370
    25
100
AcDbDimension
  2
*D8
 10
1267.034738
 20
2650.0
 30
0.0
 11
1082.447238
 21
2680.0
 31
0.0
 70
   160
 71
     5
 42
369.175
  3
LC-DIM-L-0025-01-02
100
AcDbAlignedDimension
 13
897.859738
 23
2559.24
 33
0.0
 14
1267.034738
 24
2559.24
 34
0.0
100
AcDbRotatedDimension
  0
DIMENSION
  5
16A
330
1F
100
AcDbEntity
  8
LC-004-003-----0
 62
     7
370
    25
100
AcDbDimension
  2
*D9
 10
897.859738
 20
2600.0
 30
0.0
 11
856.005533
 21
2630.0
 31
0.0
 70
   160
 71
     5
 42
30.0
  3
LC-DIM-L-0025-02-02
100
AcDbAlignedDimension
 13
867.859738
 23
2559.24
 33
0.0
 14
897.859738
 24
2559.24
 34
0.0
100
AcDbRotatedDimension
  0
INSERT
  5
1B0
330
1F
100
AcDbEntity
  8
LC-005-005-----0
 62
     7
370
    25
100
AcDbBlockReference
  2
*X110
 10
0.0
 20
0.0
 30
0.0
  0
TEXT
  5
1B2
330
1F
100
AcDbEntity
  8
LC-006-004-----0
 62
     7
370
    18
100
AcDbText
 10
1705.120817
 20
561.221442
 30
0.0
 40
17.5
  1
Material: 
 41
0.8
  7
LCTX0-400-0-0pDIN-Schrift
100
AcDbText
  0
TEXT
  5
1B3
330
1F
100
AcDbEntity
  8
LC-006-004-----0
 62
     7
370
    25
100
AcDbText
 10
1801.335838
 20
557.471443
 30
0.0
 40
25.0
  1
Cristalite
 41
0.8
  7
LCTX0-400-0-0pDIN-Schrift
100
AcDbText
  0
TEXT
  5
1B4
330
1F
100
AcDbEntity
  8
LC-006-004-----0
 62
     7
370
    25
100
AcDbText
 10
1257.518666
 20
477.939631
 30
0.0
 40
25.0
  1
Art. Nr.  844
 41
0.8
  7
LCTX0-400-0-0pDIN-Schrift
100
AcDbText
  0
TEXT
  5
1B5
330
1F
100
AcDbEntity
  8
LC-006-004-----0
 62
     7
370
    35
100
AcDbText
 10
531.133012
 20
1189.262041
 30
0.0
 40
35.0
  1
Ausschnitt Unterbau 1:20
 41
0.7
  7
LCTX0-400-0-0pDIN-Schrift
 72
     1
 11
802.678762
 21
1189.262041
 31
0.0
100
AcDbText
  0
DIMENSION
  5
1B7
330
1F
100
AcDbEntity
  8
LC-004-003-----0
 62
     7
370
    25
100
AcDbDimension
  2
*D11
 10
800.0
 20
2504.239804
 30
0.0
 11
770.0
 21
2526.739828
 31
0.0
 70
   160
 71
     5
 42
45.000049
 53
90.0
  3
LC-DIM-L-0025-02-22
100
AcDbAlignedDimension
 13
810.859738
 23
2549.239853
 33
0.0
 14
862.859738
 24
2504.239804
 34
0.0
 50
90.0
100
AcDbRotatedDimension
  0
LINE
  5
1C5
102
{ACAD_REACTORS
330
340
102
}
330
1F
100
AcDbEntity
  8
LC-002-002-----0
 62
     7
370
    50
100
AcDbLine
 10
515.711764
 20
2310.704486
 30
0.0
 11
492.057199
 21
2535.762642
 31
0.0
  0
ARC
  5
1C6
102
{ACAD_REACTORS
330
340
102
}
330
1F
100
AcDbEntity
  8
LC-002-002-----0
 62
     7
370
    50
100
AcDbCircle
 10
487.084589
 20
2535.24
 30
0.0
 40
4.999999999999691
100
AcDbArc
 50
6.0
 51
90.0
  0
LINE
  5
1C7
102
{ACAD_REACTORS
330
340
102
}
330
1F
100
AcDbEntity
  8
LC-002-002-----0
 62
     7
370
    50
100
AcDbLine
 10
875.815913
 20
2489.897712
 30
0.0
 11
856.981755
 21
2310.702671
 31
0.0
  0
ARC
  5
1C9
102
{ACAD_REACTORS
330
340
102
}
330
1F
100
AcDbEntity
  8
LC-007-002-RND-0
 62
     7
370
    50
100
AcDbCircle
 10
837.091317
 20
2312.793241
 30
0.0
 40
20.00000000000019
100
AcDbArc
 50
274.0
 51
354.0
  0
ARC
  5
1CA
102
{ACAD_REACTORS
330
340
102
}
330
1F
100
AcDbEntity
  8
LC-007-002-RND-0
 62
     7
370
    50
100
AcDbCircle
 10
535.602202
 20
2312.795056
 30
0.0
 40
20.00000000000022
100
AcDbArc
 50
186.0
 51
266.0
  0
ARC
  5
1CB
102
{ACAD_REACTORS
330
340
102
}
330
1F
100
AcDbEntity
  8
LC-002-002-----0
 62
     7
370
    50
100
AcDbCircle
 10
882.859738
 20
2489.157376
 30
0.0
 40
7.082624193444198
100
AcDbArc
 50
6.0
 51
174.0
  0
LINE
  5
1CC
102
{ACAD_REACTORS
330
340
102
}
330
1F
100
AcDbEntity
  8
LC-002-002-----0
 62
     7
370
    50
100
AcDbLine
 10
640.359738
 20
2291.260726
 30
0.0
 11
732.359738
 21
2291.260726
 31
0.0
  0
LINE
  5
1CD
102
{ACAD_REACTORS
330
340
102
}
330
1F
100
AcDbEntity
  8
LC-002-002-----0
 62
     7
370
    50
100
AcDbLine
 10
470.339029
 20
2545.519026
 30
0.0
 11
470.109738
 21
2542.24
 31
0.0
  0
LINE
  5
1CE
102
{ACAD_REACTORS
330
340
102
}
330
1F
100
AcDbEntity
  8
LC-002-002-----0
 62
     7
370
    50
100
AcDbLine
 10
522.86012
 20
2319.226602
 30
0.0
 11
499.061209
 21
2545.658114
 31
0.0
  0
LINE
  5
1CF
102
{ACAD_REACTORS
330
340
102
}
330
1F
100
AcDbEntity
  8
LC-002-002-----0
 62
     7
370
    50
100
AcDbLine
 10
743.670412
 20
2294.219003
 30
0.0
 11
743.651637
 21
2294.004407
 31
0.0
  0
LINE
  5
1D0
102
{ACAD_REACTORS
330
340
102
}
330
1F
100
AcDbEntity
  8
LC-002-002-----0
 62
     7
370
    50
100
AcDbLine
 10
867.859738
 20
2490.733939
 30
0.0
 11
849.833399
 21
2319.224787
 31
0.0
  0
LINE
  5
1D1
102
{ACAD_REACTORS
330
340
102
}
330
1F
100
AcDbEntity
  8
LC-002-002-----0
 62
     7
370
    50
100
AcDbLine
 10
629.067838
 20
2294.004407
 30
0.0
 11
629.049063
 21
2294.219003
 31
0.0
  0
LINE
  5
1D2
102
{ACAD_REACTORS
330
340
102
}
330
1F
100
AcDbEntity
  8
LC-002-002-----0
 62
     7
370
    50
100
AcDbLine
 10
1136.670412
 20
2294.219003
 30
0.0
 11
1136.651637
 21
2294.004407
 31
0.0
  0
LINE
  5
1D3
102
{ACAD_REACTORS
330
340
102
}
330
1F
100
AcDbEntity
  8
LC-002-002-----0
 62
     7
370
    50
100
AcDbLine
 10
915.886076
 20
2319.224787
 30
0.0
 11
897.859738
 21
2490.733939
 31
0.0
  0
LINE
  5
1D4
102
{ACAD_REACTORS
330
340
102
}
330
1F
100
AcDbEntity
  8
LC-002-002-----0
 62
     7
370
    50
100
AcDbLine
 10
1022.067838
 20
2294.004407
 30
0.0
 11
1022.049063
 21
2294.219003
 31
0.0
  0
LINE
  5
1D5
102
{ACAD_REACTORS
330
340
102
}
330
1F
100
AcDbEntity
  8
LC-002-002-----0
 62
     7
370
    50
100
AcDbLine
 10
1266.658266
 20
2545.658114
 30
0.0
 11
1242.859355
 21
2319.226602
 31
0.0
  0
LINE
  5
1D6
102
{ACAD_REACTORS
330
340
102
}
330
1F
100
AcDbEntity
  8
LC-002-002-----0
 62
     7
370
    50
100
AcDbLine
 10
1295.609738
 20
2542.24
 30
0.0
 11
1295.380446
 21
2545.519026
 31
0.0
  0
LINE
  5
1D7
102
{ACAD_REACTORS
330
340
102
}
330
1F
100
AcDbEntity
  8
LC-002-002-----0
 62
     7
370
    50
100
AcDbLine
 10
1135.829091
 20
2293.106755
 30
0.0
 11
1125.359738
 21
2291.260726
 31
0.0
  0
LINE
  5
1D8
102
{ACAD_REACTORS
330
340
102
}
330
1F
100
AcDbEntity
  8
LC-002-002-----0
 62
     7
370
    50
100
AcDbLine
 10
742.829091
 20
2293.106755
 30
0.0
 11
732.359738
 21
2291.260726
 31
0.0
  0
LINE
  5
1D9
102
{ACAD_REACTORS
330
340
102
}
330
1F
100
AcDbEntity
  8
LC-002-002-----0
 62
     7
370
    50
100
AcDbLine
 10
1224.364047
 20
2301.36589
 30
0.0
 11
1137.782138
 21
2295.311493
 31
0.0
  0
LINE
  5
1DA
102
{ACAD_REACTORS
330
340
102
}
330
1F
100
AcDbEntity
  8
LC-002-002-----0
 62
     7
370
    50
100
AcDbLine
 10
831.338091
 20
2301.364075
 30
0.0
 11
744.782138
 21
2295.311493
 31
0.0
  0
LINE
  5
1DB
102
{ACAD_REACTORS
330
340
102
}
330
1F
100
AcDbEntity
  8
LC-002-002-----0
 62
     7
370
    50
100
AcDbLine
 10
1291.39019
 20
2549.24
 30
0.0
 11
474.329286
 21
2549.24
 31
0.0
  0
LINE
  5
1DC
102
{ACAD_REACTORS
330
340
102
}
330
1F
100
AcDbEntity
  8
LC-002-002-----0
 62
     7
370
    50
100
AcDbLine
 10
627.937337
 20
2295.311493
 30
0.0
 11
541.355428
 21
2301.36589
 31
0.0
  0
LINE
  5
1DD
102
{ACAD_REACTORS
330
340
102
}
330
1F
100
AcDbEntity
  8
LC-002-002-----0
 62
     7
370
    50
100
AcDbLine
 10
1020.937337
 20
2295.311493
 30
0.0
 11
934.381384
 21
2301.364075
 31
0.0
  0
LINE
  5
1DE
102
{ACAD_REACTORS
330
340
102
}
330
1F
100
AcDbEntity
  8
LC-002-002-----0
 62
     7
370
    50
100
AcDbLine
 10
640.359738
 20
2291.260726
 30
0.0
 11
629.890385
 21
2293.106755
 31
0.0
  0
LINE
  5
1DF
102
{ACAD_REACTORS
330
340
102
}
330
1F
100
AcDbEntity
  8
LC-002-002-----0
 62
     7
370
    50
100
AcDbLine
 10
1033.359738
 20
2291.260726
 30
0.0
 11
1022.890385
 21
2293.106755
 31
0.0
  0
LINE
  5
1E0
102
{ACAD_REACTORS
330
340
102
}
330
1F
100
AcDbEntity
  8
LC-002-002-----0
 62
     7
370
    50
100
AcDbLine
 10
732.359738
 20
2282.084399
 30
0.0
 11
732.359738
 21
2291.260726
 31
0.0
  0
LINE
  5
1E1
102
{ACAD_REACTORS
330
340
102
}
330
1F
100
AcDbEntity
  8
LC-002-002-----0
 62
     7
370
    50
100
AcDbLine
 10
640.359738
 20
2282.084399
 30
0.0
 11
640.359738
 21
2291.260726
 31
0.0
  0
ARC
  5
1E2
102
{ACAD_REACTORS
330
340
102
}
330
1F
100
AcDbEntity
  8
LC-002-002-----0
 62
     7
370
    50
100
AcDbCircle
 10
1222.968917
 20
2321.317171
 30
0.0
 40
19.99999999999969
100
AcDbArc
 50
274.0
 51
354.0
  0
ARC
  5
1E3
102
{ACAD_REACTORS
330
340
102
}
330
1F
100
AcDbEntity
  8
LC-002-002-----0
 62
     7
370
    50
100
AcDbCircle
 10
935.776514
 20
2321.315356
 30
0.0
 40
20.00000000000014
100
AcDbArc
 50
186.0
 51
266.0
  0
ARC
  5
1E4
102
{ACAD_REACTORS
330
340
102
}
330
1F
100
AcDbEntity
  8
LC-002-002-----0
 62
     7
370
    50
100
AcDbCircle
 10
829.942961
 20
2321.315356
 30
0.0
 40
20.00000000000035
100
AcDbArc
 50
274.0
 51
354.0
  0
ARC
  5
1E5
102
{ACAD_REACTORS
330
340
102
}
330
1F
100
AcDbEntity
  8
LC-002-002-----0
 62
     7
370
    50
100
AcDbCircle
 10
542.750558
 20
2321.317171
 30
0.0
 40
19.99999999999959
100
AcDbArc
 50
186.0
 51
266.0
  0
ARC
  5
1E6
102
{ACAD_REACTORS
330
340
102
}
330
1F
100
AcDbEntity
  8
LC-002-002-----0
 62
     7
370
    50
100
AcDbCircle
 10
882.859738
 20
2489.135105
 30
0.0
 40
15.10469831409967
100
AcDbArc
 50
82.391171
 51
97.608829
  0
ARC
  5
1E7
102
{ACAD_REACTORS
330
340
102
}
330
1F
100
AcDbEntity
  8
LC-002-002-----0
 62
     7
370
    50
100
AcDbCircle
 10
882.859738
 20
2489.157376
 30
0.0
 40
15.08262419350033
100
AcDbArc
 50
6.0
 51
82.379969
  0
ARC
  5
1E8
102
{ACAD_REACTORS
330
340
102
}
330
1F
100
AcDbEntity
  8
LC-002-002-----0
 62
     7
370
    50
100
AcDbCircle
 10
882.859738
 20
2489.157376
 30
0.0
 40
15.08262419349969
100
AcDbArc
 50
97.620031
 51
174.0
  0
ARC
  5
1E9
102
{ACAD_REACTORS
330
340
102
}
330
1F
100
AcDbEntity
  8
LC-002-002-----0
 62
     7
370
    50
100
AcDbCircle
 10
474.329286
 20
2545.24
 30
0.0
 40
4.0
100
AcDbArc
 50
90.0
 51
176.0
  0
ARC
  5
1EA
102
{ACAD_REACTORS
330
340
102
}
330
1F
100
AcDbEntity
  8
LC-002-002-----0
 62
     7
370
    50
100
AcDbCircle
 10
495.083121
 20
2545.24
 30
0.0
 40
4.000000000000038
100
AcDbArc
 50
6.0
 51
90.0
  0
ARC
  5
1EB
102
{ACAD_REACTORS
330
340
102
}
330
1F
100
AcDbEntity
  8
LC-002-002-----0
 62
     7
370
    50
100
AcDbCircle
 10
1291.39019
 20
2545.24
 30
0.0
 40
4.000000000000019
100
AcDbArc
 50
4.0
 51
90.0
  0
ARC
  5
1EC
102
{ACAD_REACTORS
330
340
102
}
330
1F
100
AcDbEntity
  8
LC-002-002-----0
 62
     7
370
    50
100
AcDbCircle
 10
1270.636354
 20
2545.24
 30
0.0
 40
4.0
100
AcDbArc
 50
90.0
 51
174.0
  0
ARC
  5
1ED
102
{ACAD_REACTORS
330
340
102
}
330
1F
100
AcDbEntity
  8
LC-002-002-----0
 62
     7
370
    50
100
AcDbCircle
 10
1137.865846
 20
2294.114416
 30
0.0
 40
1.200000000000081
100
AcDbArc
 50
94.0
 51
175.0
  0
ARC
  5
1EE
102
{ACAD_REACTORS
330
340
102
}
330
1F
100
AcDbEntity
  8
LC-002-002-----0
 62
     7
370
    50
100
AcDbCircle
 10
1020.85363
 20
2294.114416
 30
0.0
 40
1.200000000000195
100
AcDbArc
 50
5.0
 51
86.0
  0
ARC
  5
1EF
102
{ACAD_REACTORS
330
340
102
}
330
1F
100
AcDbEntity
  8
LC-002-002-----0
 62
     7
370
    50
100
AcDbCircle
 10
744.865846
 20
2294.114416
 30
0.0
 40
1.200000000000081
100
AcDbArc
 50
94.0
 51
175.0
  0
ARC
  5
1F0
102
{ACAD_REACTORS
330
340
102
}
330
1F
100
AcDbEntity
  8
LC-002-002-----0
 62
     7
370
    50
100
AcDbCircle
 10
627.85363
 20
2294.114416
 30
0.0
 40
1.200000000000195
100
AcDbArc
 50
5.0
 51
86.0
  0
ARC
  5
1F1
102
{ACAD_REACTORS
330
340
102
}
330
1F
100
AcDbEntity
  8
LC-002-002-----0
 62
     7
370
    50
100
AcDbCircle
 10
1135.655443
 20
2294.091563
 30
0.0
 40
1.000000000000125
100
AcDbArc
 50
280.0
 51
355.0
  0
ARC
  5
1F2
102
{ACAD_REACTORS
330
340
102
}
330
1F
100
AcDbEntity
  8
LC-002-002-----0
 62
     7
370
    50
100
AcDbCircle
 10
1023.064033
 20
2294.091563
 30
0.0
 40
0.9999999999998402
100
AcDbArc
 50
185.0
 51
260.0
  0
ARC
  5
1F3
102
{ACAD_REACTORS
330
340
102
}
330
1F
100
AcDbEntity
  8
LC-002-002-----0
 62
     7
370
    50
100
AcDbCircle
 10
742.655443
 20
2294.091563
 30
0.0
 40
1.000000000000125
100
AcDbArc
 50
280.0
 51
355.0
  0
ARC
  5
1F4
102
{ACAD_REACTORS
330
340
102
}
330
1F
100
AcDbEntity
  8
LC-002-002-----0
 62
     7
370
    50
100
AcDbCircle
 10
630.064033
 20
2294.091563
 30
0.0
 40
0.9999999999998402
100
AcDbArc
 50
185.0
 51
260.0
  0
LINE
  5
1F5
102
{ACAD_REACTORS
330
340
102
}
330
1F
100
AcDbEntity
  8
LC-002-002-----0
 62
     7
370
    50
100
AcDbLine
 10
470.109738
 20
2542.24
 30
0.0
 11
482.609738
 21
2542.24
 31
0.0
  0
LINE
  5
1F6
102
{ACAD_REACTORS
330
340
102
}
330
1F
100
AcDbEntity
  8
LC-002-002-----0
 62
     7
370
    50
100
AcDbLine
 10
482.609738
 20
2542.24
 30
0.0
 11
482.609738
 21
2540.24
 31
0.0
  0
LINE
  5
1F7
102
{ACAD_REACTORS
330
340
102
}
330
1F
100
AcDbEntity
  8
LC-002-002-----0
 62
     7
370
    50
100
AcDbLine
 10
482.609738
 20
2540.24
 30
0.0
 11
487.084589
 21
2540.24
 31
0.0
  0
LINE
  5
1F8
102
{ACAD_REACTORS
330
340
102
}
330
1F
100
AcDbEntity
  8
LC-002-002-----0
 62
     7
370
    50
100
AcDbLine
 10
748.085597
 20
2282.084399
 30
0.0
 11
624.633878
 21
2282.084399
 31
0.0
  0
LINE
  5
1F9
102
{ACAD_REACTORS
330
340
102
}
330
1F
100
AcDbEntity
  8
LC-002-002-----0
 62
     7
370
    50
100
AcDbLine
 10
750.047358
 20
2283.559006
 30
0.0
 11
749.898213
 21
2283.239162
 31
0.0
  0
ARC
  5
1FA
102
{ACAD_REACTORS
330
340
102
}
330
1F
100
AcDbEntity
  8
LC-002-002-----0
 62
     7
370
    50
100
AcDbCircle
 10
755.485205
 20
2281.023296
 30
0.0
 40
6.000000000000012
100
AcDbArc
 50
94.0
 51
155.0
  0
ARC
  5
1FB
102
{ACAD_REACTORS
330
340
102
}
330
1F
100
AcDbEntity
  8
LC-002-002-----0
 62
     7
370
    50
100
AcDbCircle
 10
748.085597
 20
2284.084399
 30
0.0
 40
2.0
100
AcDbArc
 50
270.0
 51
335.0
  0
LINE
  5
1FC
102
{ACAD_REACTORS
330
340
102
}
330
1F
100
AcDbEntity
  8
LC-002-002-----0
 62
     7
370
    50
100
AcDbLine
 10
838.486447
 20
2292.84196
 30
0.0
 11
755.066666
 21
2287.00868
 31
0.0
  0
LINE
  5
1FD
102
{ACAD_REACTORS
330
340
102
}
330
1F
100
AcDbEntity
  8
LC-002-002-----0
 62
     7
370
    50
100
AcDbLine
 10
622.672117
 20
2283.559006
 30
0.0
 11
622.821263
 21
2283.239162
 31
0.0
  0
ARC
  5
1FE
102
{ACAD_REACTORS
330
340
102
}
330
1F
100
AcDbEntity
  8
LC-002-002-----0
 62
     7
370
    50
100
AcDbCircle
 10
617.23427
 20
2281.023296
 30
0.0
 40
6.000000000000369
100
AcDbArc
 50
25.0
 51
86.0
  0
ARC
  5
1FF
102
{ACAD_REACTORS
330
340
102
}
330
1F
100
AcDbEntity
  8
LC-002-002-----0
 62
     7
370
    50
100
AcDbCircle
 10
624.633878
 20
2284.084399
 30
0.0
 40
2.000000000000123
100
AcDbArc
 50
205.0
 51
270.0
  0
LINE
  5
200
102
{ACAD_REACTORS
330
340
102
}
330
1F
100
AcDbEntity
  8
LC-002-002-----0
 62
     7
370
    50
100
AcDbLine
 10
534.207073
 20
2292.843775
 30
0.0
 11
617.652809
 21
2287.00868
 31
0.0
  0
LINE
  5
201
102
{ACAD_REACTORS
330
340
102
}
330
1F
100
AcDbEntity
  8
LC-002-002-----0
 62
     7
370
    25
100
AcDbLine
 10
628.959738
 20
2295.24
 30
0.0
 11
743.759738
 21
2295.24
 31
0.0
  0
LINE
  5
202
102
{ACAD_REACTORS
330
340
102
}
330
1F
100
AcDbEntity
  8
LC-002-002-----0
 62
     7
370
    50
100
AcDbLine
 10
889.903562
 20
2489.897712
 30
0.0
 11
908.73772
 21
2310.702671
 31
0.0
  0
ARC
  5
203
102
{ACAD_REACTORS
330
340
102
}
330
1F
100
AcDbEntity
  8
LC-007-002-RND-0
 62
     7
370
    50
100
AcDbCircle
 10
928.628158
 20
2312.793241
 30
0.0
 40
19.99999999999972
100
AcDbArc
 50
186.0
 51
266.0
  0
LINE
  5
204
102
{ACAD_REACTORS
330
340
102
}
330
1F
100
AcDbEntity
  8
LC-002-002-----0
 62
     7
370
    50
100
AcDbLine
 10
927.233029
 20
2292.84196
 30
0.0
 11
1010.652809
 21
2287.00868
 31
0.0
  0
LINE
  5
205
102
{ACAD_REACTORS
330
340
102
}
330
1F
100
AcDbEntity
  8
LC-002-002-----0
 62
     7
370
    50
100
AcDbLine
 10
1231.512403
 20
2292.843775
 30
0.0
 11
1148.066666
 21
2287.00868
 31
0.0
  0
ARC
  5
206
102
{ACAD_REACTORS
330
340
102
}
330
1F
100
AcDbEntity
  8
LC-007-002-RND-0
 62
     7
370
    50
100
AcDbCircle
 10
1230.117273
 20
2312.795056
 30
0.0
 40
20.00000000000006
100
AcDbArc
 50
274.0
 51
354.0
  0
ARC
  5
207
102
{ACAD_REACTORS
330
340
102
}
330
1F
100
AcDbEntity
  8
LC-002-002-----0
 62
     7
370
    50
100
AcDbCircle
 10
1278.634886
 20
2535.24
 30
0.0
 40
5.0
100
AcDbArc
 50
90.0
 51
174.0
  0
LINE
  5
208
102
{ACAD_REACTORS
330
340
102
}
330
1F
100
AcDbEntity
  8
LC-002-002-----0
 62
     7
370
    50
100
AcDbLine
 10
1295.380446
 20
2545.519026
 30
0.0
 11
1295.609738
 21
2542.24
 31
0.0
  0
LINE
  5
209
102
{ACAD_REACTORS
330
340
102
}
330
1F
100
AcDbEntity
  8
LC-002-002-----0
 62
     7
370
    50
100
AcDbLine
 10
1295.609738
 20
2542.24
 30
0.0
 11
1283.109738
 21
2542.24
 31
0.0
  0
LINE
  5
20A
102
{ACAD_REACTORS
330
340
102
}
330
1F
100
AcDbEntity
  8
LC-002-002-----0
 62
     7
370
    50
100
AcDbLine
 10
1283.109738
 20
2542.24
 30
0.0
 11
1283.109738
 21
2540.24
 31
0.0
  0
LINE
  5
20B
102
{ACAD_REACTORS
330
340
102
}
330
1F
100
AcDbEntity
  8
LC-002-002-----0
 62
     7
370
    50
100
AcDbLine
 10
1283.109738
 20
2540.24
 30
0.0
 11
1278.634886
 21
2540.24
 31
0.0
  0
LINE
  5
20C
102
{ACAD_REACTORS
330
340
102
}
330
1F
100
AcDbEntity
  8
LC-002-002-----0
 62
     7
370
    50
100
AcDbLine
 10
1250.007711
 20
2310.704486
 30
0.0
 11
1273.662276
 21
2535.762642
 31
0.0
  0
LINE
  5
20D
102
{ACAD_REACTORS
330
340
102
}
330
1F
100
AcDbEntity
  8
LC-002-002-----0
 62
     7
370
    50
100
AcDbLine
 10
1143.047358
 20
2283.559006
 30
0.0
 11
1142.898213
 21
2283.239162
 31
0.0
  0
ARC
  5
20E
102
{ACAD_REACTORS
330
340
102
}
330
1F
100
AcDbEntity
  8
LC-002-002-----0
 62
     7
370
    50
100
AcDbCircle
 10
1148.485205
 20
2281.023296
 30
0.0
 40
6.000000000000466
100
AcDbArc
 50
94.0
 51
155.0
  0
ARC
  5
20F
102
{ACAD_REACTORS
330
340
102
}
330
1F
100
AcDbEntity
  8
LC-002-002-----0
 62
     7
370
    50
100
AcDbCircle
 10
1141.085597
 20
2284.084399
 30
0.0
 40
2.0
100
AcDbArc
 50
270.0
 51
335.0
  0
LINE
  5
210
102
{ACAD_REACTORS
330
340
102
}
330
1F
100
AcDbEntity
  8
LC-002-002-----0
 62
     7
370
    50
100
AcDbLine
 10
1015.672117
 20
2283.559006
 30
0.0
 11
1015.821263
 21
2283.239162
 31
0.0
  0
ARC
  5
211
102
{ACAD_REACTORS
330
340
102
}
330
1F
100
AcDbEntity
  8
LC-002-002-----0
 62
     7
370
    50
100
AcDbCircle
 10
1010.23427
 20
2281.023296
 30
0.0
 40
5.999999999999971
100
AcDbArc
 50
25.0
 51
86.0
  0
ARC
  5
212
102
{ACAD_REACTORS
330
340
102
}
330
1F
100
AcDbEntity
  8
LC-002-002-----0
 62
     7
370
    50
100
AcDbCircle
 10
1017.633878
 20
2284.084399
 30
0.0
 40
1.999999999999931
100
AcDbArc
 50
205.0
 51
270.0
  0
LINE
  5
213
102
{ACAD_REACTORS
330
340
102
}
330
1F
100
AcDbEntity
  8
LC-002-002-----0
 62
     7
370
    50
100
AcDbLine
 10
1017.633878
 20
2282.084399
 30
0.0
 11
1141.085597
 21
2282.084399
 31
0.0
  0
LINE
  5
214
102
{ACAD_REACTORS
330
340
102
}
330
1F
100
AcDbEntity
  8
LC-002-002-----0
 62
     7
370
    25
100
AcDbLine
 10
1136.759738
 20
2295.24
 30
0.0
 11
1021.959738
 21
2295.24
 31
0.0
  0
LINE
  5
215
102
{ACAD_REACTORS
330
340
102
}
330
1F
100
AcDbEntity
  8
LC-002-002-----0
 62
     7
370
    50
100
AcDbLine
 10
1033.359738
 20
2282.084399
 30
0.0
 11
1033.359738
 21
2291.260726
 31
0.0
  0
LINE
  5
216
102
{ACAD_REACTORS
330
340
102
}
330
1F
100
AcDbEntity
  8
LC-002-002-----0
 62
     7
370
    50
100
AcDbLine
 10
1125.359738
 20
2282.084399
 30
0.0
 11
1125.359738
 21
2291.260726
 31
0.0
  0
LINE
  5
217
102
{ACAD_REACTORS
330
340
102
}
330
1F
100
AcDbEntity
  8
LC-002-002-----0
 62
     7
370
    50
100
AcDbLine
 10
1033.359738
 20
2291.260726
 30
0.0
 11
1125.359738
 21
2291.260726
 31
0.0
  0
DIMENSION
  5
218
330
1F
100
AcDbEntity
  8
LC-004-003-----0
 62
     7
370
    25
100
AcDbDimension
  2
*D12
 10
350.0
 20
1592.74
 30
0.0
 11
320.0
 21
1846.74
 31
0.0
 70
   160
 71
     5
 42
508.0
 53
90.0
  3
LC-DIM-L-0025-02-02
100
AcDbAlignedDimension
 13
540.109738
 23
2100.74
 33
0.0
 14
460.109738
 24
1592.74
 34
0.0
 50
90.0
100
AcDbRotatedDimension
  0
DIMENSION
  5
225
330
1F
100
AcDbEntity
  8
LC-004-003-----0
 62
     7
370
    25
100
AcDbDimension
  2
*D13
 10
400.0
 20
1592.74
 30
0.0
 11
370.0
 21
1607.0275
 31
0.0
 70
   160
 71
     5
 42
28.575
 53
90.0
  3
LC-DIM-L-0025-01-02
100
AcDbAlignedDimension
 13
460.109738
 23
1621.315
 33
0.0
 14
460.109738
 24
1592.74
 34
0.0
 50
90.0
100
AcDbRotatedDimension
  0
DIMENSION
  5
234
330
1F
100
AcDbEntity
  8
LC-004-003-----0
 62
     7
370
    25
100
AcDbDimension
  2
*D14
 10
1295.609738
 20
1450.0
 30
0.0
 11
882.859738
 21
1480.0
 31
0.0
 70
   160
 71
     5
 42
825.5
  3
LC-DIM-L-0025-02-02
100
AcDbAlignedDimension
 13
470.109738
 23
1582.74
 33
0.0
 14
1295.609738
 24
1582.74
 34
0.0
100
AcDbRotatedDimension
  0
DIMENSION
  5
241
330
1F
100
AcDbEntity
  8
LC-004-003-----0
 62
     7
370
    25
100
AcDbDimension
  2
*D15
 10
498.684738
 20
1500.0
 30
0.0
 11
488.0526
 21
1530.0
 31
0.0
 70
   160
 71
     5
 42
28.575
  3
LC-DIM-L-0025-01-02
100
AcDbAlignedDimension
 13
470.109738
 23
1582.74
 33
0.0
 14
498.684738
 24
1582.74
 34
0.0
100
AcDbRotatedDimension
  0
DIMENSION
  5
250
330
1F
100
AcDbEntity
  8
LC-004-003-----0
 62
     7
370
    25
100
AcDbDimension
  2
*D16
 10
1267.034738
 20
1500.0
 30
0.0
 11
1271.685672
 21
1530.0
 31
0.0
 70
   160
 71
     5
 42
28.575
  3
LC-DIM-L-0025-01-02
100
AcDbAlignedDimension
 13
1295.609738
 23
1582.74
 33
0.0
 14
1267.034738
 24
1582.74
 34
0.0
100
AcDbRotatedDimension
  0
DIMENSION
  5
25F
330
1F
100
AcDbEntity
  8
LC-004-003-----0
 62
     7
370
    25
100
AcDbDimension
  2
*D17
 10
1900.0
 20
1621.315
 30
0.0
 11
1870.0
 21
1846.74
 31
0.0
 70
   160
 71
     5
 42
450.85
 53
90.0
  3
LC-DIM-L-0025-01-02
100
AcDbAlignedDimension
 13
1814.007392
 23
2072.165
 33
0.0
 14
1814.007392
 24
1621.315
 34
0.0
 50
90.0
100
AcDbRotatedDimension
  0
DIMENSION
  5
26D
330
1F
100
AcDbEntity
  8
LC-004-003-----0
 62
     7
370
    25
100
AcDbDimension
  2
*D18
 10
400.0
 20
2072.165
 30
0.0
 11
370.0
 21
2058.209984
 31
0.0
 70
   160
 71
     5
 42
28.575
 53
90.0
  3
LC-DIM-L-0025-01-02
100
AcDbAlignedDimension
 13
540.109738
 23
2100.74
 33
0.0
 14
460.109738
 24
2072.165
 34
0.0
 50
90.0
100
AcDbRotatedDimension
  0
ARC
  5
27C
102
{ACAD_REACTORS
330
344
102
}
330
1F
100
AcDbEntity
  8
LC-007-002-RND-0
 62
     7
370
    50
100
AcDbCircle
 10
528.684738
 20
1651.315
 30
0.0
 40
30.0
100
AcDbArc
 50
180.0
 51
270.0
  0
ARC
  5
27D
102
{ACAD_REACTORS
330
344
102
}
330
1F
100
AcDbEntity
  8
LC-007-002-RND-0
 62
     7
370
    50
100
AcDbCircle
 10
1237.034738
 20
1651.315
 30
0.0
 40
30.0
100
AcDbArc
 50
270.0
 51
0.0
  0
ARC
  5
27E
102
{ACAD_REACTORS
330
344
102
}
330
1F
100
AcDbEntity
  8
LC-007-002-RND-0
 62
     7
370
    50
100
AcDbCircle
 10
1237.034738
 20
2017.164199
 30
0.0
 40
30.0
100
AcDbArc
 50
0.0
 51
65.149093
  0
ARC
  5
27F
102
{ACAD_REACTORS
330
344
102
}
330
1F
100
AcDbEntity
  8
LC-007-002-RND-0
 62
     7
370
    50
100
AcDbCircle
 10
528.684738
 20
2017.164199
 30
0.0
 40
29.99999999999989
100
AcDbArc
 50
114.850907
 51
180.0
  0
LINE
  5
280
102
{ACAD_REACTORS
330
345
102
}
330
1F
100
AcDbEntity
  8
LC-002-002-----0
 62
     7
370
    50
100
AcDbLine
 10
1536.85179
 20
1857.89
 30
0.0
 11
1546.028117
 21
1857.89
 31
0.0
  0
LINE
  5
281
102
{ACAD_REACTORS
330
345
102
}
330
1F
100
AcDbEntity
  8
LC-002-002-----0
 62
     7
370
    50
100
AcDbLine
 10
1546.028117
 20
1949.89
 30
0.0
 11
1546.028117
 21
1857.89
 31
0.0
  0
LINE
  5
282
102
{ACAD_REACTORS
330
345
102
}
330
1F
100
AcDbEntity
  8
LC-002-002-----0
 62
     7
370
    50
100
AcDbLine
 10
1536.85179
 20
1949.89
 30
0.0
 11
1546.028117
 21
1949.89
 31
0.0
  0
ARC
  5
283
102
{ACAD_REACTORS
330
345
102
}
330
1F
100
AcDbEntity
  8
LC-007-002-RND-0
 62
     7
370
    50
100
AcDbCircle
 10
1574.717938
 20
2027.955542
 30
0.0
 40
19.99999999999933
100
AcDbArc
 50
96.0
 51
176.0
  0
ARC
  5
284
102
{ACAD_REACTORS
330
345
102
}
330
1F
100
AcDbEntity
  8
LC-007-002-RND-0
 62
     7
370
    50
100
AcDbCircle
 10
1566.195823
 20
2035.103898
 30
0.0
 40
20.00000000000067
100
AcDbArc
 50
96.0
 51
176.0
  0
ARC
  5
285
102
{ACAD_REACTORS
330
345
102
}
330
1F
100
AcDbEntity
  8
LC-007-002-RND-0
 62
     7
370
    50
100
AcDbCircle
 10
1582.769751
 20
1664.678179
 30
0.0
 40
19.99999999999994
100
AcDbArc
 50
184.0
 51
264.0
  0
ARC
  5
286
102
{ACAD_REACTORS
330
345
102
}
330
1F
100
AcDbEntity
  8
LC-007-002-RND-0
 62
     7
370
    50
100
AcDbCircle
 10
1574.247635
 20
1657.529823
 30
0.0
 40
20.00000000000004
100
AcDbArc
 50
184.0
 51
264.0
  0
ARC
  5
287
102
{ACAD_REACTORS
330
344
102
}
330
1F
100
AcDbEntity
  8
LC-002-002-----0
 62
     7
370
    50
100
AcDbCircle
 10
858.803886
 20
2026.395022
 30
0.0
 40
9.055851691859516
100
AcDbArc
 50
0.0
 51
87.927558
  0
ARC
  5
288
102
{ACAD_REACTORS
330
344
102
}
330
1F
100
AcDbEntity
  8
LC-002-002-----0
 62
     7
370
    50
100
AcDbCircle
 10
858.791946
 20
1636.527026
 30
0.0
 40
9.067791234040669
100
AcDbArc
 50
270.0
 51
360.0
  0
CIRCLE
  5
289
102
{ACAD_REACTORS
330
344
102
}
330
1F
100
AcDbEntity
  8
LC-002-002-----0
 62
     7
370
    50
100
AcDbCircle
 10
686.359738
 20
1903.89
 30
0.0
 40
57.40000000000009
  0
CIRCLE
  5
28A
102
{ACAD_REACTORS
330
344
102
}
330
1F
100
AcDbEntity
  8
LC-002-002-----0
 62
     7
370
    50
100
AcDbCircle
 10
686.359738
 20
1903.89
 30
0.0
 40
46.0
  0
LINE
  5
28B
102
{ACAD_REACTORS
330
345
102
}
330
1F
100
AcDbEntity
  8
LC-002-002-----0
 62
     7
370
    50
100
AcDbLine
 10
1554.766657
 20
2029.350671
 30
0.0
 11
1550.078885
 21
1962.3124
 31
0.0
  0
CIRCLE
  5
28C
102
{ACAD_REACTORS
330
344
102
}
330
1F
100
AcDbEntity
  8
LC-002-002-----0
 62
     7
370
    50
100
AcDbCircle
 10
1079.359738
 20
1903.89
 30
0.0
 40
57.40000000000009
  0
CIRCLE
  5
28D
102
{ACAD_REACTORS
330
344
102
}
330
1F
100
AcDbEntity
  8
LC-002-002-----0
 62
     7
370
    50
100
AcDbCircle
 10
1079.359738
 20
1903.89
 30
0.0
 40
46.0
  0
LINE
  5
28E
102
{ACAD_REACTORS
330
345
102
}
330
1F
100
AcDbEntity
  8
LC-002-002-----0
 62
     7
370
    50
100
AcDbLine
 10
1550.078885
 20
1845.4676
 30
0.0
 11
1562.81847
 21
1663.283049
 31
0.0
  0
LINE
  5
28F
102
{ACAD_REACTORS
330
345
102
}
330
1F
100
AcDbEntity
  8
LC-002-002-----0
 62
     7
370
    50
100
AcDbLine
 10
1546.028117
 20
1857.89
 30
0.0
 11
1547.874147
 21
1847.420647
 31
0.0
  0
LINE
  5
290
102
{ACAD_REACTORS
330
345
102
}
330
1F
100
AcDbEntity
  8
LC-002-002-----0
 62
     7
370
    50
100
AcDbLine
 10
1547.874147
 20
1960.359353
 30
0.0
 11
1546.028117
 21
1949.89
 31
0.0
  0
LINE
  5
291
102
{ACAD_REACTORS
330
345
102
}
330
1F
100
AcDbEntity
  8
LC-002-002-----0
 62
     7
370
    50
100
AcDbLine
 10
1580.679181
 20
1644.787741
 30
0.0
 11
1800.425506
 21
1621.691471
 31
0.0
  0
LINE
  5
292
102
{ACAD_REACTORS
330
345
102
}
330
1F
100
AcDbEntity
  8
LC-002-002-----0
 62
     7
370
    50
100
AcDbLine
 10
1548.771799
 20
1846.5981
 30
0.0
 11
1548.986395
 21
1846.579326
 31
0.0
  0
LINE
  5
293
102
{ACAD_REACTORS
330
345
102
}
330
1F
100
AcDbEntity
  8
LC-002-002-----0
 62
     7
370
    50
100
AcDbLine
 10
1800.286418
 20
1592.969292
 30
0.0
 11
1797.007392
 21
1592.74
 31
0.0
  0
LINE
  5
294
102
{ACAD_REACTORS
330
345
102
}
330
1F
100
AcDbEntity
  8
LC-002-002-----0
 62
     7
370
    50
100
AcDbLine
 10
1548.986395
 20
1961.200674
 30
0.0
 11
1548.771799
 21
1961.1819
 31
0.0
  0
LINE
  5
295
102
{ACAD_REACTORS
330
344
102
}
330
1F
100
AcDbEntity
  8
LC-002-002-----0
 62
     7
370
    50
100
AcDbLine
 10
867.859738
 20
2026.395022
 30
0.0
 11
867.859738
 21
1636.527026
 31
0.0
  0
LINE
  5
296
102
{ACAD_REACTORS
330
344
102
}
330
1F
100
AcDbEntity
  8
LC-002-002-----0
 62
     7
370
    50
100
AcDbLine
 10
897.859738
 20
2026.395022
 30
0.0
 11
897.859738
 21
1636.527026
 31
0.0
  0
ARC
  5
297
102
{ACAD_REACTORS
330
345
102
}
330
1F
100
AcDbEntity
  8
LC-002-002-----0
 62
     7
370
    50
100
AcDbCircle
 10
1800.007392
 20
1596.959548
 30
0.0
 40
3.999999999999987
100
AcDbArc
 50
274.0
 51
0.0
  0
ARC
  5
298
102
{ACAD_REACTORS
330
345
102
}
330
1F
100
AcDbEntity
  8
LC-002-002-----0
 62
     7
370
    50
100
AcDbCircle
 10
1800.007392
 20
1617.713384
 30
0.0
 40
4.0
100
AcDbArc
 50
0.0
 51
84.0
  0
ARC
  5
299
102
{ACAD_REACTORS
330
345
102
}
330
1F
100
AcDbEntity
  8
LC-002-002-----0
 62
     7
370
    50
100
AcDbCircle
 10
1548.881808
 20
1962.396108
 30
0.0
 40
1.200000000000155
100
AcDbArc
 50
275.0
 51
356.0
  0
ARC
  5
29A
102
{ACAD_REACTORS
330
345
102
}
330
1F
100
AcDbEntity
  8
LC-002-002-----0
 62
     7
370
    50
100
AcDbCircle
 10
1548.881808
 20
1845.383892
 30
0.0
 40
1.199999999999659
100
AcDbArc
 50
4.0
 51
85.0
  0
ARC
  5
29B
102
{ACAD_REACTORS
330
345
102
}
330
1F
100
AcDbEntity
  8
LC-002-002-----0
 62
     7
370
    50
100
AcDbCircle
 10
1548.858955
 20
1960.185705
 30
0.0
 40
1.000000000000333
100
AcDbArc
 50
95.0
 51
170.0
  0
ARC
  5
29C
102
{ACAD_REACTORS
330
345
102
}
330
1F
100
AcDbEntity
  8
LC-002-002-----0
 62
     7
370
    50
100
AcDbCircle
 10
1548.858955
 20
1847.594295
 30
0.0
 40
1.000000000000125
100
AcDbArc
 50
190.0
 51
265.0
  0
LINE
  5
29D
102
{ACAD_REACTORS
330
345
102
}
330
1F
100
AcDbEntity
  8
LC-002-002-----0
 62
     7
370
    50
100
AcDbLine
 10
1538.326397
 20
1967.577621
 30
0.0
 11
1538.006554
 21
1967.428475
 31
0.0
  0
ARC
  5
29E
102
{ACAD_REACTORS
330
345
102
}
330
1F
100
AcDbEntity
  8
LC-002-002-----0
 62
     7
370
    50
100
AcDbCircle
 10
1535.790688
 20
1973.015467
 30
0.0
 40
5.999999999999957
100
AcDbArc
 50
295.0
 51
356.0
  0
ARC
  5
29F
102
{ACAD_REACTORS
330
345
102
}
330
1F
100
AcDbEntity
  8
LC-002-002-----0
 62
     7
370
    50
100
AcDbCircle
 10
1538.85179
 20
1965.615859
 30
0.0
 40
2.000000000000535
100
AcDbArc
 50
115.0
 51
180.0
  0
LINE
  5
2A0
102
{ACAD_REACTORS
330
345
102
}
330
1F
100
AcDbEntity
  8
LC-002-002-----0
 62
     7
370
    50
100
AcDbLine
 10
1546.244542
 20
2036.499027
 30
0.0
 11
1541.776072
 21
1972.596928
 31
0.0
  0
LINE
  5
2A1
102
{ACAD_REACTORS
330
345
102
}
330
1F
100
AcDbEntity
  8
LC-002-002-----0
 62
     7
370
    50
100
AcDbLine
 10
1536.85179
 20
1965.615859
 30
0.0
 11
1536.85179
 21
1842.164141
 31
0.0
  0
LINE
  5
2A2
102
{ACAD_REACTORS
330
345
102
}
330
1F
100
AcDbEntity
  8
LC-002-002-----0
 62
     7
370
    50
100
AcDbLine
 10
1538.326397
 20
1840.202379
 30
0.0
 11
1538.006554
 21
1840.351525
 31
0.0
  0
ARC
  5
2A3
102
{ACAD_REACTORS
330
345
102
}
330
1F
100
AcDbEntity
  8
LC-002-002-----0
 62
     7
370
    50
100
AcDbCircle
 10
1535.790688
 20
1834.764533
 30
0.0
 40
6.000000000000466
100
AcDbArc
 50
4.0
 51
65.0
  0
ARC
  5
2A4
102
{ACAD_REACTORS
330
345
102
}
330
1F
100
AcDbEntity
  8
LC-002-002-----0
 62
     7
370
    50
100
AcDbCircle
 10
1538.85179
 20
1842.164141
 30
0.0
 40
2.0
100
AcDbArc
 50
180.0
 51
245.0
  0
LINE
  5
2A5
102
{ACAD_REACTORS
330
345
102
}
330
1F
100
AcDbEntity
  8
LC-002-002-----0
 62
     7
370
    50
100
AcDbLine
 10
1554.296354
 20
1656.134693
 30
0.0
 11
1541.776072
 21
1835.183072
 31
0.0
  0
LINE
  5
2A6
102
{ACAD_REACTORS
330
345
102
}
330
1F
100
AcDbEntity
  8
LC-002-002-----0
 62
     7
370
    50
100
AcDbLine
 10
1800.425506
 20
2071.788529
 30
0.0
 11
1572.627369
 21
2047.84598
 31
0.0
  0
LINE
  5
2A7
102
{ACAD_REACTORS
330
345
102
}
330
1F
100
AcDbEntity
  8
LC-002-002-----0
 62
     7
370
    50
100
AcDbLine
 10
1804.007392
 20
2096.520452
 30
0.0
 11
1804.007392
 21
1596.959548
 31
0.0
  0
ARC
  5
2A8
102
{ACAD_REACTORS
330
345
102
}
330
1F
100
AcDbEntity
  8
LC-002-002-----0
 62
     7
370
    50
100
AcDbCircle
 10
1800.007392
 20
2096.520452
 30
0.0
 40
4.0
100
AcDbArc
 50
0.0
 51
86.0
  0
ARC
  5
2A9
102
{ACAD_REACTORS
330
345
102
}
330
1F
100
AcDbEntity
  8
LC-002-002-----0
 62
     7
370
    50
100
AcDbCircle
 10
1800.007392
 20
2075.766616
 30
0.0
 40
3.999999999999991
100
AcDbArc
 50
276.0
 51
0.0
  0
ARC
  5
2AA
102
{ACAD_REACTORS
330
345
102
}
330
1F
100
AcDbEntity
  8
LC-002-002-----0
 62
     7
370
    50
100
AcDbCircle
 10
1790.007392
 20
2083.765148
 30
0.0
 40
5.000000000000643
100
AcDbArc
 50
276.0
 51
0.0
  0
LINE
  5
2AB
102
{ACAD_REACTORS
330
345
102
}
330
1F
100
AcDbEntity
  8
LC-002-002-----0
 62
     7
370
    50
100
AcDbLine
 10
1800.286418
 20
2100.510708
 30
0.0
 11
1797.007392
 21
2100.74
 31
0.0
  0
LINE
  5
2AC
102
{ACAD_REACTORS
330
345
102
}
330
1F
100
AcDbEntity
  8
LC-002-002-----0
 62
     7
370
    50
100
AcDbLine
 10
1797.007392
 20
2100.74
 30
0.0
 11
1797.007392
 21
2088.24
 31
0.0
  0
LINE
  5
2AD
102
{ACAD_REACTORS
330
345
102
}
330
1F
100
AcDbEntity
  8
LC-002-002-----0
 62
     7
370
    50
100
AcDbLine
 10
1797.007392
 20
2088.24
 30
0.0
 11
1795.007392
 21
2088.24
 31
0.0
  0
LINE
  5
2AE
102
{ACAD_REACTORS
330
345
102
}
330
1F
100
AcDbEntity
  8
LC-002-002-----0
 62
     7
370
    50
100
AcDbLine
 10
1795.007392
 20
2088.24
 30
0.0
 11
1795.007392
 21
2083.765148
 31
0.0
  0
LINE
  5
2AF
102
{ACAD_REACTORS
330
345
102
}
330
1F
100
AcDbEntity
  8
LC-002-002-----0
 62
     7
370
    50
100
AcDbLine
 10
1564.105254
 20
2054.994335
 30
0.0
 11
1790.530034
 21
2078.792539
 31
0.0
  0
ARC
  5
2B0
102
{ACAD_REACTORS
330
345
102
}
330
1F
100
AcDbEntity
  8
LC-002-002-----0
 62
     7
370
    50
100
AcDbCircle
 10
1790.007392
 20
1609.714852
 30
0.0
 40
5.0
100
AcDbArc
 50
0.0
 51
84.0
  0
LINE
  5
2B1
102
{ACAD_REACTORS
330
345
102
}
330
1F
100
AcDbEntity
  8
LC-002-002-----0
 62
     7
370
    50
100
AcDbLine
 10
1797.007392
 20
1592.74
 30
0.0
 11
1797.007392
 21
1605.24
 31
0.0
  0
LINE
  5
2B2
102
{ACAD_REACTORS
330
345
102
}
330
1F
100
AcDbEntity
  8
LC-002-002-----0
 62
     7
370
    50
100
AcDbLine
 10
1797.007392
 20
1605.24
 30
0.0
 11
1795.007392
 21
1605.24
 31
0.0
  0
LINE
  5
2B3
102
{ACAD_REACTORS
330
345
102
}
330
1F
100
AcDbEntity
  8
LC-002-002-----0
 62
     7
370
    50
100
AcDbLine
 10
1795.007392
 20
1605.24
 30
0.0
 11
1795.007392
 21
1609.714852
 31
0.0
  0
LINE
  5
2B4
102
{ACAD_REACTORS
330
345
102
}
330
1F
100
AcDbEntity
  8
LC-002-002-----0
 62
     7
370
    50
100
AcDbLine
 10
1572.157066
 20
1637.639385
 30
0.0
 11
1790.530034
 21
1614.687461
 31
0.0
  0
LINE
  5
2B5
102
{ACAD_REACTORS
330
345
102
}
330
1F
100
AcDbEntity
  8
LC-002-002-----0
 62
     7
370
    25
100
AcDbLine
 10
1550.007392
 20
1846.49
 30
0.0
 11
1550.007392
 21
1961.29
 31
0.0
  0
ARC
  5
2B6
102
{ACAD_REACTORS
330
344
102
}
330
1F
100
AcDbEntity
  8
LC-002-002-----0
 62
     7
370
    50
100
AcDbCircle
 10
906.927529
 20
1636.527026
 30
0.0
 40
9.067791234040669
100
AcDbArc
 50
180.0
 51
270.0
  0
ARC
  5
2B7
102
{ACAD_REACTORS
330
344
102
}
330
1F
100
AcDbEntity
  8
LC-002-002-----0
 62
     7
370
    50
100
AcDbCircle
 10
906.915589
 20
2026.395022
 30
0.0
 40
9.055851691859489
100
AcDbArc
 50
92.072442
 51
180.0
  0
LINE
  5
2B8
102
{ACAD_REACTORS
330
344
102
}
330
1F
100
AcDbEntity
  8
LC-002-002-----0
 62
     7
370
    50
100
AcDbLine
 10
470.109738
 20
2037.514557
 30
0.0
 11
470.109738
 21
1618.14
 31
0.0
  0
LINE
  5
2B9
102
{ACAD_REACTORS
330
344
102
}
330
1F
100
AcDbEntity
  8
LC-002-002-----0
 62
     7
370
    50
100
AcDbLine
 10
498.684738
 20
2017.164199
 30
0.0
 11
498.684738
 21
1651.315
 31
0.0
  0
LINE
  5
2BA
102
{ACAD_REACTORS
330
344
102
}
330
1F
100
AcDbEntity
  8
LC-002-002-----0
 62
     7
370
    50
100
AcDbLine
 10
495.509738
 20
1592.74
 30
0.0
 11
1270.209738
 21
1592.74
 31
0.0
  0
LINE
  5
2BB
102
{ACAD_REACTORS
330
344
102
}
330
1F
100
AcDbEntity
  8
LC-002-002-----0
 62
     7
370
    50
100
AcDbLine
 10
528.684738
 20
1621.315
 30
0.0
 11
1237.034738
 21
1621.315
 31
0.0
  0
LINE
  5
2BC
102
{ACAD_REACTORS
330
344
102
}
330
1F
100
AcDbEntity
  8
LC-002-002-----0
 62
     7
370
    50
100
AcDbLine
 10
1267.034738
 20
1651.315
 30
0.0
 11
1267.034738
 21
2017.164199
 31
0.0
  0
LINE
  5
2BD
102
{ACAD_REACTORS
330
344
102
}
330
1F
100
AcDbEntity
  8
LC-002-002-----0
 62
     7
370
    50
100
AcDbLine
 10
1295.609738
 20
1618.14
 30
0.0
 11
1295.609738
 21
2037.514557
 31
0.0
  0
ARC
  5
2BE
102
{ACAD_REACTORS
330
344
102
}
330
1F
100
AcDbEntity
  8
LC-002-002-----0
 62
     7
370
    50
100
AcDbCircle
 10
642.154524
 20
1772.165
 30
0.0
 40
328.5750000000002
100
AcDbArc
 50
75.322747
 51
118.927127
  0
ARC
  5
2BF
102
{ACAD_REACTORS
330
344
102
}
330
1F
100
AcDbEntity
  8
LC-002-002-----0
 62
     7
370
    50
100
AcDbCircle
 10
642.154524
 20
1772.165
 30
0.0
 40
300.0000000000007
100
AcDbArc
 50
75.322747
 51
114.850907
  0
ARC
  5
2C0
102
{ACAD_REACTORS
330
344
102
}
330
1F
100
AcDbEntity
  8
LC-002-002-----0
 62
     7
370
    50
100
AcDbCircle
 10
495.509738
 20
1618.14
 30
0.0
 40
25.40000000000009
100
AcDbArc
 50
180.0
 51
270.0
  0
ARC
  5
2C1
102
{ACAD_REACTORS
330
344
102
}
330
1F
100
AcDbEntity
  8
LC-002-002-----0
 62
     7
370
    50
100
AcDbCircle
 10
495.509738
 20
2037.514557
 30
0.0
 40
25.40000000000026
100
AcDbArc
 50
118.927127
 51
180.0
  0
ARC
  5
2C2
102
{ACAD_REACTORS
330
344
102
}
330
1F
100
AcDbEntity
  8
LC-002-002-----0
 62
     7
370
    50
100
AcDbCircle
 10
882.859738
 20
2691.165
 30
0.0
 40
649.9999999999998
100
AcDbArc
 50
255.322747
 51
284.677253
  0
ARC
  5
2C3
102
{ACAD_REACTORS
330
344
102
}
330
1F
100
AcDbEntity
  8
LC-002-002-----0
 62
     7
370
    50
100
AcDbCircle
 10
882.859738
 20
2691.165
 30
0.0
 40
621.4249999999995
100
AcDbArc
 50
255.322747
 51
284.677253
  0
ARC
  5
2C4
102
{ACAD_REACTORS
330
344
102
}
330
1F
100
AcDbEntity
  8
LC-002-002-----0
 62
     7
370
    50
100
AcDbCircle
 10
1123.564952
 20
1772.165
 30
0.0
 40
328.5750000000003
100
AcDbArc
 50
61.072873
 51
104.677253
  0
ARC
  5
2C5
102
{ACAD_REACTORS
330
344
102
}
330
1F
100
AcDbEntity
  8
LC-002-002-----0
 62
     7
370
    50
100
AcDbCircle
 10
1123.564952
 20
1772.165
 30
0.0
 40
300.0000000000005
100
AcDbArc
 50
65.149093
 51
104.677253
  0
ARC
  5
2C6
102
{ACAD_REACTORS
330
344
102
}
330
1F
100
AcDbEntity
  8
LC-002-002-----0
 62
     7
370
    50
100
AcDbCircle
 10
1270.209738
 20
1618.14
 30
0.0
 40
25.40000000000009
100
AcDbArc
 50
270.0
 51
0.0
  0
ARC
  5
2C7
102
{ACAD_REACTORS
330
344
102
}
330
1F
100
AcDbEntity
  8
LC-002-002-----0
 62
     7
370
    50
100
AcDbCircle
 10
1270.209738
 20
2037.514557
 30
0.0
 40
25.39999999999964
100
AcDbArc
 50
0.0
 51
61.072873
  0
LINE
  5
2C8
330
1F
100
AcDbEntity
  8
LC-002-002-----0
 62
     7
370
    50
100
AcDbLine
 10
625.591262
 20
878.399541
 30
0.0
 11
979.766262
 21
878.399541
 31
0.0
  0
ARC
  5
2C9
330
1F
100
AcDbEntity
  8
LC-007-002-RND-0
 62
     7
370
    50
100
AcDbCircle
 10
625.591262
 20
893.399541
 30
0.0
 40
15.0
100
AcDbArc
 50
180.0
 51
270.0
  0
LINE
  5
2CA
330
1F
100
AcDbEntity
  8
LC-002-002-----0
 62
     7
370
    50
100
AcDbLine
 10
610.591262
 20
1076.32414
 30
0.0
 11
610.591262
 21
893.399541
 31
0.0
  0
ARC
  5
2CB
330
1F
100
AcDbEntity
  8
LC-007-002-RND-0
 62
     7
370
    50
100
AcDbCircle
 10
625.591262
 20
1076.32414
 30
0.0
 40
14.99999999999995
100
AcDbArc
 50
114.850907
 51
180.0
  0
ARC
  5
2CC
330
1F
100
AcDbEntity
  8
LC-002-002-----0
 62
     7
370
    50
100
AcDbCircle
 10
682.326155
 20
953.824541
 30
0.0
 40
150.0000000000005
100
AcDbArc
 50
75.322747
 51
114.850907
  0
ARC
  5
2CD
330
1F
100
AcDbEntity
  8
LC-002-002-----0
 62
     7
370
    50
100
AcDbCircle
 10
802.678762
 20
1413.324541
 30
0.0
 40
324.9999999999999
100
AcDbArc
 50
255.322747
 51
284.677253
  0
ARC
  5
2CE
330
1F
100
AcDbEntity
  8
LC-002-002-----0
 62
     7
370
    50
100
AcDbCircle
 10
923.031369
 20
953.824541
 30
0.0
 40
150.0000000000004
100
AcDbArc
 50
65.149093
 51
104.677253
  0
ARC
  5
2CF
330
1F
100
AcDbEntity
  8
LC-007-002-RND-0
 62
     7
370
    50
100
AcDbCircle
 10
979.766262
 20
1076.32414
 30
0.0
 40
15.0
100
AcDbArc
 50
0.0
 51
65.149093
  0
LINE
  5
2D0
330
1F
100
AcDbEntity
  8
LC-002-002-----0
 62
     7
370
    50
100
AcDbLine
 10
994.766262
 20
893.399541
 30
0.0
 11
994.766262
 21
1076.32414
 31
0.0
  0
ARC
  5
2D1
330
1F
100
AcDbEntity
  8
LC-007-002-RND-0
 62
     7
370
    50
100
AcDbCircle
 10
979.766262
 20
893.399541
 30
0.0
 40
15.0
100
AcDbArc
 50
270.0
 51
0.0
  0
DIMENSION
  5
2D3
330
1F
100
AcDbEntity
  8
LC-004-003-----0
 62
     7
370
    25
100
AcDbDimension
  2
*D19
 10
700.0
 20
1088.324541
 30
0.0
 11
670.0
 21
983.362041
 31
0.0
 70
   160
 71
     5
 42
419.85
 53
90.0
  3
LC-DIM-L-0025-01-22
100
AcDbAlignedDimension
 13
752.678762
 23
878.399541
 33
0.0
 14
752.678762
 24
1088.324541
 34
0.0
 50
90.0
100
AcDbRotatedDimension
1001
ACAD
1000
DSTYLE
1002
{
1070
   144
1040
2.0
1002
}
  0
DIMENSION
  5
2E1
330
1F
100
AcDbEntity
  8
LC-004-003-----0
 62
     7
370
    25
100
AcDbDimension
  2
*D20
 10
923.031369
 20
953.824541
 30
0.0
 11
900.962601
 21
1031.703039
 31
0.0
 70
   164
 71
     5
 42
300.0
  3
LC-DIM-R-0025-02-02
100
AcDbRadialDimension
 15
942.18306
 25
1102.596893
 35
0.0
 40
1.0
1001
ACAD
1000
DSTYLE
1002
{
1070
   144
1040
2.0
1070
    73
1070
     1
1002
}
  0
DIMENSION
  5
2EB
330
1F
100
AcDbEntity
  8
LC-004-003-----0
 62
     7
370
    25
100
AcDbDimension
  2
*D21
 10
802.678762
 20
1413.324541
 30
0.0
 11
769.79082
 21
1032.797976
 31
0.0
 70
   164
 71
     5
 42
650.0
  3
LC-DIM-R-0025-02-02
100
AcDbRadialDimension
 15
801.706615
 25
1088.325995
 35
0.0
 40
1.0
1001
ACAD
1000
DSTYLE
1002
{
1070
   144
1040
2.0
1002
}
  0
TEXT
  5
2F5
102
{ACAD_REACTORS
330
33F
102
}
330
1F
100
AcDbEntity
  8
LC-004-003-----0
 62
     7
370
    25
100
AcDbText
 10
974.886295
 20
960.064341
 30
0.0
 40
25.0
  1
R30
 50
90.0
 41
0.7
  7
LCTX0-400-0-0pDIN-Schrift
 72
     1
 11
974.886295
 21
984.861841
 31
0.0
100
AcDbText
  0
LINE
  5
2F7
102
{ACAD_REACTORS
330
33F
102
}
330
1F
100
AcDbEntity
  8
LC-008-003-MTG-0
 62
     7
370
    25
100
AcDbLine
 10
962.386295
 20
910.779508
 30
0.0
 11
962.386295
 21
954.143035
 31
0.0
  0
LINE
  5
2F8
102
{ACAD_REACTORS
330
33F
102
}
330
1F
100
AcDbEntity
  8
LC-008-003-MTG-0
 62
     7
370
    25
100
AcDbLine
 10
962.386295
 20
910.779508
 30
0.0
 11
990.372864
 21
882.792939
 31
0.0
  0
LINE
  5
2F9
102
{ACAD_REACTORS
330
33F
102
}
330
1F
100
AcDbEntity
  8
LC-004-003-----0
 62
     7
370
    25
100
AcDbLine
 10
970.53903
 20
898.011975
 30
0.0
 11
990.372864
 21
882.792939
 31
0.0
  0
LINE
  5
2FA
102
{ACAD_REACTORS
330
33F
102
}
330
1F
100
AcDbEntity
  8
LC-004-003-----0
 62
     7
370
    25
100
AcDbLine
 10
990.372864
 20
882.792939
 30
0.0
 11
975.153828
 21
902.626773
 31
0.0
  0
LINE
  5
2FB
102
{ACAD_REACTORS
330
33F
102
}
330
1F
100
AcDbEntity
  8
LC-004-003-----0
 62
     7
370
    25
100
AcDbLine
 10
975.153828
 20
902.626773
 30
0.0
 11
970.53903
 21
898.011975
 31
0.0
  0
LINE
  5
2FC
102
{ACAD_REACTORS
330
33F
102
}
330
1F
100
AcDbEntity
  8
LC-004-003-----0
 62
     7
370
    25
100
AcDbLine
 10
971.099633
 20
898.65122
 30
0.0
 11
985.77667
 21
887.389133
 31
0.0
  0
LINE
  5
2FD
102
{ACAD_REACTORS
330
33F
102
}
330
1F
100
AcDbEntity
  8
LC-004-003-----0
 62
     7
370
    25
100
AcDbLine
 10
985.77667
 20
887.389133
 30
0.0
 11
974.514583
 21
902.06617
 31
0.0
  0
LINE
  5
2FE
102
{ACAD_REACTORS
330
33F
102
}
330
1F
100
AcDbEntity
  8
LC-004-003-----0
 62
     7
370
    25
100
AcDbLine
 10
971.660236
 20
899.290464
 30
0.0
 11
981.180476
 21
891.985327
 31
0.0
  0
LINE
  5
2FF
102
{ACAD_REACTORS
330
33F
102
}
330
1F
100
AcDbEntity
  8
LC-004-003-----0
 62
     7
370
    25
100
AcDbLine
 10
981.180476
 20
891.985327
 30
0.0
 11
973.875339
 21
901.505567
 31
0.0
  0
LINE
  5
300
102
{ACAD_REACTORS
330
33F
102
}
330
1F
100
AcDbEntity
  8
LC-004-003-----0
 62
     7
370
    25
100
AcDbLine
 10
972.220838
 20
899.929709
 30
0.0
 11
976.584282
 21
896.581521
 31
0.0
  0
LINE
  5
301
102
{ACAD_REACTORS
330
33F
102
}
330
1F
100
AcDbEntity
  8
LC-004-003-----0
 62
     7
370
    25
100
AcDbLine
 10
976.584282
 20
896.581521
 30
0.0
 11
973.236094
 21
900.944965
 31
0.0
  0
LINE
  5
302
102
{ACAD_REACTORS
330
341
102
}
330
1F
100
AcDbEntity
  8
LC-008-003-MTG-0
 62
     7
370
    25
100
AcDbLine
 10
962.386295
 20
1058.944174
 30
0.0
 11
990.372864
 21
1086.930742
 31
0.0
  0
LINE
  5
303
102
{ACAD_REACTORS
330
341
102
}
330
1F
100
AcDbEntity
  8
LC-004-003-----0
 62
     7
370
    25
100
AcDbLine
 10
975.153828
 20
1067.096909
 30
0.0
 11
990.372864
 21
1086.930742
 31
0.0
  0
LINE
  5
304
102
{ACAD_REACTORS
330
341
102
}
330
1F
100
AcDbEntity
  8
LC-004-003-----0
 62
     7
370
    25
100
AcDbLine
 10
990.372864
 20
1086.930742
 30
0.0
 11
970.53903
 21
1071.711706
 31
0.0
  0
LINE
  5
305
102
{ACAD_REACTORS
330
341
102
}
330
1F
100
AcDbEntity
  8
LC-004-003-----0
 62
     7
370
    25
100
AcDbLine
 10
970.53903
 20
1071.711706
 30
0.0
 11
975.153828
 21
1067.096909
 31
0.0
  0
LINE
  5
306
102
{ACAD_REACTORS
330
341
102
}
330
1F
100
AcDbEntity
  8
LC-004-003-----0
 62
     7
370
    25
100
AcDbLine
 10
974.514583
 20
1067.657511
 30
0.0
 11
985.77667
 21
1082.334548
 31
0.0
  0
LINE
  5
307
102
{ACAD_REACTORS
330
341
102
}
330
1F
100
AcDbEntity
  8
LC-004-003-----0
 62
     7
370
    25
100
AcDbLine
 10
985.77667
 20
1082.334548
 30
0.0
 11
971.099633
 21
1071.072462
 31
0.0
  0
LINE
  5
308
102
{ACAD_REACTORS
330
341
102
}
330
1F
100
AcDbEntity
  8
LC-004-003-----0
 62
     7
370
    25
100
AcDbLine
 10
973.875339
 20
1068.218114
 30
0.0
 11
981.180476
 21
1077.738354
 31
0.0
  0
LINE
  5
309
102
{ACAD_REACTORS
330
341
102
}
330
1F
100
AcDbEntity
  8
LC-004-003-----0
 62
     7
370
    25
100
AcDbLine
 10
981.180476
 20
1077.738354
 30
0.0
 11
971.660236
 21
1070.433217
 31
0.0
  0
LINE
  5
30A
102
{ACAD_REACTORS
330
341
102
}
330
1F
100
AcDbEntity
  8
LC-004-003-----0
 62
     7
370
    25
100
AcDbLine
 10
973.236094
 20
1068.778716
 30
0.0
 11
976.584282
 21
1073.14216
 31
0.0
  0
LINE
  5
30B
102
{ACAD_REACTORS
330
341
102
}
330
1F
100
AcDbEntity
  8
LC-004-003-----0
 62
     7
370
    25
100
AcDbLine
 10
976.584282
 20
1073.14216
 30
0.0
 11
972.220838
 21
1069.793972
 31
0.0
  0
LINE
  5
30C
102
{ACAD_REACTORS
330
33F
102
}
330
1F
100
AcDbEntity
  8
LC-008-003-MTG-0
 62
     7
370
    25
100
AcDbLine
 10
962.386295
 20
1015.580646
 30
0.0
 11
962.386295
 21
1058.944174
 31
0.0
  0
LINE
  5
30D
102
{ACAD_REACTORS
330
342
102
}
330
1F
100
AcDbEntity
  8
LC-002-002-----0
 62
     7
370
    50
100
AcDbLine
 10
1184.719212
 20
1000.483653
 30
0.0
 11
1166.283568
 21
825.080214
 31
0.0
  0
LINE
  5
30E
102
{ACAD_REACTORS
330
342
102
}
330
1F
100
AcDbEntity
  8
LC-002-002-----0
 62
     7
370
    50
100
AcDbLine
 10
1329.476569
 20
983.393084
 30
0.0
 11
1328.33011
 21
999.788214
 31
0.0
  0
LINE
  5
30F
102
{ACAD_REACTORS
330
342
102
}
330
1F
100
AcDbEntity
  8
LC-002-002-----0
 62
     7
370
    50
100
AcDbLine
 10
1308.378829
 20
1018.393084
 30
0.0
 11
1204.60965
 21
1018.393084
 31
0.0
  0
ARC
  5
310
102
{ACAD_REACTORS
330
342
102
}
330
1F
100
AcDbEntity
  8
LC-002-002-----0
 62
     7
370
    50
100
AcDbCircle
 10
1308.378829
 20
998.393084
 30
0.0
 40
20.00000000000013
100
AcDbArc
 50
4.0
 51
90.0
  0
ARC
  5
311
102
{ACAD_REACTORS
330
342
102
}
330
1F
100
AcDbEntity
  8
LC-002-002-----0
 62
     7
370
    50
100
AcDbCircle
 10
1204.60965
 20
998.393084
 30
0.0
 40
20.0
100
AcDbArc
 50
90.0
 51
174.0
  0
ARC
  5
312
102
{ACAD_REACTORS
330
342
102
}
330
1F
100
AcDbEntity
  8
LC-002-002-----0
 62
     7
370
    50
100
AcDbCircle
 10
1244.602311
 20
948.393084
 30
0.0
 40
25.0
100
AcDbArc
 50
90.0
 51
174.0
  0
LINE
  5
313
102
{ACAD_REACTORS
330
342
102
}
330
1F
100
AcDbEntity
  8
LC-002-002-----0
 62
     7
370
    50
100
AcDbLine
 10
1328.33011
 20
999.788214
 30
0.0
 11
1329.476569
 21
983.393084
 31
0.0
  0
LINE
  5
314
102
{ACAD_REACTORS
330
342
102
}
330
1F
100
AcDbEntity
  8
LC-002-002-----0
 62
     7
370
    50
100
AcDbLine
 10
1329.476569
 20
983.393084
 30
0.0
 11
1266.976569
 21
983.393084
 31
0.0
  0
LINE
  5
315
102
{ACAD_REACTORS
330
342
102
}
330
1F
100
AcDbEntity
  8
LC-002-002-----0
 62
     7
370
    50
100
AcDbLine
 10
1266.976569
 20
983.393084
 30
0.0
 11
1266.976569
 21
973.393084
 31
0.0
  0
LINE
  5
316
102
{ACAD_REACTORS
330
342
102
}
330
1F
100
AcDbEntity
  8
LC-002-002-----0
 62
     7
370
    50
100
AcDbLine
 10
1266.976569
 20
973.393084
 30
0.0
 11
1244.602311
 21
973.393084
 31
0.0
  0
LINE
  5
317
102
{ACAD_REACTORS
330
342
102
}
330
1F
100
AcDbEntity
  8
LC-002-002-----0
 62
     7
370
    50
100
AcDbLine
 10
1206.503899
 20
825.080214
 30
0.0
 11
1219.739263
 21
951.006296
 31
0.0
  0
LINE
  5
318
102
{ACAD_REACTORS
330
343
102
}
330
1F
100
AcDbEntity
  8
LC-002-002-----0
 62
     7
370
    50
100
AcDbLine
 10
1186.601569
 20
1158.393084
 30
0.0
 11
1186.601569
 21
1018.393084
 31
0.0
  0
LINE
  5
319
102
{ACAD_REACTORS
330
343
102
}
330
1F
100
AcDbEntity
  8
LC-002-002-----0
 62
     7
370
    50
100
AcDbLine
 10
1186.601569
 20
1158.393084
 30
0.0
 11
1486.236068
 21
1158.393084
 31
0.0
  0
INSERT
  5
325
330
1F
100
AcDbEntity
  8
LC-005-005-----0
 62
     7
370
    25
100
AcDbBlockReference
  2
*X222
 10
0.0
 20
0.0
 30
0.0
  0
LINE
  5
326
330
1F
100
AcDbEntity
  8
LC-002-002-----0
 62
     7
370
    50
100
AcDbLine
 10
1186.601569
 20
1018.393084
 30
0.0
 11
1486.236068
 21
1018.393084
 31
0.0
  0
INSERT
  5
334
102
{ACAD_REACTORS
330
342
102
}
330
1F
100
AcDbEntity
  8
LC-005-005-----0
 62
     7
370
    25
100
AcDbBlockReference
  2
*X323
 10
0.0
 20
0.0
 30
0.0
  0
DIMENSION
  5
335
330
1F
100
AcDbEntity
  8
LC-004-003-----0
 62
     7
370
    25
100
AcDbDimension
  2
*D24
 10
1204.60965
 20
998.393084
 30
0.0
 11
1139.44742
 21
1025.607237
 31
0.0
 70
   164
 71
     5
 42
4.0
  3
LC-DIM-R-0025-02-02
100
AcDbRadialDimension
 15
1187.167742
 25
1008.179802
 35
0.0
 40
1.0
1001
ACAD
1000
DSTYLE
1002
{
1070
   144
1040
0.2
1002
}
  0
ENDSEC
  0
SECTION
  2
OBJECTS
  0
DICTIONARY
  5
C
330
0
100
AcDbDictionary
281
     1
  3
ACAD_GROUP
350
D
  3
ACAD_LAYOUT
350
1A
  3
ACAD_MLINESTYLE
350
17
  3
ACAD_PLOTSETTINGS
350
19
  3
ACAD_PLOTSTYLENAME
350
E
  0
DICTIONARY
  5
D
102
{ACAD_REACTORS
330
C
102
}
330
C
100
AcDbDictionary
281
     1
  3
LCGROUP19
350
33F
  3
LCGROUP2797
350
340
  3
LCGROUP2968
350
344
  3
LCGROUP2983
350
345
  3
LCGROUP3178
350
341
  3
LCGROUP3192
350
342
  3
LCGROUP3208
350
343
  0
DICTIONARY
  5
1A
102
{ACAD_REACTORS
330
C
102
}
330
C
100
AcDbDictionary
281
     1
  3
Layout1
350
1E
  3
Layout2
350
26
  3
Model
350
22
  0
DICTIONARY
  5
17
102
{ACAD_REACTORS
330
C
102
}
330
C
100
AcDbDictionary
281
     1
  3
Standard
350
18
  0
DICTIONARY
  5
19
102
{ACAD_REACTORS
330
C
102
}
330
C
100
AcDbDictionary
281
     1
  0
ACDBDICTIONARYWDFLT
  5
E
102
{ACAD_REACTORS
330
C
102
}
330
C
100
AcDbDictionary
281
     1
  3
Normal
350
F
100
AcDbDictionaryWithDefault
340
F
  0
GROUP
  5
33F
102
{ACAD_REACTORS
330
D
102
}
330
D
100
AcDbGroup
300
GRP19
 70
     1
 71
     1
340
2F5
340
2F7
340
2F8
340
2F9
340
2FA
340
2FB
340
2FC
340
2FD
340
2FE
340
2FF
340
300
340
301
340
30C
  0
GROUP
  5
340
102
{ACAD_REACTORS
330
D
102
}
330
D
100
AcDbGroup
300
GRP2797
 70
     1
 71
     1
340
1C5
340
1C6
340
1C7
340
1C9
340
1CA
340
1CB
340
1CC
340
1CD
340
1CE
340
1CF
340
1D0
340
1D1
340
1D2
340
1D3
340
1D4
340
1D5
340
1D6
340
1D7
340
1D8
340
1D9
340
1DA
340
1DB
340
1DC
340
1DD
340
1DE
340
1DF
340
1E0
340
1E1
340
1E2
340
1E3
340
1E4
340
1E5
340
1E6
340
1E7
340
1E8
340
1E9
340
1EA
340
1EB
340
1EC
340
1ED
340
1EE
340
1EF
340
1F0
340
1F1
340
1F2
340
1F3
340
1F4
340
1F5
340
1F6
340
1F7
340
1F8
340
1F9
340
1FA
340
1FB
340
1FC
340
1FD
340
1FE
340
1FF
340
200
340
201
340
202
340
203
340
204
340
205
340
206
340
207
340
208
340
209
340
20A
340
20B
340
20C
340
20D
340
20E
340
20F
340
210
340
211
340
212
340
213
340
214
340
215
340
216
340
217
  0
GROUP
  5
344
102
{ACAD_REACTORS
330
D
102
}
330
D
100
AcDbGroup
300
GRP2968
 70
     1
 71
     1
340
27C
340
27D
340
27E
340
27F
340
287
340
288
340
289
340
28A
340
28C
340
28D
340
295
340
296
340
2B6
340
2B7
340
2B8
340
2B9
340
2BA
340
2BB
340
2BC
340
2BD
340
2BE
340
2BF
340
2C0
340
2C1
340
2C2
340
2C3
340
2C4
340
2C5
340
2C6
340
2C7
  0
GROUP
  5
345
102
{ACAD_REACTORS
330
D
102
}
330
D
100
AcDbGroup
300
GRP2983
 70
     1
 71
     1
340
280
340
281
340
282
340
283
340
284
340
285
340
286
340
28B
340
28E
340
28F
340
290
340
291
340
292
340
293
340
294
340
297
340
298
340
299
340
29A
340
29B
340
29C
340
29D
340
29E
340
29F
340
2A0
340
2A1
340
2A2
340
2A3
340
2A4
340
2A5
340
2A6
340
2A7
340
2A8
340
2A9
340
2AA
340
2AB
340
2AC
340
2AD
340
2AE
340
2AF
340
2B0
340
2B1
340
2B2
340
2B3
340
2B4
340
2B5
  0
GROUP
  5
341
102
{ACAD_REACTORS
330
D
102
}
330
D
100
AcDbGroup
300
Gruppe 3178
 70
     1
 71
     1
340
302
340
303
340
304
340
305
340
306
340
307
340
308
340
309
340
30A
340
30B
  0
GROUP
  5
342
102
{ACAD_REACTORS
330
D
102
}
330
D
100
AcDbGroup
300
Gruppe 3192
 70
     1
 71
     1
340
30D
340
30E
340
30F
340
310
340
311
340
312
340
313
340
314
340
315
340
316
340
317
340
334
  0
GROUP
  5
343
102
{ACAD_REACTORS
330
D
102
}
330
D
100
AcDbGroup
300
Gruppe 3208
 70
     1
 71
     1
340
318
340
319
  0
LAYOUT
  5
1E
102
{ACAD_REACTORS
330
1A
102
}
330
1A
100
AcDbPlotSettings
  1

  2

  4

  6

 40
0.0
 41
0.0
 42
0.0
 43
0.0
 44
0.0
 45
0.0
 46
0.0
 47
0.0
 48
0.0
 49
0.0
140
0.0
141
0.0
142
1.0
143
1.0
 70
   688
 72
     0
 73
     0
 74
     5
  7

 75
    16
 76
     0
 77
     2
 78
   300
147
1.0
148
0.0
149
0.0
100
AcDbLayout
  1
Layout1
 70
     1
 71
     1
 10
0.0
 20
0.0
 11
2100.0
 21
2970.0
 12
0.0
 22
0.0
 32
0.0
 14
0.0
 24
0.0
 34
0.0
 15
2100.0
 25
2970.0
 35
0.0
146
0.0
 13
0.0
 23
0.0
 33
0.0
 16
1.0
 26
0.0
 36
0.0
 17
0.0
 27
1.0
 37
0.0
 76
     0
330
1B
  0
LAYOUT
  5
26
102
{ACAD_REACTORS
330
1A
102
}
330
1A
100
AcDbPlotSettings
  1

  2

  4

  6

 40
0.0
 41
0.0
 42
0.0
 43
0.0
 44
0.0
 45
0.0
 46
0.0
 47
0.0
 48
0.0
 49
0.0
140
0.0
141
0.0
142
1.0
143
1.0
 70
   688
 72
     0
 73
     0
 74
     5
  7

 75
    16
 76
     0
 77
     2
 78
   300
147
1.0
148
0.0
149
0.0
100
AcDbLayout
  1
Layout2
 70
     1
 71
     2
 10
0.0
 20
0.0
 11
0.0
 21
0.0
 12
0.0
 22
0.0
 32
0.0
 14
0.0
 24
0.0
 34
0.0
 15
0.0
 25
0.0
 35
0.0
146
0.0
 13
0.0
 23
0.0
 33
0.0
 16
1.0
 26
0.0
 36
0.0
 17
0.0
 27
1.0
 37
0.0
 76
     0
330
23
  0
LAYOUT
  5
22
102
{ACAD_REACTORS
330
1A
102
}
330
1A
100
AcDbPlotSettings
  1

  2

  4

  6

 40
0.0
 41
0.0
 42
0.0
 43
0.0
 44
0.0
 45
0.0
 46
0.0
 47
0.0
 48
0.0
 49
0.0
140
0.0
141
0.0
142
1.0
143
1.0
 70
  1776
 72
     0
 73
     0
 74
     0
  7

 75
     0
 76
     0
 77
     2
 78
   300
147
1.0
148
0.0
149
0.0
100
AcDbLayout
  1
Model
 70
     1
 71
     0
 10
0.0
 20
0.0
 11
2100.0
 21
2970.0
 12
0.0
 22
0.0
 32
0.0
 14
0.0
 24
0.0
 34
0.0
 15
2100.0
 25
2970.0
 35
0.0
146
0.0
 13
0.0
 23
0.0
 33
0.0
 16
1.0
 26
0.0
 36
0.0
 17
0.0
 27
1.0
 37
0.0
 76
     0
330
1F
  0
MLINESTYLE
  5
18
102
{ACAD_REACTORS
330
17
102
}
330
17
100
AcDbMlineStyle
  2
Standard
 70
     0
  3

 62
   256
 51
90.0
 52
90.0
 71
     2
 49
0.5
 62
   256
  6
BYLAYER
 49
-0.5
 62
   256
  6
BYLAYER
  0
ACDBPLACEHOLDER
  5
F
102
{ACAD_REACTORS
330
E
102
}
330
E
  0
ENDSEC
  0
EOF
