  0
SECTION
  2
HEADER
  9
$ACADVER
  1
AC1018
  9
$ACADMAINTVER
 70
     0
  9
$DWGCODEPAGE
  3
ANSI_1252
  9
$INSBASE
 10
0.0
 20
0.0
 30
0.0
  9
$EXTMIN
 10
0.0
 20
0.0
 30
0.0
  9
$EXTMAX
 10
2100.0
 20
2970.0
 30
0.0
  9
$LIMMIN
 10
0.0
 20
0.0
  9
$LIMMAX
 10
2100.0
 20
2970.0
  9
$ORTHOMODE
 70
     0
  9
$REGENMODE
 70
     1
  9
$FILLMODE
 70
     1
  9
$QTEXTMODE
 70
     0
  9
$MIRRTEXT
 70
     1
  9
$LTSCALE
 40
10.0
  9
$ATTMODE
 70
     1
  9
$TEXTSIZE
 40
2.5
  9
$TRACEWID
 40
1.0
  9
$TEXTSTYLE
  7
Standard
  9
$CLAYER
  8
0
  9
$CELTYPE
  6
ByLayer
  9
$CECOLOR
 62
     7
  9
$CELTSCALE
 40
1.0
  9
$DISPSILH
 70
     0
  9
$DIMSCALE
 40
10.0
  9
$DIMASZ
 40
3.5
  9
$DIMEXO
 40
0.625
  9
$DIMDLI
 40
3.75
  9
$DIMRND
 40
0.0
  9
$DIMDLE
 40
0.0
  9
$DIMEXE
 40
1.25
  9
$DIMTP
 40
0.0
  9
$DIMTM
 40
0.0
  9
$DIMTXT
 40
3.5
  9
$DIMCEN
 40
2.5
  9
$DIMTSZ
 40
0.0
  9
$DIMTOL
 70
     0
  9
$DIMLIM
 70
     0
  9
$DIMTIH
 70
     0
  9
$DIMTOH
 70
     0
  9
$DIMSE1
 70
     0
  9
$DIMSE2
 70
     0
  9
$DIMTAD
 70
     1
  9
$DIMZIN
 70
     8
  9
$DIMBLK
  1

  9
$DIMASO
 70
     1
  9
$DIMSHO
 70
     1
  9
$DIMPOST
  1

  9
$DIMAPOST
  1

  9
$DIMALT
 70
     0
  9
$DIMALTD
 70
     3
  9
$DIMALTF
 40
0.03937
  9
$DIMLFAC
 40
1.0
  9
$DIMTOFL
 70
     1
  9
$DIMTVP
 40
0.0
  9
$DIMTIX
 70
     0
  9
$DIMSOXD
 70
     0
  9
$DIMSAH
 70
     0
  9
$DIMBLK1
  1

  9
$DIMBLK2
  1

  9
$DIMSTYLE
  2
ISO-25
  9
$DIMCLRD
 70
     0
  9
$DIMCLRE
 70
     0
  9
$DIMCLRT
 70
     0
  9
$DIMTFAC
 40
1.0
  9
$DIMGAP
 40
0.625
  9
$DIMJUST
 70
     0
  9
$DIMSD1
 70
     0
  9
$DIMSD2
 70
     0
  9
$DIMTOLJ
 70
     0
  9
$DIMTZIN
 70
     8
  9
$DIMALTZ
 70
     0
  9
$DIMALTTZ
 70
     0
  9
$DIMUPT
 70
     0
  9
$DIMDEC
 70
     2
  9
$DIMTDEC
 70
     2
  9
$DIMALTU
 70
     2
  9
$DIMALTTD
 70
     3
  9
$DIMTXSTY
  7
Standard
  9
$DIMAUNIT
 70
     0
  9
$DIMADEC
 70
     0
  9
$DIMALTRND
 40
0.0
  9
$DIMAZIN
 70
     0
  9
$DIMDSEP
 70
    44
  9
$DIMATFIT
 70
     3
  9
$DIMFRAC
 70
     0
  9
$DIMLDRBLK
  1

  9
$DIMLUNIT
 70
     2
  9
$DIMLWD
 70
    -2
  9
$DIMLWE
 70
    -2
  9
$DIMTMOVE
 70
     0
  9
$LUNITS
 70
     2
  9
$LUPREC
 70
     4
  9
$SKETCHINC
 40
1.0
  9
$FILLETRAD
 40
10.0
  9
$AUNITS
 70
     0
  9
$AUPREC
 70
     0
  9
$MENU
  1
.
  9
$ELEVATION
 40
0.0
  9
$PELEVATION
 40
0.0
  9
$THICKNESS
 40
0.0
  9
$LIMCHECK
 70
     0
  9
$CHAMFERA
 40
10.0
  9
$CHAMFERB
 40
10.0
  9
$CHAMFERC
 40
20.0
  9
$CHAMFERD
 40
0.0
  9
$SKPOLY
 70
     0
  9
$TDCREATE
 40
2456737.47436838
  9
$TDUCREATE
 40
2456737.432701713
  9
$TDUPDATE
 40
2456737.474368391
  9
$TDUUPDATE
 40
2456737.432701725
  9
$TDINDWG
 40
0.0000000116
  9
$TDUSRTIMER
 40
0.0000000116
  9
$USRTIMER
 70
     1
  9
$ANGBASE
 50
0.0
  9
$ANGDIR
 70
     0
  9
$PDMODE
 70
     0
  9
$PDSIZE
 40
0.0
  9
$PLINEWID
 40
0.0
  9
$SPLFRAME
 70
     0
  9
$SPLINETYPE
 70
     6
  9
$SPLINESEGS
 70
     8
  9
$HANDSEED
  5
3E6
  9
$SURFTAB1
 70
     6
  9
$SURFTAB2
 70
     6
  9
$SURFTYPE
 70
     6
  9
$SURFU
 70
     6
  9
$SURFV
 70
     6
  9
$UCSBASE
  2

  9
$UCSNAME
  2

  9
$UCSORG
 10
0.0
 20
0.0
 30
0.0
  9
$UCSXDIR
 10
1.0
 20
0.0
 30
0.0
  9
$UCSYDIR
 10
0.0
 20
1.0
 30
0.0
  9
$UCSORTHOREF
  2

  9
$UCSORTHOVIEW
 70
     0
  9
$UCSORGTOP
 10
0.0
 20
0.0
 30
0.0
  9
$UCSORGBOTTOM
 10
0.0
 20
0.0
 30
0.0
  9
$UCSORGLEFT
 10
0.0
 20
0.0
 30
0.0
  9
$UCSORGRIGHT
 10
0.0
 20
0.0
 30
0.0
  9
$UCSORGFRONT
 10
0.0
 20
0.0
 30
0.0
  9
$UCSORGBACK
 10
0.0
 20
0.0
 30
0.0
  9
$PUCSBASE
  2

  9
$PUCSNAME
  2

  9
$PUCSORG
 10
0.0
 20
0.0
 30
0.0
  9
$PUCSXDIR
 10
1.0
 20
0.0
 30
0.0
  9
$PUCSYDIR
 10
0.0
 20
1.0
 30
0.0
  9
$PUCSORTHOREF
  2

  9
$PUCSORTHOVIEW
 70
     0
  9
$PUCSORGTOP
 10
0.0
 20
0.0
 30
0.0
  9
$PUCSORGBOTTOM
 10
0.0
 20
0.0
 30
0.0
  9
$PUCSORGLEFT
 10
0.0
 20
0.0
 30
0.0
  9
$PUCSORGRIGHT
 10
0.0
 20
0.0
 30
0.0
  9
$PUCSORGFRONT
 10
0.0
 20
0.0
 30
0.0
  9
$PUCSORGBACK
 10
0.0
 20
0.0
 30
0.0
  9
$USERI1
 70
     0
  9
$USERI2
 70
     0
  9
$USERI3
 70
     0
  9
$USERI4
 70
     0
  9
$USERI5
 70
     0
  9
$USERR1
 40
0.0
  9
$USERR2
 40
0.0
  9
$USERR3
 40
0.0
  9
$USERR4
 40
0.0
  9
$USERR5
 40
0.0
  9
$WORLDVIEW
 70
     1
  9
$SHADEDGE
 70
     3
  9
$SHADEDIF
 70
    70
  9
$TILEMODE
 70
     1
  9
$MAXACTVP
 70
    64
  9
$PINSBASE
 10
0.0
 20
0.0
 30
0.0
  9
$PLIMCHECK
 70
     0
  9
$PEXTMIN
 10
0.0
 20
0.0
 30
0.0
  9
$PEXTMAX
 10
2100.0
 20
2970.0
 30
0.0
  9
$PLIMMIN
 10
0.0
 20
0.0
  9
$PLIMMAX
 10
2100.0
 20
2970.0
  9
$UNITMODE
 70
     0
  9
$VISRETAIN
 70
     1
  9
$PLINEGEN
 70
     0
  9
$PSLTSCALE
 70
     1
  9
$TREEDEPTH
 70
  3020
  9
$CMLSTYLE
  2
Standard
  9
$CMLJUST
 70
     0
  9
$CMLSCALE
 40
20.0
  9
$PROXYGRAPHICS
 70
     1
  9
$MEASUREMENT
 70
     1
  9
$CELWEIGHT
370
    -1
  9
$ENDCAPS
280
     0
  9
$JOINSTYLE
280
     0
  9
$LWDISPLAY
290
     0
  9
$INSUNITS
 70
     4
  9
$HYPERLINKBASE
  1

  9
$STYLESHEET
  1

  9
$XEDIT
290
     1
  9
$CEPSNTYPE
380
     0
  9
$PSTYLEMODE
290
     1
  9
$FINGERPRINTGUID
  2
{FAEB1C30-E019-11D5-929B-00C0DF256EC4}
  9
$VERSIONGUID
  2
{FAEB1C32-E019-11D5-929B-00C0DF256EC4}
  9
$EXTNAMES
290
     1
  9
$PSVPSCALE
 40
0.0
  9
$OLESTARTUP
290
     0
  9
$SORTENTS
280
   127
  9
$INDEXCTL
280
     0
  9
$HIDETEXT
280
     1
  9
$XCLIPFRAME
290
     0
  9
$HALOGAP
280
     0
  9
$OBSCOLOR
 70
   257
  9
$OBSLTYPE
280
     0
  9
$INTERSECTIONDISPLAY
280
     0
  9
$INTERSECTIONCOLOR
 70
   257
  9
$DIMASSOC
280
     2
  9
$PROJECTNAME
  1

  0
ENDSEC
  0
SECTION
  2
CLASSES
  0
CLASS
  1
ACDBDICTIONARYWDFLT
  2
AcDbDictionaryWithDefault
  3
ObjectDBX Classes
 90
        0
 91
        1
280
     0
281
     0
  0
ENDSEC
  0
SECTION
  2
TABLES
  0
TABLE
  2
VPORT
  5
8
330
0
100
AcDbSymbolTable
 70
     2
  0
VPORT
  5
29
330
8
100
AcDbSymbolTableRecord
100
AcDbViewportTableRecord
  2
*ACTIVE
 70
     0
 10
0.0
 20
0.0
 11
1.0
 21
1.0
 12
1050.0
 22
1485.0
 13
0.0
 23
0.0
 14
1.0
 24
1.0
 15
0.0
 25
0.0
 16
0.0
 26
0.0
 36
1.0
 17
0.0
 27
0.0
 37
0.0
 40
2970.0
 41
0.707071
 42
50.0
 43
0.0
 44
0.0
 50
0.0
 51
0.0
 71
    16
 72
   100
 73
     1
 74
     0
 75
     0
 76
     0
 77
     0
 78
     0
281
     0
 65
     0
110
0.0
120
0.0
130
0.0
111
1.0
121
0.0
131
0.0
112
0.0
122
1.0
132
0.0
 79
     0
146
0.0
  0
ENDTAB
  0
TABLE
  2
LTYPE
  5
5
330
0
100
AcDbSymbolTable
 70
     3
  0
LTYPE
  5
14
330
5
100
AcDbSymbolTableRecord
100
AcDbLinetypeTableRecord
  2
ByBlock
 70
     0
  3

 72
    65
 73
     0
 40
0.0
  0
LTYPE
  5
15
330
5
100
AcDbSymbolTableRecord
100
AcDbLinetypeTableRecord
  2
ByLayer
 70
     0
  3

 72
    65
 73
     0
 40
0.0
  0
LTYPE
  5
16
330
5
100
AcDbSymbolTableRecord
100
AcDbLinetypeTableRecord
  2
Continuous
 70
     0
  3
Solid line
 72
    65
 73
     0
 40
0.0
  0
LTYPE
  5
2A
330
5
100
AcDbSymbolTableRecord
100
AcDbLinetypeTableRecord
  2
DASHED
 70
     0
  3
__ __ __ __ __
 72
    65
 73
     2
 40
6.25
 49
5.0
 74
     4
 75
     0
340
0
 46
1.0
 50
0.0
 44
0.0
 45
0.0
 49
-1.25
 74
     4
 75
     0
340
0
 46
1.0
 50
0.0
 44
0.0
 45
0.0
  0
LTYPE
  5
107
330
5
100
AcDbSymbolTableRecord
100
AcDbLinetypeTableRecord
  2
DASHDOT
 70
     0
  3
__ . __ . __ . __ . __
 72
    65
 73
     4
 40
7.5
 49
5.0
 74
     4
 75
     0
340
0
 46
1.0
 50
0.0
 44
0.0
 45
0.0
 49
-1.25
 74
     4
 75
     0
340
0
 46
1.0
 50
0.0
 44
0.0
 45
0.0
 49
0.0
 74
     4
 75
     0
340
0
 46
1.0
 50
0.0
 44
0.0
 45
0.0
 49
-1.25
 74
     4
 75
     0
340
0
 46
1.0
 50
0.0
 44
0.0
 45
0.0
  0
ENDTAB
  0
TABLE
  2
LAYER
  5
2
330
0
100
AcDbSymbolTable
 70
    14
  0
LAYER
  5
10
330
2
100
AcDbSymbolTableRecord
100
AcDbLayerTableRecord
  2
0
 70
     0
 62
     7
  6
Continuous
370
    -3
390
F
  0
LAYER
  5
2B
330
2
100
AcDbSymbolTableRecord
100
AcDbLayerTableRecord
  2
LC-INFO-1-10-mm-A4H-0
 70
     1
 62
     7
  6
ByBlock
370
    -3
390
F
  0
LAYER
  5
2C
330
2
100
AcDbSymbolTableRecord
100
AcDbLayerTableRecord
  2
LC-CUT-HIDDEN
 70
     0
 62
     7
  6
DASHED
370
    -3
390
F
  0
LAYER
  5
2D
330
2
100
AcDbSymbolTableRecord
100
AcDbLayerTableRecord
  2
LC-VIEWPORT
 70
     0
 62
     7
  6
ByBlock
370
    -3
390
F
  0
LAYER
  5
2E
330
2
100
AcDbSymbolTableRecord
100
AcDbLayerTableRecord
  2
LC-3D-HIDDEN
 70
     0
 62
     9
  6
DASHED
370
    -3
390
F
  0
LAYER
  5
33
330
2
100
AcDbSymbolTableRecord
100
AcDbLayerTableRecord
  2
LC-001-111-----0
 70
     0
 62
   253
  6
ByBlock
370
    -3
390
F
  0
LAYER
  5
A0
330
2
100
AcDbSymbolTableRecord
100
AcDbLayerTableRecord
  2
LC-002-002-----0
 70
     0
 62
     1
  6
ByBlock
370
    -3
390
F
  0
LAYER
  5
101
330
2
100
AcDbSymbolTableRecord
100
AcDbLayerTableRecord
  2
LC-003-230-ZVN-0
 70
     0
 62
     2
  6
ByBlock
370
    -3
390
F
  0
LAYER
  5
105
330
2
100
AcDbSymbolTableRecord
100
AcDbLayerTableRecord
  2
LC-004-100-D10-0
 70
     0
 62
     1
  6
ByBlock
370
    -3
390
F
  0
LAYER
  5
10E
330
2
100
AcDbSymbolTableRecord
100
AcDbLayerTableRecord
  2
LC-005-002-RND-0
 70
     0
 62
     1
  6
ByBlock
370
    -3
390
F
  0
LAYER
  5
20E
330
2
100
AcDbSymbolTableRecord
100
AcDbLayerTableRecord
  2
LC-006-003-----0
 70
     0
 62
     2
  6
ByBlock
370
    -3
390
F
  0
LAYER
  5
210
330
2
100
AcDbSymbolTableRecord
100
AcDbLayerTableRecord
  2
Defpoints
 70
     0
 62
     7
  6
Continuous
290
     0
370
    -3
390
F
  0
LAYER
  5
22E
330
2
100
AcDbSymbolTableRecord
100
AcDbLayerTableRecord
  2
LC-007-004-----0
 70
     0
 62
     7
  6
ByBlock
370
    -3
390
F
  0
LAYER
  5
30A
330
2
100
AcDbSymbolTableRecord
100
AcDbLayerTableRecord
  2
LC-008-005-----0
 70
     0
 62
     2
  6
ByBlock
370
    -3
390
F
  0
ENDTAB
  0
TABLE
  2
STYLE
  5
3
330
0
100
AcDbSymbolTable
 70
     2
  0
STYLE
  5
11
330
3
100
AcDbSymbolTableRecord
100
AcDbTextStyleTableRecord
  2
Standard
 70
     0
 40
0.0
 41
1.0
 50
0.0
 71
     0
 42
2.5
  3
txt
  4

  0
STYLE
  5
2F
330
3
100
AcDbSymbolTableRecord
100
AcDbTextStyleTableRecord
  2
LCTX0-400-0-0pDIN-Schrift
 70
     0
 40
0.0
 41
0.7
 50
0.0
 71
     0
 42
3.5
  3
TXT
  4

  0
ENDTAB
  0
TABLE
  2
VIEW
  5
6
330
0
100
AcDbSymbolTable
 70
     0
  0
ENDTAB
  0
TABLE
  2
UCS
  5
7
330
0
100
AcDbSymbolTable
 70
     0
  0
ENDTAB
  0
TABLE
  2
APPID
  5
9
330
0
100
AcDbSymbolTable
 70
     1
  0
APPID
  5
12
330
9
100
AcDbSymbolTableRecord
100
AcDbRegAppTableRecord
  2
ACAD
 70
     0
  0
ENDTAB
  0
TABLE
  2
DIMSTYLE
  5
A
330
0
100
AcDbSymbolTable
 70
     6
100
AcDbDimStyleTable
  0
DIMSTYLE
105
27
330
A
100
AcDbSymbolTableRecord
100
AcDbDimStyleTableRecord
  2
ISO-25
 70
     0
 41
2.5
 42
0.625
 43
3.75
 44
1.25
 73
     0
 74
     0
 77
     1
 78
     8
140
2.5
141
2.5
143
0.03937
147
0.625
171
     3
172
     1
271
     2
272
     2
274
     3
278
    44
283
     0
284
     8
340
11
  0
DIMSTYLE
105
20D
102
{ACAD_REACTORS
330
20F
330
35B
330
368
102
}
330
A
100
AcDbSymbolTableRecord
100
AcDbDimStyleTableRecord
  2
LC-DIM-L-0025-02-02
 70
     0
 40
10.0
 41
2.5
 42
0.0
 43
7.5
 44
1.8
 73
     0
 74
     0
 77
     1
 78
     8
 79
     2
140
2.5
141
0.0
146
0.71
147
1.5
172
     1
176
     2
177
     2
178
     2
179
     2
271
     2
278
    44
289
     1
340
2F
  0
DIMSTYLE
105
220
102
{ACAD_REACTORS
330
221
330
3B0
330
3BD
330
3CC
102
}
330
A
100
AcDbSymbolTableRecord
100
AcDbDimStyleTableRecord
  2
LC-DIM-L-0025-00-02
 70
     0
 40
10.0
 41
2.5
 42
0.0
 43
7.5
 44
1.8
 73
     0
 74
     0
 77
     1
 78
     8
140
2.5
141
0.0
146
0.71
147
1.5
172
     1
176
     2
177
     2
178
     2
271
     0
278
    44
289
     1
340
2F
  0
DIMSTYLE
105
23F
102
{ACAD_REACTORS
330
240
330
24D
330
32C
330
33B
330
34A
102
}
330
A
100
AcDbSymbolTableRecord
100
AcDbDimStyleTableRecord
  2
LC-DIM-L-0025-01-02
 70
     0
 40
10.0
 41
2.5
 42
0.0
 43
7.5
 44
1.8
 73
     0
 74
     0
 77
     1
 78
     8
 79
     2
140
2.5
141
0.0
146
0.71
147
1.5
172
     1
176
     2
177
     2
178
     2
179
     1
271
     1
278
    44
289
     1
340
2F
  0
DIMSTYLE
105
25A
102
{ACAD_REACTORS
330
25B
102
}
330
A
100
AcDbSymbolTableRecord
100
AcDbDimStyleTableRecord
  2
LC-DIM-R-0025-01-02
 70
     0
 40
10.0
 41
2.5
 42
0.0
 43
7.5
 44
1.8
 73
     0
 74
     0
 77
     1
 78
     8
 79
     2
140
2.5
141
0.0
146
0.71
147
1.5
176
     2
177
     2
178
     2
179
     1
271
     1
278
    44
289
     1
340
2F
  0
DIMSTYLE
105
3A6
102
{ACAD_REACTORS
330
3A7
102
}
330
A
100
AcDbSymbolTableRecord
100
AcDbDimStyleTableRecord
  2
LC-DIM-R-0025-02-02
 70
     0
 40
10.0
 41
2.5
 42
0.0
 43
7.5
 44
1.8
 73
     0
 74
     0
 77
     1
 78
     8
 79
     2
140
2.5
141
0.0
146
0.71
147
1.5
176
     2
177
     2
178
     2
179
     2
271
     2
278
    44
289
     1
340
2F
  0
ENDTAB
  0
TABLE
  2
BLOCK_RECORD
  5
1
330
0
100
AcDbSymbolTable
 70
    30
  0
BLOCK_RECORD
  5
1F
330
1
100
AcDbSymbolTableRecord
100
AcDbBlockTableRecord
  2
*Model_Space
340
22
  0
BLOCK_RECORD
  5
1B
330
1
100
AcDbSymbolTableRecord
100
AcDbBlockTableRecord
  2
*Paper_Space
340
1E
  0
BLOCK_RECORD
  5
23
330
1
100
AcDbSymbolTableRecord
100
AcDbBlockTableRecord
  2
*Paper_Space0
340
26
  0
BLOCK_RECORD
  5
30
330
1
100
AcDbSymbolTableRecord
100
AcDbBlockTableRecord
  2
SYM1
340
0
102
{BLKREFS
331
102
102
}
  0
BLOCK_RECORD
  5
11B
330
1
100
AcDbSymbolTableRecord
100
AcDbBlockTableRecord
  2
POLY1
340
0
102
{BLKREFS
331
12C
102
}
  0
BLOCK_RECORD
  5
12D
330
1
100
AcDbSymbolTableRecord
100
AcDbBlockTableRecord
  2
POLY2
340
0
102
{BLKREFS
331
13E
102
}
  0
BLOCK_RECORD
  5
143
330
1
100
AcDbSymbolTableRecord
100
AcDbBlockTableRecord
  2
POLY3
340
0
102
{BLKREFS
331
14F
102
}
  0
BLOCK_RECORD
  5
150
330
1
100
AcDbSymbolTableRecord
100
AcDbBlockTableRecord
  2
POLY4
340
0
102
{BLKREFS
331
15C
102
}
  0
BLOCK_RECORD
  5
160
330
1
100
AcDbSymbolTableRecord
100
AcDbBlockTableRecord
  2
POLY5
340
0
102
{BLKREFS
331
166
102
}
  0
BLOCK_RECORD
  5
185
330
1
100
AcDbSymbolTableRecord
100
AcDbBlockTableRecord
  2
POLY6
340
0
102
{BLKREFS
331
1A9
102
}
  0
BLOCK_RECORD
  5
1B0
330
1
100
AcDbSymbolTableRecord
100
AcDbBlockTableRecord
  2
POLY7
340
0
102
{BLKREFS
331
1C2
102
}
  0
BLOCK_RECORD
  5
1C3
330
1
100
AcDbSymbolTableRecord
100
AcDbBlockTableRecord
  2
POLY8
340
0
102
{BLKREFS
331
1D5
102
}
  0
BLOCK_RECORD
  5
1DA
330
1
100
AcDbSymbolTableRecord
100
AcDbBlockTableRecord
  2
POLY9
340
0
102
{BLKREFS
331
1E7
102
}
  0
BLOCK_RECORD
  5
1E8
330
1
100
AcDbSymbolTableRecord
100
AcDbBlockTableRecord
  2
POLY10
340
0
102
{BLKREFS
331
1F5
102
}
  0
BLOCK_RECORD
  5
211
330
1
100
AcDbSymbolTableRecord
100
AcDbBlockTableRecord
  2
*D12
340
0
  0
BLOCK_RECORD
  5
222
330
1
100
AcDbSymbolTableRecord
100
AcDbBlockTableRecord
  2
*D13
340
0
  0
BLOCK_RECORD
  5
241
330
1
100
AcDbSymbolTableRecord
100
AcDbBlockTableRecord
  2
*D14
340
0
  0
BLOCK_RECORD
  5
24E
330
1
100
AcDbSymbolTableRecord
100
AcDbBlockTableRecord
  2
*D15
340
0
  0
BLOCK_RECORD
  5
25C
330
1
100
AcDbSymbolTableRecord
100
AcDbBlockTableRecord
  2
*D16
340
0
  0
BLOCK_RECORD
  5
288
330
1
100
AcDbSymbolTableRecord
100
AcDbBlockTableRecord
  2
POLY11
340
0
102
{BLKREFS
331
297
102
}
  0
BLOCK_RECORD
  5
307
330
1
100
AcDbSymbolTableRecord
100
AcDbBlockTableRecord
  2
*X118
340
0
102
{BLKREFS
331
313
102
}
  0
BLOCK_RECORD
  5
31D
330
1
100
AcDbSymbolTableRecord
100
AcDbBlockTableRecord
  2
*X219
340
0
102
{BLKREFS
331
32B
102
}
  0
BLOCK_RECORD
  5
32D
330
1
100
AcDbSymbolTableRecord
100
AcDbBlockTableRecord
  2
*D20
340
0
  0
BLOCK_RECORD
  5
33C
330
1
100
AcDbSymbolTableRecord
100
AcDbBlockTableRecord
  2
*D21
340
0
  0
BLOCK_RECORD
  5
34B
330
1
100
AcDbSymbolTableRecord
100
AcDbBlockTableRecord
  2
*D22
340
0
  0
BLOCK_RECORD
  5
35C
330
1
100
AcDbSymbolTableRecord
100
AcDbBlockTableRecord
  2
*D23
340
0
  0
BLOCK_RECORD
  5
369
330
1
100
AcDbSymbolTableRecord
100
AcDbBlockTableRecord
  2
*D24
340
0
  0
BLOCK_RECORD
  5
376
330
1
100
AcDbSymbolTableRecord
100
AcDbBlockTableRecord
  2
*X325
340
0
102
{BLKREFS
331
3A5
102
}
  0
BLOCK_RECORD
  5
3A8
330
1
100
AcDbSymbolTableRecord
100
AcDbBlockTableRecord
  2
*D26
340
0
  0
BLOCK_RECORD
  5
3B1
330
1
100
AcDbSymbolTableRecord
100
AcDbBlockTableRecord
  2
*D27
340
0
  0
BLOCK_RECORD
  5
3BE
330
1
100
AcDbSymbolTableRecord
100
AcDbBlockTableRecord
  2
*D28
340
0
  0
BLOCK_RECORD
  5
3CD
330
1
100
AcDbSymbolTableRecord
100
AcDbBlockTableRecord
  2
*D29
340
0
  0
ENDTAB
  0
ENDSEC
  0
SECTION
  2
BLOCKS
  0
BLOCK
  5
20
330
1F
100
AcDbEntity
  8
0
100
AcDbBlockBegin
  2
*Model_Space
 70
     0
 71
     0
 10
0.0
 20
0.0
 30
0.0
  3
*Model_Space
  1

  0
ENDBLK
  5
21
330
1F
100
AcDbEntity
  8
0
100
AcDbBlockEnd
  0
BLOCK
  5
1C
330
1B
100
AcDbEntity
 67
     1
  8
0
100
AcDbBlockBegin
  2
*Paper_Space
 70
     0
 71
     0
 10
0.0
 20
0.0
 30
0.0
  3
*Paper_Space
  1

  0
ENDBLK
  5
1D
330
1B
100
AcDbEntity
 67
     1
  8
0
100
AcDbBlockEnd
  0
BLOCK
  5
24
330
23
100
AcDbEntity
  8
0
100
AcDbBlockBegin
  2
*Paper_Space0
 70
     0
 71
     0
 10
0.0
 20
0.0
 30
0.0
  3
*Paper_Space0
  1

  0
ENDBLK
  5
25
330
23
100
AcDbEntity
  8
0
100
AcDbBlockEnd
  0
BLOCK
  5
31
330
30
100
AcDbEntity
  8
0
100
AcDbBlockBegin
  2
SYM1
 70
     0
 71
     0
 10
0.0
 20
0.0
 30
0.0
  3
SYM1
  1

  4
SYM1
  0
LINE
  5
34
330
30
100
AcDbEntity
  8
LC-001-111-----0
 62
   253
370
    50
100
AcDbLine
 10
2050.0
 20
50.0
 30
0.0
 11
2050.0
 21
2920.0
 31
0.0
  0
LINE
  5
35
330
30
100
AcDbEntity
  8
LC-001-111-----0
 62
   253
370
    25
100
AcDbLine
 10
178.0
 20
220.0
 30
0.0
 11
724.0
 21
220.0
 31
0.0
  0
LINE
  5
36
330
30
100
AcDbEntity
  8
LC-001-111-----0
 62
   253
370
    35
100
AcDbLine
 10
724.0
 20
220.0
 30
0.0
 11
2050.0
 21
220.0
 31
0.0
  0
LINE
  5
37
330
30
100
AcDbEntity
  8
LC-001-111-----0
 62
   253
370
    50
100
AcDbLine
 10
178.0
 20
602.5
 30
0.0
 11
2050.0
 21
602.5
 31
0.0
  0
LINE
  5
38
330
30
100
AcDbEntity
  8
LC-001-111-----0
 62
   253
370
    25
100
AcDbLine
 10
178.0
 20
92.5
 30
0.0
 11
2050.0
 21
92.5
 31
0.0
  0
LINE
  5
39
330
30
100
AcDbEntity
  8
LC-001-111-----0
 62
   253
370
    25
100
AcDbLine
 10
178.0
 20
135.0
 30
0.0
 11
724.0
 21
135.0
 31
0.0
  0
LINE
  5
3A
330
30
100
AcDbEntity
  8
LC-001-111-----0
 62
   253
370
    25
100
AcDbLine
 10
178.0
 20
177.5
 30
0.0
 11
724.0
 21
177.5
 31
0.0
  0
LINE
  5
3B
330
30
100
AcDbEntity
  8
LC-001-111-----0
 62
   253
370
    25
100
AcDbLine
 10
178.0
 20
262.5
 30
0.0
 11
1166.0
 21
262.5
 31
0.0
  0
LINE
  5
3C
330
30
100
AcDbEntity
  8
LC-001-111-----0
 62
   253
370
    25
100
AcDbLine
 10
178.0
 20
305.0
 30
0.0
 11
1166.0
 21
305.0
 31
0.0
  0
LINE
  5
3D
330
30
100
AcDbEntity
  8
LC-001-111-----0
 62
   253
370
    25
100
AcDbLine
 10
178.0
 20
347.5
 30
0.0
 11
1166.0
 21
347.5
 31
0.0
  0
LINE
  5
3E
330
30
100
AcDbEntity
  8
LC-001-111-----0
 62
   253
370
    25
100
AcDbLine
 10
178.0
 20
390.0
 30
0.0
 11
1166.0
 21
390.0
 31
0.0
  0
LINE
  5
3F
330
30
100
AcDbEntity
  8
LC-001-111-----0
 62
   253
370
    35
100
AcDbLine
 10
178.0
 20
432.5
 30
0.0
 11
2050.0
 21
432.5
 31
0.0
  0
LINE
  5
40
330
30
100
AcDbEntity
  8
LC-001-111-----0
 62
   253
370
    25
100
AcDbLine
 10
828.0
 20
262.5
 30
0.0
 11
828.0
 21
432.5
 31
0.0
  0
LINE
  5
41
330
30
100
AcDbEntity
  8
LC-001-111-----0
 62
   253
370
    35
100
AcDbLine
 10
1920.0
 20
92.5
 30
0.0
 11
1920.0
 21
220.0
 31
0.0
  0
LINE
  5
42
330
30
100
AcDbEntity
  8
LC-001-111-----0
 62
   253
370
    25
100
AcDbLine
 10
1166.0
 20
538.75
 30
0.0
 11
2050.0
 21
538.75
 31
0.0
  0
LINE
  5
43
330
30
100
AcDbEntity
  8
LC-001-111-----0
 62
   253
370
    25
100
AcDbLine
 10
256.0
 20
50.0
 30
0.0
 11
256.0
 21
432.5
 31
0.0
  0
LINE
  5
44
330
30
100
AcDbEntity
  8
LC-001-111-----0
 62
   253
370
    25
100
AcDbLine
 10
516.0
 20
50.0
 30
0.0
 11
516.0
 21
432.5
 31
0.0
  0
LINE
  5
45
330
30
100
AcDbEntity
  8
LC-001-111-----0
 62
   253
370
    25
100
AcDbLine
 10
646.0
 20
50.0
 30
0.0
 11
646.0
 21
432.5
 31
0.0
  0
LINE
  5
46
330
30
100
AcDbEntity
  8
LC-001-111-----0
 62
   253
370
    35
100
AcDbLine
 10
724.0
 20
50.0
 30
0.0
 11
724.0
 21
602.5
 31
0.0
  0
LINE
  5
47
330
30
100
AcDbEntity
  8
LC-001-111-----0
 62
   253
370
    35
100
AcDbLine
 10
1166.0
 20
50.0
 30
0.0
 11
1166.0
 21
602.5
 31
0.0
  0
LINE
  5
48
330
30
100
AcDbEntity
  8
LC-001-111-----0
 62
   253
370
    25
100
AcDbLine
 10
1920.0
 20
135.0
 30
0.0
 11
2050.0
 21
135.0
 31
0.0
  0
LINE
  5
49
330
30
100
AcDbEntity
  8
LC-001-111-----0
 62
   253
370
    25
100
AcDbLine
 10
984.0
 20
220.0
 30
0.0
 11
984.0
 21
602.5
 31
0.0
  0
LINE
  5
4A
330
30
100
AcDbEntity
  8
LC-001-111-----0
 62
   253
370
    25
100
AcDbLine
 10
1686.0
 20
538.75
 30
0.0
 11
1686.0
 21
602.5
 31
0.0
  0
LINE
  5
4B
330
30
100
AcDbEntity
  8
LC-001-111-----0
 62
   253
370
    25
100
AcDbLine
 10
1608.0
 20
50.0
 30
0.0
 11
1608.0
 21
92.5
 31
0.0
  0
LINE
  5
4C
330
30
100
AcDbEntity
  8
LC-001-111-----0
 62
   253
370
    50
100
AcDbLine
 10
178.0
 20
50.0
 30
0.0
 11
178.0
 21
2920.0
 31
0.0
  0
LINE
  5
4D
330
30
100
AcDbEntity
  8
LC-001-111-----0
 62
   253
370
    50
100
AcDbLine
 10
178.0
 20
2920.0
 30
0.0
 11
2050.0
 21
2920.0
 31
0.0
  0
TEXT
  5
4E
330
30
100
AcDbEntity
  8
LC-001-111-----0
 62
     7
370
    25
100
AcDbText
 10
1480.525
 20
558.125
 30
0.0
 40
25.0
  1
1:10
 41
0.75
  7
LCTX0-400-0-0pDIN-Schrift
 72
     1
 11
1504.0
 21
558.125
 31
0.0
100
AcDbText
  0
TEXT
  5
4F
330
30
100
AcDbEntity
  8
LC-001-111-----0
 62
     7
370
    25
100
AcDbText
 10
743.178125
 20
398.75
 30
0.0
 40
25.0
  1
2013
 41
0.75
  7
LCTX0-400-0-0pDIN-Schrift
 72
     1
 11
776.0
 21
398.75
 31
0.0
100
AcDbText
  0
TEXT
  5
50
330
30
100
AcDbEntity
  8
LC-001-111-----0
 62
     7
370
    25
100
AcDbText
 10
866.925
 20
356.25
 30
0.0
 40
25.0
  1
29.10.
 41
0.75
  7
LCTX0-400-0-0pDIN-Schrift
 72
     1
 11
906.0
 21
356.25
 31
0.0
100
AcDbText
  0
TEXT
  5
51
330
30
100
AcDbEntity
  8
LC-001-111-----0
 62
     7
370
    25
100
AcDbText
 10
1056.25
 20
356.25
 30
0.0
 40
25.0
  1
KM
 41
0.75
  7
LCTX0-400-0-0pDIN-Schrift
 72
     1
 11
1075.0
 21
356.25
 31
0.0
100
AcDbText
  0
TEXT
  5
52
330
30
100
AcDbEntity
  8
LC-001-111-----0
 62
   253
370
    20
100
AcDbText
 10
1183.923077
 20
560.625
 30
0.0
 40
20.0
  1
Maßstab
 41
0.75
  7
LCTX0-400-0-0pDIN-Schrift
100
AcDbText
  0
TEXT
  5
53
330
30
100
AcDbEntity
  8
LC-001-111-----0
 62
   253
370
    20
100
AcDbText
 10
868.4175
 20
401.25
 30
0.0
 40
20.0
  1
Datum
 41
0.75
  7
LCTX0-400-0-0pDIN-Schrift
 72
     1
 11
906.0
 21
401.25
 31
0.0
100
AcDbText
  0
TEXT
  5
54
330
30
100
AcDbEntity
  8
LC-001-111-----0
 62
   253
370
    20
100
AcDbText
 10
1044.9625
 20
401.25
 30
0.0
 40
20.0
  1
Name
 41
0.75
  7
LCTX0-400-0-0pDIN-Schrift
 72
     1
 11
1075.0
 21
401.25
 31
0.0
100
AcDbText
  0
TEXT
  5
55
330
30
100
AcDbEntity
  8
LC-001-111-----0
 62
   253
370
    20
100
AcDbText
 10
741.923077
 20
358.75
 30
0.0
 40
20.0
  1
Bearb.
 41
0.75
  7
LCTX0-400-0-0pDIN-Schrift
100
AcDbText
  0
TEXT
  5
56
330
30
100
AcDbEntity
  8
LC-001-111-----0
 62
   253
370
    20
100
AcDbText
 10
741.923077
 20
316.25
 30
0.0
 40
20.0
  1
Gepr.
 41
0.75
  7
LCTX0-400-0-0pDIN-Schrift
100
AcDbText
  0
TEXT
  5
57
330
30
100
AcDbEntity
  8
LC-001-111-----0
 62
   253
370
    20
100
AcDbText
 10
741.923077
 20
273.75
 30
0.0
 40
20.0
  1
Norm
 41
0.75
  7
LCTX0-400-0-0pDIN-Schrift
100
AcDbText
  0
TEXT
  5
58
330
30
100
AcDbEntity
  8
LC-001-111-----0
 62
   253
370
    20
100
AcDbText
 10
1937.923077
 20
188.75
 30
0.0
 40
20.0
  1
Blatt
 41
0.75
  7
LCTX0-400-0-0pDIN-Schrift
100
AcDbText
  0
TEXT
  5
59
330
30
100
AcDbEntity
  8
LC-001-111-----0
 62
   253
370
    20
100
AcDbText
 10
2011.906923
 20
103.75
 30
0.0
 40
20.0
  1
Bl.
 41
0.75
  7
LCTX0-400-0-0pDIN-Schrift
 72
     2
 11
2037.076923
 21
103.75
 31
0.0
100
AcDbText
  0
TEXT
  5
5A
330
30
100
AcDbEntity
  8
LC-001-111-----0
 62
   253
370
    20
100
AcDbText
 10
196.056
 20
61.25
 30
0.0
 40
20.0
  1
Zust.
 41
0.6
  7
LCTX0-400-0-0pDIN-Schrift
 72
     1
 11
222.0
 21
61.25
 31
0.0
100
AcDbText
  0
TEXT
  5
5B
330
30
100
AcDbEntity
  8
LC-001-111-----0
 62
   253
370
    20
100
AcDbText
 10
326.0
 20
61.25
 30
0.0
 40
20.0
  1
Änderung
 41
0.75
  7
LCTX0-400-0-0pDIN-Schrift
 72
     1
 11
386.0
 21
61.25
 31
0.0
100
AcDbText
  0
TEXT
  5
5C
330
30
100
AcDbEntity
  8
LC-001-111-----0
 62
   253
370
    20
100
AcDbText
 10
543.4175
 20
61.25
 30
0.0
 40
20.0
  1
Datum
 41
0.75
  7
LCTX0-400-0-0pDIN-Schrift
 72
     1
 11
581.0
 21
61.25
 31
0.0
100
AcDbText
  0
TEXT
  5
5D
330
30
100
AcDbEntity
  8
LC-001-111-----0
 62
   253
370
    20
100
AcDbText
 10
654.9625
 20
61.25
 30
0.0
 40
20.0
  1
Name
 41
0.75
  7
LCTX0-400-0-0pDIN-Schrift
 72
     1
 11
685.0
 21
61.25
 31
0.0
100
AcDbText
  0
TEXT
  5
5E
330
30
100
AcDbEntity
  8
LC-001-111-----0
 62
     7
370
    50
100
AcDbText
 10
1351.74375
 20
343.75
 30
0.0
 40
50.0
  1
Primus N-100XLY
 41
0.75
  7
LCTX0-400-0-0pDIN-Schrift
 72
     1
 11
1608.0
 21
343.75
 31
0.0
100
AcDbText
  0
TEXT
  5
5F
330
30
100
AcDbEntity
  8
LC-001-111-----0
 62
     7
370
    50
100
AcDbText
 10
1349.4625
 20
131.25
 30
0.0
 40
50.0
  1
4.13.681.04.02
 41
0.75
  7
LCTX0-400-0-0pDIN-Schrift
 72
     1
 11
1543.0
 21
131.25
 31
0.0
100
AcDbText
  0
ARC
  5
60
330
30
100
AcDbEntity
  8
LC-001-111-----0
 62
   253
370
    25
100
AcDbCircle
 10
758.903191
 20
174.567744
 30
0.0
 40
20.81533311668208
100
AcDbArc
 50
62.408264
 51
94.48185
  0
LINE
  5
61
330
30
100
AcDbEntity
  8
LC-001-111-----0
 62
   253
370
    50
100
AcDbLine
 10
178.0
 20
50.0
 30
0.0
 11
2050.0
 21
50.0
 31
0.0
  0
LINE
  5
62
330
30
100
AcDbEntity
  8
LC-001-111-----0
 62
   253
370
    25
100
AcDbLine
 10
50.0
 20
1485.0
 30
0.0
 11
0.0
 21
1485.0
 31
0.0
  0
LINE
  5
63
330
30
100
AcDbEntity
  8
LC-001-111-----0
 62
   253
370
    25
100
AcDbLine
 10
1063.835603
 20
195.169147
 30
0.0
 11
1063.835603
 21
157.149147
 31
0.0
  0
LINE
  5
64
330
30
100
AcDbEntity
  8
LC-001-111-----0
 62
   253
370
    25
100
AcDbLine
 10
2100.0
 20
2970.0
 30
0.0
 11
2100.0
 21
0.0
 31
0.0
  0
LINE
  5
65
330
30
100
AcDbEntity
  8
LC-001-111-----0
 62
   253
370
    25
100
AcDbLine
 10
2100.0
 20
0.0
 30
0.0
 11
0.0
 21
0.0
 31
0.0
  0
LINE
  5
66
330
30
100
AcDbEntity
  8
LC-001-111-----0
 62
   253
370
    25
100
AcDbLine
 10
0.0
 20
0.0
 30
0.0
 11
0.0
 21
2970.0
 31
0.0
  0
LINE
  5
67
330
30
100
AcDbEntity
  8
LC-001-111-----0
 62
   253
370
    25
100
AcDbLine
 10
2100.0
 20
2970.0
 30
0.0
 11
0.0
 21
2970.0
 31
0.0
  0
TEXT
  5
68
330
30
100
AcDbEntity
  8
LC-001-111-----0
 62
   253
370
    20
100
AcDbText
 10
729.2325
 20
111.159147
 30
0.0
 40
20.0
  1
Hofbauerstraße 1  ·  D-94209 REGEN
 41
0.65
  7
LCTX0-400-0-0pDIN-Schrift
 72
     1
 11
945.0
 21
111.159147
 31
0.0
100
AcDbText
  0
ARC
  5
69
330
30
100
AcDbEntity
  8
LC-001-111-----0
 62
   253
370
    25
100
AcDbCircle
 10
758.032826
 20
185.671748
 30
0.0
 40
9.677270814709853
100
AcDbArc
 50
94.48185
 51
252.731329
  0
ARC
  5
6A
330
30
100
AcDbEntity
  8
LC-001-111-----0
 62
   253
370
    25
100
AcDbCircle
 10
823.845603
 20
176.159147
 30
0.0
 40
19.01000000000008
100
AcDbArc
 50
74.719456
 51
285.280544
  0
LINE
  5
6B
330
30
100
AcDbEntity
  8
LC-001-111-----0
 62
   253
370
    25
100
AcDbLine
 10
828.855603
 20
157.821208
 30
0.0
 11
828.855603
 21
163.204148
 31
0.0
  0
ARC
  5
6C
330
30
100
AcDbEntity
  8
LC-001-111-----0
 62
   253
370
    25
100
AcDbCircle
 10
823.845603
 20
176.159147
 30
0.0
 40
13.88999999999995
100
AcDbArc
 50
68.857352
 51
291.142648
  0
ARC
  5
6D
330
30
100
AcDbEntity
  8
LC-001-111-----0
 62
   253
370
    25
100
AcDbCircle
 10
823.845603
 20
176.159147
 30
0.0
 40
12.39000000000002
100
AcDbArc
 50
58.303227
 51
301.696773
  0
ARC
  5
6E
330
30
100
AcDbEntity
  8
LC-001-111-----0
 62
   253
370
    25
100
AcDbCircle
 10
1019.845603
 20
176.159147
 30
0.0
 40
19.01000000000008
100
AcDbArc
 50
74.719456
 51
285.280544
  0
LINE
  5
6F
330
30
100
AcDbEntity
  8
LC-001-111-----0
 62
   253
370
    25
100
AcDbLine
 10
830.355603
 20
165.617231
 30
0.0
 11
830.355603
 21
156.709726
 31
0.0
  0
LINE
  5
70
330
30
100
AcDbEntity
  8
LC-001-111-----0
 62
   253
370
    25
100
AcDbLine
 10
755.160101
 20
176.430697
 30
0.0
 11
762.683613
 21
174.091896
 31
0.0
  0
ARC
  5
71
330
30
100
AcDbEntity
  8
LC-001-111-----0
 62
   253
370
    25
100
AcDbCircle
 10
823.845603
 20
176.159147
 30
0.0
 40
20.51000000000012
100
AcDbArc
 50
71.493868
 51
288.506132
  0
LINE
  5
72
330
30
100
AcDbEntity
  8
LC-001-111-----0
 62
   253
370
    25
100
AcDbLine
 10
1024.855603
 20
157.821208
 30
0.0
 11
1024.855603
 21
163.204148
 31
0.0
  0
LINE
  5
73
330
30
100
AcDbEntity
  8
LC-001-111-----0
 62
   253
370
    25
100
AcDbLine
 10
830.355603
 20
195.608569
 30
0.0
 11
830.355603
 21
186.701063
 31
0.0
  0
ARC
  5
74
330
30
100
AcDbEntity
  8
LC-001-111-----0
 62
   253
370
    25
100
AcDbCircle
 10
1019.845603
 20
176.159147
 30
0.0
 40
13.88999999999995
100
AcDbArc
 50
68.857352
 51
291.142648
  0
LINE
  5
75
330
30
100
AcDbEntity
  8
LC-001-111-----0
 62
   253
370
    25
100
AcDbLine
 10
862.835603
 20
155.649147
 30
0.0
 11
862.835603
 21
196.669147
 31
0.0
  0
LINE
  5
76
330
30
100
AcDbEntity
  8
LC-001-111-----0
 62
   253
370
    25
100
AcDbLine
 10
862.835603
 20
196.669147
 30
0.0
 11
872.355603
 21
196.669147
 31
0.0
  0
LINE
  5
77
330
30
100
AcDbEntity
  8
LC-001-111-----0
 62
   253
370
    25
100
AcDbLine
 10
872.355603
 20
196.669147
 30
0.0
 11
872.355603
 21
179.519147
 31
0.0
  0
LINE
  5
78
330
30
100
AcDbEntity
  8
LC-001-111-----0
 62
   253
370
    25
100
AcDbLine
 10
872.355603
 20
179.519147
 30
0.0
 11
887.335603
 21
179.519147
 31
0.0
  0
LINE
  5
79
330
30
100
AcDbEntity
  8
LC-001-111-----0
 62
   253
370
    25
100
AcDbLine
 10
887.335603
 20
179.519147
 30
0.0
 11
887.335603
 21
196.669147
 31
0.0
  0
LINE
  5
7A
330
30
100
AcDbEntity
  8
LC-001-111-----0
 62
   253
370
    25
100
AcDbLine
 10
887.335603
 20
196.669147
 30
0.0
 11
896.855603
 21
196.669147
 31
0.0
  0
LINE
  5
7B
330
30
100
AcDbEntity
  8
LC-001-111-----0
 62
   253
370
    25
100
AcDbLine
 10
896.855603
 20
196.669147
 30
0.0
 11
896.855603
 21
155.649147
 31
0.0
  0
LINE
  5
7C
330
30
100
AcDbEntity
  8
LC-001-111-----0
 62
   253
370
    25
100
AcDbLine
 10
896.855603
 20
155.649147
 30
0.0
 11
887.335603
 21
155.649147
 31
0.0
  0
LINE
  5
7D
330
30
100
AcDbEntity
  8
LC-001-111-----0
 62
   253
370
    25
100
AcDbLine
 10
887.335603
 20
155.649147
 30
0.0
 11
887.335603
 21
172.799147
 31
0.0
  0
LINE
  5
7E
330
30
100
AcDbEntity
  8
LC-001-111-----0
 62
   253
370
    25
100
AcDbLine
 10
887.335603
 20
172.799147
 30
0.0
 11
872.355603
 21
172.799147
 31
0.0
  0
LINE
  5
7F
330
30
100
AcDbEntity
  8
LC-001-111-----0
 62
   253
370
    25
100
AcDbLine
 10
872.355603
 20
172.799147
 30
0.0
 11
872.355603
 21
155.649147
 31
0.0
  0
LINE
  5
80
330
30
100
AcDbEntity
  8
LC-001-111-----0
 62
   253
370
    25
100
AcDbLine
 10
872.355603
 20
155.649147
 30
0.0
 11
862.835603
 21
155.649147
 31
0.0
  0
CIRCLE
  5
81
330
30
100
AcDbEntity
  8
LC-001-111-----0
 62
   253
370
    25
100
AcDbCircle
 10
946.345603
 20
176.159147
 30
0.0
 40
12.39000000000044
  0
CIRCLE
  5
82
330
30
100
AcDbEntity
  8
LC-001-111-----0
 62
   253
370
    25
100
AcDbCircle
 10
946.345603
 20
176.159147
 30
0.0
 40
20.51000000000049
  0
ARC
  5
83
330
30
100
AcDbEntity
  8
LC-001-111-----0
 62
   253
370
    25
100
AcDbCircle
 10
1019.845603
 20
176.159147
 30
0.0
 40
12.39000000000002
100
AcDbArc
 50
58.303227
 51
301.696773
  0
LINE
  5
84
330
30
100
AcDbEntity
  8
LC-001-111-----0
 62
   253
370
    25
100
AcDbLine
 10
864.335603
 20
195.169147
 30
0.0
 11
864.335603
 21
157.149147
 31
0.0
  0
LINE
  5
85
330
30
100
AcDbEntity
  8
LC-001-111-----0
 62
   253
370
    25
100
AcDbLine
 10
1026.355603
 20
165.617231
 30
0.0
 11
1026.355603
 21
156.709726
 31
0.0
  0
LINE
  5
86
330
30
100
AcDbEntity
  8
LC-001-111-----0
 62
   253
370
    25
100
AcDbLine
 10
864.335603
 20
157.149147
 30
0.0
 11
870.855603
 21
157.149147
 31
0.0
  0
LINE
  5
87
330
30
100
AcDbEntity
  8
LC-001-111-----0
 62
   253
370
    25
100
AcDbLine
 10
870.855603
 20
157.149147
 30
0.0
 11
870.855603
 21
174.299147
 31
0.0
  0
LINE
  5
88
330
30
100
AcDbEntity
  8
LC-001-111-----0
 62
   253
370
    25
100
AcDbLine
 10
870.855603
 20
174.299147
 30
0.0
 11
888.835603
 21
174.299147
 31
0.0
  0
LINE
  5
89
330
30
100
AcDbEntity
  8
LC-001-111-----0
 62
   253
370
    25
100
AcDbLine
 10
888.835603
 20
174.299147
 30
0.0
 11
888.835603
 21
157.149147
 31
0.0
  0
LINE
  5
8A
330
30
100
AcDbEntity
  8
LC-001-111-----0
 62
   253
370
    25
100
AcDbLine
 10
888.835603
 20
157.149147
 30
0.0
 11
895.355603
 21
157.149147
 31
0.0
  0
LINE
  5
8B
330
30
100
AcDbEntity
  8
LC-001-111-----0
 62
   253
370
    25
100
AcDbLine
 10
895.355603
 20
157.149147
 30
0.0
 11
895.355603
 21
195.169147
 31
0.0
  0
LINE
  5
8C
330
30
100
AcDbEntity
  8
LC-001-111-----0
 62
   253
370
    25
100
AcDbLine
 10
895.355603
 20
195.169147
 30
0.0
 11
888.835603
 21
195.169147
 31
0.0
  0
LINE
  5
8D
330
30
100
AcDbEntity
  8
LC-001-111-----0
 62
   253
370
    25
100
AcDbLine
 10
888.835603
 20
195.169147
 30
0.0
 11
888.835603
 21
178.019147
 31
0.0
  0
LINE
  5
8E
330
30
100
AcDbEntity
  8
LC-001-111-----0
 62
   253
370
    25
100
AcDbLine
 10
888.835603
 20
178.019147
 30
0.0
 11
870.855603
 21
178.019147
 31
0.0
  0
LINE
  5
8F
330
30
100
AcDbEntity
  8
LC-001-111-----0
 62
   253
370
    25
100
AcDbLine
 10
870.855603
 20
178.019147
 30
0.0
 11
870.855603
 21
195.169147
 31
0.0
  0
CIRCLE
  5
90
330
30
100
AcDbEntity
  8
LC-001-111-----0
 62
   253
370
    25
100
AcDbCircle
 10
946.345603
 20
176.159147
 30
0.0
 40
19.01000000000055
  0
ARC
  5
91
330
30
100
AcDbEntity
  8
LC-001-111-----0
 62
   253
370
    25
100
AcDbCircle
 10
760.836588
 20
168.15034
 30
0.0
 40
6.222024781007809
100
AcDbArc
 50
268.246912
 51
72.731329
  0
ARC
  5
92
330
30
100
AcDbEntity
  8
LC-001-111-----0
 62
   253
370
    25
100
AcDbCircle
 10
761.412387
 20
186.963179
 30
0.0
 40
25.04367341134793
100
AcDbArc
 50
239.19233
 51
268.246912
  0
LINE
  5
93
330
30
100
AcDbEntity
  8
LC-001-111-----0
 62
   253
370
    25
100
AcDbLine
 10
748.586073
 20
165.453385
 30
0.0
 11
748.586073
 21
160.350534
 31
0.0
  0
ARC
  5
94
330
30
100
AcDbEntity
  8
LC-001-111-----0
 62
   253
370
    25
100
AcDbCircle
 10
760.81067
 20
180.45076
 30
0.0
 40
23.52572762426598
100
AcDbArc
 50
238.692783
 51
274.343327
  0
ARC
  5
95
330
30
100
AcDbEntity
  8
LC-001-111-----0
 62
   253
370
    25
100
AcDbCircle
 10
1019.845603
 20
176.159147
 30
0.0
 40
20.51000000000012
100
AcDbArc
 50
71.493868
 51
288.506132
  0
ARC
  5
96
330
30
100
AcDbEntity
  8
LC-001-111-----0
 62
   253
370
    25
100
AcDbCircle
 10
761.779647
 20
167.692822
 30
0.0
 40
10.73104525444839
100
AcDbArc
 50
274.343327
 51
74.255463
  0
LINE
  5
97
330
30
100
AcDbEntity
  8
LC-001-111-----0
 62
   253
370
    25
100
AcDbLine
 10
1026.355603
 20
195.608569
 30
0.0
 11
1026.355603
 21
186.701063
 31
0.0
  0
LINE
  5
98
330
30
100
AcDbEntity
  8
LC-001-111-----0
 62
   253
370
    25
100
AcDbLine
 10
764.691502
 20
178.02125
 30
0.0
 11
757.135251
 21
180.151556
 31
0.0
  0
LINE
  5
99
330
30
100
AcDbEntity
  8
LC-001-111-----0
 62
   253
370
    25
100
AcDbLine
 10
1024.855603
 20
189.114146
 30
0.0
 11
1024.855603
 21
194.497086
 31
0.0
  0
ARC
  5
9A
330
30
100
AcDbEntity
  8
LC-001-111-----0
 62
   253
370
    25
100
AcDbCircle
 10
758.632108
 20
185.460948
 30
0.0
 40
5.51636013010035
100
AcDbArc
 50
90.951212
 51
254.255463
  0
ARC
  5
9B
330
30
100
AcDbEntity
  8
LC-001-111-----0
 62
   253
370
    25
100
AcDbCircle
 10
758.906662
 20
168.924866
 30
0.0
 40
22.05472179307849
100
AcDbArc
 50
64.088485
 51
90.951212
  0
LINE
  5
9C
330
30
100
AcDbEntity
  8
LC-001-111-----0
 62
   253
370
    25
100
AcDbLine
 10
768.544191
 20
188.762426
 30
0.0
 11
768.544191
 21
193.015758
 31
0.0
  0
LINE
  5
9D
330
30
100
AcDbEntity
  8
LC-001-111-----0
 62
   253
370
    25
100
AcDbLine
 10
1071.855603
 20
177.513832
 30
0.0
 11
1087.818366
 21
196.669147
 31
0.0
  0
LINE
  5
9E
330
30
100
AcDbEntity
  8
LC-001-111-----0
 62
   253
370
    25
100
AcDbLine
 10
1087.818366
 20
196.669147
 30
0.0
 11
1099.299433
 21
196.669147
 31
0.0
  0
LINE
  5
9F
330
30
100
AcDbEntity
  8
LC-001-111-----0
 62
   253
370
    25
100
AcDbLine
 10
1099.299433
 20
196.669147
 30
0.0
 11
1082.207766
 21
176.159147
 31
0.0
  0
LINE
  5
A1
330
30
100
AcDbEntity
  8
LC-002-002-----0
 62
     1
370
    25
100
AcDbLine
 10
1143.855603
 20
159.963432
 30
0.0
 11
1143.855603
 21
192.354862
 31
0.0
  0
LINE
  5
A2
330
30
100
AcDbEntity
  8
LC-002-002-----0
 62
     1
370
    25
100
AcDbLine
 10
1143.855603
 20
192.354862
 30
0.0
 11
1127.659888
 21
176.159147
 31
0.0
  0
LINE
  5
A3
330
30
100
AcDbEntity
  8
LC-002-002-----0
 62
     1
370
    25
100
AcDbLine
 10
1127.659888
 20
176.159147
 30
0.0
 11
1143.855603
 21
159.963432
 31
0.0
  0
LINE
  5
A4
330
30
100
AcDbEntity
  8
LC-002-002-----0
 62
     1
370
    25
100
AcDbLine
 10
1142.355603
 20
163.584752
 30
0.0
 11
1142.355603
 21
188.733542
 31
0.0
  0
LINE
  5
A5
330
30
100
AcDbEntity
  8
LC-001-111-----0
 62
   253
370
    25
100
AcDbLine
 10
1082.207766
 20
176.159147
 30
0.0
 11
1099.299433
 21
155.649147
 31
0.0
  0
LINE
  5
A6
330
30
100
AcDbEntity
  8
LC-001-111-----0
 62
   253
370
    25
100
AcDbLine
 10
1099.299433
 20
155.649147
 30
0.0
 11
1087.818366
 21
155.649147
 31
0.0
  0
LINE
  5
A7
330
30
100
AcDbEntity
  8
LC-001-111-----0
 62
   253
370
    25
100
AcDbLine
 10
1087.818366
 20
155.649147
 30
0.0
 11
1071.855603
 21
174.804462
 31
0.0
  0
LINE
  5
A8
330
30
100
AcDbEntity
  8
LC-001-111-----0
 62
   253
370
    25
100
AcDbLine
 10
1062.335603
 20
155.649147
 30
0.0
 11
1062.335603
 21
196.669147
 31
0.0
  0
LINE
  5
A9
330
30
100
AcDbEntity
  8
LC-001-111-----0
 62
   253
370
    25
100
AcDbLine
 10
828.855603
 20
189.114146
 30
0.0
 11
828.855603
 21
194.497086
 31
0.0
  0
ARC
  5
AA
330
30
100
AcDbEntity
  8
LC-001-111-----0
 62
   253
370
    25
100
AcDbCircle
 10
758.903191
 20
174.567744
 30
0.0
 40
19.31533311668209
100
AcDbArc
 50
65.072024
 51
94.48185
  0
LINE
  5
AB
330
30
100
AcDbEntity
  8
LC-001-111-----0
 62
   253
370
    25
100
AcDbLine
 10
1063.835603
 20
157.149147
 30
0.0
 11
1070.355603
 21
157.149147
 31
0.0
  0
LINE
  5
AC
330
30
100
AcDbEntity
  8
LC-001-111-----0
 62
   253
370
    25
100
AcDbLine
 10
1070.355603
 20
157.149147
 30
0.0
 11
1070.355603
 21
195.169147
 31
0.0
  0
LINE
  5
AD
330
30
100
AcDbEntity
  8
LC-001-111-----0
 62
   253
370
    25
100
AcDbLine
 10
1070.355603
 20
195.169147
 30
0.0
 11
1063.835603
 21
195.169147
 31
0.0
  0
LINE
  5
AE
330
30
100
AcDbEntity
  8
LC-001-111-----0
 62
   253
370
    25
100
AcDbLine
 10
1065.335603
 20
193.669147
 30
0.0
 11
1065.335603
 21
158.649147
 31
0.0
  0
LINE
  5
AF
330
30
100
AcDbEntity
  8
LC-002-002-----0
 62
     1
370
    25
100
AcDbLine
 10
1142.355603
 20
188.733542
 30
0.0
 11
1129.781208
 21
176.159147
 31
0.0
  0
LINE
  5
B0
330
30
100
AcDbEntity
  8
LC-002-002-----0
 62
     1
370
    25
100
AcDbLine
 10
1129.781208
 20
176.159147
 30
0.0
 11
1142.355603
 21
163.584752
 31
0.0
  0
LINE
  5
B1
330
30
100
AcDbEntity
  8
LC-001-111-----0
 62
   253
370
    25
100
AcDbLine
 10
1062.335603
 20
196.669147
 30
0.0
 11
1071.855603
 21
196.669147
 31
0.0
  0
LINE
  5
B2
330
30
100
AcDbEntity
  8
LC-001-111-----0
 62
   253
370
    25
100
AcDbLine
 10
1071.855603
 20
196.669147
 30
0.0
 11
1071.855603
 21
155.649147
 31
0.0
  0
LINE
  5
B3
330
30
100
AcDbEntity
  8
LC-001-111-----0
 62
   253
370
    25
100
AcDbLine
 10
1071.855603
 20
155.649147
 30
0.0
 11
1062.335603
 21
155.649147
 31
0.0
  0
ARC
  5
B4
330
30
100
AcDbEntity
  8
LC-001-111-----0
 62
   253
370
    25
100
AcDbCircle
 10
758.032826
 20
185.671748
 30
0.0
 40
8.177270814709827
100
AcDbArc
 50
94.48185
 51
252.731329
  0
LINE
  5
B5
330
30
100
AcDbEntity
  8
LC-001-111-----0
 62
   253
370
    25
100
AcDbLine
 10
755.60538
 20
177.863082
 30
0.0
 11
763.128892
 21
175.524281
 31
0.0
  0
ARC
  5
B6
330
30
100
AcDbEntity
  8
LC-001-111-----0
 62
   253
370
    25
100
AcDbCircle
 10
760.836588
 20
168.15034
 30
0.0
 40
7.72202478100773
100
AcDbArc
 50
268.246912
 51
72.731329
  0
LINE
  5
B7
330
30
100
AcDbEntity
  8
LC-001-111-----0
 62
   253
370
    25
100
AcDbLine
 10
827.355603
 20
191.143539
 30
0.0
 11
827.355603
 21
193.313738
 31
0.0
  0
ARC
  5
B8
330
30
100
AcDbEntity
  8
LC-001-111-----0
 62
   253
370
    25
100
AcDbCircle
 10
823.845603
 20
176.159147
 30
0.0
 40
17.50999999999996
100
AcDbArc
 50
78.436322
 51
281.563678
  0
LINE
  5
B9
330
30
100
AcDbEntity
  8
LC-001-111-----0
 62
   253
370
    25
100
AcDbLine
 10
827.355603
 20
159.004556
 30
0.0
 11
827.355603
 21
161.174755
 31
0.0
  0
LINE
  5
BA
330
30
100
AcDbEntity
  8
LC-002-002-----0
 62
     1
370
    25
100
AcDbLine
 10
1145.355603
 20
195.976182
 30
0.0
 11
1145.355603
 21
156.342112
 31
0.0
  0
LINE
  5
BB
330
30
100
AcDbEntity
  8
LC-002-002-----0
 62
     1
370
    25
100
AcDbLine
 10
1145.355603
 20
156.342112
 30
0.0
 11
1125.538568
 21
176.159147
 31
0.0
  0
LINE
  5
BC
330
30
100
AcDbEntity
  8
LC-002-002-----0
 62
     1
370
    25
100
AcDbLine
 10
1125.538568
 20
176.159147
 30
0.0
 11
1145.355603
 21
195.976182
 31
0.0
  0
LINE
  5
BD
330
30
100
AcDbEntity
  8
LC-001-111-----0
 62
   253
370
    25
100
AcDbLine
 10
1065.335603
 20
158.649147
 30
0.0
 11
1068.855603
 21
158.649147
 31
0.0
  0
LINE
  5
BE
330
30
100
AcDbEntity
  8
LC-001-111-----0
 62
   253
370
    25
100
AcDbLine
 10
1068.855603
 20
158.649147
 30
0.0
 11
1068.855603
 21
193.669147
 31
0.0
  0
LINE
  5
BF
330
30
100
AcDbEntity
  8
LC-001-111-----0
 62
   253
370
    25
100
AcDbLine
 10
1068.855603
 20
193.669147
 30
0.0
 11
1065.335603
 21
193.669147
 31
0.0
  0
LINE
  5
C0
330
30
100
AcDbEntity
  8
LC-001-111-----0
 62
   253
370
    25
100
AcDbLine
 10
1067.095603
 20
192.169147
 30
0.0
 11
1067.095603
 21
160.149147
 31
0.0
  0
ARC
  5
C1
330
30
100
AcDbEntity
  8
LC-001-111-----0
 62
   253
370
    25
100
AcDbCircle
 10
823.845603
 20
176.159147
 30
0.0
 40
15.38999999999992
100
AcDbArc
 50
76.816519
 51
283.183481
  0
LINE
  5
C2
330
30
100
AcDbEntity
  8
LC-001-111-----0
 62
   253
370
    25
100
AcDbLine
 10
870.855603
 20
195.169147
 30
0.0
 11
864.335603
 21
195.169147
 31
0.0
  0
LINE
  5
C3
330
30
100
AcDbEntity
  8
LC-001-111-----0
 62
   253
370
    25
100
AcDbLine
 10
1096.09687
 20
195.169147
 30
0.0
 11
1088.520928
 21
195.169147
 31
0.0
  0
LINE
  5
C4
330
30
100
AcDbEntity
  8
LC-001-111-----0
 62
   253
370
    25
100
AcDbLine
 10
865.835603
 20
158.649147
 30
0.0
 11
869.355603
 21
158.649147
 31
0.0
  0
LINE
  5
C5
330
30
100
AcDbEntity
  8
LC-001-111-----0
 62
   253
370
    25
100
AcDbLine
 10
1023.355603
 20
191.143539
 30
0.0
 11
1023.355603
 21
193.313738
 31
0.0
  0
LINE
  5
C6
330
30
100
AcDbEntity
  8
LC-001-111-----0
 62
   253
370
    25
100
AcDbLine
 10
892.095603
 20
192.169147
 30
0.0
 11
892.095603
 21
160.149147
 31
0.0
  0
TEXT
  5
C7
330
30
100
AcDbEntity
  8
LC-001-111-----0
 62
     1
370
    15
100
AcDbText
 10
1094.748125
 20
21.25
 30
0.0
 40
15.0
  1
Primus-N100XLY
 41
0.75
  7
LCTX0-400-0-0pDIN-Schrift
 72
     1
 11
1166.0
 21
21.25
 31
0.0
100
AcDbText
  0
CIRCLE
  5
C8
330
30
100
AcDbEntity
  8
LC-001-111-----0
 62
   253
370
    25
100
AcDbCircle
 10
946.345603
 20
176.159147
 30
0.0
 40
17.51000000000047
  0
LINE
  5
C9
330
30
100
AcDbEntity
  8
LC-001-111-----0
 62
   253
370
    25
100
AcDbLine
 10
1088.520928
 20
195.169147
 30
0.0
 11
1072.679261
 21
176.159147
 31
0.0
  0
ARC
  5
CA
330
30
100
AcDbEntity
  8
LC-001-111-----0
 62
   253
370
    25
100
AcDbCircle
 10
1019.845603
 20
176.159147
 30
0.0
 40
17.50999999999996
100
AcDbArc
 50
78.436322
 51
281.563678
  0
ARC
  5
CB
330
30
100
AcDbEntity
  8
LC-001-111-----0
 62
   253
370
    25
100
AcDbCircle
 10
761.412387
 20
186.963179
 30
0.0
 40
26.54367341134783
100
AcDbArc
 50
244.741378
 51
268.246912
  0
LINE
  5
CC
330
30
100
AcDbEntity
  8
LC-001-111-----0
 62
   253
370
    25
100
AcDbLine
 10
1023.355603
 20
159.004556
 30
0.0
 11
1023.355603
 21
161.174755
 31
0.0
  0
LINE
  5
CD
330
30
100
AcDbEntity
  8
LC-002-002-----0
 62
     1
370
    25
100
AcDbLine
 10
1140.855603
 20
167.206073
 30
0.0
 11
1140.855603
 21
185.112221
 31
0.0
  0
LINE
  5
CE
330
30
100
AcDbEntity
  8
LC-002-002-----0
 62
     1
370
    25
100
AcDbLine
 10
1140.855603
 20
185.112221
 30
0.0
 11
1131.902529
 21
176.159147
 31
0.0
  0
LINE
  5
CF
330
30
100
AcDbEntity
  8
LC-002-002-----0
 62
     1
370
    25
100
AcDbLine
 10
1131.902529
 20
176.159147
 30
0.0
 11
1140.855603
 21
167.206073
 31
0.0
  0
CIRCLE
  5
D0
330
30
100
AcDbEntity
  8
LC-001-111-----0
 62
   253
370
    25
100
AcDbCircle
 10
946.345603
 20
176.159147
 30
0.0
 40
13.89000000000002
  0
LINE
  5
D1
330
30
100
AcDbEntity
  8
LC-001-111-----0
 62
   253
370
    25
100
AcDbLine
 10
890.335603
 20
158.649147
 30
0.0
 11
893.855603
 21
158.649147
 31
0.0
  0
LINE
  5
D2
330
30
100
AcDbEntity
  8
LC-001-111-----0
 62
   253
370
    25
100
AcDbLine
 10
893.855603
 20
158.649147
 30
0.0
 11
893.855603
 21
193.669147
 31
0.0
  0
ARC
  5
D3
330
30
100
AcDbEntity
  8
LC-001-111-----0
 62
   253
370
    25
100
AcDbCircle
 10
758.906662
 20
168.924866
 30
0.0
 40
20.55472179307891
100
AcDbArc
 50
57.190491
 51
90.951212
  0
ARC
  5
D4
330
30
100
AcDbEntity
  8
LC-001-111-----0
 62
   253
370
    25
100
AcDbCircle
 10
761.779647
 20
167.692822
 30
0.0
 40
12.23104525444841
100
AcDbArc
 50
274.343327
 51
74.255463
  0
LINE
  5
D5
330
30
100
AcDbEntity
  8
LC-001-111-----0
 62
   253
370
    25
100
AcDbLine
 10
893.855603
 20
193.669147
 30
0.0
 11
890.335603
 21
193.669147
 31
0.0
  0
LINE
  5
D6
330
30
100
AcDbEntity
  8
LC-001-111-----0
 62
   253
370
    25
100
AcDbLine
 10
890.335603
 20
193.669147
 30
0.0
 11
890.335603
 21
158.649147
 31
0.0
  0
LINE
  5
D7
330
30
100
AcDbEntity
  8
LC-001-111-----0
 62
   253
370
    25
100
AcDbLine
 10
890.335603
 20
176.159147
 30
0.0
 11
869.355603
 21
176.159147
 31
0.0
  0
LINE
  5
D8
330
30
100
AcDbEntity
  8
LC-001-111-----0
 62
   253
370
    25
100
AcDbLine
 10
869.355603
 20
158.649147
 30
0.0
 11
869.355603
 21
193.669147
 31
0.0
  0
LINE
  5
D9
330
30
100
AcDbEntity
  8
LC-001-111-----0
 62
   253
370
    25
100
AcDbLine
 10
869.355603
 20
193.669147
 30
0.0
 11
865.835603
 21
193.669147
 31
0.0
  0
LINE
  5
DA
330
30
100
AcDbEntity
  8
LC-001-111-----0
 62
   253
370
    25
100
AcDbLine
 10
865.835603
 20
193.669147
 30
0.0
 11
865.835603
 21
158.649147
 31
0.0
  0
LINE
  5
DB
330
30
100
AcDbEntity
  8
LC-001-111-----0
 62
   253
370
    25
100
AcDbLine
 10
867.595603
 20
192.169147
 30
0.0
 11
867.595603
 21
160.149147
 31
0.0
  0
CIRCLE
  5
DC
330
30
100
AcDbEntity
  8
LC-001-111-----0
 62
   253
370
    25
100
AcDbCircle
 10
946.345603
 20
176.159147
 30
0.0
 40
15.38999999999984
  0
LINE
  5
DD
330
30
100
AcDbEntity
  8
LC-001-111-----0
 62
   253
370
    25
100
AcDbLine
 10
1072.679261
 20
176.159147
 30
0.0
 11
1088.520928
 21
157.149147
 31
0.0
  0
LINE
  5
DE
330
30
100
AcDbEntity
  8
LC-001-111-----0
 62
   253
370
    25
100
AcDbLine
 10
1088.520928
 20
157.149147
 30
0.0
 11
1096.09687
 21
157.149147
 31
0.0
  0
LINE
  5
DF
330
30
100
AcDbEntity
  8
LC-001-111-----0
 62
   253
370
    25
100
AcDbLine
 10
1096.09687
 20
157.149147
 30
0.0
 11
1080.255204
 21
176.159147
 31
0.0
  0
LINE
  5
E0
330
30
100
AcDbEntity
  8
LC-001-111-----0
 62
   253
370
    25
100
AcDbLine
 10
770.044191
 20
186.20063
 30
0.0
 11
770.044191
 21
193.903002
 31
0.0
  0
ARC
  5
E1
330
30
100
AcDbEntity
  8
LC-001-111-----0
 62
   253
370
    25
100
AcDbCircle
 10
761.412387
 20
186.963179
 30
0.0
 40
23.54367341134796
100
AcDbArc
 50
232.518913
 51
268.246912
  0
ARC
  5
E2
330
30
100
AcDbEntity
  8
LC-001-111-----0
 62
   253
370
    25
100
AcDbCircle
 10
760.836588
 20
168.15034
 30
0.0
 40
4.722024781007908
100
AcDbArc
 50
268.246912
 51
72.731329
  0
LINE
  5
E3
330
30
100
AcDbEntity
  8
LC-001-111-----0
 62
   253
370
    25
100
AcDbLine
 10
757.542274
 20
181.595277
 30
0.0
 11
765.098525
 21
179.464972
 31
0.0
  0
ARC
  5
E4
330
30
100
AcDbEntity
  8
LC-001-111-----0
 62
   253
370
    25
100
AcDbCircle
 10
758.632108
 20
185.460948
 30
0.0
 40
4.016360130100384
100
AcDbArc
 50
90.951212
 51
254.255463
  0
ARC
  5
E5
330
30
100
AcDbEntity
  8
LC-001-111-----0
 62
   253
370
    25
100
AcDbCircle
 10
758.032826
 20
185.671748
 30
0.0
 40
11.17727081470983
100
AcDbArc
 50
94.48185
 51
252.731329
  0
LINE
  5
E6
330
30
100
AcDbEntity
  8
LC-001-111-----0
 62
   253
370
    25
100
AcDbLine
 10
762.238334
 20
172.659511
 30
0.0
 11
754.714822
 21
174.998312
 31
0.0
  0
LINE
  5
E7
330
30
100
AcDbEntity
  8
LC-001-111-----0
 62
   253
370
    25
100
AcDbLine
 10
747.086073
 20
168.279997
 30
0.0
 11
747.086073
 21
159.524163
 31
0.0
  0
ARC
  5
E8
330
30
100
AcDbEntity
  8
LC-001-111-----0
 62
   253
370
    25
100
AcDbCircle
 10
758.903191
 20
174.567744
 30
0.0
 40
22.31533311668187
100
AcDbArc
 50
60.049399
 51
94.48185
  0
ARC
  5
E9
330
30
100
AcDbEntity
  8
LC-001-111-----0
 62
   253
370
    25
100
AcDbCircle
 10
760.81067
 20
180.45076
 30
0.0
 40
25.02572762426604
100
AcDbArc
 50
236.741348
 51
274.343327
  0
LINE
  5
EA
330
30
100
AcDbEntity
  8
LC-001-111-----0
 62
   253
370
    25
100
AcDbLine
 10
1080.255204
 20
176.159147
 30
0.0
 11
1096.09687
 21
195.169147
 31
0.0
  0
LINE
  5
EB
330
30
100
AcDbEntity
  8
LC-001-111-----0
 62
   253
370
    25
100
AcDbLine
 10
750.086073
 20
162.957321
 30
0.0
 11
750.086073
 21
161.212369
 31
0.0
  0
LINE
  5
EC
330
30
100
AcDbEntity
  8
LC-001-111-----0
 62
   253
370
    25
100
AcDbLine
 10
1078.302641
 20
176.159147
 30
0.0
 11
1092.894308
 21
193.669147
 31
0.0
  0
LINE
  5
ED
330
30
100
AcDbEntity
  8
LC-002-002-----0
 62
     1
370
    25
100
AcDbLine
 10
1139.355603
 20
170.827393
 30
0.0
 11
1139.355603
 21
181.490901
 31
0.0
  0
LINE
  5
EE
330
30
100
AcDbEntity
  8
LC-002-002-----0
 62
     1
370
    25
100
AcDbLine
 10
1139.355603
 20
181.490901
 30
0.0
 11
1134.023849
 21
176.159147
 31
0.0
  0
LINE
  5
EF
330
30
100
AcDbEntity
  8
LC-002-002-----0
 62
     1
370
    25
100
AcDbLine
 10
1134.023849
 20
176.159147
 30
0.0
 11
1139.355603
 21
170.827393
 31
0.0
  0
LINE
  5
F0
330
30
100
AcDbEntity
  8
LC-002-002-----0
 62
     1
370
    25
100
AcDbLine
 10
1137.855603
 20
174.448713
 30
0.0
 11
1137.855603
 21
177.869581
 31
0.0
  0
LINE
  5
F1
330
30
100
AcDbEntity
  8
LC-002-002-----0
 62
     1
370
    25
100
AcDbLine
 10
1137.855603
 20
177.869581
 30
0.0
 11
1136.145169
 21
176.159147
 31
0.0
  0
LINE
  5
F2
330
30
100
AcDbEntity
  8
LC-002-002-----0
 62
     1
370
    25
100
AcDbLine
 10
1136.145169
 20
176.159147
 30
0.0
 11
1137.855603
 21
174.448713
 31
0.0
  0
LINE
  5
F3
330
30
100
AcDbEntity
  8
LC-001-111-----0
 62
   253
370
    25
100
AcDbLine
 10
1092.894308
 20
193.669147
 30
0.0
 11
1089.22349
 21
193.669147
 31
0.0
  0
LINE
  5
F4
330
30
100
AcDbEntity
  8
LC-001-111-----0
 62
   253
370
    25
100
AcDbLine
 10
1089.22349
 20
193.669147
 30
0.0
 11
1074.631824
 21
176.159147
 31
0.0
  0
ARC
  5
F5
330
30
100
AcDbEntity
  8
LC-001-111-----0
 62
   253
370
    25
100
AcDbCircle
 10
1019.845603
 20
176.159147
 30
0.0
 40
15.38999999999992
100
AcDbArc
 50
76.816519
 51
283.183481
  0
LINE
  5
F6
330
30
100
AcDbEntity
  8
LC-001-111-----0
 62
   253
370
    25
100
AcDbLine
 10
1074.631824
 20
176.159147
 30
0.0
 11
1089.22349
 21
158.649147
 31
0.0
  0
LINE
  5
F7
330
30
100
AcDbEntity
  8
LC-001-111-----0
 62
   253
370
    25
100
AcDbLine
 10
1089.22349
 20
158.649147
 30
0.0
 11
1092.894308
 21
158.649147
 31
0.0
  0
LINE
  5
F8
330
30
100
AcDbEntity
  8
LC-001-111-----0
 62
   253
370
    25
100
AcDbLine
 10
1092.894308
 20
158.649147
 30
0.0
 11
1078.302641
 21
176.159147
 31
0.0
  0
LINE
  5
F9
330
30
100
AcDbEntity
  8
LC-001-111-----0
 62
   253
370
    25
100
AcDbLine
 10
1076.467232
 20
176.159147
 30
0.0
 11
1090.098623
 21
192.516815
 31
0.0
  0
LINE
  5
FA
330
30
100
AcDbEntity
  8
LC-001-111-----0
 62
   253
370
    25
100
AcDbLine
 10
1076.467232
 20
176.159147
 30
0.0
 11
1090.098623
 21
159.801479
 31
0.0
  0
ARC
  5
FB
330
30
100
AcDbEntity
  8
LC-001-111-----0
 62
   253
370
    25
100
AcDbCircle
 10
760.81067
 20
180.45076
 30
0.0
 40
22.02572762426587
100
AcDbArc
 50
240.862164
 51
274.343327
  0
ARC
  5
FC
330
30
100
AcDbEntity
  8
LC-001-111-----0
 62
   253
370
    25
100
AcDbCircle
 10
761.779647
 20
167.692822
 30
0.0
 40
9.231045254448425
100
AcDbArc
 50
274.343327
 51
74.255463
  0
LINE
  5
FD
330
30
100
AcDbEntity
  8
LC-001-111-----0
 62
   253
370
    25
100
AcDbLine
 10
764.284479
 20
176.577529
 30
0.0
 11
756.728228
 21
178.707834
 31
0.0
  0
ARC
  5
FE
330
30
100
AcDbEntity
  8
LC-001-111-----0
 62
   253
370
    25
100
AcDbCircle
 10
758.632108
 20
185.460948
 30
0.0
 40
7.016360130100396
100
AcDbArc
 50
90.951212
 51
254.255463
  0
ARC
  5
FF
330
30
100
AcDbEntity
  8
LC-001-111-----0
 62
   253
370
    25
100
AcDbCircle
 10
758.906662
 20
168.924866
 30
0.0
 40
23.55472179307856
100
AcDbArc
 50
69.789306
 51
90.951212
  0
LINE
  5
100
330
30
100
AcDbEntity
  8
LC-001-111-----0
 62
   253
370
    25
100
AcDbLine
 10
767.044191
 20
191.029289
 30
0.0
 11
767.044191
 21
192.083629
 31
0.0
  0
ENDBLK
  5
32
330
30
100
AcDbEntity
  8
0
100
AcDbBlockEnd
  0
BLOCK
  5
11C
330
11B
100
AcDbEntity
  8
0
100
AcDbBlockBegin
  2
POLY1
 70
     0
 71
     0
 10
0.0
 20
0.0
 30
0.0
  3
POLY1
  1

  4
POLY1
  0
LINE
  5
11E
330
11B
100
AcDbEntity
  8
LC-004-100-D10-0
 62
     7
370
    50
100
AcDbLine
 10
1194.165015
 20
2394.29358
 30
0.0
 11
1198.016842
 21
2394.57018
 31
0.0
  0
LINE
  5
11F
330
11B
100
AcDbEntity
  8
LC-004-100-D10-0
 62
     7
370
    50
100
AcDbLine
 10
1198.016842
 20
2394.57018
 30
0.0
 11
1201.400404
 21
2395.094287
 31
0.0
  0
LINE
  5
120
330
11B
100
AcDbEntity
  8
LC-004-100-D10-0
 62
     7
370
    50
100
AcDbLine
 10
1201.400404
 20
2395.094287
 30
0.0
 11
1204.357546
 21
2395.837593
 31
0.0
  0
LINE
  5
121
330
11B
100
AcDbEntity
  8
LC-004-100-D10-0
 62
     7
370
    50
100
AcDbLine
 10
1204.357546
 20
2395.837593
 30
0.0
 11
1206.956743
 21
2396.785089
 31
0.0
  0
LINE
  5
122
330
11B
100
AcDbEntity
  8
LC-004-100-D10-0
 62
     7
370
    50
100
AcDbLine
 10
1206.956743
 20
2396.785089
 30
0.0
 11
1209.254542
 21
2397.929456
 31
0.0
  0
LINE
  5
123
330
11B
100
AcDbEntity
  8
LC-004-100-D10-0
 62
     7
370
    50
100
AcDbLine
 10
1209.254542
 20
2397.929456
 30
0.0
 11
1211.270647
 21
2399.254512
 31
0.0
  0
LINE
  5
124
330
11B
100
AcDbEntity
  8
LC-004-100-D10-0
 62
     7
370
    50
100
AcDbLine
 10
1211.270647
 20
2399.254512
 30
0.0
 11
1213.039486
 21
2400.760163
 31
0.0
  0
LINE
  5
125
330
11B
100
AcDbEntity
  8
LC-004-100-D10-0
 62
     7
370
    50
100
AcDbLine
 10
1213.039486
 20
2400.760163
 30
0.0
 11
1214.605783
 21
2402.475927
 31
0.0
  0
LINE
  5
126
330
11B
100
AcDbEntity
  8
LC-004-100-D10-0
 62
     7
370
    50
100
AcDbLine
 10
1214.605783
 20
2402.475927
 30
0.0
 11
1216.00019
 21
2404.445181
 31
0.0
  0
LINE
  5
127
330
11B
100
AcDbEntity
  8
LC-004-100-D10-0
 62
     7
370
    50
100
AcDbLine
 10
1216.00019
 20
2404.445181
 30
0.0
 11
1217.223575
 21
2406.701856
 31
0.0
  0
LINE
  5
128
330
11B
100
AcDbEntity
  8
LC-004-100-D10-0
 62
     7
370
    50
100
AcDbLine
 10
1217.223575
 20
2406.701856
 30
0.0
 11
1218.260566
 21
2409.266027
 31
0.0
  0
LINE
  5
129
330
11B
100
AcDbEntity
  8
LC-004-100-D10-0
 62
     7
370
    50
100
AcDbLine
 10
1218.260566
 20
2409.266027
 30
0.0
 11
1219.106102
 21
2412.19488
 31
0.0
  0
LINE
  5
12A
330
11B
100
AcDbEntity
  8
LC-004-100-D10-0
 62
     7
370
    50
100
AcDbLine
 10
1219.106102
 20
2412.19488
 30
0.0
 11
1219.747538
 21
2415.557044
 31
0.0
  0
LINE
  5
12B
330
11B
100
AcDbEntity
  8
LC-004-100-D10-0
 62
     7
370
    50
100
AcDbLine
 10
1219.747538
 20
2415.557044
 30
0.0
 11
1220.158085
 21
2419.394728
 31
0.0
  0
ENDBLK
  5
11D
330
11B
100
AcDbEntity
  8
0
100
AcDbBlockEnd
  0
BLOCK
  5
12E
330
12D
100
AcDbEntity
  8
0
100
AcDbBlockBegin
  2
POLY2
 70
     0
 71
     0
 10
0.0
 20
0.0
 30
0.0
  3
POLY2
  1

  4
POLY2
  0
LINE
  5
130
330
12D
100
AcDbEntity
  8
LC-004-100-D10-0
 62
     7
370
    50
100
AcDbLine
 10
522.62351
 20
2419.394728
 30
0.0
 11
523.034058
 21
2415.557044
 31
0.0
  0
LINE
  5
131
330
12D
100
AcDbEntity
  8
LC-004-100-D10-0
 62
     7
370
    50
100
AcDbLine
 10
523.034058
 20
2415.557044
 30
0.0
 11
523.675493
 21
2412.19488
 31
0.0
  0
LINE
  5
132
330
12D
100
AcDbEntity
  8
LC-004-100-D10-0
 62
     7
370
    50
100
AcDbLine
 10
523.675493
 20
2412.19488
 30
0.0
 11
524.52103
 21
2409.266027
 31
0.0
  0
LINE
  5
133
330
12D
100
AcDbEntity
  8
LC-004-100-D10-0
 62
     7
370
    50
100
AcDbLine
 10
524.52103
 20
2409.266027
 30
0.0
 11
525.558021
 21
2406.701856
 31
0.0
  0
LINE
  5
134
330
12D
100
AcDbEntity
  8
LC-004-100-D10-0
 62
     7
370
    50
100
AcDbLine
 10
525.558021
 20
2406.701856
 30
0.0
 11
526.781406
 21
2404.445181
 31
0.0
  0
LINE
  5
135
330
12D
100
AcDbEntity
  8
LC-004-100-D10-0
 62
     7
370
    50
100
AcDbLine
 10
526.781406
 20
2404.445181
 30
0.0
 11
528.175813
 21
2402.475927
 31
0.0
  0
LINE
  5
136
330
12D
100
AcDbEntity
  8
LC-004-100-D10-0
 62
     7
370
    50
100
AcDbLine
 10
528.175813
 20
2402.475927
 30
0.0
 11
529.742109
 21
2400.760163
 31
0.0
  0
LINE
  5
137
330
12D
100
AcDbEntity
  8
LC-004-100-D10-0
 62
     7
370
    50
100
AcDbLine
 10
529.742109
 20
2400.760163
 30
0.0
 11
531.510949
 21
2399.254512
 31
0.0
  0
LINE
  5
138
330
12D
100
AcDbEntity
  8
LC-004-100-D10-0
 62
     7
370
    50
100
AcDbLine
 10
531.510949
 20
2399.254512
 30
0.0
 11
533.527054
 21
2397.929456
 31
0.0
  0
LINE
  5
139
330
12D
100
AcDbEntity
  8
LC-004-100-D10-0
 62
     7
370
    50
100
AcDbLine
 10
533.527054
 20
2397.929456
 30
0.0
 11
535.824852
 21
2396.785089
 31
0.0
  0
LINE
  5
13A
330
12D
100
AcDbEntity
  8
LC-004-100-D10-0
 62
     7
370
    50
100
AcDbLine
 10
535.824852
 20
2396.785089
 30
0.0
 11
538.42405
 21
2395.837593
 31
0.0
  0
LINE
  5
13B
330
12D
100
AcDbEntity
  8
LC-004-100-D10-0
 62
     7
370
    50
100
AcDbLine
 10
538.42405
 20
2395.837593
 30
0.0
 11
541.381191
 21
2395.094287
 31
0.0
  0
LINE
  5
13C
330
12D
100
AcDbEntity
  8
LC-004-100-D10-0
 62
     7
370
    50
100
AcDbLine
 10
541.381191
 20
2395.094287
 30
0.0
 11
544.764754
 21
2394.57018
 31
0.0
  0
LINE
  5
13D
330
12D
100
AcDbEntity
  8
LC-004-100-D10-0
 62
     7
370
    50
100
AcDbLine
 10
544.764754
 20
2394.57018
 30
0.0
 11
548.616581
 21
2394.29358
 31
0.0
  0
ENDBLK
  5
12F
330
12D
100
AcDbEntity
  8
0
100
AcDbBlockEnd
  0
BLOCK
  5
144
330
143
100
AcDbEntity
  8
0
100
AcDbBlockBegin
  2
POLY3
 70
     0
 71
     0
 10
0.0
 20
0.0
 30
0.0
  3
POLY3
  1

  4
POLY3
  0
LINE
  5
146
330
143
100
AcDbEntity
  8
LC-004-100-D10-0
 62
     7
370
    50
100
AcDbLine
 10
548.302602
 20
2385.299058
 30
0.0
 11
543.707582
 21
2385.632115
 31
0.0
  0
LINE
  5
147
330
143
100
AcDbEntity
  8
LC-004-100-D10-0
 62
     7
370
    50
100
AcDbLine
 10
543.707582
 20
2385.632115
 30
0.0
 11
539.634077
 21
2386.265362
 31
0.0
  0
LINE
  5
148
330
143
100
AcDbEntity
  8
LC-004-100-D10-0
 62
     7
370
    50
100
AcDbLine
 10
539.634077
 20
2386.265362
 30
0.0
 11
536.027865
 21
2387.15964
 31
0.0
  0
LINE
  5
149
330
143
100
AcDbEntity
  8
LC-004-100-D10-0
 62
     7
370
    50
100
AcDbLine
 10
536.027865
 20
2387.15964
 30
0.0
 11
532.817697
 21
2388.287642
 31
0.0
  0
LINE
  5
14A
330
143
100
AcDbEntity
  8
LC-004-100-D10-0
 62
     7
370
    50
100
AcDbLine
 10
532.817697
 20
2388.287642
 30
0.0
 11
529.962914
 21
2389.618392
 31
0.0
  0
LINE
  5
14B
330
143
100
AcDbEntity
  8
LC-004-100-D10-0
 62
     7
370
    50
100
AcDbLine
 10
529.962914
 20
2389.618392
 30
0.0
 11
527.410335
 21
2391.137432
 31
0.0
  0
LINE
  5
14C
330
143
100
AcDbEntity
  8
LC-004-100-D10-0
 62
     7
370
    50
100
AcDbLine
 10
527.410335
 20
2391.137432
 30
0.0
 11
525.086943
 21
2392.861249
 31
0.0
  0
LINE
  5
14D
330
143
100
AcDbEntity
  8
LC-004-100-D10-0
 62
     7
370
    50
100
AcDbLine
 10
525.086943
 20
2392.861249
 30
0.0
 11
522.961984
 21
2394.810569
 31
0.0
  0
LINE
  5
14E
330
143
100
AcDbEntity
  8
LC-004-100-D10-0
 62
     7
370
    50
100
AcDbLine
 10
522.961984
 20
2394.810569
 30
0.0
 11
521.01979
 21
2397.016358
 31
0.0
  0
ENDBLK
  5
145
330
143
100
AcDbEntity
  8
0
100
AcDbBlockEnd
  0
BLOCK
  5
151
330
150
100
AcDbEntity
  8
0
100
AcDbBlockBegin
  2
POLY4
 70
     0
 71
     0
 10
0.0
 20
0.0
 30
0.0
  3
POLY4
  1

  4
POLY4
  0
LINE
  5
153
330
150
100
AcDbEntity
  8
LC-004-100-D10-0
 62
     7
370
    50
100
AcDbLine
 10
1221.761806
 20
2397.016358
 30
0.0
 11
1219.819612
 21
2394.810569
 31
0.0
  0
LINE
  5
154
330
150
100
AcDbEntity
  8
LC-004-100-D10-0
 62
     7
370
    50
100
AcDbLine
 10
1219.819612
 20
2394.810569
 30
0.0
 11
1217.694652
 21
2392.861249
 31
0.0
  0
LINE
  5
155
330
150
100
AcDbEntity
  8
LC-004-100-D10-0
 62
     7
370
    50
100
AcDbLine
 10
1217.694652
 20
2392.861249
 30
0.0
 11
1215.371261
 21
2391.137432
 31
0.0
  0
LINE
  5
156
330
150
100
AcDbEntity
  8
LC-004-100-D10-0
 62
     7
370
    50
100
AcDbLine
 10
1215.371261
 20
2391.137432
 30
0.0
 11
1212.818682
 21
2389.618392
 31
0.0
  0
LINE
  5
157
330
150
100
AcDbEntity
  8
LC-004-100-D10-0
 62
     7
370
    50
100
AcDbLine
 10
1212.818682
 20
2389.618392
 30
0.0
 11
1209.963899
 21
2388.287642
 31
0.0
  0
LINE
  5
158
330
150
100
AcDbEntity
  8
LC-004-100-D10-0
 62
     7
370
    50
100
AcDbLine
 10
1209.963899
 20
2388.287642
 30
0.0
 11
1206.753731
 21
2387.15964
 31
0.0
  0
LINE
  5
159
330
150
100
AcDbEntity
  8
LC-004-100-D10-0
 62
     7
370
    50
100
AcDbLine
 10
1206.753731
 20
2387.15964
 30
0.0
 11
1203.147519
 21
2386.265362
 31
0.0
  0
LINE
  5
15A
330
150
100
AcDbEntity
  8
LC-004-100-D10-0
 62
     7
370
    50
100
AcDbLine
 10
1203.147519
 20
2386.265362
 30
0.0
 11
1199.074014
 21
2385.632115
 31
0.0
  0
LINE
  5
15B
330
150
100
AcDbEntity
  8
LC-004-100-D10-0
 62
     7
370
    50
100
AcDbLine
 10
1199.074014
 20
2385.632115
 30
0.0
 11
1194.478994
 21
2385.299058
 31
0.0
  0
ENDBLK
  5
152
330
150
100
AcDbEntity
  8
0
100
AcDbBlockEnd
  0
BLOCK
  5
161
330
160
100
AcDbEntity
  8
0
100
AcDbBlockBegin
  2
POLY5
 70
     0
 71
     0
 10
0.0
 20
0.0
 30
0.0
  3
POLY5
  1

  4
POLY5
  0
LINE
  5
163
330
160
100
AcDbEntity
  8
LC-004-100-D10-0
 62
     7
370
    50
100
AcDbLine
 10
549.549506
 20
2394.419787
 30
0.0
 11
549.382165
 21
2394.422953
 31
0.0
  0
LINE
  5
164
330
160
100
AcDbEntity
  8
LC-004-100-D10-0
 62
     7
370
    50
100
AcDbLine
 10
549.382165
 20
2394.422953
 30
0.0
 11
549.26553
 21
2394.425574
 31
0.0
  0
LINE
  5
165
330
160
100
AcDbEntity
  8
LC-004-100-D10-0
 62
     7
370
    50
100
AcDbLine
 10
549.26553
 20
2394.425574
 30
0.0
 11
549.226613
 21
2394.426548
 31
0.0
  0
ENDBLK
  5
162
330
160
100
AcDbEntity
  8
0
100
AcDbBlockEnd
  0
BLOCK
  5
186
330
185
100
AcDbEntity
  8
0
100
AcDbBlockBegin
  2
POLY6
 70
     0
 71
     0
 10
0.0
 20
0.0
 30
0.0
  3
POLY6
  1

  4
POLY6
  0
LINE
  5
188
330
185
100
AcDbEntity
  8
LC-004-100-D10-0
 62
     7
370
    50
100
AcDbLine
 10
826.390798
 20
2380.856766
 30
0.0
 11
826.594561
 21
2380.856766
 31
0.0
  0
LINE
  5
189
330
185
100
AcDbEntity
  8
LC-004-100-D10-0
 62
     7
370
    50
100
AcDbLine
 10
826.594561
 20
2380.856766
 30
0.0
 11
827.204007
 21
2380.856766
 31
0.0
  0
LINE
  5
18A
330
185
100
AcDbEntity
  8
LC-004-100-D10-0
 62
     7
370
    50
100
AcDbLine
 10
827.204007
 20
2380.856766
 30
0.0
 11
828.213614
 21
2380.856766
 31
0.0
  0
LINE
  5
18B
330
185
100
AcDbEntity
  8
LC-004-100-D10-0
 62
     7
370
    50
100
AcDbLine
 10
828.213614
 20
2380.856766
 30
0.0
 11
829.614241
 21
2380.856766
 31
0.0
  0
LINE
  5
18C
330
185
100
AcDbEntity
  8
LC-004-100-D10-0
 62
     7
370
    50
100
AcDbLine
 10
829.614241
 20
2380.856766
 30
0.0
 11
831.393203
 21
2380.856766
 31
0.0
  0
LINE
  5
18D
330
185
100
AcDbEntity
  8
LC-004-100-D10-0
 62
     7
370
    50
100
AcDbLine
 10
831.393203
 20
2380.856766
 30
0.0
 11
833.534389
 21
2380.856766
 31
0.0
  0
LINE
  5
18E
330
185
100
AcDbEntity
  8
LC-004-100-D10-0
 62
     7
370
    50
100
AcDbLine
 10
833.534389
 20
2380.856766
 30
0.0
 11
836.018409
 21
2380.856766
 31
0.0
  0
LINE
  5
18F
330
185
100
AcDbEntity
  8
LC-004-100-D10-0
 62
     7
370
    50
100
AcDbLine
 10
836.018409
 20
2380.856766
 30
0.0
 11
838.822766
 21
2380.856766
 31
0.0
  0
LINE
  5
190
330
185
100
AcDbEntity
  8
LC-004-100-D10-0
 62
     7
370
    50
100
AcDbLine
 10
838.822766
 20
2380.856766
 30
0.0
 11
841.922065
 21
2380.856766
 31
0.0
  0
LINE
  5
191
330
185
100
AcDbEntity
  8
LC-004-100-D10-0
 62
     7
370
    50
100
AcDbLine
 10
841.922065
 20
2380.856766
 30
0.0
 11
845.288237
 21
2380.856766
 31
0.0
  0
LINE
  5
192
330
185
100
AcDbEntity
  8
LC-004-100-D10-0
 62
     7
370
    50
100
AcDbLine
 10
845.288237
 20
2380.856766
 30
0.0
 11
848.890798
 21
2380.856766
 31
0.0
  0
LINE
  5
193
330
185
100
AcDbEntity
  8
LC-004-100-D10-0
 62
     7
370
    50
100
AcDbLine
 10
848.890798
 20
2380.856766
 30
0.0
 11
852.697122
 21
2380.856766
 31
0.0
  0
LINE
  5
194
330
185
100
AcDbEntity
  8
LC-004-100-D10-0
 62
     7
370
    50
100
AcDbLine
 10
852.697122
 20
2380.856766
 30
0.0
 11
856.67274
 21
2380.856766
 31
0.0
  0
LINE
  5
195
330
185
100
AcDbEntity
  8
LC-004-100-D10-0
 62
     7
370
    50
100
AcDbLine
 10
856.67274
 20
2380.856766
 30
0.0
 11
860.781646
 21
2380.856766
 31
0.0
  0
LINE
  5
196
330
185
100
AcDbEntity
  8
LC-004-100-D10-0
 62
     7
370
    50
100
AcDbLine
 10
860.781646
 20
2380.856766
 30
0.0
 11
864.98663
 21
2380.856766
 31
0.0
  0
LINE
  5
197
330
185
100
AcDbEntity
  8
LC-004-100-D10-0
 62
     7
370
    50
100
AcDbLine
 10
864.98663
 20
2380.856766
 30
0.0
 11
869.249612
 21
2380.856766
 31
0.0
  0
LINE
  5
198
330
185
100
AcDbEntity
  8
LC-004-100-D10-0
 62
     7
370
    50
100
AcDbLine
 10
869.249612
 20
2380.856766
 30
0.0
 11
873.531984
 21
2380.856766
 31
0.0
  0
LINE
  5
199
330
185
100
AcDbEntity
  8
LC-004-100-D10-0
 62
     7
370
    50
100
AcDbLine
 10
873.531984
 20
2380.856766
 30
0.0
 11
877.794966
 21
2380.856766
 31
0.0
  0
LINE
  5
19A
330
185
100
AcDbEntity
  8
LC-004-100-D10-0
 62
     7
370
    50
100
AcDbLine
 10
877.794966
 20
2380.856766
 30
0.0
 11
881.99995
 21
2380.856766
 31
0.0
  0
LINE
  5
19B
330
185
100
AcDbEntity
  8
LC-004-100-D10-0
 62
     7
370
    50
100
AcDbLine
 10
881.99995
 20
2380.856766
 30
0.0
 11
886.108856
 21
2380.856766
 31
0.0
  0
LINE
  5
19C
330
185
100
AcDbEntity
  8
LC-004-100-D10-0
 62
     7
370
    50
100
AcDbLine
 10
886.108856
 20
2380.856766
 30
0.0
 11
890.084474
 21
2380.856766
 31
0.0
  0
LINE
  5
19D
330
185
100
AcDbEntity
  8
LC-004-100-D10-0
 62
     7
370
    50
100
AcDbLine
 10
890.084474
 20
2380.856766
 30
0.0
 11
893.890798
 21
2380.856766
 31
0.0
  0
LINE
  5
19E
330
185
100
AcDbEntity
  8
LC-004-100-D10-0
 62
     7
370
    50
100
AcDbLine
 10
893.890798
 20
2380.856766
 30
0.0
 11
897.493359
 21
2380.856766
 31
0.0
  0
LINE
  5
19F
330
185
100
AcDbEntity
  8
LC-004-100-D10-0
 62
     7
370
    50
100
AcDbLine
 10
897.493359
 20
2380.856766
 30
0.0
 11
900.859531
 21
2380.856766
 31
0.0
  0
LINE
  5
1A0
330
185
100
AcDbEntity
  8
LC-004-100-D10-0
 62
     7
370
    50
100
AcDbLine
 10
900.859531
 20
2380.856766
 30
0.0
 11
903.95883
 21
2380.856766
 31
0.0
  0
LINE
  5
1A1
330
185
100
AcDbEntity
  8
LC-004-100-D10-0
 62
     7
370
    50
100
AcDbLine
 10
903.95883
 20
2380.856766
 30
0.0
 11
906.763187
 21
2380.856766
 31
0.0
  0
LINE
  5
1A2
330
185
100
AcDbEntity
  8
LC-004-100-D10-0
 62
     7
370
    50
100
AcDbLine
 10
906.763187
 20
2380.856766
 30
0.0
 11
909.247207
 21
2380.856766
 31
0.0
  0
LINE
  5
1A3
330
185
100
AcDbEntity
  8
LC-004-100-D10-0
 62
     7
370
    50
100
AcDbLine
 10
909.247207
 20
2380.856766
 30
0.0
 11
911.388393
 21
2380.856766
 31
0.0
  0
LINE
  5
1A4
330
185
100
AcDbEntity
  8
LC-004-100-D10-0
 62
     7
370
    50
100
AcDbLine
 10
911.388393
 20
2380.856766
 30
0.0
 11
913.167355
 21
2380.856766
 31
0.0
  0
LINE
  5
1A5
330
185
100
AcDbEntity
  8
LC-004-100-D10-0
 62
     7
370
    50
100
AcDbLine
 10
913.167355
 20
2380.856766
 30
0.0
 11
914.567982
 21
2380.856766
 31
0.0
  0
LINE
  5
1A6
330
185
100
AcDbEntity
  8
LC-004-100-D10-0
 62
     7
370
    50
100
AcDbLine
 10
914.567982
 20
2380.856766
 30
0.0
 11
915.577589
 21
2380.856766
 31
0.0
  0
LINE
  5
1A7
330
185
100
AcDbEntity
  8
LC-004-100-D10-0
 62
     7
370
    50
100
AcDbLine
 10
915.577589
 20
2380.856766
 30
0.0
 11
916.187034
 21
2380.856766
 31
0.0
  0
LINE
  5
1A8
330
185
100
AcDbEntity
  8
LC-004-100-D10-0
 62
     7
370
    50
100
AcDbLine
 10
916.187034
 20
2380.856766
 30
0.0
 11
916.390798
 21
2380.856766
 31
0.0
  0
ENDBLK
  5
187
330
185
100
AcDbEntity
  8
0
100
AcDbBlockEnd
  0
BLOCK
  5
1B1
330
1B0
100
AcDbEntity
  8
0
100
AcDbBlockBegin
  2
POLY7
 70
     0
 71
     0
 10
0.0
 20
0.0
 30
0.0
  3
POLY7
  1

  4
POLY7
  0
LINE
  5
1B3
330
1B0
100
AcDbEntity
  8
LC-004-100-D10-0
 62
     7
370
    50
100
AcDbLine
 10
1644.290621
 20
1591.146025
 30
0.0
 11
1639.792058
 21
1591.602366
 31
0.0
  0
LINE
  5
1B4
330
1B0
100
AcDbEntity
  8
LC-004-100-D10-0
 62
     7
370
    50
100
AcDbLine
 10
1639.792058
 20
1591.602366
 30
0.0
 11
1635.877651
 21
1592.27895
 31
0.0
  0
LINE
  5
1B5
330
1B0
100
AcDbEntity
  8
LC-004-100-D10-0
 62
     7
370
    50
100
AcDbLine
 10
1635.877651
 20
1592.27895
 30
0.0
 11
1632.490808
 21
1593.145065
 31
0.0
  0
LINE
  5
1B6
330
1B0
100
AcDbEntity
  8
LC-004-100-D10-0
 62
     7
370
    50
100
AcDbLine
 10
1632.490808
 20
1593.145065
 30
0.0
 11
1629.546399
 21
1594.182158
 31
0.0
  0
LINE
  5
1B7
330
1B0
100
AcDbEntity
  8
LC-004-100-D10-0
 62
     7
370
    50
100
AcDbLine
 10
1629.546399
 20
1594.182158
 30
0.0
 11
1626.988458
 21
1595.372539
 31
0.0
  0
LINE
  5
1B8
330
1B0
100
AcDbEntity
  8
LC-004-100-D10-0
 62
     7
370
    50
100
AcDbLine
 10
1626.988458
 20
1595.372539
 30
0.0
 11
1624.777621
 21
1596.697418
 31
0.0
  0
LINE
  5
1B9
330
1B0
100
AcDbEntity
  8
LC-004-100-D10-0
 62
     7
370
    50
100
AcDbLine
 10
1624.777621
 20
1596.697418
 30
0.0
 11
1622.858205
 21
1598.157275
 31
0.0
  0
LINE
  5
1BA
330
1B0
100
AcDbEntity
  8
LC-004-100-D10-0
 62
     7
370
    50
100
AcDbLine
 10
1622.858205
 20
1598.157275
 30
0.0
 11
1621.167651
 21
1599.781717
 31
0.0
  0
LINE
  5
1BB
330
1B0
100
AcDbEntity
  8
LC-004-100-D10-0
 62
     7
370
    50
100
AcDbLine
 10
1621.167651
 20
1599.781717
 30
0.0
 11
1619.681136
 21
1601.590978
 31
0.0
  0
LINE
  5
1BC
330
1B0
100
AcDbEntity
  8
LC-004-100-D10-0
 62
     7
370
    50
100
AcDbLine
 10
1619.681136
 20
1601.590978
 30
0.0
 11
1618.394097
 21
1603.597268
 31
0.0
  0
LINE
  5
1BD
330
1B0
100
AcDbEntity
  8
LC-004-100-D10-0
 62
     7
370
    50
100
AcDbLine
 10
1618.394097
 20
1603.597268
 30
0.0
 11
1617.309386
 21
1605.809128
 31
0.0
  0
LINE
  5
1BE
330
1B0
100
AcDbEntity
  8
LC-004-100-D10-0
 62
     7
370
    50
100
AcDbLine
 10
1617.309386
 20
1605.809128
 30
0.0
 11
1616.425947
 21
1608.250504
 31
0.0
  0
LINE
  5
1BF
330
1B0
100
AcDbEntity
  8
LC-004-100-D10-0
 62
     7
370
    50
100
AcDbLine
 10
1616.425947
 20
1608.250504
 30
0.0
 11
1615.738358
 21
1610.978838
 31
0.0
  0
LINE
  5
1C0
330
1B0
100
AcDbEntity
  8
LC-004-100-D10-0
 62
     7
370
    50
100
AcDbLine
 10
1615.738358
 20
1610.978838
 30
0.0
 11
1615.260236
 21
1614.032258
 31
0.0
  0
LINE
  5
1C1
330
1B0
100
AcDbEntity
  8
LC-004-100-D10-0
 62
     7
370
    50
100
AcDbLine
 10
1615.260236
 20
1614.032258
 30
0.0
 11
1615.012871
 21
1617.43101
 31
0.0
  0
ENDBLK
  5
1B2
330
1B0
100
AcDbEntity
  8
0
100
AcDbBlockEnd
  0
BLOCK
  5
1C4
330
1C3
100
AcDbEntity
  8
0
100
AcDbBlockBegin
  2
POLY8
 70
     0
 71
     0
 10
0.0
 20
0.0
 30
0.0
  3
POLY8
  1

  4
POLY8
  0
LINE
  5
1C6
330
1C3
100
AcDbEntity
  8
LC-004-100-D10-0
 62
     7
370
    50
100
AcDbLine
 10
1608.501695
 20
1926.156937
 30
0.0
 11
1608.765868
 21
1929.593063
 31
0.0
  0
LINE
  5
1C7
330
1C3
100
AcDbEntity
  8
LC-004-100-D10-0
 62
     7
370
    50
100
AcDbLine
 10
1608.765868
 20
1929.593063
 30
0.0
 11
1609.28325
 21
1932.64995
 31
0.0
  0
LINE
  5
1C8
330
1C3
100
AcDbEntity
  8
LC-004-100-D10-0
 62
     7
370
    50
100
AcDbLine
 10
1609.28325
 20
1932.64995
 30
0.0
 11
1610.0242
 21
1935.36144
 31
0.0
  0
LINE
  5
1C9
330
1C3
100
AcDbEntity
  8
LC-004-100-D10-0
 62
     7
370
    50
100
AcDbLine
 10
1610.0242
 20
1935.36144
 30
0.0
 11
1610.974574
 21
1937.786217
 31
0.0
  0
LINE
  5
1CA
330
1C3
100
AcDbEntity
  8
LC-004-100-D10-0
 62
     7
370
    50
100
AcDbLine
 10
1610.974574
 20
1937.786217
 30
0.0
 11
1612.133739
 21
1939.973342
 31
0.0
  0
LINE
  5
1CB
330
1C3
100
AcDbEntity
  8
LC-004-100-D10-0
 62
     7
370
    50
100
AcDbLine
 10
1612.133739
 20
1939.973342
 30
0.0
 11
1613.493637
 21
1941.942318
 31
0.0
  0
LINE
  5
1CC
330
1C3
100
AcDbEntity
  8
LC-004-100-D10-0
 62
     7
370
    50
100
AcDbLine
 10
1613.493637
 20
1941.942318
 30
0.0
 11
1615.059043
 21
1943.721777
 31
0.0
  0
LINE
  5
1CD
330
1C3
100
AcDbEntity
  8
LC-004-100-D10-0
 62
     7
370
    50
100
AcDbLine
 10
1615.059043
 20
1943.721777
 30
0.0
 11
1616.87083
 21
1945.355162
 31
0.0
  0
LINE
  5
1CE
330
1C3
100
AcDbEntity
  8
LC-004-100-D10-0
 62
     7
370
    50
100
AcDbLine
 10
1616.87083
 20
1945.355162
 30
0.0
 11
1618.980697
 21
1946.862358
 31
0.0
  0
LINE
  5
1CF
330
1C3
100
AcDbEntity
  8
LC-004-100-D10-0
 62
     7
370
    50
100
AcDbLine
 10
1618.980697
 20
1946.862358
 30
0.0
 11
1621.430193
 21
1948.23797
 31
0.0
  0
LINE
  5
1D0
330
1C3
100
AcDbEntity
  8
LC-004-100-D10-0
 62
     7
370
    50
100
AcDbLine
 10
1621.430193
 20
1948.23797
 30
0.0
 11
1624.271764
 21
1949.474202
 31
0.0
  0
LINE
  5
1D1
330
1C3
100
AcDbEntity
  8
LC-004-100-D10-0
 62
     7
370
    50
100
AcDbLine
 10
1624.271764
 20
1949.474202
 30
0.0
 11
1627.564649
 21
1950.55662
 31
0.0
  0
LINE
  5
1D2
330
1C3
100
AcDbEntity
  8
LC-004-100-D10-0
 62
     7
370
    50
100
AcDbLine
 10
1627.564649
 20
1950.55662
 30
0.0
 11
1631.332501
 21
1951.456813
 31
0.0
  0
LINE
  5
1D3
330
1C3
100
AcDbEntity
  8
LC-004-100-D10-0
 62
     7
370
    50
100
AcDbLine
 10
1631.332501
 20
1951.456813
 30
0.0
 11
1635.617049
 21
1952.154148
 31
0.0
  0
LINE
  5
1D4
330
1C3
100
AcDbEntity
  8
LC-004-100-D10-0
 62
     7
370
    50
100
AcDbLine
 10
1635.617049
 20
1952.154148
 30
0.0
 11
1640.46075
 21
1952.629722
 31
0.0
  0
ENDBLK
  5
1C5
330
1C3
100
AcDbEntity
  8
0
100
AcDbBlockEnd
  0
BLOCK
  5
1DB
330
1DA
100
AcDbEntity
  8
0
100
AcDbBlockBegin
  2
POLY9
 70
     0
 71
     0
 10
0.0
 20
0.0
 30
0.0
  3
POLY9
  1

  4
POLY9
  0
LINE
  5
1DD
330
1DA
100
AcDbEntity
  8
LC-004-100-D10-0
 62
     7
370
    50
100
AcDbLine
 10
1617.842027
 20
1956.50137
 30
0.0
 11
1614.956794
 21
1954.95303
 31
0.0
  0
LINE
  5
1DE
330
1DA
100
AcDbEntity
  8
LC-004-100-D10-0
 62
     7
370
    50
100
AcDbLine
 10
1614.956794
 20
1954.95303
 30
0.0
 11
1612.382488
 21
1953.25154
 31
0.0
  0
LINE
  5
1DF
330
1DA
100
AcDbEntity
  8
LC-004-100-D10-0
 62
     7
370
    50
100
AcDbLine
 10
1612.382488
 20
1953.25154
 30
0.0
 11
1610.095291
 21
1951.409013
 31
0.0
  0
LINE
  5
1E0
330
1DA
100
AcDbEntity
  8
LC-004-100-D10-0
 62
     7
370
    50
100
AcDbLine
 10
1610.095291
 20
1951.409013
 30
0.0
 11
1608.067903
 21
1949.43367
 31
0.0
  0
LINE
  5
1E1
330
1DA
100
AcDbEntity
  8
LC-004-100-D10-0
 62
     7
370
    50
100
AcDbLine
 10
1608.067903
 20
1949.43367
 30
0.0
 11
1606.258297
 21
1947.297303
 31
0.0
  0
LINE
  5
1E2
330
1DA
100
AcDbEntity
  8
LC-004-100-D10-0
 62
     7
370
    50
100
AcDbLine
 10
1606.258297
 20
1947.297303
 30
0.0
 11
1604.647499
 21
1944.975912
 31
0.0
  0
LINE
  5
1E3
330
1DA
100
AcDbEntity
  8
LC-004-100-D10-0
 62
     7
370
    50
100
AcDbLine
 10
1604.647499
 20
1944.975912
 30
0.0
 11
1603.232284
 21
1942.453209
 31
0.0
  0
LINE
  5
1E4
330
1DA
100
AcDbEntity
  8
LC-004-100-D10-0
 62
     7
370
    50
100
AcDbLine
 10
1603.232284
 20
1942.453209
 30
0.0
 11
1602.024157
 21
1939.710904
 31
0.0
  0
LINE
  5
1E5
330
1DA
100
AcDbEntity
  8
LC-004-100-D10-0
 62
     7
370
    50
100
AcDbLine
 10
1602.024157
 20
1939.710904
 30
0.0
 11
1601.028728
 21
1936.715956
 31
0.0
  0
LINE
  5
1E6
330
1DA
100
AcDbEntity
  8
LC-004-100-D10-0
 62
     7
370
    50
100
AcDbLine
 10
1601.028728
 20
1936.715956
 30
0.0
 11
1600.255069
 21
1933.41837
 31
0.0
  0
ENDBLK
  5
1DC
330
1DA
100
AcDbEntity
  8
0
100
AcDbBlockEnd
  0
BLOCK
  5
1E9
330
1E8
100
AcDbEntity
  8
0
100
AcDbBlockBegin
  2
POLY10
 70
     0
 71
     0
 10
0.0
 20
0.0
 30
0.0
  3
POLY10
  1

  4
POLY10
  0
LINE
  5
1EB
330
1E8
100
AcDbEntity
  8
LC-004-100-D10-0
 62
     7
370
    50
100
AcDbLine
 10
1606.018336
 20
1617.117423
 30
0.0
 11
1606.366122
 21
1612.602832
 31
0.0
  0
LINE
  5
1EC
330
1E8
100
AcDbEntity
  8
LC-004-100-D10-0
 62
     7
370
    50
100
AcDbLine
 10
1606.366122
 20
1612.602832
 30
0.0
 11
1607.050746
 21
1608.561579
 31
0.0
  0
LINE
  5
1ED
330
1E8
100
AcDbEntity
  8
LC-004-100-D10-0
 62
     7
370
    50
100
AcDbLine
 10
1607.050746
 20
1608.561579
 30
0.0
 11
1608.02817
 21
1604.957199
 31
0.0
  0
LINE
  5
1EE
330
1E8
100
AcDbEntity
  8
LC-004-100-D10-0
 62
     7
370
    50
100
AcDbLine
 10
1608.02817
 20
1604.957199
 30
0.0
 11
1609.274461
 21
1601.720332
 31
0.0
  0
LINE
  5
1EF
330
1E8
100
AcDbEntity
  8
LC-004-100-D10-0
 62
     7
370
    50
100
AcDbLine
 10
1609.274461
 20
1601.720332
 30
0.0
 11
1610.770966
 21
1598.800885
 31
0.0
  0
LINE
  5
1F0
330
1E8
100
AcDbEntity
  8
LC-004-100-D10-0
 62
     7
370
    50
100
AcDbLine
 10
1610.770966
 20
1598.800885
 30
0.0
 11
1612.496864
 21
1596.168488
 31
0.0
  0
LINE
  5
1F1
330
1E8
100
AcDbEntity
  8
LC-004-100-D10-0
 62
     7
370
    50
100
AcDbLine
 10
1612.496864
 20
1596.168488
 30
0.0
 11
1614.456325
 21
1593.78552
 31
0.0
  0
LINE
  5
1F2
330
1E8
100
AcDbEntity
  8
LC-004-100-D10-0
 62
     7
370
    50
100
AcDbLine
 10
1614.456325
 20
1593.78552
 30
0.0
 11
1616.690714
 21
1591.593814
 31
0.0
  0
LINE
  5
1F3
330
1E8
100
AcDbEntity
  8
LC-004-100-D10-0
 62
     7
370
    50
100
AcDbLine
 10
1616.690714
 20
1591.593814
 30
0.0
 11
1619.237291
 21
1589.586675
 31
0.0
  0
LINE
  5
1F4
330
1E8
100
AcDbEntity
  8
LC-004-100-D10-0
 62
     7
370
    50
100
AcDbLine
 10
1619.237291
 20
1589.586675
 30
0.0
 11
1622.12922
 21
1587.771249
 31
0.0
  0
ENDBLK
  5
1EA
330
1E8
100
AcDbEntity
  8
0
100
AcDbBlockEnd
  0
BLOCK
  5
21B
330
211
100
AcDbEntity
  8
0
100
AcDbBlockBegin
  2
*D12
 70
     1
 71
     0
 10
0.0
 20
0.0
 30
0.0
  3
*D12
  1

  0
LINE
  5
212
330
211
100
AcDbEntity
  8
LC-006-003-----0
 62
     2
370
    -2
100
AcDbLine
 10
871.390798
 20
2385.03
 30
0.0
 11
918.0
 21
2385.03
 31
0.0
  0
LINE
  5
213
330
211
100
AcDbEntity
  8
LC-006-003-----0
 62
     2
370
    -2
100
AcDbLine
 10
871.390798
 20
2580.03
 30
0.0
 11
918.0
 21
2580.03
 31
0.0
  0
LINE
  5
214
330
211
100
AcDbEntity
  8
LC-006-003-----0
 62
     2
370
    -2
100
AcDbLine
 10
900.0
 20
2410.03
 30
0.0
 11
900.0
 21
2555.03
 31
0.0
  0
SOLID
  5
215
330
211
100
AcDbEntity
  8
LC-006-003-----0
 62
     2
100
AcDbTrace
 10
895.833333
 20
2410.03
 30
0.0
 11
904.166667
 21
2410.03
 31
0.0
 12
900.0
 22
2385.03
 32
0.0
 13
900.0
 23
2385.03
 33
0.0
  0
SOLID
  5
216
330
211
100
AcDbEntity
  8
LC-006-003-----0
 62
     2
100
AcDbTrace
 10
904.166667
 20
2555.03
 30
0.0
 11
895.833333
 21
2555.03
 31
0.0
 12
900.0
 22
2580.03
 32
0.0
 13
900.0
 23
2580.03
 33
0.0
  0
MTEXT
  5
217
330
211
100
AcDbEntity
  8
LC-006-003-----0
 62
     2
100
AcDbMText
 10
870.0
 20
2482.53
 30
0.0
 40
25.0
 41
0.0
 71
     5
 72
     1
  1
\A1;195
  7
LCTX0-400-0-0pDIN-Schrift
 11
6.123031769111886E-17
 21
1.0
 31
0.0
 73
     1
 44
1.0
  0
POINT
  5
218
330
211
100
AcDbEntity
  8
Defpoints
 62
     0
100
AcDbPoint
 10
871.390798
 20
2385.03
 30
0.0
  0
POINT
  5
219
330
211
100
AcDbEntity
  8
Defpoints
 62
     0
100
AcDbPoint
 10
871.390798
 20
2580.03
 30
0.0
  0
POINT
  5
21A
330
211
100
AcDbEntity
  8
Defpoints
 62
     0
100
AcDbPoint
 10
900.0
 20
2580.03
 30
0.0
  0
ENDBLK
  5
21C
330
211
100
AcDbEntity
  8
0
100
AcDbBlockEnd
  0
BLOCK
  5
22C
330
222
100
AcDbEntity
  8
0
100
AcDbBlockBegin
  2
*D13
 70
     1
 71
     0
 10
0.0
 20
0.0
 30
0.0
  3
*D13
  1

  0
LINE
  5
223
330
222
100
AcDbEntity
  8
LC-006-003-----0
 62
     2
370
    -2
100
AcDbLine
 10
1803.374753
 20
1535.021779
 30
0.0
 11
1803.374753
 21
1382.0
 31
0.0
  0
LINE
  5
224
330
222
100
AcDbEntity
  8
LC-006-003-----0
 62
     2
370
    -2
100
AcDbLine
 10
1492.012862
 20
1910.021779
 30
0.0
 11
1492.012862
 21
1382.0
 31
0.0
  0
LINE
  5
225
330
222
100
AcDbEntity
  8
LC-006-003-----0
 62
     2
370
    -2
100
AcDbLine
 10
1778.374753
 20
1400.0
 30
0.0
 11
1517.012862
 21
1400.0
 31
0.0
  0
SOLID
  5
226
330
222
100
AcDbEntity
  8
LC-006-003-----0
 62
     2
100
AcDbTrace
 10
1778.374753
 20
1395.833333
 30
0.0
 11
1778.374753
 21
1404.166667
 31
0.0
 12
1803.374753
 22
1400.0
 32
0.0
 13
1803.374753
 23
1400.0
 33
0.0
  0
SOLID
  5
227
330
222
100
AcDbEntity
  8
LC-006-003-----0
 62
     2
100
AcDbTrace
 10
1517.012862
 20
1404.166667
 30
0.0
 11
1517.012862
 21
1395.833333
 31
0.0
 12
1492.012862
 22
1400.0
 32
0.0
 13
1492.012862
 23
1400.0
 33
0.0
  0
MTEXT
  5
228
330
222
100
AcDbEntity
  8
LC-006-003-----0
 62
     2
100
AcDbMText
 10
1647.693808
 20
1430.0
 30
0.0
 40
25.0
 41
0.0
 71
     5
 72
     1
  1
\A1;311
  7
LCTX0-400-0-0pDIN-Schrift
 73
     1
 44
1.0
  0
POINT
  5
229
330
222
100
AcDbEntity
  8
Defpoints
 62
     0
100
AcDbPoint
 10
1803.374753
 20
1535.021779
 30
0.0
  0
POINT
  5
22A
330
222
100
AcDbEntity
  8
Defpoints
 62
     0
100
AcDbPoint
 10
1492.012862
 20
1910.021779
 30
0.0
  0
POINT
  5
22B
330
222
100
AcDbEntity
  8
Defpoints
 62
     0
100
AcDbPoint
 10
1492.012862
 20
1400.0
 30
0.0
  0
ENDBLK
  5
22D
330
222
100
AcDbEntity
  8
0
100
AcDbBlockEnd
  0
BLOCK
  5
24B
330
241
100
AcDbEntity
  8
0
100
AcDbBlockBegin
  2
*D14
 70
     1
 71
     0
 10
0.0
 20
0.0
 30
0.0
  3
*D14
  1

  0
LINE
  5
242
330
241
100
AcDbEntity
  8
LC-006-003-----0
 62
     2
370
    -2
100
AcDbLine
 10
476.390798
 20
1535.021779
 30
0.0
 11
476.390798
 21
1382.0
 31
0.0
  0
LINE
  5
243
330
241
100
AcDbEntity
  8
LC-006-003-----0
 62
     2
370
    -2
100
AcDbLine
 10
1266.390798
 20
1535.021779
 30
0.0
 11
1266.390798
 21
1382.0
 31
0.0
  0
LINE
  5
244
330
241
100
AcDbEntity
  8
LC-006-003-----0
 62
     2
370
    -2
100
AcDbLine
 10
501.390798
 20
1400.0
 30
0.0
 11
1241.390798
 21
1400.0
 31
0.0
  0
SOLID
  5
245
330
241
100
AcDbEntity
  8
LC-006-003-----0
 62
     2
100
AcDbTrace
 10
501.390798
 20
1404.166667
 30
0.0
 11
501.390798
 21
1395.833333
 31
0.0
 12
476.390798
 22
1400.0
 32
0.0
 13
476.390798
 23
1400.0
 33
0.0
  0
SOLID
  5
246
330
241
100
AcDbEntity
  8
LC-006-003-----0
 62
     2
100
AcDbTrace
 10
1241.390798
 20
1395.833333
 30
0.0
 11
1241.390798
 21
1404.166667
 31
0.0
 12
1266.390798
 22
1400.0
 32
0.0
 13
1266.390798
 23
1400.0
 33
0.0
  0
MTEXT
  5
247
330
241
100
AcDbEntity
  8
LC-006-003-----0
 62
     2
100
AcDbMText
 10
871.390798
 20
1430.0
 30
0.0
 40
25.0
 41
0.0
 71
     5
 72
     1
  1
\A1;790
  7
LCTX0-400-0-0pDIN-Schrift
 73
     1
 44
1.0
  0
POINT
  5
248
330
241
100
AcDbEntity
  8
Defpoints
 62
     0
100
AcDbPoint
 10
476.390798
 20
1535.021779
 30
0.0
  0
POINT
  5
249
330
241
100
AcDbEntity
  8
Defpoints
 62
     0
100
AcDbPoint
 10
1266.390798
 20
1535.021779
 30
0.0
  0
POINT
  5
24A
330
241
100
AcDbEntity
  8
Defpoints
 62
     0
100
AcDbPoint
 10
1266.390798
 20
1400.0
 30
0.0
  0
ENDBLK
  5
24C
330
241
100
AcDbEntity
  8
0
100
AcDbBlockEnd
  0
BLOCK
  5
258
330
24E
100
AcDbEntity
  8
0
100
AcDbBlockBegin
  2
*D15
 70
     1
 71
     0
 10
0.0
 20
0.0
 30
0.0
  3
*D15
  1

  0
LINE
  5
24F
330
24E
100
AcDbEntity
  8
LC-006-003-----0
 62
     2
370
    -2
100
AcDbLine
 10
466.390798
 20
1999.021779
 30
0.0
 11
332.0
 21
1999.021779
 31
0.0
  0
LINE
  5
250
330
24E
100
AcDbEntity
  8
LC-006-003-----0
 62
     2
370
    -2
100
AcDbLine
 10
466.390798
 20
1545.021779
 30
0.0
 11
332.0
 21
1545.021779
 31
0.0
  0
LINE
  5
251
330
24E
100
AcDbEntity
  8
LC-006-003-----0
 62
     2
370
    -2
100
AcDbLine
 10
350.0
 20
1974.021779
 30
0.0
 11
350.0
 21
1570.021779
 31
0.0
  0
SOLID
  5
252
330
24E
100
AcDbEntity
  8
LC-006-003-----0
 62
     2
100
AcDbTrace
 10
354.166667
 20
1974.021779
 30
0.0
 11
345.833333
 21
1974.021779
 31
0.0
 12
350.0
 22
1999.021779
 32
0.0
 13
350.0
 23
1999.021779
 33
0.0
  0
SOLID
  5
253
330
24E
100
AcDbEntity
  8
LC-006-003-----0
 62
     2
100
AcDbTrace
 10
345.833333
 20
1570.021779
 30
0.0
 11
354.166667
 21
1570.021779
 31
0.0
 12
350.0
 22
1545.021779
 32
0.0
 13
350.0
 23
1545.021779
 33
0.0
  0
MTEXT
  5
254
330
24E
100
AcDbEntity
  8
LC-006-003-----0
 62
     2
100
AcDbMText
 10
320.0
 20
1772.021779
 30
0.0
 40
25.0
 41
0.0
 71
     5
 72
     1
  1
\A1;454
  7
LCTX0-400-0-0pDIN-Schrift
 11
6.123031769111886E-17
 21
1.0
 31
0.0
 73
     1
 44
1.0
  0
POINT
  5
255
330
24E
100
AcDbEntity
  8
Defpoints
 62
     0
100
AcDbPoint
 10
466.390798
 20
1999.021779
 30
0.0
  0
POINT
  5
256
330
24E
100
AcDbEntity
  8
Defpoints
 62
     0
100
AcDbPoint
 10
466.390798
 20
1545.021779
 30
0.0
  0
POINT
  5
257
330
24E
100
AcDbEntity
  8
Defpoints
 62
     0
100
AcDbPoint
 10
350.0
 20
1545.021779
 30
0.0
  0
ENDBLK
  5
259
330
24E
100
AcDbEntity
  8
0
100
AcDbBlockEnd
  0
BLOCK
  5
262
330
25C
100
AcDbEntity
  8
0
100
AcDbBlockBegin
  2
*D16
 70
     1
 71
     0
 10
0.0
 20
0.0
 30
0.0
  3
*D16
  1

  0
LINE
  5
25D
330
25C
100
AcDbEntity
  8
LC-006-003-----0
 62
     2
370
    -2
100
AcDbLine
 10
408.446057
 20
1455.980426
 30
0.0
 11
465.432969
 21
1528.00561
 31
0.0
  0
MTEXT
  5
25E
330
25C
100
AcDbEntity
  8
LC-006-003-----0
 62
     2
100
AcDbMText
 10
415.970502
 20
1495.430372
 30
0.0
 40
25.0
 41
0.0
 71
     5
 72
     1
  1
\A1;R12
  7
LCTX0-400-0-0pDIN-Schrift
 11
0.6204818721877127
 21
0.7842207892465177
 31
0.0
 73
     1
 44
1.0
  0
SOLID
  5
25F
330
25C
100
AcDbEntity
  8
LC-006-003-----0
 62
     2
100
AcDbTrace
 10
468.700555
 20
1525.420269
 30
0.0
 11
462.165382
 21
1530.590951
 31
0.0
 12
480.945015
 22
1547.61113
 32
0.0
 13
480.945015
 23
1547.61113
 33
0.0
  0
POINT
  5
260
330
25C
100
AcDbEntity
  8
Defpoints
 62
     0
100
AcDbPoint
 10
480.945015
 20
1547.61113
 30
0.0
  0
POINT
  5
261
330
25C
100
AcDbEntity
  8
Defpoints
 62
     0
100
AcDbPoint
 10
488.390798
 20
1557.021779
 30
0.0
  0
ENDBLK
  5
263
330
25C
100
AcDbEntity
  8
0
100
AcDbBlockEnd
  0
BLOCK
  5
289
330
288
100
AcDbEntity
  8
0
100
AcDbBlockBegin
  2
POLY11
 70
     0
 71
     0
 10
0.0
 20
0.0
 30
0.0
  3
POLY11
  1

  4
POLY11
  0
LINE
  5
28B
330
288
100
AcDbEntity
  8
LC-002-002-----0
 62
     7
370
    25
100
AcDbLine
 10
1519.717656
 20
1937.021779
 30
0.0
 11
1519.717656
 21
1937.021779
 31
0.0
  0
LINE
  5
28C
330
288
100
AcDbEntity
  8
LC-002-002-----0
 62
     7
370
    25
100
AcDbLine
 10
1519.717656
 20
1937.021779
 30
0.0
 11
1519.717689
 21
1937.536567
 31
0.0
  0
LINE
  5
28D
330
288
100
AcDbEntity
  8
LC-002-002-----0
 62
     7
370
    25
100
AcDbLine
 10
1519.717689
 20
1937.536567
 30
0.0
 11
1519.717689
 21
1937.536567
 31
0.0
  0
LINE
  5
28E
330
288
100
AcDbEntity
  8
LC-002-002-----0
 62
     7
370
    25
100
AcDbLine
 10
1519.717689
 20
1937.536567
 30
0.0
 11
1519.717653
 21
1938.017937
 31
0.0
  0
LINE
  5
28F
330
288
100
AcDbEntity
  8
LC-002-002-----0
 62
     7
370
    25
100
AcDbLine
 10
1519.717653
 20
1938.017937
 30
0.0
 11
1519.717653
 21
1938.017937
 31
0.0
  0
LINE
  5
290
330
288
100
AcDbEntity
  8
LC-002-002-----0
 62
     7
370
    25
100
AcDbLine
 10
1519.717653
 20
1938.017937
 30
0.0
 11
1519.717659
 21
1938.431508
 31
0.0
  0
LINE
  5
291
330
288
100
AcDbEntity
  8
LC-002-002-----0
 62
     7
370
    25
100
AcDbLine
 10
1519.717659
 20
1938.431508
 30
0.0
 11
1519.717659
 21
1938.431508
 31
0.0
  0
LINE
  5
292
330
288
100
AcDbEntity
  8
LC-002-002-----0
 62
     7
370
    25
100
AcDbLine
 10
1519.717659
 20
1938.431508
 30
0.0
 11
1519.717634
 21
1938.750444
 31
0.0
  0
LINE
  5
293
330
288
100
AcDbEntity
  8
LC-002-002-----0
 62
     7
370
    25
100
AcDbLine
 10
1519.717634
 20
1938.750444
 30
0.0
 11
1519.717634
 21
1938.750444
 31
0.0
  0
LINE
  5
294
330
288
100
AcDbEntity
  8
LC-002-002-----0
 62
     7
370
    25
100
AcDbLine
 10
1519.717634
 20
1938.750444
 30
0.0
 11
1519.717682
 21
1938.9524
 31
0.0
  0
LINE
  5
295
330
288
100
AcDbEntity
  8
LC-002-002-----0
 62
     7
370
    25
100
AcDbLine
 10
1519.717682
 20
1938.9524
 30
0.0
 11
1519.717682
 21
1938.9524
 31
0.0
  0
LINE
  5
296
330
288
100
AcDbEntity
  8
LC-002-002-----0
 62
     7
370
    25
100
AcDbLine
 10
1519.717682
 20
1938.9524
 30
0.0
 11
1519.717664
 21
1939.021779
 31
0.0
  0
ENDBLK
  5
28A
330
288
100
AcDbEntity
  8
0
100
AcDbBlockEnd
  0
BLOCK
  5
308
330
307
100
AcDbEntity
  8
0
100
AcDbBlockBegin
  2
*X118
 70
     1
 71
     0
 10
0.0
 20
0.0
 30
0.0
  3
*X118
  1

  4
*X1
  0
LINE
  5
30B
330
307
100
AcDbEntity
  8
LC-008-005-----0
 62
     7
370
    25
100
AcDbLine
 10
1293.711242
 20
1082.167543
 30
0.0
 11
1274.305657
 21
1101.573128
 31
0.0
  0
LINE
  5
30C
330
307
100
AcDbEntity
  8
LC-008-005-----0
 62
     7
370
    25
100
AcDbLine
 10
1293.711242
 20
1025.599
 30
0.0
 11
1217.737114
 21
1101.573128
 31
0.0
  0
LINE
  5
30D
330
307
100
AcDbEntity
  8
LC-008-005-----0
 62
     7
370
    25
100
AcDbLine
 10
1293.711242
 20
969.030458
 30
0.0
 11
1161.168572
 21
1101.573128
 31
0.0
  0
LINE
  5
30E
330
307
100
AcDbEntity
  8
LC-008-005-----0
 62
     7
370
    25
100
AcDbLine
 10
1244.600029
 20
961.573128
 30
0.0
 11
1104.600029
 21
1101.573128
 31
0.0
  0
LINE
  5
30F
330
307
100
AcDbEntity
  8
LC-008-005-----0
 62
     7
370
    25
100
AcDbLine
 10
1188.031487
 20
961.573128
 30
0.0
 11
1048.031487
 21
1101.573128
 31
0.0
  0
LINE
  5
310
330
307
100
AcDbEntity
  8
LC-008-005-----0
 62
     7
370
    25
100
AcDbLine
 10
1131.462944
 20
961.573128
 30
0.0
 11
994.076743
 21
1098.959329
 31
0.0
  0
LINE
  5
311
330
307
100
AcDbEntity
  8
LC-008-005-----0
 62
     7
370
    25
100
AcDbLine
 10
1074.894402
 20
961.573128
 30
0.0
 11
994.076743
 21
1042.390787
 31
0.0
  0
LINE
  5
312
330
307
100
AcDbEntity
  8
LC-008-005-----0
 62
     7
370
    25
100
AcDbLine
 10
1018.325859
 20
961.573128
 30
0.0
 11
994.076743
 21
985.822244
 31
0.0
  0
ENDBLK
  5
309
330
307
100
AcDbEntity
  8
0
100
AcDbBlockEnd
  0
BLOCK
  5
31E
330
31D
100
AcDbEntity
  8
0
100
AcDbBlockBegin
  2
*X219
 70
     1
 71
     0
 10
0.0
 20
0.0
 30
0.0
  3
*X219
  1

  4
*X2
  0
LINE
  5
320
330
31D
100
AcDbEntity
  8
LC-008-005-----0
 62
     7
370
    25
100
AcDbLine
 10
991.984402
 20
765.710232
 30
0.0
 11
1017.231597
 21
790.957427
 31
0.0
  0
LINE
  5
321
330
31D
100
AcDbEntity
  8
LC-008-005-----0
 62
     7
370
    25
100
AcDbLine
 10
1152.847298
 20
926.573128
 30
0.0
 11
1168.016041
 21
941.741871
 31
0.0
  0
LINE
  5
322
330
31D
100
AcDbEntity
  8
LC-008-005-----0
 62
     7
370
    25
100
AcDbLine
 10
981.634788
 20
783.64489
 30
0.0
 11
1019.358128
 21
821.368229
 31
0.0
  0
LINE
  5
323
330
31D
100
AcDbEntity
  8
LC-008-005-----0
 62
     7
370
    25
100
AcDbLine
 10
1124.563027
 20
926.573128
 30
0.0
 11
1158.40966
 21
960.419761
 31
0.0
  0
LINE
  5
324
330
31D
100
AcDbEntity
  8
LC-008-005-----0
 62
     7
370
    25
100
AcDbLine
 10
983.761319
 20
814.055691
 30
0.0
 11
1021.484658
 21
851.779031
 31
0.0
  0
LINE
  5
325
330
31D
100
AcDbEntity
  8
LC-008-005-----0
 62
     7
370
    25
100
AcDbLine
 10
1086.278756
 20
916.573128
 30
0.0
 11
1131.278756
 21
961.573128
 31
0.0
  0
LINE
  5
326
330
31D
100
AcDbEntity
  8
LC-008-005-----0
 62
     7
370
    25
100
AcDbLine
 10
985.887849
 20
844.466493
 30
0.0
 11
1023.611189
 21
882.189832
 31
0.0
  0
LINE
  5
327
330
31D
100
AcDbEntity
  8
LC-008-005-----0
 62
     7
370
    25
100
AcDbLine
 10
1057.994484
 20
916.573128
 30
0.0
 11
1102.994484
 21
961.573128
 31
0.0
  0
LINE
  5
328
330
31D
100
AcDbEntity
  8
LC-008-005-----0
 62
     7
370
    25
100
AcDbLine
 10
988.01438
 20
874.877295
 30
0.0
 11
1074.710213
 21
961.573128
 31
0.0
  0
LINE
  5
329
330
31D
100
AcDbEntity
  8
LC-008-005-----0
 62
     7
370
    25
100
AcDbLine
 10
990.14091
 20
905.288096
 30
0.0
 11
1046.425942
 21
961.573128
 31
0.0
  0
LINE
  5
32A
330
31D
100
AcDbEntity
  8
LC-008-005-----0
 62
     7
370
    25
100
AcDbLine
 10
992.26744
 20
935.698898
 30
0.0
 11
1018.141671
 21
961.573128
 31
0.0
  0
ENDBLK
  5
31F
330
31D
100
AcDbEntity
  8
0
100
AcDbBlockEnd
  0
BLOCK
  5
339
330
32D
100
AcDbEntity
  8
0
100
AcDbBlockBegin
  2
*D20
 70
     1
 71
     0
 10
0.0
 20
0.0
 30
0.0
  3
*D20
  1

  0
LINE
  5
32E
330
32D
100
AcDbEntity
  8
LC-006-003-----0
 62
     2
370
    -2
100
AcDbLine
 10
1813.374753
 20
1580.021779
 30
0.0
 11
1968.0
 21
1580.021779
 31
0.0
  0
LINE
  5
32F
330
32D
100
AcDbEntity
  8
LC-006-003-----0
 62
     2
370
    -2
100
AcDbLine
 10
1813.374753
 20
1545.021779
 30
0.0
 11
1968.0
 21
1545.021779
 31
0.0
  0
LINE
  5
330
330
32D
100
AcDbEntity
  8
LC-006-003-----0
 62
     2
370
    -2
100
AcDbLine
 10
1950.0
 20
1605.021779
 30
0.0
 11
1950.0
 21
1630.021779
 31
0.0
  0
LINE
  5
331
330
32D
100
AcDbEntity
  8
LC-006-003-----0
 62
     2
370
    -2
100
AcDbLine
 10
1950.0
 20
1520.021779
 30
0.0
 11
1950.0
 21
1499.251988
 31
0.0
  0
LINE
  5
332
330
32D
100
AcDbEntity
  8
LC-006-003-----0
 62
     2
370
    -2
100
AcDbLine
 10
1950.0
 20
1580.021779
 30
0.0
 11
1950.0
 21
1545.021779
 31
0.0
  0
SOLID
  5
333
330
32D
100
AcDbEntity
  8
LC-006-003-----0
 62
     2
100
AcDbTrace
 10
1945.833333
 20
1605.021779
 30
0.0
 11
1954.166667
 21
1605.021779
 31
0.0
 12
1950.0
 22
1580.021779
 32
0.0
 13
1950.0
 23
1580.021779
 33
0.0
  0
SOLID
  5
334
330
32D
100
AcDbEntity
  8
LC-006-003-----0
 62
     2
100
AcDbTrace
 10
1954.166667
 20
1520.021779
 30
0.0
 11
1945.833333
 21
1520.021779
 31
0.0
 12
1950.0
 22
1545.021779
 32
0.0
 13
1950.0
 23
1545.021779
 33
0.0
  0
MTEXT
  5
335
330
32D
100
AcDbEntity
  8
LC-006-003-----0
 62
     2
100
AcDbMText
 10
1920.0
 20
1528.995738
 30
0.0
 40
25.0
 41
0.0
 71
     5
 72
     1
  1
\A1;35
  7
LCTX0-400-0-0pDIN-Schrift
 11
6.123031769111886E-17
 21
1.0
 31
0.0
 73
     1
 44
1.0
  0
POINT
  5
336
330
32D
100
AcDbEntity
  8
Defpoints
 62
     0
100
AcDbPoint
 10
1813.374753
 20
1580.021779
 30
0.0
  0
POINT
  5
337
330
32D
100
AcDbEntity
  8
Defpoints
 62
     0
100
AcDbPoint
 10
1813.374753
 20
1545.021779
 30
0.0
  0
POINT
  5
338
330
32D
100
AcDbEntity
  8
Defpoints
 62
     0
100
AcDbPoint
 10
1950.0
 20
1545.021779
 30
0.0
  0
ENDBLK
  5
33A
330
32D
100
AcDbEntity
  8
0
100
AcDbBlockEnd
  0
BLOCK
  5
348
330
33C
100
AcDbEntity
  8
0
100
AcDbBlockBegin
  2
*D21
 70
     1
 71
     0
 10
0.0
 20
0.0
 30
0.0
  3
*D21
  1

  0
LINE
  5
33D
330
33C
100
AcDbEntity
  8
LC-006-003-----0
 62
     2
370
    -2
100
AcDbLine
 10
1813.374753
 20
1999.021779
 30
0.0
 11
1968.0
 21
1999.021779
 31
0.0
  0
LINE
  5
33E
330
33C
100
AcDbEntity
  8
LC-006-003-----0
 62
     2
370
    -2
100
AcDbLine
 10
1813.374753
 20
1964.021779
 30
0.0
 11
1968.0
 21
1964.021779
 31
0.0
  0
LINE
  5
33F
330
33C
100
AcDbEntity
  8
LC-006-003-----0
 62
     2
370
    -2
100
AcDbLine
 10
1950.0
 20
1939.021779
 30
0.0
 11
1950.0
 21
1914.021779
 31
0.0
  0
LINE
  5
340
330
33C
100
AcDbEntity
  8
LC-006-003-----0
 62
     2
370
    -2
100
AcDbLine
 10
1950.0
 20
2024.021779
 30
0.0
 11
1950.0
 21
2040.433675
 31
0.0
  0
LINE
  5
341
330
33C
100
AcDbEntity
  8
LC-006-003-----0
 62
     2
370
    -2
100
AcDbLine
 10
1950.0
 20
1999.021779
 30
0.0
 11
1950.0
 21
1964.021779
 31
0.0
  0
SOLID
  5
342
330
33C
100
AcDbEntity
  8
LC-006-003-----0
 62
     2
100
AcDbTrace
 10
1945.833333
 20
2024.021779
 30
0.0
 11
1954.166667
 21
2024.021779
 31
0.0
 12
1950.0
 22
1999.021779
 32
0.0
 13
1950.0
 23
1999.021779
 33
0.0
  0
SOLID
  5
343
330
33C
100
AcDbEntity
  8
LC-006-003-----0
 62
     2
100
AcDbTrace
 10
1954.166667
 20
1939.021779
 30
0.0
 11
1945.833333
 21
1939.021779
 31
0.0
 12
1950.0
 22
1964.021779
 32
0.0
 13
1950.0
 23
1964.021779
 33
0.0
  0
MTEXT
  5
344
330
33C
100
AcDbEntity
  8
LC-006-003-----0
 62
     2
100
AcDbMText
 10
1920.0
 20
2010.689925
 30
0.0
 40
25.0
 41
0.0
 71
     5
 72
     1
  1
\A1;35
  7
LCTX0-400-0-0pDIN-Schrift
 11
6.123031769111886E-17
 21
1.0
 31
0.0
 73
     1
 44
1.0
  0
POINT
  5
345
330
33C
100
AcDbEntity
  8
Defpoints
 62
     0
100
AcDbPoint
 10
1813.374753
 20
1999.021779
 30
0.0
  0
POINT
  5
346
330
33C
100
AcDbEntity
  8
Defpoints
 62
     0
100
AcDbPoint
 10
1813.374753
 20
1964.021779
 30
0.0
  0
POINT
  5
347
330
33C
100
AcDbEntity
  8
Defpoints
 62
     0
100
AcDbPoint
 10
1950.0
 20
1964.021779
 30
0.0
  0
ENDBLK
  5
349
330
33C
100
AcDbEntity
  8
0
100
AcDbBlockEnd
  0
BLOCK
  5
355
330
34B
100
AcDbEntity
  8
0
100
AcDbBlockBegin
  2
*D22
 70
     1
 71
     0
 10
0.0
 20
0.0
 30
0.0
  3
*D22
  1

  0
LINE
  5
34C
330
34B
100
AcDbEntity
  8
LC-006-003-----0
 62
     2
370
    -2
100
AcDbLine
 10
1813.374753
 20
1580.021779
 30
0.0
 11
1968.0
 21
1580.021779
 31
0.0
  0
LINE
  5
34D
330
34B
100
AcDbEntity
  8
LC-006-003-----0
 62
     2
370
    -2
100
AcDbLine
 10
1813.374753
 20
1964.021779
 30
0.0
 11
1968.0
 21
1964.021779
 31
0.0
  0
LINE
  5
34E
330
34B
100
AcDbEntity
  8
LC-006-003-----0
 62
     2
370
    -2
100
AcDbLine
 10
1950.0
 20
1605.021779
 30
0.0
 11
1950.0
 21
1939.021779
 31
0.0
  0
SOLID
  5
34F
330
34B
100
AcDbEntity
  8
LC-006-003-----0
 62
     2
100
AcDbTrace
 10
1945.833333
 20
1605.021779
 30
0.0
 11
1954.166667
 21
1605.021779
 31
0.0
 12
1950.0
 22
1580.021779
 32
0.0
 13
1950.0
 23
1580.021779
 33
0.0
  0
SOLID
  5
350
330
34B
100
AcDbEntity
  8
LC-006-003-----0
 62
     2
100
AcDbTrace
 10
1954.166667
 20
1939.021779
 30
0.0
 11
1945.833333
 21
1939.021779
 31
0.0
 12
1950.0
 22
1964.021779
 32
0.0
 13
1950.0
 23
1964.021779
 33
0.0
  0
MTEXT
  5
351
330
34B
100
AcDbEntity
  8
LC-006-003-----0
 62
     2
100
AcDbMText
 10
1920.0
 20
1772.021779
 30
0.0
 40
25.0
 41
0.0
 71
     5
 72
     1
  1
\A1;384
  7
LCTX0-400-0-0pDIN-Schrift
 11
6.123031769111886E-17
 21
1.0
 31
0.0
 73
     1
 44
1.0
  0
POINT
  5
352
330
34B
100
AcDbEntity
  8
Defpoints
 62
     0
100
AcDbPoint
 10
1813.374753
 20
1580.021779
 30
0.0
  0
POINT
  5
353
330
34B
100
AcDbEntity
  8
Defpoints
 62
     0
100
AcDbPoint
 10
1813.374753
 20
1964.021779
 30
0.0
  0
POINT
  5
354
330
34B
100
AcDbEntity
  8
Defpoints
 62
     0
100
AcDbPoint
 10
1950.0
 20
1964.021779
 30
0.0
  0
ENDBLK
  5
356
330
34B
100
AcDbEntity
  8
0
100
AcDbBlockEnd
  0
BLOCK
  5
366
330
35C
100
AcDbEntity
  8
0
100
AcDbBlockBegin
  2
*D23
 70
     1
 71
     0
 10
0.0
 20
0.0
 30
0.0
  3
*D23
  1

  0
LINE
  5
35D
330
35C
100
AcDbEntity
  8
LC-006-003-----0
 62
     2
370
    -2
100
AcDbLine
 10
440.559824
 20
911.113173
 30
0.0
 11
440.559824
 21
782.0
 31
0.0
  0
LINE
  5
35E
330
35C
100
AcDbEntity
  8
LC-006-003-----0
 62
     2
370
    -2
100
AcDbLine
 10
800.559824
 20
911.113173
 30
0.0
 11
800.559824
 21
782.0
 31
0.0
  0
LINE
  5
35F
330
35C
100
AcDbEntity
  8
LC-006-003-----0
 62
     2
370
    -2
100
AcDbLine
 10
465.559824
 20
800.0
 30
0.0
 11
775.559824
 21
800.0
 31
0.0
  0
SOLID
  5
360
330
35C
100
AcDbEntity
  8
LC-006-003-----0
 62
     2
100
AcDbTrace
 10
465.559824
 20
804.166667
 30
0.0
 11
465.559824
 21
795.833333
 31
0.0
 12
440.559824
 22
800.0
 32
0.0
 13
440.559824
 23
800.0
 33
0.0
  0
SOLID
  5
361
330
35C
100
AcDbEntity
  8
LC-006-003-----0
 62
     2
100
AcDbTrace
 10
775.559824
 20
795.833333
 30
0.0
 11
775.559824
 21
804.166667
 31
0.0
 12
800.559824
 22
800.0
 32
0.0
 13
800.559824
 23
800.0
 33
0.0
  0
MTEXT
  5
362
330
35C
100
AcDbEntity
  8
LC-006-003-----0
 62
     2
100
AcDbMText
 10
620.559824
 20
830.0
 30
0.0
 40
25.0
 41
0.0
 71
     5
 72
     1
  1
\A1;720
  7
LCTX0-400-0-0pDIN-Schrift
 73
     1
 44
1.0
  0
POINT
  5
363
330
35C
100
AcDbEntity
  8
Defpoints
 62
     0
100
AcDbPoint
 10
440.559824
 20
911.113173
 30
0.0
  0
POINT
  5
364
330
35C
100
AcDbEntity
  8
Defpoints
 62
     0
100
AcDbPoint
 10
800.559824
 20
911.113173
 30
0.0
  0
POINT
  5
365
330
35C
100
AcDbEntity
  8
Defpoints
 62
     0
100
AcDbPoint
 10
800.559824
 20
800.0
 30
0.0
  0
ENDBLK
  5
367
330
35C
100
AcDbEntity
  8
0
100
AcDbBlockEnd
  0
BLOCK
  5
373
330
369
100
AcDbEntity
  8
0
100
AcDbBlockBegin
  2
*D24
 70
     1
 71
     0
 10
0.0
 20
0.0
 30
0.0
  3
*D24
  1

  0
LINE
  5
36A
330
369
100
AcDbEntity
  8
LC-006-003-----0
 62
     2
370
    -2
100
AcDbLine
 10
780.559824
 20
891.113173
 30
0.0
 11
918.0
 21
891.113173
 31
0.0
  0
LINE
  5
36B
330
369
100
AcDbEntity
  8
LC-006-003-----0
 62
     2
370
    -2
100
AcDbLine
 10
780.559824
 20
1083.113173
 30
0.0
 11
918.0
 21
1083.113173
 31
0.0
  0
LINE
  5
36C
330
369
100
AcDbEntity
  8
LC-006-003-----0
 62
     2
370
    -2
100
AcDbLine
 10
900.0
 20
916.113173
 30
0.0
 11
900.0
 21
1058.113173
 31
0.0
  0
SOLID
  5
36D
330
369
100
AcDbEntity
  8
LC-006-003-----0
 62
     2
100
AcDbTrace
 10
895.833333
 20
916.113173
 30
0.0
 11
904.166667
 21
916.113173
 31
0.0
 12
900.0
 22
891.113173
 32
0.0
 13
900.0
 23
891.113173
 33
0.0
  0
SOLID
  5
36E
330
369
100
AcDbEntity
  8
LC-006-003-----0
 62
     2
100
AcDbTrace
 10
904.166667
 20
1058.113173
 30
0.0
 11
895.833333
 21
1058.113173
 31
0.0
 12
900.0
 22
1083.113173
 32
0.0
 13
900.0
 23
1083.113173
 33
0.0
  0
MTEXT
  5
36F
330
369
100
AcDbEntity
  8
LC-006-003-----0
 62
     2
100
AcDbMText
 10
870.0
 20
987.113173
 30
0.0
 40
25.0
 41
0.0
 71
     5
 72
     1
  1
\A1;384
  7
LCTX0-400-0-0pDIN-Schrift
 11
6.123031769111886E-17
 21
1.0
 31
0.0
 73
     1
 44
1.0
  0
POINT
  5
370
330
369
100
AcDbEntity
  8
Defpoints
 62
     0
100
AcDbPoint
 10
780.559824
 20
891.113173
 30
0.0
  0
POINT
  5
371
330
369
100
AcDbEntity
  8
Defpoints
 62
     0
100
AcDbPoint
 10
780.559824
 20
1083.113173
 30
0.0
  0
POINT
  5
372
330
369
100
AcDbEntity
  8
Defpoints
 62
     0
100
AcDbPoint
 10
900.0
 20
1083.113173
 30
0.0
  0
ENDBLK
  5
374
330
369
100
AcDbEntity
  8
0
100
AcDbBlockEnd
  0
BLOCK
  5
377
330
376
100
AcDbEntity
  8
0
100
AcDbBlockBegin
  2
*X325
 70
     1
 71
     0
 10
0.0
 20
0.0
 30
0.0
  3
*X325
  1

  4
*X3
  0
LINE
  5
379
330
376
100
AcDbEntity
  8
LC-008-005-----0
 62
     7
370
    25
100
AcDbLine
 10
840.559824
 20
1111.054892
 30
0.0
 11
838.751543
 21
1112.863173
 31
0.0
  0
LINE
  5
37A
330
376
100
AcDbEntity
  8
LC-008-005-----0
 62
     7
370
    25
100
AcDbLine
 10
840.559824
 20
1082.77062
 30
0.0
 11
810.467272
 21
1112.863173
 31
0.0
  0
LINE
  5
37B
330
376
100
AcDbEntity
  8
LC-008-005-----0
 62
     7
370
    25
100
AcDbLine
 10
840.559824
 20
1054.486349
 30
0.0
 11
782.183
 21
1112.863173
 31
0.0
  0
LINE
  5
37C
330
376
100
AcDbEntity
  8
LC-008-005-----0
 62
     7
370
    25
100
AcDbLine
 10
840.559824
 20
1026.202078
 30
0.0
 11
800.559824
 21
1066.202078
 31
0.0
  0
LINE
  5
37D
330
376
100
AcDbEntity
  8
LC-008-005-----0
 62
     7
370
    25
100
AcDbLine
 10
783.648729
 20
1083.113173
 30
0.0
 11
753.898729
 21
1112.863173
 31
0.0
  0
LINE
  5
37E
330
376
100
AcDbEntity
  8
LC-008-005-----0
 62
     7
370
    25
100
AcDbLine
 10
840.559824
 20
997.917807
 30
0.0
 11
800.559824
 21
1037.917807
 31
0.0
  0
LINE
  5
37F
330
376
100
AcDbEntity
  8
LC-008-005-----0
 62
     7
370
    25
100
AcDbLine
 10
755.364458
 20
1083.113173
 30
0.0
 11
725.614458
 21
1112.863173
 31
0.0
  0
LINE
  5
380
330
376
100
AcDbEntity
  8
LC-008-005-----0
 62
     7
370
    25
100
AcDbLine
 10
840.559824
 20
969.633535
 30
0.0
 11
800.559824
 21
1009.633535
 31
0.0
  0
LINE
  5
381
330
376
100
AcDbEntity
  8
LC-008-005-----0
 62
     7
370
    25
100
AcDbLine
 10
727.080187
 20
1083.113173
 30
0.0
 11
697.330187
 21
1112.863173
 31
0.0
  0
LINE
  5
382
330
376
100
AcDbEntity
  8
LC-008-005-----0
 62
     7
370
    25
100
AcDbLine
 10
840.559824
 20
941.349264
 30
0.0
 11
800.559824
 21
981.349264
 31
0.0
  0
LINE
  5
383
330
376
100
AcDbEntity
  8
LC-008-005-----0
 62
     7
370
    25
100
AcDbLine
 10
698.795915
 20
1083.113173
 30
0.0
 11
669.045915
 21
1112.863173
 31
0.0
  0
LINE
  5
384
330
376
100
AcDbEntity
  8
LC-008-005-----0
 62
     7
370
    25
100
AcDbLine
 10
840.559824
 20
913.064993
 30
0.0
 11
800.559824
 21
953.064993
 31
0.0
  0
LINE
  5
385
330
376
100
AcDbEntity
  8
LC-008-005-----0
 62
     7
370
    25
100
AcDbLine
 10
670.511644
 20
1083.113173
 30
0.0
 11
640.761644
 21
1112.863173
 31
0.0
  0
LINE
  5
386
330
376
100
AcDbEntity
  8
LC-008-005-----0
 62
     7
370
    25
100
AcDbLine
 10
840.559824
 20
884.780722
 30
0.0
 11
800.559824
 21
924.780722
 31
0.0
  0
LINE
  5
387
330
376
100
AcDbEntity
  8
LC-008-005-----0
 62
     7
370
    25
100
AcDbLine
 10
642.227373
 20
1083.113173
 30
0.0
 11
612.477373
 21
1112.863173
 31
0.0
  0
LINE
  5
388
330
376
100
AcDbEntity
  8
LC-008-005-----0
 62
     7
370
    25
100
AcDbLine
 10
835.693102
 20
861.363173
 30
0.0
 11
800.226911
 21
896.829364
 31
0.0
  0
LINE
  5
389
330
376
100
AcDbEntity
  8
LC-008-005-----0
 62
     7
370
    25
100
AcDbLine
 10
613.943102
 20
1083.113173
 30
0.0
 11
584.193102
 21
1112.863173
 31
0.0
  0
LINE
  5
38A
330
376
100
AcDbEntity
  8
LC-008-005-----0
 62
     7
370
    25
100
AcDbLine
 10
807.40883
 20
861.363173
 30
0.0
 11
777.65883
 21
891.113173
 31
0.0
  0
LINE
  5
38B
330
376
100
AcDbEntity
  8
LC-008-005-----0
 62
     7
370
    25
100
AcDbLine
 10
585.65883
 20
1083.113173
 30
0.0
 11
555.90883
 21
1112.863173
 31
0.0
  0
LINE
  5
38C
330
376
100
AcDbEntity
  8
LC-008-005-----0
 62
     7
370
    25
100
AcDbLine
 10
779.124559
 20
861.363173
 30
0.0
 11
749.374559
 21
891.113173
 31
0.0
  0
LINE
  5
38D
330
376
100
AcDbEntity
  8
LC-008-005-----0
 62
     7
370
    25
100
AcDbLine
 10
557.374559
 20
1083.113173
 30
0.0
 11
527.624559
 21
1112.863173
 31
0.0
  0
LINE
  5
38E
330
376
100
AcDbEntity
  8
LC-008-005-----0
 62
     7
370
    25
100
AcDbLine
 10
750.840288
 20
861.363173
 30
0.0
 11
721.090288
 21
891.113173
 31
0.0
  0
LINE
  5
38F
330
376
100
AcDbEntity
  8
LC-008-005-----0
 62
     7
370
    25
100
AcDbLine
 10
529.090288
 20
1083.113173
 30
0.0
 11
499.340288
 21
1112.863173
 31
0.0
  0
LINE
  5
390
330
376
100
AcDbEntity
  8
LC-008-005-----0
 62
     7
370
    25
100
AcDbLine
 10
722.556017
 20
861.363173
 30
0.0
 11
692.806017
 21
891.113173
 31
0.0
  0
LINE
  5
391
330
376
100
AcDbEntity
  8
LC-008-005-----0
 62
     7
370
    25
100
AcDbLine
 10
500.806017
 20
1083.113173
 30
0.0
 11
471.056017
 21
1112.863173
 31
0.0
  0
LINE
  5
392
330
376
100
AcDbEntity
  8
LC-008-005-----0
 62
     7
370
    25
100
AcDbLine
 10
694.271745
 20
861.363173
 30
0.0
 11
664.521745
 21
891.113173
 31
0.0
  0
LINE
  5
393
330
376
100
AcDbEntity
  8
LC-008-005-----0
 62
     7
370
    25
100
AcDbLine
 10
472.521745
 20
1083.113173
 30
0.0
 11
442.771745
 21
1112.863173
 31
0.0
  0
LINE
  5
394
330
376
100
AcDbEntity
  8
LC-008-005-----0
 62
     7
370
    25
100
AcDbLine
 10
665.987474
 20
861.363173
 30
0.0
 11
636.237474
 21
891.113173
 31
0.0
  0
LINE
  5
395
330
376
100
AcDbEntity
  8
LC-008-005-----0
 62
     7
370
    25
100
AcDbLine
 10
445.049002
 20
1082.301645
 30
0.0
 11
414.487474
 21
1112.863173
 31
0.0
  0
LINE
  5
396
330
376
100
AcDbEntity
  8
LC-008-005-----0
 62
     7
370
    25
100
AcDbLine
 10
637.703203
 20
861.363173
 30
0.0
 11
607.953203
 21
891.113173
 31
0.0
  0
LINE
  5
397
330
376
100
AcDbEntity
  8
LC-008-005-----0
 62
     7
370
    25
100
AcDbLine
 10
440.559824
 20
1058.506552
 30
0.0
 11
400.559824
 21
1098.506552
 31
0.0
  0
LINE
  5
398
330
376
100
AcDbEntity
  8
LC-008-005-----0
 62
     7
370
    25
100
AcDbLine
 10
609.418932
 20
861.363173
 30
0.0
 11
579.668932
 21
891.113173
 31
0.0
  0
LINE
  5
399
330
376
100
AcDbEntity
  8
LC-008-005-----0
 62
     7
370
    25
100
AcDbLine
 10
440.559824
 20
1030.22228
 30
0.0
 11
400.559824
 21
1070.22228
 31
0.0
  0
LINE
  5
39A
330
376
100
AcDbEntity
  8
LC-008-005-----0
 62
     7
370
    25
100
AcDbLine
 10
581.13466
 20
861.363173
 30
0.0
 11
551.38466
 21
891.113173
 31
0.0
  0
LINE
  5
39B
330
376
100
AcDbEntity
  8
LC-008-005-----0
 62
     7
370
    25
100
AcDbLine
 10
440.559824
 20
1001.938009
 30
0.0
 11
400.559824
 21
1041.938009
 31
0.0
  0
LINE
  5
39C
330
376
100
AcDbEntity
  8
LC-008-005-----0
 62
     7
370
    25
100
AcDbLine
 10
552.850389
 20
861.363173
 30
0.0
 11
523.100389
 21
891.113173
 31
0.0
  0
LINE
  5
39D
330
376
100
AcDbEntity
  8
LC-008-005-----0
 62
     7
370
    25
100
AcDbLine
 10
440.559824
 20
973.653738
 30
0.0
 11
400.559824
 21
1013.653738
 31
0.0
  0
LINE
  5
39E
330
376
100
AcDbEntity
  8
LC-008-005-----0
 62
     7
370
    25
100
AcDbLine
 10
524.566118
 20
861.363173
 30
0.0
 11
494.816118
 21
891.113173
 31
0.0
  0
LINE
  5
39F
330
376
100
AcDbEntity
  8
LC-008-005-----0
 62
     7
370
    25
100
AcDbLine
 10
440.559824
 20
945.369467
 30
0.0
 11
400.559824
 21
985.369467
 31
0.0
  0
LINE
  5
3A0
330
376
100
AcDbEntity
  8
LC-008-005-----0
 62
     7
370
    25
100
AcDbLine
 10
496.281847
 20
861.363173
 30
0.0
 11
466.531847
 21
891.113173
 31
0.0
  0
LINE
  5
3A1
330
376
100
AcDbEntity
  8
LC-008-005-----0
 62
     7
370
    25
100
AcDbLine
 10
440.559824
 20
917.085195
 30
0.0
 11
400.559824
 21
957.085195
 31
0.0
  0
LINE
  5
3A2
330
376
100
AcDbEntity
  8
LC-008-005-----0
 62
     7
370
    25
100
AcDbLine
 10
467.997575
 20
861.363173
 30
0.0
 11
400.559824
 21
928.800924
 31
0.0
  0
LINE
  5
3A3
330
376
100
AcDbEntity
  8
LC-008-005-----0
 62
     7
370
    25
100
AcDbLine
 10
439.713304
 20
861.363173
 30
0.0
 11
400.559824
 21
900.516653
 31
0.0
  0
LINE
  5
3A4
330
376
100
AcDbEntity
  8
LC-008-005-----0
 62
     7
370
    25
100
AcDbLine
 10
411.429033
 20
861.363173
 30
0.0
 11
400.559824
 21
872.232382
 31
0.0
  0
ENDBLK
  5
378
330
376
100
AcDbEntity
  8
0
100
AcDbBlockEnd
  0
BLOCK
  5
3AE
330
3A8
100
AcDbEntity
  8
0
100
AcDbBlockBegin
  2
*D26
 70
     1
 71
     0
 10
0.0
 20
0.0
 30
0.0
  3
*D26
  1

  0
LINE
  5
3A9
330
3A8
100
AcDbEntity
  8
LC-006-003-----0
 62
     2
370
    -2
100
AcDbLine
 10
454.331048
 20
903.60414
 30
0.0
 11
435.143358
 21
888.672942
 31
0.0
  0
MTEXT
  5
3AA
330
3A8
100
AcDbEntity
  8
LC-006-003-----0
 62
     2
100
AcDbMText
 10
490.300598
 20
915.358859
 30
0.0
 40
25.0
 41
0.0
 71
     5
 72
     1
  1
\A1;R16
  7
LCTX0-400-0-0pDIN-Schrift
 11
0.7892039101421758
 21
0.6141312467350122
 31
0.0
 73
     1
 44
1.0
  0
SOLID
  5
3AB
330
3A8
100
AcDbEntity
  8
LC-006-003-----0
 62
     2
100
AcDbTrace
 10
472.044673
 20
922.667854
 30
0.0
 11
477.162434
 21
916.091155
 31
0.0
 12
454.873456
 22
904.026223
 32
0.0
 13
454.873456
 23
904.026223
 33
0.0
  0
POINT
  5
3AC
330
3A8
100
AcDbEntity
  8
Defpoints
 62
     0
100
AcDbPoint
 10
454.873456
 20
904.026223
 30
0.0
  0
POINT
  5
3AD
330
3A8
100
AcDbEntity
  8
Defpoints
 62
     0
100
AcDbPoint
 10
448.559824
 20
899.113173
 30
0.0
  0
ENDBLK
  5
3AF
330
3A8
100
AcDbEntity
  8
0
100
AcDbBlockEnd
  0
BLOCK
  5
3BB
330
3B1
100
AcDbEntity
  8
0
100
AcDbBlockBegin
  2
*D27
 70
     1
 71
     0
 10
0.0
 20
0.0
 30
0.0
  3
*D27
  1

  0
LINE
  5
3B2
330
3B1
100
AcDbEntity
  8
LC-006-003-----0
 62
     2
370
    -2
100
AcDbLine
 10
511.390798
 20
2600.03
 30
0.0
 11
511.390798
 21
2718.0
 31
0.0
  0
LINE
  5
3B3
330
3B1
100
AcDbEntity
  8
LC-006-003-----0
 62
     2
370
    -2
100
AcDbLine
 10
1231.390798
 20
2600.03
 30
0.0
 11
1231.390798
 21
2718.0
 31
0.0
  0
LINE
  5
3B4
330
3B1
100
AcDbEntity
  8
LC-006-003-----0
 62
     2
370
    -2
100
AcDbLine
 10
536.390798
 20
2700.0
 30
0.0
 11
1206.390798
 21
2700.0
 31
0.0
  0
SOLID
  5
3B5
330
3B1
100
AcDbEntity
  8
LC-006-003-----0
 62
     2
100
AcDbTrace
 10
536.390798
 20
2704.166667
 30
0.0
 11
536.390798
 21
2695.833333
 31
0.0
 12
511.390798
 22
2700.0
 32
0.0
 13
511.390798
 23
2700.0
 33
0.0
  0
SOLID
  5
3B6
330
3B1
100
AcDbEntity
  8
LC-006-003-----0
 62
     2
100
AcDbTrace
 10
1206.390798
 20
2695.833333
 30
0.0
 11
1206.390798
 21
2704.166667
 31
0.0
 12
1231.390798
 22
2700.0
 32
0.0
 13
1231.390798
 23
2700.0
 33
0.0
  0
MTEXT
  5
3B7
330
3B1
100
AcDbEntity
  8
LC-006-003-----0
 62
     2
100
AcDbMText
 10
871.390798
 20
2730.0
 30
0.0
 40
25.0
 41
0.0
 71
     5
 72
     1
  1
\A1;720
  7
LCTX0-400-0-0pDIN-Schrift
 73
     1
 44
1.0
  0
POINT
  5
3B8
330
3B1
100
AcDbEntity
  8
Defpoints
 62
     0
100
AcDbPoint
 10
511.390798
 20
2600.03
 30
0.0
  0
POINT
  5
3B9
330
3B1
100
AcDbEntity
  8
Defpoints
 62
     0
100
AcDbPoint
 10
1231.390798
 20
2600.03
 30
0.0
  0
POINT
  5
3BA
330
3B1
100
AcDbEntity
  8
Defpoints
 62
     0
100
AcDbPoint
 10
1231.390798
 20
2700.0
 30
0.0
  0
ENDBLK
  5
3BC
330
3B1
100
AcDbEntity
  8
0
100
AcDbBlockEnd
  0
BLOCK
  5
3CA
330
3BE
100
AcDbEntity
  8
0
100
AcDbBlockBegin
  2
*D28
 70
     1
 71
     0
 10
0.0
 20
0.0
 30
0.0
  3
*D28
  1

  0
LINE
  5
3BF
330
3BE
100
AcDbEntity
  8
LC-006-003-----0
 62
     2
370
    -2
100
AcDbLine
 10
1231.390798
 20
2590.03
 30
0.0
 11
1231.390798
 21
2718.0
 31
0.0
  0
LINE
  5
3C0
330
3BE
100
AcDbEntity
  8
LC-006-003-----0
 62
     2
370
    -2
100
AcDbLine
 10
1266.390798
 20
2590.03
 30
0.0
 11
1266.390798
 21
2718.0
 31
0.0
  0
LINE
  5
3C1
330
3BE
100
AcDbEntity
  8
LC-006-003-----0
 62
     2
370
    -2
100
AcDbLine
 10
1206.390798
 20
2700.0
 30
0.0
 11
1181.390798
 21
2700.0
 31
0.0
  0
LINE
  5
3C2
330
3BE
100
AcDbEntity
  8
LC-006-003-----0
 62
     2
370
    -2
100
AcDbLine
 10
1291.390798
 20
2700.0
 30
0.0
 11
1325.642442
 21
2700.0
 31
0.0
  0
LINE
  5
3C3
330
3BE
100
AcDbEntity
  8
LC-006-003-----0
 62
     2
370
    -2
100
AcDbLine
 10
1231.390798
 20
2700.0
 30
0.0
 11
1266.390798
 21
2700.0
 31
0.0
  0
SOLID
  5
3C4
330
3BE
100
AcDbEntity
  8
LC-006-003-----0
 62
     2
100
AcDbTrace
 10
1206.390798
 20
2695.833333
 30
0.0
 11
1206.390798
 21
2704.166667
 31
0.0
 12
1231.390798
 22
2700.0
 32
0.0
 13
1231.390798
 23
2700.0
 33
0.0
  0
SOLID
  5
3C5
330
3BE
100
AcDbEntity
  8
LC-006-003-----0
 62
     2
100
AcDbTrace
 10
1291.390798
 20
2704.166667
 30
0.0
 11
1291.390798
 21
2695.833333
 31
0.0
 12
1266.390798
 22
2700.0
 32
0.0
 13
1266.390798
 23
2700.0
 33
0.0
  0
MTEXT
  5
3C6
330
3BE
100
AcDbEntity
  8
LC-006-003-----0
 62
     2
100
AcDbMText
 10
1295.898692
 20
2730.0
 30
0.0
 40
25.0
 41
0.0
 71
     5
 72
     1
  1
\A1;35
  7
LCTX0-400-0-0pDIN-Schrift
 73
     1
 44
1.0
  0
POINT
  5
3C7
330
3BE
100
AcDbEntity
  8
Defpoints
 62
     0
100
AcDbPoint
 10
1231.390798
 20
2590.03
 30
0.0
  0
POINT
  5
3C8
330
3BE
100
AcDbEntity
  8
Defpoints
 62
     0
100
AcDbPoint
 10
1266.390798
 20
2590.03
 30
0.0
  0
POINT
  5
3C9
330
3BE
100
AcDbEntity
  8
Defpoints
 62
     0
100
AcDbPoint
 10
1266.390798
 20
2700.0
 30
0.0
  0
ENDBLK
  5
3CB
330
3BE
100
AcDbEntity
  8
0
100
AcDbBlockEnd
  0
BLOCK
  5
3D9
330
3CD
100
AcDbEntity
  8
0
100
AcDbBlockBegin
  2
*D29
 70
     1
 71
     0
 10
0.0
 20
0.0
 30
0.0
  3
*D29
  1

  0
LINE
  5
3CE
330
3CD
100
AcDbEntity
  8
LC-006-003-----0
 62
     2
370
    -2
100
AcDbLine
 10
476.390798
 20
2590.03
 30
0.0
 11
476.390798
 21
2718.0
 31
0.0
  0
LINE
  5
3CF
330
3CD
100
AcDbEntity
  8
LC-006-003-----0
 62
     2
370
    -2
100
AcDbLine
 10
511.390798
 20
2590.03
 30
0.0
 11
511.390798
 21
2718.0
 31
0.0
  0
LINE
  5
3D0
330
3CD
100
AcDbEntity
  8
LC-006-003-----0
 62
     2
370
    -2
100
AcDbLine
 10
536.390798
 20
2700.0
 30
0.0
 11
561.390798
 21
2700.0
 31
0.0
  0
LINE
  5
3D1
330
3CD
100
AcDbEntity
  8
LC-006-003-----0
 62
     2
370
    -2
100
AcDbLine
 10
451.390798
 20
2700.0
 30
0.0
 11
438.792771
 21
2700.0
 31
0.0
  0
LINE
  5
3D2
330
3CD
100
AcDbEntity
  8
LC-006-003-----0
 62
     2
370
    -2
100
AcDbLine
 10
476.390798
 20
2700.0
 30
0.0
 11
511.390798
 21
2700.0
 31
0.0
  0
SOLID
  5
3D3
330
3CD
100
AcDbEntity
  8
LC-006-003-----0
 62
     2
100
AcDbTrace
 10
451.390798
 20
2695.833333
 30
0.0
 11
451.390798
 21
2704.166667
 31
0.0
 12
476.390798
 22
2700.0
 32
0.0
 13
476.390798
 23
2700.0
 33
0.0
  0
SOLID
  5
3D4
330
3CD
100
AcDbEntity
  8
LC-006-003-----0
 62
     2
100
AcDbTrace
 10
536.390798
 20
2704.166667
 30
0.0
 11
536.390798
 21
2695.833333
 31
0.0
 12
511.390798
 22
2700.0
 32
0.0
 13
511.390798
 23
2700.0
 33
0.0
  0
MTEXT
  5
3D5
330
3CD
100
AcDbEntity
  8
LC-006-003-----0
 62
     2
100
AcDbMText
 10
468.536521
 20
2730.0
 30
0.0
 40
25.0
 41
0.0
 71
     5
 72
     1
  1
\A1;35
  7
LCTX0-400-0-0pDIN-Schrift
 73
     1
 44
1.0
  0
POINT
  5
3D6
330
3CD
100
AcDbEntity
  8
Defpoints
 62
     0
100
AcDbPoint
 10
476.390798
 20
2590.03
 30
0.0
  0
POINT
  5
3D7
330
3CD
100
AcDbEntity
  8
Defpoints
 62
     0
100
AcDbPoint
 10
511.390798
 20
2590.03
 30
0.0
  0
POINT
  5
3D8
330
3CD
100
AcDbEntity
  8
Defpoints
 62
     0
100
AcDbPoint
 10
511.390798
 20
2700.0
 30
0.0
  0
ENDBLK
  5
3DA
330
3CD
100
AcDbEntity
  8
0
100
AcDbBlockEnd
  0
ENDSEC
  0
SECTION
  2
ENTITIES
  0
INSERT
  5
102
330
1F
100
AcDbEntity
  8
LC-003-230-ZVN-0
 62
     7
370
    25
100
AcDbBlockReference
  2
SYM1
 10
0.0
 20
0.0
 30
0.0
  0
LINE
  5
103
330
1F
100
AcDbEntity
  8
LC-002-002-----0
 62
     7
370
    50
100
AcDbLine
 10
1266.390798
 20
1999.021779
 30
0.0
 11
476.390798
 21
1999.021779
 31
0.0
  0
LINE
  5
104
102
{ACAD_REACTORS
330
3E5
102
}
330
1F
100
AcDbEntity
  8
LC-002-002-----0
 62
     7
370
    50
100
AcDbLine
 10
1794.374753
 20
1557.021779
 30
0.0
 11
1794.374753
 21
1568.971452
 31
0.0
  0
ARC
  5
106
102
{ACAD_REACTORS
330
3E5
102
}
330
1F
100
AcDbEntity
  8
LC-004-100-D10-0
 62
     7
370
    50
100
AcDbCircle
 10
1789.374753
 20
1568.971452
 30
0.0
 40
5.0
100
AcDbArc
 50
0.0
 51
86.0
  0
LINE
  5
108
102
{ACAD_REACTORS
330
3DD
102
}
330
1F
100
AcDbEntity
  8
LC-002-002-----0
  6
DASHDOT
 62
     7
370
    35
100
AcDbLine
 10
375.341128
 20
1133.802096
 30
0.0
 11
1323.268271
 21
1133.802096
 31
0.0
  0
LINE
  5
109
102
{ACAD_REACTORS
330
3E4
102
}
330
1F
100
AcDbEntity
  8
LC-002-002-----0
 62
     7
370
    50
100
AcDbLine
 10
1152.641578
 20
961.573128
 30
0.0
 11
1010.395757
 21
961.573128
 31
0.0
  0
LINE
  5
10A
102
{ACAD_REACTORS
330
3DD
102
}
330
1F
100
AcDbEntity
  8
LC-002-002-----0
  6
DASHDOT
 62
     7
370
    35
100
AcDbLine
 10
1323.268271
 20
1133.802096
 30
0.0
 11
1323.268271
 21
707.330953
 31
0.0
  0
LINE
  5
10B
102
{ACAD_REACTORS
330
3DD
102
}
330
1F
100
AcDbEntity
  8
LC-002-002-----0
  6
DASHDOT
 62
     7
370
    35
100
AcDbLine
 10
1323.268271
 20
707.330953
 30
0.0
 11
375.341128
 21
707.330953
 31
0.0
  0
LINE
  5
10C
102
{ACAD_REACTORS
330
3DD
102
}
330
1F
100
AcDbEntity
  8
LC-002-002-----0
  6
DASHDOT
 62
     7
370
    35
100
AcDbLine
 10
375.341128
 20
707.330953
 30
0.0
 11
375.341128
 21
1133.802096
 31
0.0
  0
LINE
  5
10D
102
{ACAD_REACTORS
330
3E5
102
}
330
1F
100
AcDbEntity
  8
LC-002-002-----0
 62
     7
370
    50
100
AcDbLine
 10
1803.374753
 20
1999.021779
 30
0.0
 11
1794.374753
 21
1999.021779
 31
0.0
  0
ARC
  5
10F
102
{ACAD_REACTORS
330
3E0
102
}
330
1F
100
AcDbEntity
  8
LC-005-002-RND-0
 62
     7
370
    50
100
AcDbCircle
 10
448.559824
 20
1075.113173
 30
0.0
 40
8.0
100
AcDbArc
 50
90.0
 51
180.0
  0
ARC
  5
110
102
{ACAD_REACTORS
330
3E0
102
}
330
1F
100
AcDbEntity
  8
LC-005-002-RND-0
 62
     7
370
    50
100
AcDbCircle
 10
448.559824
 20
899.113173
 30
0.0
 40
8.0
100
AcDbArc
 50
180.0
 51
270.0
  0
ARC
  5
111
102
{ACAD_REACTORS
330
3E0
102
}
330
1F
100
AcDbEntity
  8
LC-005-002-RND-0
 62
     7
370
    50
100
AcDbCircle
 10
792.559824
 20
899.113173
 30
0.0
 40
8.0
100
AcDbArc
 50
270.0
 51
0.0
  0
ARC
  5
112
102
{ACAD_REACTORS
330
3E0
102
}
330
1F
100
AcDbEntity
  8
LC-005-002-RND-0
 62
     7
370
    50
100
AcDbCircle
 10
792.559824
 20
1075.113173
 30
0.0
 40
8.0
100
AcDbArc
 50
0.0
 51
90.0
  0
LINE
  5
113
102
{ACAD_REACTORS
330
3E5
102
}
330
1F
100
AcDbEntity
  8
LC-002-002-----0
 62
     7
370
    50
100
AcDbLine
 10
1594.319884
 20
1910.021779
 30
0.0
 11
1594.319884
 21
1820.021779
 31
0.0
  0
LINE
  5
114
102
{ACAD_REACTORS
330
3E5
102
}
330
1F
100
AcDbEntity
  8
LC-002-002-----0
 62
     7
370
    50
100
AcDbLine
 10
1604.201519
 20
1910.021779
 30
0.0
 11
1604.201519
 21
1820.021779
 31
0.0
  0
LINE
  5
115
102
{ACAD_REACTORS
330
3E1
102
}
330
1F
100
AcDbEntity
  8
LC-004-100-D10-0
 62
     7
370
    50
100
AcDbLine
 10
476.390798
 20
2573.03
 30
0.0
 11
476.685139
 21
2577.239269
 31
0.0
  0
LINE
  5
116
102
{ACAD_REACTORS
330
3E1
102
}
330
1F
100
AcDbEntity
  8
LC-004-100-D10-0
 62
     7
370
    50
100
AcDbLine
 10
1266.390798
 20
2573.03
 30
0.0
 11
1266.096457
 21
2577.239269
 31
0.0
  0
LINE
  5
117
102
{ACAD_REACTORS
330
3E1
102
}
330
1F
100
AcDbEntity
  8
LC-004-100-D10-0
 62
     7
370
    50
100
AcDbLine
 10
479.677831
 20
2580.03
 30
0.0
 11
1263.103765
 21
2580.03
 31
0.0
  0
LINE
  5
118
102
{ACAD_REACTORS
330
3E1
102
}
330
1F
100
AcDbEntity
  8
LC-004-100-D10-0
 62
     7
370
    50
100
AcDbLine
 10
511.618469
 20
2576.774148
 30
0.0
 11
522.623579
 21
2419.393744
 31
0.0
  0
LINE
  5
119
102
{ACAD_REACTORS
330
3E1
102
}
330
1F
100
AcDbEntity
  8
LC-004-100-D10-0
 62
     7
370
    50
100
AcDbLine
 10
1231.163127
 20
2576.774148
 30
0.0
 11
1220.158017
 21
2419.393744
 31
0.0
  0
LINE
  5
11A
102
{ACAD_REACTORS
330
3E1
102
}
330
1F
100
AcDbEntity
  8
LC-004-100-D10-0
 62
     7
370
    50
100
AcDbLine
 10
826.390798
 20
2370.975131
 30
0.0
 11
916.390798
 21
2370.975131
 31
0.0
  0
INSERT
  5
12C
102
{ACAD_REACTORS
330
3E1
102
}
330
1F
100
AcDbEntity
  8
LC-004-100-D10-0
 62
     7
370
    50
100
AcDbBlockReference
  2
POLY1
 10
0.0
 20
0.0
 30
0.0
  0
INSERT
  5
13E
102
{ACAD_REACTORS
330
3E1
102
}
330
1F
100
AcDbEntity
  8
LC-004-100-D10-0
 62
     7
370
    50
100
AcDbBlockReference
  2
POLY2
 10
0.0
 20
0.0
 30
0.0
  0
LINE
  5
13F
102
{ACAD_REACTORS
330
3E1
102
}
330
1F
100
AcDbEntity
  8
LC-004-100-D10-0
 62
     7
370
    50
100
AcDbLine
 10
809.925452
 20
2370.975131
 30
0.0
 11
826.390798
 21
2370.975131
 31
0.0
  0
LINE
  5
140
102
{ACAD_REACTORS
330
3E1
102
}
330
1F
100
AcDbEntity
  8
LC-004-100-D10-0
 62
     7
370
    50
100
AcDbLine
 10
916.390798
 20
2370.975131
 30
0.0
 11
932.856144
 21
2370.975131
 31
0.0
  0
LINE
  5
141
102
{ACAD_REACTORS
330
3E1
102
}
330
1F
100
AcDbEntity
  8
LC-004-100-D10-0
 62
     7
370
    50
100
AcDbLine
 10
1237.453305
 20
2566.378782
 30
0.0
 11
1226.457775
 21
2409.135371
 31
0.0
  0
LINE
  5
142
102
{ACAD_REACTORS
330
3E1
102
}
330
1F
100
AcDbEntity
  8
LC-004-100-D10-0
 62
     7
370
    50
100
AcDbLine
 10
505.328291
 20
2566.378782
 30
0.0
 11
516.323821
 21
2409.135371
 31
0.0
  0
INSERT
  5
14F
102
{ACAD_REACTORS
330
3E1
102
}
330
1F
100
AcDbEntity
  8
LC-004-100-D10-0
 62
     7
370
    50
100
AcDbBlockReference
  2
POLY3
 10
0.0
 20
0.0
 30
0.0
  0
INSERT
  5
15C
102
{ACAD_REACTORS
330
3E1
102
}
330
1F
100
AcDbEntity
  8
LC-004-100-D10-0
 62
     7
370
    50
100
AcDbBlockReference
  2
POLY4
 10
0.0
 20
0.0
 30
0.0
  0
ARC
  5
15D
102
{ACAD_REACTORS
330
3E1
102
}
330
1F
100
AcDbEntity
  8
LC-004-100-D10-0
 62
     7
370
    50
100
AcDbCircle
 10
538.27023
 20
2410.670014
 30
0.0
 40
22.00000000000009
100
AcDbArc
 50
184.003119
 51
218.354958
  0
ARC
  5
15E
102
{ACAD_REACTORS
330
3E1
102
}
330
1F
100
AcDbEntity
  8
LC-004-100-D10-0
 62
     7
370
    50
100
AcDbCircle
 10
1204.511366
 20
2410.670014
 30
0.0
 40
21.99999999999967
100
AcDbArc
 50
321.645042
 51
355.996881
  0
ARC
  5
15F
102
{ACAD_REACTORS
330
3E1
102
}
330
1F
100
AcDbEntity
  8
LC-004-100-D10-0
 62
     7
370
    50
100
AcDbCircle
 10
940.794349
 20
2369.936233
 30
0.0
 40
6.49999999999991
100
AcDbArc
 50
92.0
 51
159.052191
  0
INSERT
  5
166
102
{ACAD_REACTORS
330
3E1
102
}
330
1F
100
AcDbEntity
  8
LC-004-100-D10-0
 62
     7
370
    50
100
AcDbBlockReference
  2
POLY5
 10
0.0
 20
0.0
 30
0.0
  0
ARC
  5
167
102
{ACAD_REACTORS
330
3E1
102
}
330
1F
100
AcDbEntity
  8
LC-004-100-D10-0
 62
     7
370
    50
100
AcDbCircle
 10
500.340471
 20
2566.03
 30
0.0
 40
5.000000000000032
100
AcDbArc
 50
4.0
 51
90.0
  0
LINE
  5
168
102
{ACAD_REACTORS
330
3E1
102
}
330
1F
100
AcDbEntity
  8
LC-004-100-D10-0
 62
     7
370
    50
100
AcDbLine
 10
802.214094
 20
2376.432274
 30
0.0
 11
548.301427
 21
2385.299099
 31
0.0
  0
ARC
  5
169
102
{ACAD_REACTORS
330
3E1
102
}
330
1F
100
AcDbEntity
  8
LC-004-100-D10-0
 62
     7
370
    50
100
AcDbCircle
 10
801.987247
 20
2369.936233
 30
0.0
 40
6.500000000000065
100
AcDbArc
 50
20.947809
 51
88.0
  0
ARC
  5
16A
102
{ACAD_REACTORS
330
3E1
102
}
330
1F
100
AcDbEntity
  8
LC-004-100-D10-0
 62
     7
370
    50
100
AcDbCircle
 10
809.925452
 20
2372.975131
 30
0.0
 40
2.000000000000079
100
AcDbArc
 50
200.970018
 51
269.999999
  0
LINE
  5
16B
102
{ACAD_REACTORS
330
3E1
102
}
330
1F
100
AcDbEntity
  8
LC-004-100-D10-0
 62
     7
370
    50
100
AcDbLine
 10
826.390798
 20
2380.856766
 30
0.0
 11
826.390798
 21
2370.975131
 31
0.0
  0
LINE
  5
16C
102
{ACAD_REACTORS
330
3E1
102
}
330
1F
100
AcDbEntity
  8
LC-004-100-D10-0
 62
     7
370
    50
100
AcDbLine
 10
826.390798
 20
2380.856766
 30
0.0
 11
814.821445
 21
2382.896755
 31
0.0
  0
ARC
  5
16D
102
{ACAD_REACTORS
330
3E1
102
}
330
1F
100
AcDbEntity
  8
LC-004-100-D10-0
 62
     7
370
    50
100
AcDbCircle
 10
814.995093
 20
2383.881563
 30
0.0
 40
1.000000000000003
100
AcDbArc
 50
185.0
 51
259.999997
  0
LINE
  5
16E
102
{ACAD_REACTORS
330
3E1
102
}
330
1F
100
AcDbEntity
  8
LC-004-100-D10-0
 62
     7
370
    50
100
AcDbLine
 10
813.998898
 20
2383.794407
 30
0.0
 11
813.983329
 21
2383.97237
 31
0.0
  0
ARC
  5
16F
102
{ACAD_REACTORS
330
3E1
102
}
330
1F
100
AcDbEntity
  8
LC-004-100-D10-0
 62
     7
370
    50
100
AcDbCircle
 10
812.787895
 20
2383.867783
 30
0.0
 40
1.199999999999967
100
AcDbArc
 50
5.0
 51
87.999999
  0
LINE
  5
170
102
{ACAD_REACTORS
330
3E1
102
}
330
1F
100
AcDbEntity
  8
LC-004-100-D10-0
 62
     7
370
    50
100
AcDbLine
 10
812.829774
 20
2385.067052
 30
0.0
 11
548.615522
 21
2394.293617
 31
0.0
  0
ARC
  5
171
102
{ACAD_REACTORS
330
3E1
102
}
330
1F
100
AcDbEntity
  8
LC-004-100-D10-0
 62
     7
370
    50
100
AcDbCircle
 10
508.126995
 20
2576.53
 30
0.0
 40
3.499999999999997
100
AcDbArc
 50
4.0
 51
90.0
  0
ARC
  5
172
102
{ACAD_REACTORS
330
3E1
102
}
330
1F
100
AcDbEntity
  8
LC-004-100-D10-0
 62
     7
370
    50
100
AcDbCircle
 10
479.677831
 20
2577.03
 30
0.0
 40
3.0
100
AcDbArc
 50
90.0
 51
176.0
  0
ARC
  5
173
102
{ACAD_REACTORS
330
3E1
102
}
330
1F
100
AcDbEntity
  8
LC-004-100-D10-0
 62
     7
370
    50
100
AcDbCircle
 10
1263.103765
 20
2577.03
 30
0.0
 40
3.000000000000006
100
AcDbArc
 50
4.0
 51
90.0
  0
ARC
  5
174
102
{ACAD_REACTORS
330
3E1
102
}
330
1F
100
AcDbEntity
  8
LC-004-100-D10-0
 62
     7
370
    50
100
AcDbCircle
 10
1234.654601
 20
2576.53
 30
0.0
 40
3.5
100
AcDbArc
 50
90.0
 51
176.0
  0
LINE
  5
175
102
{ACAD_REACTORS
330
3E1
102
}
330
1F
100
AcDbEntity
  8
LC-004-100-D10-0
 62
     7
370
    50
100
AcDbLine
 10
929.951822
 20
2385.067052
 30
0.0
 11
1194.166074
 21
2394.293617
 31
0.0
  0
LINE
  5
176
102
{ACAD_REACTORS
330
3E1
102
}
330
1F
100
AcDbEntity
  8
LC-004-100-D10-0
 62
     7
370
    50
100
AcDbLine
 10
916.390798
 20
2380.856766
 30
0.0
 11
927.960151
 21
2382.896755
 31
0.0
  0
LINE
  5
177
102
{ACAD_REACTORS
330
3E1
102
}
330
1F
100
AcDbEntity
  8
LC-004-100-D10-0
 62
     7
370
    50
100
AcDbLine
 10
916.390798
 20
2380.856766
 30
0.0
 11
916.390798
 21
2370.975131
 31
0.0
  0
ARC
  5
178
102
{ACAD_REACTORS
330
3E1
102
}
330
1F
100
AcDbEntity
  8
LC-004-100-D10-0
 62
     7
370
    50
100
AcDbCircle
 10
932.856144
 20
2372.975131
 30
0.0
 40
2.0
100
AcDbArc
 50
270.000001
 51
339.029982
  0
ARC
  5
179
102
{ACAD_REACTORS
330
3E1
102
}
330
1F
100
AcDbEntity
  8
LC-004-100-D10-0
 62
     7
370
    50
100
AcDbCircle
 10
940.794349
 20
2369.936233
 30
0.0
 40
6.49999999999991
100
AcDbArc
 50
92.0
 51
159.052191
  0
LINE
  5
17A
102
{ACAD_REACTORS
330
3E1
102
}
330
1F
100
AcDbEntity
  8
LC-004-100-D10-0
 62
     7
370
    50
100
AcDbLine
 10
940.567502
 20
2376.432274
 30
0.0
 11
1194.480169
 21
2385.299099
 31
0.0
  0
ARC
  5
17B
102
{ACAD_REACTORS
330
3E1
102
}
330
1F
100
AcDbEntity
  8
LC-004-100-D10-0
 62
     7
370
    50
100
AcDbCircle
 10
1242.441125
 20
2566.03
 30
0.0
 40
5.0
100
AcDbArc
 50
90.0
 51
176.0
  0
LINE
  5
17C
102
{ACAD_REACTORS
330
3E1
102
}
330
1F
100
AcDbEntity
  8
LC-004-100-D10-0
 62
     7
370
    50
100
AcDbLine
 10
1242.441125
 20
2571.03
 30
0.0
 11
1254.390798
 21
2571.03
 31
0.0
  0
LINE
  5
17D
102
{ACAD_REACTORS
330
3E1
102
}
330
1F
100
AcDbEntity
  8
LC-004-100-D10-0
 62
     7
370
    50
100
AcDbLine
 10
488.390798
 20
2571.03
 30
0.0
 11
500.340471
 21
2571.03
 31
0.0
  0
LINE
  5
17E
102
{ACAD_REACTORS
330
3E1
102
}
330
1F
100
AcDbEntity
  8
LC-004-100-D10-0
 62
     7
370
    50
100
AcDbLine
 10
488.390798
 20
2573.03
 30
0.0
 11
488.390798
 21
2571.03
 31
0.0
  0
LINE
  5
17F
102
{ACAD_REACTORS
330
3E1
102
}
330
1F
100
AcDbEntity
  8
LC-004-100-D10-0
 62
     7
370
    50
100
AcDbLine
 10
1254.390798
 20
2573.03
 30
0.0
 11
1254.390798
 21
2571.03
 31
0.0
  0
LINE
  5
180
102
{ACAD_REACTORS
330
3E1
102
}
330
1F
100
AcDbEntity
  8
LC-004-100-D10-0
 62
     7
370
    50
100
AcDbLine
 10
488.390798
 20
2573.03
 30
0.0
 11
476.390798
 21
2573.03
 31
0.0
  0
LINE
  5
181
102
{ACAD_REACTORS
330
3E1
102
}
330
1F
100
AcDbEntity
  8
LC-004-100-D10-0
 62
     7
370
    50
100
AcDbLine
 10
1266.390798
 20
2573.03
 30
0.0
 11
1254.390798
 21
2573.03
 31
0.0
  0
ARC
  5
182
102
{ACAD_REACTORS
330
3E1
102
}
330
1F
100
AcDbEntity
  8
LC-004-100-D10-0
 62
     7
370
    50
100
AcDbCircle
 10
929.993701
 20
2383.867783
 30
0.0
 40
1.199999999999646
100
AcDbArc
 50
92.000001
 51
175.0
  0
LINE
  5
183
102
{ACAD_REACTORS
330
3E1
102
}
330
1F
100
AcDbEntity
  8
LC-004-100-D10-0
 62
     7
370
    50
100
AcDbLine
 10
928.782698
 20
2383.794407
 30
0.0
 11
928.798267
 21
2383.97237
 31
0.0
  0
ARC
  5
184
102
{ACAD_REACTORS
330
3E1
102
}
330
1F
100
AcDbEntity
  8
LC-004-100-D10-0
 62
     7
370
    50
100
AcDbCircle
 10
927.786503
 20
2383.881563
 30
0.0
 40
1.000000000000033
100
AcDbArc
 50
280.000003
 51
355.0
  0
INSERT
  5
1A9
102
{ACAD_REACTORS
330
3E1
102
}
330
1F
100
AcDbEntity
  8
LC-004-100-D10-0
 62
     7
370
    50
100
AcDbBlockReference
  2
POLY6
 10
0.0
 20
0.0
 30
0.0
  0
LINE
  5
1AA
102
{ACAD_REACTORS
330
3E5
102
}
330
1F
100
AcDbEntity
  8
LC-004-100-D10-0
 62
     7
370
    50
100
AcDbLine
 10
1796.374753
 20
1545.021779
 30
0.0
 11
1800.584022
 21
1545.31612
 31
0.0
  0
LINE
  5
1AB
102
{ACAD_REACTORS
330
3E5
102
}
330
1F
100
AcDbEntity
  8
LC-004-100-D10-0
 62
     7
370
    50
100
AcDbLine
 10
1803.374753
 20
1548.308812
 30
0.0
 11
1803.374753
 21
1576.757976
 31
0.0
  0
LINE
  5
1AC
102
{ACAD_REACTORS
330
3E5
102
}
330
1F
100
AcDbEntity
  8
LC-004-100-D10-0
 62
     7
370
    50
100
AcDbLine
 10
1803.374753
 20
1967.285582
 30
0.0
 11
1803.374753
 21
1999.021779
 31
0.0
  0
LINE
  5
1AD
102
{ACAD_REACTORS
330
3E5
102
}
330
1F
100
AcDbEntity
  8
LC-004-100-D10-0
 62
     7
370
    50
100
AcDbLine
 10
1800.118901
 20
1580.249451
 30
0.0
 11
1644.289653
 21
1591.146093
 31
0.0
  0
LINE
  5
1AE
102
{ACAD_REACTORS
330
3E5
102
}
330
1F
100
AcDbEntity
  8
LC-004-100-D10-0
 62
     7
370
    50
100
AcDbLine
 10
1800.118901
 20
1963.794108
 30
0.0
 11
1640.460184
 21
1952.629683
 31
0.0
  0
LINE
  5
1AF
102
{ACAD_REACTORS
330
3E5
102
}
330
1F
100
AcDbEntity
  8
LC-004-100-D10-0
 62
     7
370
    50
100
AcDbLine
 10
1803.374753
 20
1576.757976
 30
0.0
 11
1803.374753
 21
1967.285582
 31
0.0
  0
INSERT
  5
1C2
102
{ACAD_REACTORS
330
3E5
102
}
330
1F
100
AcDbEntity
  8
LC-004-100-D10-0
 62
     7
370
    50
100
AcDbBlockReference
  2
POLY7
 10
0.0
 20
0.0
 30
0.0
  0
INSERT
  5
1D5
102
{ACAD_REACTORS
330
3E5
102
}
330
1F
100
AcDbEntity
  8
LC-004-100-D10-0
 62
     7
370
    50
100
AcDbBlockReference
  2
POLY8
 10
0.0
 20
0.0
 30
0.0
  0
LINE
  5
1D6
102
{ACAD_REACTORS
330
3E5
102
}
330
1F
100
AcDbEntity
  8
LC-004-100-D10-0
 62
     7
370
    50
100
AcDbLine
 10
1594.319884
 20
1803.556433
 30
0.0
 11
1594.319884
 21
1820.021779
 31
0.0
  0
LINE
  5
1D7
102
{ACAD_REACTORS
330
3E5
102
}
330
1F
100
AcDbEntity
  8
LC-004-100-D10-0
 62
     7
370
    50
100
AcDbLine
 10
1594.319884
 20
1926.487125
 30
0.0
 11
1594.319884
 21
1910.021779
 31
0.0
  0
LINE
  5
1D8
102
{ACAD_REACTORS
330
3E5
102
}
330
1F
100
AcDbEntity
  8
LC-004-100-D10-0
 62
     7
370
    50
100
AcDbLine
 10
1625.850071
 20
1958.625138
 30
0.0
 11
1789.723535
 21
1970.084286
 31
0.0
  0
LINE
  5
1D9
102
{ACAD_REACTORS
330
3E5
102
}
330
1F
100
AcDbEntity
  8
LC-004-100-D10-0
 62
     7
370
    50
100
AcDbLine
 10
1631.314641
 20
1585.036301
 30
0.0
 11
1789.723535
 21
1573.959272
 31
0.0
  0
INSERT
  5
1E7
102
{ACAD_REACTORS
330
3E5
102
}
330
1F
100
AcDbEntity
  8
LC-004-100-D10-0
 62
     7
370
    50
100
AcDbBlockReference
  2
POLY9
 10
0.0
 20
0.0
 30
0.0
  0
INSERT
  5
1F5
102
{ACAD_REACTORS
330
3E5
102
}
330
1F
100
AcDbEntity
  8
LC-004-100-D10-0
 62
     7
370
    50
100
AcDbBlockReference
  2
POLY10
 10
0.0
 20
0.0
 30
0.0
  0
ARC
  5
1F6
102
{ACAD_REACTORS
330
3E5
102
}
330
1F
100
AcDbEntity
  8
LC-004-100-D10-0
 62
     7
370
    50
100
AcDbCircle
 10
1632.849283
 20
1606.98271
 30
0.0
 40
21.99999999999995
100
AcDbArc
 50
240.842223
 51
265.996886
  0
ARC
  5
1F7
102
{ACAD_REACTORS
330
3E5
102
}
330
1F
100
AcDbEntity
  8
LC-004-100-D10-0
 62
     7
370
    50
100
AcDbCircle
 10
1627.384714
 20
1936.678728
 30
0.0
 40
21.99999999999999
100
AcDbArc
 50
94.003135
 51
115.704836
  0
ARC
  5
1F8
102
{ACAD_REACTORS
330
3E5
102
}
330
1F
100
AcDbEntity
  8
LC-004-100-D10-0
 62
     7
370
    50
100
AcDbCircle
 10
1593.868211
 20
1934.625876
 30
0.0
 40
6.499999915600029
100
AcDbArc
 50
286.775076
 51
349.293241
  0
ARC
  5
1F9
102
{ACAD_REACTORS
330
3E5
102
}
330
1F
100
AcDbEntity
  8
LC-004-100-D10-0
 62
     7
370
    50
100
AcDbCircle
 10
1800.374753
 20
1548.308812
 30
0.0
 40
3.000000000000006
100
AcDbArc
 50
274.0
 51
0.0
  0
ARC
  5
1FA
102
{ACAD_REACTORS
330
3E5
102
}
330
1F
100
AcDbEntity
  8
LC-004-100-D10-0
 62
     7
370
    50
100
AcDbCircle
 10
1799.874753
 20
1576.757976
 30
0.0
 40
3.5
100
AcDbArc
 50
0.0
 51
86.0
  0
LINE
  5
1FB
102
{ACAD_REACTORS
330
3E5
102
}
330
1F
100
AcDbEntity
  8
LC-004-100-D10-0
 62
     7
370
    50
100
AcDbLine
 10
1615.012901
 20
1617.430094
 30
0.0
 11
1608.411805
 21
1806.460756
 31
0.0
  0
ARC
  5
1FC
102
{ACAD_REACTORS
330
3E5
102
}
330
1F
100
AcDbEntity
  8
LC-004-100-D10-0
 62
     7
370
    50
100
AcDbCircle
 10
1607.212536
 20
1806.418876
 30
0.0
 40
1.200000000000043
100
AcDbArc
 50
2.0
 51
85.0
  0
LINE
  5
1FD
102
{ACAD_REACTORS
330
3E5
102
}
330
1F
100
AcDbEntity
  8
LC-004-100-D10-0
 62
     7
370
    50
100
AcDbLine
 10
1594.319884
 20
1820.021779
 30
0.0
 11
1604.201519
 21
1820.021779
 31
0.0
  0
LINE
  5
1FE
102
{ACAD_REACTORS
330
3E5
102
}
330
1F
100
AcDbEntity
  8
LC-004-100-D10-0
 62
     7
370
    50
100
AcDbLine
 10
1606.018383
 20
1617.115999
 30
0.0
 11
1599.777027
 21
1795.845075
 31
0.0
  0
ARC
  5
1FF
102
{ACAD_REACTORS
330
3E5
102
}
330
1F
100
AcDbEntity
  8
LC-004-100-D10-0
 62
     7
370
    50
100
AcDbCircle
 10
1789.374753
 20
1975.072107
 30
0.0
 40
5.0
100
AcDbArc
 50
274.0
 51
0.0
  0
ARC
  5
200
102
{ACAD_REACTORS
330
3E5
102
}
330
1F
100
AcDbEntity
  8
LC-004-100-D10-0
 62
     7
370
    50
100
AcDbCircle
 10
1596.319884
 20
1926.487125
 30
0.0
 40
2.00000000000006
100
AcDbArc
 50
106.76412
 51
180.0
  0
LINE
  5
201
102
{ACAD_REACTORS
330
3E5
102
}
330
1F
100
AcDbEntity
  8
LC-004-100-D10-0
 62
     7
370
    50
100
AcDbLine
 10
1594.319884
 20
1910.021779
 30
0.0
 11
1604.201519
 21
1910.021779
 31
0.0
  0
LINE
  5
202
102
{ACAD_REACTORS
330
3E5
102
}
330
1F
100
AcDbEntity
  8
LC-004-100-D10-0
 62
     7
370
    50
100
AcDbLine
 10
1606.241508
 20
1921.591132
 30
0.0
 11
1604.201519
 21
1910.021779
 31
0.0
  0
ARC
  5
203
102
{ACAD_REACTORS
330
3E5
102
}
330
1F
100
AcDbEntity
  8
LC-004-100-D10-0
 62
     7
370
    50
100
AcDbCircle
 10
1607.226316
 20
1921.417484
 30
0.0
 40
1.000000000000067
100
AcDbArc
 50
95.0
 51
170.0
  0
LINE
  5
204
102
{ACAD_REACTORS
330
3E5
102
}
330
1F
100
AcDbEntity
  8
LC-004-100-D10-0
 62
     7
370
    50
100
AcDbLine
 10
1607.317123
 20
1922.429249
 30
0.0
 11
1607.13916
 21
1922.413679
 31
0.0
  0
ARC
  5
205
102
{ACAD_REACTORS
330
3E5
102
}
330
1F
100
AcDbEntity
  8
LC-004-100-D10-0
 62
     7
370
    50
100
AcDbCircle
 10
1607.212536
 20
1923.624682
 30
0.0
 40
1.199999999999722
100
AcDbArc
 50
275.0
 51
358.0
  0
LINE
  5
206
102
{ACAD_REACTORS
330
3E5
102
}
330
1F
100
AcDbEntity
  8
LC-004-100-D10-0
 62
     7
370
    50
100
AcDbLine
 10
1608.501738
 20
1926.158158
 30
0.0
 11
1608.411805
 21
1923.582803
 31
0.0
  0
ARC
  5
207
102
{ACAD_REACTORS
330
3E5
102
}
330
1F
100
AcDbEntity
  8
LC-004-100-D10-0
 62
     7
370
    50
100
AcDbCircle
 10
1799.874753
 20
1967.285582
 30
0.0
 40
3.499999999999997
100
AcDbArc
 50
274.0
 51
0.0
  0
LINE
  5
208
102
{ACAD_REACTORS
330
3E5
102
}
330
1F
100
AcDbEntity
  8
LC-004-100-D10-0
 62
     7
370
    50
100
AcDbLine
 10
1794.374753
 20
1999.021779
 30
0.0
 11
1794.374753
 21
1975.072107
 31
0.0
  0
LINE
  5
209
102
{ACAD_REACTORS
330
3E5
102
}
330
1F
100
AcDbEntity
  8
LC-004-100-D10-0
 62
     7
370
    50
100
AcDbLine
 10
1607.317123
 20
1807.61431
 30
0.0
 11
1607.13916
 21
1807.62988
 31
0.0
  0
ARC
  5
20A
102
{ACAD_REACTORS
330
3E5
102
}
330
1F
100
AcDbEntity
  8
LC-004-100-D10-0
 62
     7
370
    50
100
AcDbCircle
 10
1607.226316
 20
1808.626074
 30
0.0
 40
1.000000000000085
100
AcDbArc
 50
190.0
 51
265.0
  0
LINE
  5
20B
102
{ACAD_REACTORS
330
3E5
102
}
330
1F
100
AcDbEntity
  8
LC-004-100-D10-0
 62
     7
370
    50
100
AcDbLine
 10
1606.241508
 20
1808.452426
 30
0.0
 11
1604.201519
 21
1820.021779
 31
0.0
  0
LINE
  5
20C
102
{ACAD_REACTORS
330
3E1
102
}
330
1F
100
AcDbEntity
  8
LC-002-002-----0
 62
     7
370
    25
100
AcDbLine
 10
813.890798
 20
2385.03
 30
0.0
 11
928.890798
 21
2385.03
 31
0.0
  0
DIMENSION
  5
20F
330
1F
100
AcDbEntity
  8
LC-006-003-----0
 62
     7
370
    25
100
AcDbDimension
  2
*D12
 10
900.0
 20
2580.03
 30
0.0
 11
870.0
 21
2482.53
 31
0.0
 70
   160
 71
     5
 42
195.0
 53
90.0
  3
LC-DIM-L-0025-02-02
100
AcDbAlignedDimension
 13
871.390798
 23
2385.03
 33
0.0
 14
871.390798
 24
2580.03
 34
0.0
 50
90.0
100
AcDbRotatedDimension
  0
ARC
  5
21D
330
1F
100
AcDbEntity
  8
LC-004-100-D10-0
 62
     7
370
    50
100
AcDbCircle
 10
1593.280986
 20
1795.618228
 30
0.0
 40
6.49999999999991
100
AcDbArc
 50
2.0
 51
69.052191
  0
ARC
  5
21E
102
{ACAD_REACTORS
330
3E5
102
}
330
1F
100
AcDbEntity
  8
LC-004-100-D10-0
 62
     7
370
    50
100
AcDbCircle
 10
1596.319884
 20
1803.556433
 30
0.0
 40
2.0
100
AcDbArc
 50
180.000001
 51
249.029982
  0
ARC
  5
21F
102
{ACAD_REACTORS
330
3E5
102
}
330
1F
100
AcDbEntity
  8
LC-004-100-D10-0
 62
     7
370
    50
100
AcDbCircle
 10
1593.280986
 20
1795.618228
 30
0.0
 40
6.49999999999991
100
AcDbArc
 50
2.0
 51
69.052191
  0
DIMENSION
  5
221
330
1F
100
AcDbEntity
  8
LC-006-003-----0
 62
     7
370
    25
100
AcDbDimension
  2
*D13
 10
1492.012862
 20
1400.0
 30
0.0
 11
1647.693808
 21
1430.0
 31
0.0
 70
   160
 71
     5
 42
311.361891
  3
LC-DIM-L-0025-00-02
100
AcDbAlignedDimension
 13
1803.374753
 23
1535.021779
 33
0.0
 14
1492.012862
 24
1910.021779
 34
0.0
100
AcDbRotatedDimension
  0
TEXT
  5
22F
330
1F
100
AcDbEntity
  8
LC-007-004-----0
 62
     7
370
    25
100
AcDbText
 10
1251.209226
 20
476.206001
 30
0.0
 40
25.0
  1
Art. Nr. 247
 41
0.8
  7
LCTX0-400-0-0pDIN-Schrift
100
AcDbText
  0
LINE
  5
230
102
{ACAD_REACTORS
330
3DF
102
}
330
1F
100
AcDbEntity
  8
LC-002-002-----0
 62
     7
370
    50
100
AcDbLine
 10
488.390798
 20
1545.021779
 30
0.0
 11
1254.390798
 21
1545.021779
 31
0.0
  0
LINE
  5
231
102
{ACAD_REACTORS
330
3DF
102
}
330
1F
100
AcDbEntity
  8
LC-002-002-----0
 62
     7
370
    50
100
AcDbLine
 10
476.390798
 20
1999.021779
 30
0.0
 11
476.390798
 21
1557.021779
 31
0.0
  0
LINE
  5
232
102
{ACAD_REACTORS
330
3DF
102
}
330
1F
100
AcDbEntity
  8
LC-002-002-----0
 62
     7
370
    50
100
AcDbLine
 10
1266.390798
 20
1557.021779
 30
0.0
 11
1266.390798
 21
1999.021779
 31
0.0
  0
ARC
  5
233
102
{ACAD_REACTORS
330
3DF
102
}
330
1F
100
AcDbEntity
  8
LC-002-002-----0
 62
     7
370
    50
100
AcDbCircle
 10
1254.390798
 20
1557.021779
 30
0.0
 40
12.0
100
AcDbArc
 50
270.0
 51
0.0
  0
ARC
  5
234
102
{ACAD_REACTORS
330
3DF
102
}
330
1F
100
AcDbEntity
  8
LC-002-002-----0
 62
     7
370
    50
100
AcDbCircle
 10
488.390798
 20
1557.021779
 30
0.0
 40
12.0
100
AcDbArc
 50
180.0
 51
270.0
  0
LINE
  5
235
102
{ACAD_REACTORS
330
3DF
102
}
330
1F
100
AcDbEntity
  8
LC-002-002-----0
 62
     7
370
    50
100
AcDbLine
 10
1219.390798
 20
1964.021779
 30
0.0
 11
523.390798
 21
1964.021779
 31
0.0
  0
LINE
  5
236
102
{ACAD_REACTORS
330
3DF
102
}
330
1F
100
AcDbEntity
  8
LC-002-002-----0
 62
     7
370
    50
100
AcDbLine
 10
1231.390798
 20
1592.021779
 30
0.0
 11
1231.390798
 21
1952.021779
 31
0.0
  0
LINE
  5
237
102
{ACAD_REACTORS
330
3DF
102
}
330
1F
100
AcDbEntity
  8
LC-002-002-----0
 62
     7
370
    50
100
AcDbLine
 10
523.390798
 20
1580.021779
 30
0.0
 11
1219.390798
 21
1580.021779
 31
0.0
  0
LINE
  5
238
102
{ACAD_REACTORS
330
3DF
102
}
330
1F
100
AcDbEntity
  8
LC-002-002-----0
 62
     7
370
    50
100
AcDbLine
 10
511.390798
 20
1952.021779
 30
0.0
 11
511.390798
 21
1592.021779
 31
0.0
  0
ARC
  5
239
102
{ACAD_REACTORS
330
3DF
102
}
330
1F
100
AcDbEntity
  8
LC-002-002-----0
 62
     7
370
    50
100
AcDbCircle
 10
523.390798
 20
1952.021779
 30
0.0
 40
12.0
100
AcDbArc
 50
90.0
 51
180.0
  0
ARC
  5
23A
102
{ACAD_REACTORS
330
3DF
102
}
330
1F
100
AcDbEntity
  8
LC-002-002-----0
 62
     7
370
    50
100
AcDbCircle
 10
523.390798
 20
1592.021779
 30
0.0
 40
12.0
100
AcDbArc
 50
180.0
 51
270.0
  0
ARC
  5
23B
102
{ACAD_REACTORS
330
3DF
102
}
330
1F
100
AcDbEntity
  8
LC-002-002-----0
 62
     7
370
    50
100
AcDbCircle
 10
1219.390798
 20
1592.021779
 30
0.0
 40
12.0
100
AcDbArc
 50
270.0
 51
0.0
  0
ARC
  5
23C
102
{ACAD_REACTORS
330
3DF
102
}
330
1F
100
AcDbEntity
  8
LC-002-002-----0
 62
     7
370
    50
100
AcDbCircle
 10
1219.390798
 20
1952.021779
 30
0.0
 40
12.0
100
AcDbArc
 50
0.0
 51
90.0
  0
CIRCLE
  5
23D
102
{ACAD_REACTORS
330
3DF
102
}
330
1F
100
AcDbEntity
  8
LC-002-002-----0
 62
     7
370
    50
100
AcDbCircle
 10
871.390798
 20
1865.021779
 30
0.0
 40
45.0
  0
CIRCLE
  5
23E
102
{ACAD_REACTORS
330
3DF
102
}
330
1F
100
AcDbEntity
  8
LC-002-002-----0
 62
     7
370
    50
100
AcDbCircle
 10
871.390798
 20
1865.021779
 30
0.0
 40
57.49999999284523
  0
DIMENSION
  5
240
102
{ACAD_REACTORS
330
3DF
102
}
330
1F
100
AcDbEntity
  8
LC-006-003-----0
 62
     7
370
    25
100
AcDbDimension
  2
*D14
 10
1266.390798
 20
1400.0
 30
0.0
 11
871.390798
 21
1430.0
 31
0.0
 70
   160
 71
     5
 42
790.0
  3
LC-DIM-L-0025-01-02
100
AcDbAlignedDimension
 13
476.390798
 23
1535.021779
 33
0.0
 14
1266.390798
 24
1535.021779
 34
0.0
100
AcDbRotatedDimension
  0
DIMENSION
  5
24D
330
1F
100
AcDbEntity
  8
LC-006-003-----0
 62
     7
370
    25
100
AcDbDimension
  2
*D15
 10
350.0
 20
1545.021779
 30
0.0
 11
320.0
 21
1772.021779
 31
0.0
 70
   160
 71
     5
 42
454.0
 53
90.0
  3
LC-DIM-L-0025-01-02
100
AcDbAlignedDimension
 13
466.390798
 23
1999.021779
 33
0.0
 14
466.390798
 24
1545.021779
 34
0.0
 50
90.0
100
AcDbRotatedDimension
  0
DIMENSION
  5
25B
330
1F
100
AcDbEntity
  8
LC-006-003-----0
 62
     7
370
    25
100
AcDbDimension
  2
*D16
 10
488.390798
 20
1557.021779
 30
0.0
 11
415.970502
 21
1495.430372
 31
0.0
 70
   164
 71
     5
 42
12.0
  3
LC-DIM-R-0025-01-02
100
AcDbRadialDimension
 15
480.945015
 25
1547.61113
 35
0.0
 40
1.0
  0
LINE
  5
264
102
{ACAD_REACTORS
330
3E5
102
}
330
1F
100
AcDbEntity
  8
LC-004-100-D10-0
 62
     7
370
    50
100
AcDbLine
 10
1794.374753
 20
1557.021779
 30
0.0
 11
1796.374753
 21
1557.021779
 31
0.0
  0
LINE
  5
265
102
{ACAD_REACTORS
330
3E5
102
}
330
1F
100
AcDbEntity
  8
LC-004-100-D10-0
 62
     7
370
    50
100
AcDbLine
 10
1796.374753
 20
1557.021779
 30
0.0
 11
1796.374753
 21
1545.021779
 31
0.0
  0
LINE
  5
266
102
{ACAD_REACTORS
330
3E3
102
}
330
1F
100
AcDbEntity
  8
LC-002-002-----0
 62
     7
370
    25
100
AcDbLine
 10
1590.319884
 20
1920.021779
 30
0.0
 11
1594.319884
 21
1920.021779
 31
0.0
  0
LINE
  5
267
102
{ACAD_REACTORS
330
3E3
102
}
330
1F
100
AcDbEntity
  8
LC-002-002-----0
 62
     7
370
    25
100
AcDbLine
 10
1551.677203
 20
1829.523642
 30
0.0
 11
1551.677203
 21
1900.519917
 31
0.0
  0
LINE
  5
268
102
{ACAD_REACTORS
330
3E3
102
}
330
1F
100
AcDbEntity
  8
LC-002-002-----0
 62
     7
370
    25
100
AcDbLine
 10
1497.317656
 20
1891.521779
 30
0.0
 11
1497.317656
 21
1920.021779
 31
0.0
  0
LINE
  5
269
102
{ACAD_REACTORS
330
3E3
102
}
330
1F
100
AcDbEntity
  8
LC-002-002-----0
 62
     7
370
    25
100
AcDbLine
 10
1497.717656
 20
1865.021779
 30
0.0
 11
1497.717656
 21
1891.121779
 31
0.0
  0
ARC
  5
26A
102
{ACAD_REACTORS
330
3E3
102
}
330
1F
100
AcDbEntity
  8
LC-005-002-RND-0
 62
     7
370
    25
100
AcDbCircle
 10
1519.717656
 20
1865.021779
 30
0.0
 40
22.0
100
AcDbArc
 50
180.0
 51
270.0
  0
LINE
  5
26B
102
{ACAD_REACTORS
330
3E3
102
}
330
1F
100
AcDbEntity
  8
LC-002-002-----0
 62
     7
370
    25
100
AcDbLine
 10
1542.117656
 20
1893.474928
 30
0.0
 11
1542.117656
 21
1920.021779
 31
0.0
  0
LINE
  5
26C
102
{ACAD_REACTORS
330
3E3
102
}
330
1F
100
AcDbEntity
  8
LC-002-002-----0
 62
     7
370
    25
100
AcDbLine
 10
1542.117656
 20
1893.474928
 30
0.0
 11
1543.837686
 21
1893.789165
 31
0.0
  0
LINE
  5
26D
102
{ACAD_REACTORS
330
3E3
102
}
330
1F
100
AcDbEntity
  8
LC-002-002-----0
 62
     7
370
    25
100
AcDbLine
 10
1550.973958
 20
1900.519917
 30
0.0
 11
1551.677203
 21
1900.519917
 31
0.0
  0
LINE
  5
26E
102
{ACAD_REACTORS
330
3E3
102
}
330
1F
100
AcDbEntity
  8
LC-002-002-----0
 62
     7
370
    25
100
AcDbLine
 10
1519.717656
 20
1843.021779
 30
0.0
 11
1533.40884
 21
1843.021779
 31
0.0
  0
LINE
  5
26F
102
{ACAD_REACTORS
330
3E3
102
}
330
1F
100
AcDbEntity
  8
LC-002-002-----0
 62
     7
370
    25
100
AcDbLine
 10
1550.973958
 20
1829.523642
 30
0.0
 11
1551.677203
 21
1829.523642
 31
0.0
  0
LINE
  5
270
102
{ACAD_REACTORS
330
3E3
102
}
330
1F
100
AcDbEntity
  8
LC-002-002-----0
 62
     7
370
    25
100
AcDbLine
 10
1541.218822
 20
1836.73284
 30
0.0
 11
1543.837686
 21
1836.254394
 31
0.0
  0
LINE
  5
271
102
{ACAD_REACTORS
330
3E3
102
}
330
1F
100
AcDbEntity
  8
LC-002-002-----0
 62
     7
370
    25
100
AcDbLine
 10
1497.317683
 20
1891.521752
 30
0.0
 11
1497.717763
 21
1891.121672
 31
0.0
  0
ARC
  5
272
102
{ACAD_REACTORS
330
3E3
102
}
330
1F
100
AcDbEntity
  8
LC-002-002-----0
 62
     7
370
    25
100
AcDbCircle
 10
1542.387013
 20
1843.127004
 30
0.0
 40
6.500000000000155
100
AcDbArc
 50
199.07704
 51
259.645823
  0
ARC
  5
273
102
{ACAD_REACTORS
330
3E3
102
}
330
1F
100
AcDbEntity
  8
LC-002-002-----0
 62
     7
370
    25
100
AcDbCircle
 10
1533.40884
 20
1840.021779
 30
0.0
 40
3.000000000000229
100
AcDbArc
 50
19.055448
 51
90.0
  0
ARC
  5
274
102
{ACAD_REACTORS
330
3E3
102
}
330
1F
100
AcDbEntity
  8
LC-002-002-----0
 62
     7
370
    25
100
AcDbCircle
 10
1550.973958
 20
1831.523642
 30
0.0
 40
1.999999999999667
100
AcDbArc
 50
244.152631
 51
270.0
  0
ARC
  5
275
102
{ACAD_REACTORS
330
3E3
102
}
330
1F
100
AcDbEntity
  8
LC-002-002-----0
 62
     7
370
    25
100
AcDbCircle
 10
1550.973958
 20
1898.519917
 30
0.0
 40
2.0
100
AcDbArc
 50
90.0
 51
115.847369
  0
ARC
  5
276
102
{ACAD_REACTORS
330
3E3
102
}
330
1F
100
AcDbEntity
  8
LC-002-002-----0
 62
     7
370
    25
100
AcDbCircle
 10
1552.717656
 20
1835.123575
 30
0.0
 40
5.999999999999846
100
AcDbArc
 50
196.283517
 51
244.155028
  0
ARC
  5
277
102
{ACAD_REACTORS
330
3E3
102
}
330
1F
100
AcDbEntity
  8
LC-002-002-----0
 62
     7
370
    25
100
AcDbCircle
 10
1552.717656
 20
1894.919983
 30
0.0
 40
5.999999999999493
100
AcDbArc
 50
115.844972
 51
163.716483
  0
ARC
  5
278
102
{ACAD_REACTORS
330
3E3
102
}
330
1F
100
AcDbEntity
  8
LC-002-002-----0
 62
     7
370
    25
100
AcDbCircle
 10
1543.11884
 20
1832.319517
 30
0.0
 40
3.999999999999806
100
AcDbArc
 50
16.281751
 51
79.647048
  0
ARC
  5
279
102
{ACAD_REACTORS
330
3E3
102
}
330
1F
100
AcDbEntity
  8
LC-002-002-----0
 62
     7
370
    25
100
AcDbCircle
 10
1543.11884
 20
1897.724042
 30
0.0
 40
3.999999999999532
100
AcDbArc
 50
280.352952
 51
343.718249
  0
LINE
  5
27A
102
{ACAD_REACTORS
330
3E3
102
}
330
1F
100
AcDbEntity
  8
LC-002-002-----0
 62
     7
370
    25
100
AcDbLine
 10
1492.012862
 20
1922.521779
 30
0.0
 11
1492.012862
 21
1920.021779
 31
0.0
  0
LINE
  5
27B
102
{ACAD_REACTORS
330
3E3
102
}
330
1F
100
AcDbEntity
  8
LC-002-002-----0
 62
     7
370
    25
100
AcDbLine
 10
1492.762862
 20
1923.521779
 30
0.0
 11
1492.762862
 21
1923.271779
 31
0.0
  0
LINE
  5
27C
102
{ACAD_REACTORS
330
3E3
102
}
330
1F
100
AcDbEntity
  8
LC-002-002-----0
 62
     7
370
    25
100
AcDbLine
 10
1493.917656
 20
1923.521779
 30
0.0
 11
1493.917656
 21
1937.021779
 31
0.0
  0
LINE
  5
27D
102
{ACAD_REACTORS
330
3E3
102
}
330
1F
100
AcDbEntity
  8
LC-002-002-----0
 62
     7
370
    25
100
AcDbLine
 10
1545.517656
 20
1923.521779
 30
0.0
 11
1545.517656
 21
1937.021779
 31
0.0
  0
LINE
  5
27E
102
{ACAD_REACTORS
330
3E3
102
}
330
1F
100
AcDbEntity
  8
LC-002-002-----0
 62
     7
370
    25
100
AcDbLine
 10
1546.672449
 20
1923.521779
 30
0.0
 11
1546.672449
 21
1923.271779
 31
0.0
  0
LINE
  5
27F
102
{ACAD_REACTORS
330
3E3
102
}
330
1F
100
AcDbEntity
  8
LC-002-002-----0
 62
     7
370
    25
100
AcDbLine
 10
1547.422449
 20
1922.521779
 30
0.0
 11
1547.422449
 21
1920.021779
 31
0.0
  0
LINE
  5
280
102
{ACAD_REACTORS
330
3E3
102
}
330
1F
100
AcDbEntity
  8
LC-002-002-----0
 62
     7
370
    25
100
AcDbLine
 10
1492.762863
 20
1923.27178
 30
0.0
 11
1492.012863
 21
1922.52178
 31
0.0
  0
LINE
  5
281
102
{ACAD_REACTORS
330
3E3
102
}
330
1F
100
AcDbEntity
  8
LC-002-002-----0
 62
     7
370
    25
100
AcDbLine
 10
1543.517656
 20
1939.021779
 30
0.0
 11
1495.917656
 21
1939.021779
 31
0.0
  0
LINE
  5
282
102
{ACAD_REACTORS
330
3E3
102
}
330
1F
100
AcDbEntity
  8
LC-002-002-----0
 62
     7
370
    25
100
AcDbLine
 10
1546.672431
 20
1923.521779
 30
0.0
 11
1545.517656
 21
1923.521779
 31
0.0
  0
LINE
  5
283
102
{ACAD_REACTORS
330
3E3
102
}
330
1F
100
AcDbEntity
  8
LC-002-002-----0
 62
     7
370
    25
100
AcDbLine
 10
1547.422449
 20
1920.021779
 30
0.0
 11
1492.012862
 21
1920.021779
 31
0.0
  0
LINE
  5
284
102
{ACAD_REACTORS
330
3E3
102
}
330
1F
100
AcDbEntity
  8
LC-002-002-----0
 62
     7
370
    25
100
AcDbLine
 10
1546.672448
 20
1923.27178
 30
0.0
 11
1547.422448
 21
1922.52178
 31
0.0
  0
ARC
  5
285
102
{ACAD_REACTORS
330
3E3
102
}
330
1F
100
AcDbEntity
  8
LC-002-002-----0
 62
     7
370
    25
100
AcDbCircle
 10
1543.517656
 20
1937.021779
 30
0.0
 40
2.0
100
AcDbArc
 50
0.0
 51
90.0
  0
ARC
  5
286
102
{ACAD_REACTORS
330
3E3
102
}
330
1F
100
AcDbEntity
  8
LC-002-002-----0
 62
     7
370
    25
100
AcDbCircle
 10
1495.917656
 20
1937.021779
 30
0.0
 40
2.0
100
AcDbArc
 50
90.0
 51
180.0
  0
LINE
  5
287
102
{ACAD_REACTORS
330
3E3
102
}
330
1F
100
AcDbEntity
  8
LC-002-002-----0
 62
     7
370
    25
100
AcDbLine
 10
1519.716203
 20
1923.521779
 30
0.0
 11
1519.716203
 21
1937.021779
 31
0.0
  0
INSERT
  5
297
102
{ACAD_REACTORS
330
3E3
102
}
330
1F
100
AcDbEntity
  8
LC-002-002-----0
 62
     7
370
    25
100
AcDbBlockReference
  2
POLY11
 10
0.0
 20
0.0
 30
0.0
  0
LINE
  5
298
102
{ACAD_REACTORS
330
3E3
102
}
330
1F
100
AcDbEntity
  8
LC-002-002-----0
 62
     7
370
    25
100
AcDbLine
 10
1594.319884
 20
1920.021779
 30
0.0
 11
1594.319884
 21
1810.021779
 31
0.0
  0
LINE
  5
299
102
{ACAD_REACTORS
330
3E3
102
}
330
1F
100
AcDbEntity
  8
LC-002-002-----0
 62
     7
370
    25
100
AcDbLine
 10
1590.319884
 20
1810.021779
 30
0.0
 11
1594.319884
 21
1810.021779
 31
0.0
  0
LINE
  5
29A
102
{ACAD_REACTORS
330
3E3
102
}
330
1F
100
AcDbEntity
  8
LC-002-002-----0
 62
     7
370
    25
100
AcDbLine
 10
1551.677203
 20
1827.521779
 30
0.0
 11
1551.677203
 21
1902.521779
 31
0.0
  0
LINE
  5
29B
102
{ACAD_REACTORS
330
3E3
102
}
330
1F
100
AcDbEntity
  8
LC-002-002-----0
 62
     7
370
    25
100
AcDbLine
 10
1554.177203
 20
1825.516816
 30
0.0
 11
1554.177203
 21
1827.521779
 31
0.0
  0
LINE
  5
29C
102
{ACAD_REACTORS
330
3E3
102
}
330
1F
100
AcDbEntity
  8
LC-002-002-----0
 62
     7
370
    25
100
AcDbLine
 10
1558.506977
 20
1822.272389
 30
0.0
 11
1559.517326
 21
1820.522414
 31
0.0
  0
LINE
  5
29D
102
{ACAD_REACTORS
330
3E3
102
}
330
1F
100
AcDbEntity
  8
LC-002-002-----0
 62
     7
370
    25
100
AcDbLine
 10
1554.177203
 20
1827.521779
 30
0.0
 11
1551.677203
 21
1827.521779
 31
0.0
  0
LINE
  5
29E
102
{ACAD_REACTORS
330
3E3
102
}
330
1F
100
AcDbEntity
  8
LC-002-002-----0
 62
     7
370
    25
100
AcDbLine
 10
1564.713845
 20
1817.521779
 30
0.0
 11
1580.177203
 21
1817.521779
 31
0.0
  0
LINE
  5
29F
102
{ACAD_REACTORS
330
3E3
102
}
330
1F
100
AcDbEntity
  8
LC-002-002-----0
 62
     7
370
    25
100
AcDbLine
 10
1589.859661
 20
1810.021779
 30
0.0
 11
1590.319884
 21
1810.021779
 31
0.0
  0
ARC
  5
2A0
102
{ACAD_REACTORS
330
3E3
102
}
330
1F
100
AcDbEntity
  8
LC-002-002-----0
 62
     7
370
    25
100
AcDbCircle
 10
1580.177203
 20
1813.521779
 30
0.0
 40
3.999999999999869
100
AcDbArc
 50
14.492147
 51
90.0
  0
ARC
  5
2A1
102
{ACAD_REACTORS
330
3E3
102
}
330
1F
100
AcDbEntity
  8
LC-002-002-----0
 62
     7
370
    25
100
AcDbCircle
 10
1589.859661
 20
1816.021779
 30
0.0
 40
6.000000000000098
100
AcDbArc
 50
194.469452
 51
270.0
  0
ARC
  5
2A2
102
{ACAD_REACTORS
330
3E3
102
}
330
1F
100
AcDbEntity
  8
LC-002-002-----0
 62
     7
370
    25
100
AcDbCircle
 10
1564.713845
 20
1823.521779
 30
0.0
 40
5.999999999999863
100
AcDbArc
 50
209.988476
 51
270.0
  0
ARC
  5
2A3
102
{ACAD_REACTORS
330
3E3
102
}
330
1F
100
AcDbEntity
  8
LC-002-002-----0
 62
     7
370
    25
100
AcDbCircle
 10
1554.177203
 20
1819.771779
 30
0.0
 40
5.000000000000217
100
AcDbArc
 50
30.016153
 51
82.072225
  0
ARC
  5
2A4
102
{ACAD_REACTORS
330
3E3
102
}
330
1F
100
AcDbEntity
  8
LC-002-002-----0
 62
     7
370
    25
100
AcDbCircle
 10
1554.977203
 20
1825.516342
 30
0.0
 40
0.7999999999999545
100
AcDbArc
 50
180.0
 51
262.062606
  0
LINE
  5
2A5
102
{ACAD_REACTORS
330
3E3
102
}
330
1F
100
AcDbEntity
  8
LC-002-002-----0
 62
     7
370
    25
100
AcDbLine
 10
1590.319884
 20
1920.021779
 30
0.0
 11
1594.319884
 21
1920.021779
 31
0.0
  0
LINE
  5
2A6
102
{ACAD_REACTORS
330
3E3
102
}
330
1F
100
AcDbEntity
  8
LC-002-002-----0
 62
     7
370
    25
100
AcDbLine
 10
1558.506977
 20
1907.771169
 30
0.0
 11
1559.517326
 21
1909.521144
 31
0.0
  0
LINE
  5
2A7
102
{ACAD_REACTORS
330
3E3
102
}
330
1F
100
AcDbEntity
  8
LC-002-002-----0
 62
     7
370
    25
100
AcDbLine
 10
1554.177203
 20
1902.521779
 30
0.0
 11
1551.677203
 21
1902.521779
 31
0.0
  0
LINE
  5
2A8
102
{ACAD_REACTORS
330
3E3
102
}
330
1F
100
AcDbEntity
  8
LC-002-002-----0
 62
     7
370
    25
100
AcDbLine
 10
1564.713845
 20
1912.521779
 30
0.0
 11
1580.177203
 21
1912.521779
 31
0.0
  0
LINE
  5
2A9
102
{ACAD_REACTORS
330
3E3
102
}
330
1F
100
AcDbEntity
  8
LC-002-002-----0
 62
     7
370
    25
100
AcDbLine
 10
1589.859661
 20
1920.021779
 30
0.0
 11
1590.319884
 21
1920.021779
 31
0.0
  0
ARC
  5
2AA
102
{ACAD_REACTORS
330
3E3
102
}
330
1F
100
AcDbEntity
  8
LC-002-002-----0
 62
     7
370
    25
100
AcDbCircle
 10
1580.177203
 20
1916.521779
 30
0.0
 40
4.0
100
AcDbArc
 50
270.0
 51
345.507853
  0
ARC
  5
2AB
102
{ACAD_REACTORS
330
3E3
102
}
330
1F
100
AcDbEntity
  8
LC-002-002-----0
 62
     7
370
    25
100
AcDbCircle
 10
1589.859661
 20
1914.021779
 30
0.0
 40
6.0
100
AcDbArc
 50
90.0
 51
165.530548
  0
ARC
  5
2AC
102
{ACAD_REACTORS
330
3E3
102
}
330
1F
100
AcDbEntity
  8
LC-002-002-----0
 62
     7
370
    25
100
AcDbCircle
 10
1564.713845
 20
1906.521779
 30
0.0
 40
6.0
100
AcDbArc
 50
90.0
 51
150.011524
  0
ARC
  5
2AD
102
{ACAD_REACTORS
330
3E3
102
}
330
1F
100
AcDbEntity
  8
LC-002-002-----0
 62
     7
370
    25
100
AcDbCircle
 10
1554.177203
 20
1910.271779
 30
0.0
 40
4.999999999999969
100
AcDbArc
 50
277.927775
 51
329.983847
  0
ARC
  5
2AE
102
{ACAD_REACTORS
330
3E3
102
}
330
1F
100
AcDbEntity
  8
LC-002-002-----0
 62
     7
370
    25
100
AcDbCircle
 10
1554.977203
 20
1904.527217
 30
0.0
 40
0.8000000000001064
100
AcDbArc
 50
97.937394
 51
180.0
  0
LINE
  5
2AF
102
{ACAD_REACTORS
330
3E3
102
}
330
1F
100
AcDbEntity
  8
LC-002-002-----0
 62
     7
370
    25
100
AcDbLine
 10
1554.177203
 20
1902.521779
 30
0.0
 11
1554.177203
 21
1904.527217
 31
0.0
  0
LINE
  5
2B0
102
{ACAD_REACTORS
330
3E3
102
}
330
1F
100
AcDbEntity
  8
LC-002-002-----0
 62
     7
370
    25
100
AcDbLine
 10
1499.717656
 20
1978.985139
 30
0.0
 11
1499.717656
 21
1939.021779
 31
0.0
  0
LINE
  5
2B1
102
{ACAD_REACTORS
330
3E3
102
}
330
1F
100
AcDbEntity
  8
LC-002-002-----0
 62
     7
370
    25
100
AcDbLine
 10
1493.917656
 20
1923.521779
 30
0.0
 11
1492.76288
 21
1923.521779
 31
0.0
  0
LINE
  5
2B2
102
{ACAD_REACTORS
330
3E3
102
}
330
1F
100
AcDbEntity
  8
LC-002-002-----0
 62
     7
370
    25
100
AcDbLine
 10
1481.488478
 20
1975.609284
 30
0.0
 11
1482.259023
 21
1977.089486
 31
0.0
  0
LINE
  5
2B3
102
{ACAD_REACTORS
330
3E3
102
}
330
1F
100
AcDbEntity
  8
LC-002-002-----0
 62
     7
370
    25
100
AcDbLine
 10
1483.029298
 20
1975.609172
 30
0.0
 11
1483.799956
 21
1977.089591
 31
0.0
  0
LINE
  5
2B4
102
{ACAD_REACTORS
330
3E3
102
}
330
1F
100
AcDbEntity
  8
LC-002-002-----0
 62
     7
370
    25
100
AcDbLine
 10
1484.570235
 20
1975.609284
 30
0.0
 11
1485.340668
 21
1977.089271
 31
0.0
  0
LINE
  5
2B5
102
{ACAD_REACTORS
330
3E3
102
}
330
1F
100
AcDbEntity
  8
LC-002-002-----0
 62
     7
370
    25
100
AcDbLine
 10
1486.111114
 20
1975.609284
 30
0.0
 11
1486.881546
 21
1977.089271
 31
0.0
  0
LINE
  5
2B6
102
{ACAD_REACTORS
330
3E3
102
}
330
1F
100
AcDbEntity
  8
LC-002-002-----0
 62
     7
370
    25
100
AcDbLine
 10
1487.651992
 20
1975.609284
 30
0.0
 11
1488.422425
 21
1977.089271
 31
0.0
  0
LINE
  5
2B7
102
{ACAD_REACTORS
330
3E3
102
}
330
1F
100
AcDbEntity
  8
LC-002-002-----0
 62
     7
370
    25
100
AcDbLine
 10
1489.192871
 20
1975.609284
 30
0.0
 11
1489.963303
 21
1977.089271
 31
0.0
  0
LINE
  5
2B8
102
{ACAD_REACTORS
330
3E3
102
}
330
1F
100
AcDbEntity
  8
LC-002-002-----0
 62
     7
370
    25
100
AcDbLine
 10
1490.733749
 20
1975.609284
 30
0.0
 11
1491.504182
 21
1977.089271
 31
0.0
  0
LINE
  5
2B9
102
{ACAD_REACTORS
330
3E3
102
}
330
1F
100
AcDbEntity
  8
LC-002-002-----0
 62
     7
370
    25
100
AcDbLine
 10
1493.504208
 20
1976.375354
 30
0.0
 11
1496.617956
 21
1979.489102
 31
0.0
  0
LINE
  5
2BA
102
{ACAD_REACTORS
330
3E3
102
}
330
1F
100
AcDbEntity
  8
LC-002-002-----0
 62
     7
370
    25
100
AcDbLine
 10
1479.717932
 20
1977.089078
 30
0.0
 11
1479.717932
 21
2021.889078
 31
0.0
  0
LINE
  5
2BB
102
{ACAD_REACTORS
330
3E3
102
}
330
1F
100
AcDbEntity
  8
LC-002-002-----0
 62
     7
370
    25
100
AcDbLine
 10
1496.617932
 20
2019.489078
 30
0.0
 11
1499.717932
 21
2019.489078
 31
0.0
  0
LINE
  5
2BC
102
{ACAD_REACTORS
330
3E3
102
}
330
1F
100
AcDbEntity
  8
LC-002-002-----0
 62
     7
370
    25
100
AcDbLine
 10
1493.504208
 20
1976.375354
 30
0.0
 11
1493.504208
 21
2022.602802
 31
0.0
  0
LINE
  5
2BD
102
{ACAD_REACTORS
330
3E3
102
}
330
1F
100
AcDbEntity
  8
LC-002-002-----0
 62
     7
370
    25
100
AcDbLine
 10
1496.617932
 20
1979.489078
 30
0.0
 11
1499.213316
 21
1979.489078
 31
0.0
  0
LINE
  5
2BE
102
{ACAD_REACTORS
330
3E3
102
}
330
1F
100
AcDbEntity
  8
LC-002-002-----0
 62
     7
370
    25
100
AcDbLine
 10
1479.717932
 20
1977.089078
 30
0.0
 11
1480.717932
 21
1977.089078
 31
0.0
  0
LINE
  5
2BF
102
{ACAD_REACTORS
330
3E3
102
}
330
1F
100
AcDbEntity
  8
LC-002-002-----0
 62
     7
370
    25
100
AcDbLine
 10
1491.504081
 20
1977.089078
 30
0.0
 11
1493.504081
 21
1977.089078
 31
0.0
  0
LINE
  5
2C0
102
{ACAD_REACTORS
330
3E3
102
}
330
1F
100
AcDbEntity
  8
LC-002-002-----0
 62
     7
370
    25
100
AcDbLine
 10
1493.504208
 20
2022.602802
 30
0.0
 11
1496.617956
 21
2019.489054
 31
0.0
  0
LINE
  5
2C1
102
{ACAD_REACTORS
330
3E3
102
}
330
1F
100
AcDbEntity
  8
LC-002-002-----0
 62
     7
370
    25
100
AcDbLine
 10
1489.963157
 20
1977.089166
 30
0.0
 11
1490.733593
 21
1975.609172
 31
0.0
  0
LINE
  5
2C2
102
{ACAD_REACTORS
330
3E3
102
}
330
1F
100
AcDbEntity
  8
LC-002-002-----0
 62
     7
370
    25
100
AcDbLine
 10
1488.422279
 20
1977.089166
 30
0.0
 11
1489.192715
 21
1975.609172
 31
0.0
  0
LINE
  5
2C3
102
{ACAD_REACTORS
330
3E3
102
}
330
1F
100
AcDbEntity
  8
LC-002-002-----0
 62
     7
370
    25
100
AcDbLine
 10
1486.8814
 20
1977.089166
 30
0.0
 11
1487.651836
 21
1975.609172
 31
0.0
  0
LINE
  5
2C4
102
{ACAD_REACTORS
330
3E3
102
}
330
1F
100
AcDbEntity
  8
LC-002-002-----0
 62
     7
370
    25
100
AcDbLine
 10
1485.340522
 20
1977.089166
 30
0.0
 11
1486.110958
 21
1975.609172
 31
0.0
  0
LINE
  5
2C5
102
{ACAD_REACTORS
330
3E3
102
}
330
1F
100
AcDbEntity
  8
LC-002-002-----0
 62
     7
370
    25
100
AcDbLine
 10
1483.799477
 20
1977.089486
 30
0.0
 11
1484.570079
 21
1975.609172
 31
0.0
  0
LINE
  5
2C6
102
{ACAD_REACTORS
330
3E3
102
}
330
1F
100
AcDbEntity
  8
LC-002-002-----0
 62
     7
370
    25
100
AcDbLine
 10
1482.258543
 20
1977.089591
 30
0.0
 11
1483.029143
 21
1975.609284
 31
0.0
  0
LINE
  5
2C7
102
{ACAD_REACTORS
330
3E3
102
}
330
1F
100
AcDbEntity
  8
LC-002-002-----0
 62
     7
370
    25
100
AcDbLine
 10
1480.71772
 20
1977.089486
 30
0.0
 11
1481.488322
 21
1975.609172
 31
0.0
  0
ARC
  5
2C8
102
{ACAD_REACTORS
330
3E3
102
}
330
1F
100
AcDbEntity
  8
LC-002-002-----0
 62
     7
370
    25
100
AcDbCircle
 10
1499.717932
 20
1979.489078
 30
0.0
 40
39.99972357249953
100
AcDbArc
 50
0.0
 51
90.0
  0
LINE
  5
2C9
102
{ACAD_REACTORS
330
3E3
102
}
330
1F
100
AcDbEntity
  8
LC-002-002-----0
 62
     7
370
    25
100
AcDbLine
 10
1499.213316
 20
1979.489078
 30
0.0
 11
1499.571485
 21
1979.342631
 31
0.0
  0
LINE
  5
2CA
102
{ACAD_REACTORS
330
3E3
102
}
330
1F
100
AcDbEntity
  8
LC-002-002-----0
 62
     7
370
    25
100
AcDbLine
 10
1499.571485
 20
1979.342631
 30
0.0
 11
1499.717656
 21
1978.985139
 31
0.0
  0
LINE
  5
2CB
102
{ACAD_REACTORS
330
3E3
102
}
330
1F
100
AcDbEntity
  8
LC-002-002-----0
 62
     7
370
    25
100
AcDbLine
 10
1481.488478
 20
2023.368872
 30
0.0
 11
1482.259023
 21
2021.88867
 31
0.0
  0
LINE
  5
2CC
102
{ACAD_REACTORS
330
3E3
102
}
330
1F
100
AcDbEntity
  8
LC-002-002-----0
 62
     7
370
    25
100
AcDbLine
 10
1483.029298
 20
2023.368984
 30
0.0
 11
1483.799956
 21
2021.888565
 31
0.0
  0
LINE
  5
2CD
102
{ACAD_REACTORS
330
3E3
102
}
330
1F
100
AcDbEntity
  8
LC-002-002-----0
 62
     7
370
    25
100
AcDbLine
 10
1484.570235
 20
2023.368872
 30
0.0
 11
1485.340668
 21
2021.888885
 31
0.0
  0
LINE
  5
2CE
102
{ACAD_REACTORS
330
3E3
102
}
330
1F
100
AcDbEntity
  8
LC-002-002-----0
 62
     7
370
    25
100
AcDbLine
 10
1486.111114
 20
2023.368872
 30
0.0
 11
1486.881546
 21
2021.888885
 31
0.0
  0
LINE
  5
2CF
102
{ACAD_REACTORS
330
3E3
102
}
330
1F
100
AcDbEntity
  8
LC-002-002-----0
 62
     7
370
    25
100
AcDbLine
 10
1487.651992
 20
2023.368872
 30
0.0
 11
1488.422425
 21
2021.888885
 31
0.0
  0
LINE
  5
2D0
102
{ACAD_REACTORS
330
3E3
102
}
330
1F
100
AcDbEntity
  8
LC-002-002-----0
 62
     7
370
    25
100
AcDbLine
 10
1489.192871
 20
2023.368872
 30
0.0
 11
1489.963303
 21
2021.888885
 31
0.0
  0
LINE
  5
2D1
102
{ACAD_REACTORS
330
3E3
102
}
330
1F
100
AcDbEntity
  8
LC-002-002-----0
 62
     7
370
    25
100
AcDbLine
 10
1490.733749
 20
2023.368872
 30
0.0
 11
1491.504182
 21
2021.888885
 31
0.0
  0
LINE
  5
2D2
102
{ACAD_REACTORS
330
3E3
102
}
330
1F
100
AcDbEntity
  8
LC-002-002-----0
 62
     7
370
    25
100
AcDbLine
 10
1479.717932
 20
2021.889078
 30
0.0
 11
1480.717932
 21
2021.889078
 31
0.0
  0
LINE
  5
2D3
102
{ACAD_REACTORS
330
3E3
102
}
330
1F
100
AcDbEntity
  8
LC-002-002-----0
 62
     7
370
    25
100
AcDbLine
 10
1491.504081
 20
2021.889078
 30
0.0
 11
1493.504081
 21
2021.889078
 31
0.0
  0
LINE
  5
2D4
102
{ACAD_REACTORS
330
3E3
102
}
330
1F
100
AcDbEntity
  8
LC-002-002-----0
 62
     7
370
    25
100
AcDbLine
 10
1489.963157
 20
2021.88899
 30
0.0
 11
1490.733593
 21
2023.368984
 31
0.0
  0
LINE
  5
2D5
102
{ACAD_REACTORS
330
3E3
102
}
330
1F
100
AcDbEntity
  8
LC-002-002-----0
 62
     7
370
    25
100
AcDbLine
 10
1488.422279
 20
2021.88899
 30
0.0
 11
1489.192715
 21
2023.368984
 31
0.0
  0
LINE
  5
2D6
102
{ACAD_REACTORS
330
3E3
102
}
330
1F
100
AcDbEntity
  8
LC-002-002-----0
 62
     7
370
    25
100
AcDbLine
 10
1486.8814
 20
2021.88899
 30
0.0
 11
1487.651836
 21
2023.368984
 31
0.0
  0
LINE
  5
2D7
102
{ACAD_REACTORS
330
3E3
102
}
330
1F
100
AcDbEntity
  8
LC-002-002-----0
 62
     7
370
    25
100
AcDbLine
 10
1485.340522
 20
2021.88899
 30
0.0
 11
1486.110958
 21
2023.368984
 31
0.0
  0
LINE
  5
2D8
102
{ACAD_REACTORS
330
3E3
102
}
330
1F
100
AcDbEntity
  8
LC-002-002-----0
 62
     7
370
    25
100
AcDbLine
 10
1483.799477
 20
2021.88867
 30
0.0
 11
1484.570079
 21
2023.368984
 31
0.0
  0
LINE
  5
2D9
102
{ACAD_REACTORS
330
3E3
102
}
330
1F
100
AcDbEntity
  8
LC-002-002-----0
 62
     7
370
    25
100
AcDbLine
 10
1482.258543
 20
2021.888565
 30
0.0
 11
1483.029143
 21
2023.368872
 31
0.0
  0
LINE
  5
2DA
102
{ACAD_REACTORS
330
3E3
102
}
330
1F
100
AcDbEntity
  8
LC-002-002-----0
 62
     7
370
    25
100
AcDbLine
 10
1480.71772
 20
2021.88867
 30
0.0
 11
1481.488322
 21
2023.368984
 31
0.0
  0
LINE
  5
2DB
102
{ACAD_REACTORS
330
3E3
102
}
330
1F
100
AcDbEntity
  8
LC-002-002-----0
 62
     7
370
    25
100
AcDbLine
 10
1539.717656
 20
1939.021779
 30
0.0
 11
1539.717656
 21
1979.489078
 31
0.0
  0
LINE
  5
2DC
102
{ACAD_REACTORS
330
3DE
102
}
330
1F
100
AcDbEntity
  8
LC-002-002-----0
 62
     7
370
    25
100
AcDbLine
 10
816.390798
 20
2370.975131
 30
0.0
 11
926.390798
 21
2370.975131
 31
0.0
  0
LINE
  5
2DD
102
{ACAD_REACTORS
330
3DE
102
}
330
1F
100
AcDbEntity
  8
LC-002-002-----0
 62
     7
370
    25
100
AcDbLine
 10
926.390798
 20
2366.975131
 30
0.0
 11
926.390798
 21
2370.975131
 31
0.0
  0
LINE
  5
2DE
102
{ACAD_REACTORS
330
3DE
102
}
330
1F
100
AcDbEntity
  8
LC-002-002-----0
 62
     7
370
    25
100
AcDbLine
 10
908.890798
 20
2328.33245
 30
0.0
 11
833.890798
 21
2328.33245
 31
0.0
  0
LINE
  5
2DF
102
{ACAD_REACTORS
330
3DE
102
}
330
1F
100
AcDbEntity
  8
LC-002-002-----0
 62
     7
370
    25
100
AcDbLine
 10
910.895762
 20
2330.83245
 30
0.0
 11
908.890798
 21
2330.83245
 31
0.0
  0
LINE
  5
2E0
102
{ACAD_REACTORS
330
3DE
102
}
330
1F
100
AcDbEntity
  8
LC-002-002-----0
 62
     7
370
    25
100
AcDbLine
 10
833.890798
 20
2330.83245
 30
0.0
 11
833.890798
 21
2328.33245
 31
0.0
  0
LINE
  5
2E1
102
{ACAD_REACTORS
330
3DE
102
}
330
1F
100
AcDbEntity
  8
LC-002-002-----0
 62
     7
370
    25
100
AcDbLine
 10
914.140188
 20
2335.162225
 30
0.0
 11
915.890163
 21
2336.172573
 31
0.0
  0
LINE
  5
2E2
102
{ACAD_REACTORS
330
3DE
102
}
330
1F
100
AcDbEntity
  8
LC-002-002-----0
 62
     7
370
    25
100
AcDbLine
 10
908.890798
 20
2330.83245
 30
0.0
 11
908.890798
 21
2328.33245
 31
0.0
  0
LINE
  5
2E3
102
{ACAD_REACTORS
330
3DE
102
}
330
1F
100
AcDbEntity
  8
LC-002-002-----0
 62
     7
370
    25
100
AcDbLine
 10
918.890798
 20
2341.369092
 30
0.0
 11
918.890798
 21
2356.83245
 31
0.0
  0
LINE
  5
2E4
102
{ACAD_REACTORS
330
3DE
102
}
330
1F
100
AcDbEntity
  8
LC-002-002-----0
 62
     7
370
    25
100
AcDbLine
 10
926.390798
 20
2366.514908
 30
0.0
 11
926.390798
 21
2366.975131
 31
0.0
  0
ARC
  5
2E5
102
{ACAD_REACTORS
330
3DE
102
}
330
1F
100
AcDbEntity
  8
LC-002-002-----0
 62
     7
370
    25
100
AcDbCircle
 10
922.890798
 20
2356.83245
 30
0.0
 40
3.999999999999755
100
AcDbArc
 50
104.492147
 51
180.0
  0
ARC
  5
2E6
102
{ACAD_REACTORS
330
3DE
102
}
330
1F
100
AcDbEntity
  8
LC-002-002-----0
 62
     7
370
    25
100
AcDbCircle
 10
920.390798
 20
2366.514908
 30
0.0
 40
5.999999999999658
100
AcDbArc
 50
284.469452
 51
0.0
  0
ARC
  5
2E7
102
{ACAD_REACTORS
330
3DE
102
}
330
1F
100
AcDbEntity
  8
LC-002-002-----0
 62
     7
370
    25
100
AcDbCircle
 10
912.890798
 20
2341.369092
 30
0.0
 40
6.000000000000091
100
AcDbArc
 50
299.988476
 51
0.0
  0
ARC
  5
2E8
102
{ACAD_REACTORS
330
3DE
102
}
330
1F
100
AcDbEntity
  8
LC-002-002-----0
 62
     7
370
    25
100
AcDbCircle
 10
916.640798
 20
2330.83245
 30
0.0
 40
4.999999999999792
100
AcDbArc
 50
120.016153
 51
172.072225
  0
ARC
  5
2E9
102
{ACAD_REACTORS
330
3DE
102
}
330
1F
100
AcDbEntity
  8
LC-002-002-----0
 62
     7
370
    25
100
AcDbCircle
 10
910.896235
 20
2331.63245
 30
0.0
 40
0.8000000000001819
100
AcDbArc
 50
270.0
 51
352.062606
  0
ARC
  5
2EA
102
{ACAD_REACTORS
330
3DE
102
}
330
1F
100
AcDbEntity
  8
LC-002-002-----0
 62
     7
370
    25
100
AcDbCircle
 10
871.390798
 20
2296.372903
 30
0.0
 40
22.0
100
AcDbArc
 50
180.0
 51
0.0
  0
LINE
  5
2EB
102
{ACAD_REACTORS
330
3DE
102
}
330
1F
100
AcDbEntity
  8
LC-002-002-----0
 62
     7
370
    25
100
AcDbLine
 10
849.390798
 20
2296.372903
 30
0.0
 11
849.390798
 21
2310.064087
 31
0.0
  0
LINE
  5
2EC
102
{ACAD_REACTORS
330
3DE
102
}
330
1F
100
AcDbEntity
  8
LC-002-002-----0
 62
     7
370
    25
100
AcDbLine
 10
893.390798
 20
2296.372903
 30
0.0
 11
893.390798
 21
2310.064087
 31
0.0
  0
LINE
  5
2ED
102
{ACAD_REACTORS
330
3DE
102
}
330
1F
100
AcDbEntity
  8
LC-002-002-----0
 62
     7
370
    25
100
AcDbLine
 10
899.679737
 20
2317.874069
 30
0.0
 11
900.158183
 21
2320.492933
 31
0.0
  0
ARC
  5
2EE
102
{ACAD_REACTORS
330
3DE
102
}
330
1F
100
AcDbEntity
  8
LC-002-002-----0
 62
     7
370
    25
100
AcDbCircle
 10
893.285573
 20
2319.04226
 30
0.0
 40
6.500000000000155
100
AcDbArc
 50
289.07704
 51
349.645823
  0
ARC
  5
2EF
102
{ACAD_REACTORS
330
3DE
102
}
330
1F
100
AcDbEntity
  8
LC-002-002-----0
 62
     7
370
    25
100
AcDbCircle
 10
896.390798
 20
2310.064087
 30
0.0
 40
2.999999999999717
100
AcDbArc
 50
109.055448
 51
180.0
  0
ARC
  5
2F0
102
{ACAD_REACTORS
330
3DE
102
}
330
1F
100
AcDbEntity
  8
LC-002-002-----0
 62
     7
370
    25
100
AcDbCircle
 10
904.888935
 20
2327.629205
 30
0.0
 40
1.999999999999766
100
AcDbArc
 50
334.152631
 51
0.0
  0
ARC
  5
2F1
102
{ACAD_REACTORS
330
3DE
102
}
330
1F
100
AcDbEntity
  8
LC-002-002-----0
 62
     7
370
    25
100
AcDbCircle
 10
901.289002
 20
2329.372903
 30
0.0
 40
6.0000000000001
100
AcDbArc
 50
286.283517
 51
334.155028
  0
ARC
  5
2F2
102
{ACAD_REACTORS
330
3DE
102
}
330
1F
100
AcDbEntity
  8
LC-002-002-----0
 62
     7
370
    25
100
AcDbCircle
 10
904.093061
 20
2319.774087
 30
0.0
 40
3.999999999999369
100
AcDbArc
 50
106.281751
 51
169.647048
  0
LINE
  5
2F3
102
{ACAD_REACTORS
330
3DE
102
}
330
1F
100
AcDbEntity
  8
LC-002-002-----0
 62
     7
370
    25
100
AcDbLine
 10
843.101859
 20
2317.874069
 30
0.0
 11
842.623413
 21
2320.492933
 31
0.0
  0
ARC
  5
2F4
102
{ACAD_REACTORS
330
3DE
102
}
330
1F
100
AcDbEntity
  8
LC-002-002-----0
 62
     7
370
    25
100
AcDbCircle
 10
849.496023
 20
2319.04226
 30
0.0
 40
6.499999999999891
100
AcDbArc
 50
190.354177
 51
250.92296
  0
ARC
  5
2F5
102
{ACAD_REACTORS
330
3DE
102
}
330
1F
100
AcDbEntity
  8
LC-002-002-----0
 62
     7
370
    25
100
AcDbCircle
 10
846.390798
 20
2310.064087
 30
0.0
 40
2.999999995699909
100
AcDbArc
 50
0.0
 51
70.944552
  0
ARC
  5
2F6
102
{ACAD_REACTORS
330
3DE
102
}
330
1F
100
AcDbEntity
  8
LC-002-002-----0
 62
     7
370
    25
100
AcDbCircle
 10
837.892661
 20
2327.629205
 30
0.0
 40
1.999999999999545
100
AcDbArc
 50
180.0
 51
205.847369
  0
ARC
  5
2F7
102
{ACAD_REACTORS
330
3DE
102
}
330
1F
100
AcDbEntity
  8
LC-002-002-----0
 62
     7
370
    25
100
AcDbCircle
 10
841.492594
 20
2329.372903
 30
0.0
 40
5.999999999999802
100
AcDbArc
 50
205.844972
 51
253.716483
  0
ARC
  5
2F8
102
{ACAD_REACTORS
330
3DE
102
}
330
1F
100
AcDbEntity
  8
LC-002-002-----0
 62
     7
370
    25
100
AcDbCircle
 10
838.688535
 20
2319.774087
 30
0.0
 40
4.000000000000386
100
AcDbArc
 50
10.352952
 51
73.718249
  0
ARC
  5
2F9
102
{ACAD_REACTORS
330
3DE
102
}
330
1F
100
AcDbEntity
  8
LC-002-002-----0
 62
     7
370
    25
100
AcDbCircle
 10
871.390798
 20
2296.372903
 30
0.0
 40
27.70479324130015
100
AcDbArc
 50
145.394244
 51
34.605756
  0
LINE
  5
2FA
102
{ACAD_REACTORS
330
3DE
102
}
330
1F
100
AcDbEntity
  8
LC-002-002-----0
 62
     7
370
    25
100
AcDbLine
 10
833.890798
 20
2330.83245
 30
0.0
 11
831.885834
 21
2330.83245
 31
0.0
  0
LINE
  5
2FB
102
{ACAD_REACTORS
330
3DE
102
}
330
1F
100
AcDbEntity
  8
LC-002-002-----0
 62
     7
370
    25
100
AcDbLine
 10
816.390798
 20
2366.975131
 30
0.0
 11
816.390798
 21
2370.975131
 31
0.0
  0
LINE
  5
2FC
102
{ACAD_REACTORS
330
3DE
102
}
330
1F
100
AcDbEntity
  8
LC-002-002-----0
 62
     7
370
    25
100
AcDbLine
 10
828.641408
 20
2335.162225
 30
0.0
 11
826.891433
 21
2336.172573
 31
0.0
  0
LINE
  5
2FD
102
{ACAD_REACTORS
330
3DE
102
}
330
1F
100
AcDbEntity
  8
LC-002-002-----0
 62
     7
370
    25
100
AcDbLine
 10
823.890798
 20
2341.369092
 30
0.0
 11
823.890798
 21
2356.83245
 31
0.0
  0
LINE
  5
2FE
102
{ACAD_REACTORS
330
3DE
102
}
330
1F
100
AcDbEntity
  8
LC-002-002-----0
 62
     7
370
    25
100
AcDbLine
 10
816.390798
 20
2366.514908
 30
0.0
 11
816.390798
 21
2366.975131
 31
0.0
  0
ARC
  5
2FF
102
{ACAD_REACTORS
330
3DE
102
}
330
1F
100
AcDbEntity
  8
LC-002-002-----0
 62
     7
370
    25
100
AcDbCircle
 10
819.890798
 20
2356.83245
 30
0.0
 40
3.999999999999773
100
AcDbArc
 50
0.0
 51
75.507853
  0
ARC
  5
300
102
{ACAD_REACTORS
330
3DE
102
}
330
1F
100
AcDbEntity
  8
LC-002-002-----0
 62
     7
370
    25
100
AcDbCircle
 10
822.390798
 20
2366.514908
 30
0.0
 40
5.999999999999659
100
AcDbArc
 50
180.0
 51
255.530548
  0
ARC
  5
301
102
{ACAD_REACTORS
330
3DE
102
}
330
1F
100
AcDbEntity
  8
LC-002-002-----0
 62
     7
370
    25
100
AcDbCircle
 10
829.890798
 20
2341.369092
 30
0.0
 40
6.000000000000114
100
AcDbArc
 50
180.0
 51
240.011524
  0
ARC
  5
302
102
{ACAD_REACTORS
330
3DE
102
}
330
1F
100
AcDbEntity
  8
LC-002-002-----0
 62
     7
370
    25
100
AcDbCircle
 10
826.140798
 20
2330.83245
 30
0.0
 40
4.999999999999744
100
AcDbArc
 50
7.927775
 51
59.983847
  0
ARC
  5
303
102
{ACAD_REACTORS
330
3DE
102
}
330
1F
100
AcDbEntity
  8
LC-002-002-----0
 62
     7
370
    25
100
AcDbCircle
 10
831.885361
 20
2331.63245
 30
0.0
 40
0.8000000000001692
100
AcDbArc
 50
187.937394
 51
270.0
  0
LINE
  5
304
102
{ACAD_REACTORS
330
3E2
102
}
330
1F
100
AcDbEntity
  8
LC-002-002-----0
 62
     7
370
    50
100
AcDbLine
 10
994.076743
 20
1101.573128
 30
0.0
 11
994.076743
 21
961.573128
 31
0.0
  0
LINE
  5
305
102
{ACAD_REACTORS
330
3E2
102
}
330
1F
100
AcDbEntity
  8
LC-002-002-----0
 62
     7
370
    50
100
AcDbLine
 10
994.076743
 20
1101.573128
 30
0.0
 11
1293.711242
 21
1101.573128
 31
0.0
  0
LINE
  5
306
102
{ACAD_REACTORS
330
3E2
102
}
330
1F
100
AcDbEntity
  8
LC-002-002-----0
 62
     7
370
    50
100
AcDbLine
 10
994.076743
 20
961.573128
 30
0.0
 11
1293.711242
 21
961.573128
 31
0.0
  0
INSERT
  5
313
330
1F
100
AcDbEntity
  8
LC-008-005-----0
 62
     7
370
    25
100
AcDbBlockReference
  2
*X118
 10
0.0
 20
0.0
 30
0.0
  0
LINE
  5
314
102
{ACAD_REACTORS
330
3E4
102
}
330
1F
100
AcDbEntity
  8
LC-004-100-D10-0
 62
     7
370
    50
100
AcDbLine
 10
1169.076743
 20
926.573128
 30
0.0
 11
1167.605039
 21
947.619475
 31
0.0
  0
ARC
  5
315
102
{ACAD_REACTORS
330
3E4
102
}
330
1F
100
AcDbEntity
  8
LC-004-100-D10-0
 62
     7
370
    50
100
AcDbCircle
 10
1152.641578
 20
946.573128
 30
0.0
 40
14.99999999999997
100
AcDbArc
 50
4.0
 51
90.0
  0
ARC
  5
316
102
{ACAD_REACTORS
330
3E4
102
}
330
1F
100
AcDbEntity
  8
LC-004-100-D10-0
 62
     7
370
    50
100
AcDbCircle
 10
1010.395757
 20
944.073128
 30
0.0
 40
17.5
100
AcDbArc
 50
90.0
 51
176.0
  0
ARC
  5
317
102
{ACAD_REACTORS
330
3E4
102
}
330
1F
100
AcDbEntity
  8
LC-004-100-D10-0
 62
     7
370
    50
100
AcDbCircle
 10
1049.32838
 20
891.573128
 30
0.0
 40
25.0
100
AcDbArc
 50
90.0
 51
176.0
  0
LINE
  5
318
102
{ACAD_REACTORS
330
3E4
102
}
330
1F
100
AcDbEntity
  8
LC-004-100-D10-0
 62
     7
370
    50
100
AcDbLine
 10
1049.32838
 20
916.573128
 30
0.0
 11
1109.076743
 21
916.573128
 31
0.0
  0
LINE
  5
319
102
{ACAD_REACTORS
330
3E4
102
}
330
1F
100
AcDbEntity
  8
LC-004-100-D10-0
 62
     7
370
    50
100
AcDbLine
 10
1109.076743
 20
926.573128
 30
0.0
 11
1109.076743
 21
916.573128
 31
0.0
  0
LINE
  5
31A
102
{ACAD_REACTORS
330
3E4
102
}
330
1F
100
AcDbEntity
  8
LC-004-100-D10-0
 62
     7
370
    50
100
AcDbLine
 10
1169.076743
 20
926.573128
 30
0.0
 11
1109.076743
 21
926.573128
 31
0.0
  0
LINE
  5
31B
102
{ACAD_REACTORS
330
3E4
102
}
330
1F
100
AcDbEntity
  8
LC-004-100-D10-0
 62
     7
370
    50
100
AcDbLine
 10
1024.389279
 20
893.31704
 30
0.0
 11
1015.466141
 21
765.710232
 31
0.0
  0
LINE
  5
31C
102
{ACAD_REACTORS
330
3E4
102
}
330
1F
100
AcDbEntity
  8
LC-004-100-D10-0
 62
     7
370
    50
100
AcDbLine
 10
992.938386
 20
945.293866
 30
0.0
 11
980.380675
 21
765.710232
 31
0.0
  0
INSERT
  5
32B
102
{ACAD_REACTORS
330
3E4
102
}
330
1F
100
AcDbEntity
  8
LC-008-005-----0
 62
     7
370
    25
100
AcDbBlockReference
  2
*X219
 10
0.0
 20
0.0
 30
0.0
  0
DIMENSION
  5
32C
330
1F
100
AcDbEntity
  8
LC-006-003-----0
 62
     7
370
    25
100
AcDbDimension
  2
*D20
 10
1950.0
 20
1545.021779
 30
0.0
 11
1920.0
 21
1528.995738
 31
0.0
 70
   160
 71
     5
 42
35.0
 53
90.0
  3
LC-DIM-L-0025-01-02
100
AcDbAlignedDimension
 13
1813.374753
 23
1580.021779
 33
0.0
 14
1813.374753
 24
1545.021779
 34
0.0
 50
90.0
100
AcDbRotatedDimension
  0
DIMENSION
  5
33B
330
1F
100
AcDbEntity
  8
LC-006-003-----0
 62
     7
370
    25
100
AcDbDimension
  2
*D21
 10
1950.0
 20
1964.021779
 30
0.0
 11
1920.0
 21
2010.689925
 31
0.0
 70
   160
 71
     5
 42
35.0
 53
90.0
  3
LC-DIM-L-0025-01-02
100
AcDbAlignedDimension
 13
1813.374753
 23
1999.021779
 33
0.0
 14
1813.374753
 24
1964.021779
 34
0.0
 50
90.0
100
AcDbRotatedDimension
  0
DIMENSION
  5
34A
330
1F
100
AcDbEntity
  8
LC-006-003-----0
 62
     7
370
    25
100
AcDbDimension
  2
*D22
 10
1950.0
 20
1964.021779
 30
0.0
 11
1920.0
 21
1772.021779
 31
0.0
 70
   160
 71
     5
 42
384.0
 53
90.0
  3
LC-DIM-L-0025-01-02
100
AcDbAlignedDimension
 13
1813.374753
 23
1580.021779
 33
0.0
 14
1813.374753
 24
1964.021779
 34
0.0
 50
90.0
100
AcDbRotatedDimension
  0
LINE
  5
357
102
{ACAD_REACTORS
330
3E0
102
}
330
1F
100
AcDbEntity
  8
LC-002-002-----0
 62
     7
370
    50
100
AcDbLine
 10
800.559824
 20
899.113173
 30
0.0
 11
800.559824
 21
1075.113173
 31
0.0
  0
LINE
  5
358
102
{ACAD_REACTORS
330
3E0
102
}
330
1F
100
AcDbEntity
  8
LC-002-002-----0
 62
     7
370
    50
100
AcDbLine
 10
792.559824
 20
1083.113173
 30
0.0
 11
448.559824
 21
1083.113173
 31
0.0
  0
LINE
  5
359
102
{ACAD_REACTORS
330
3E0
102
}
330
1F
100
AcDbEntity
  8
LC-002-002-----0
 62
     7
370
    50
100
AcDbLine
 10
440.559824
 20
1075.113173
 30
0.0
 11
440.559824
 21
899.113173
 31
0.0
  0
LINE
  5
35A
102
{ACAD_REACTORS
330
3E0
102
}
330
1F
100
AcDbEntity
  8
LC-002-002-----0
 62
     7
370
    50
100
AcDbLine
 10
448.559824
 20
891.113173
 30
0.0
 11
792.559824
 21
891.113173
 31
0.0
  0
DIMENSION
  5
35B
330
1F
100
AcDbEntity
  8
LC-006-003-----0
 62
     7
370
    25
100
AcDbDimension
  2
*D23
 10
800.559824
 20
800.0
 30
0.0
 11
620.559824
 21
830.0
 31
0.0
 70
   160
 71
     5
 42
720.0
  3
LC-DIM-L-0025-02-02
100
AcDbAlignedDimension
 13
440.559824
 23
911.113173
 33
0.0
 14
800.559824
 24
911.113173
 34
0.0
100
AcDbRotatedDimension
1001
ACAD
1000
DSTYLE
1002
{
1070
   144
1040
2.0
1002
}
  0
DIMENSION
  5
368
330
1F
100
AcDbEntity
  8
LC-006-003-----0
 62
     7
370
    25
100
AcDbDimension
  2
*D24
 10
900.0
 20
1083.113173
 30
0.0
 11
870.0
 21
987.113173
 31
0.0
 70
   160
 71
     5
 42
384.0
 53
90.0
  3
LC-DIM-L-0025-02-02
100
AcDbAlignedDimension
 13
780.559824
 23
891.113173
 33
0.0
 14
780.559824
 24
1083.113173
 34
0.0
 50
90.0
100
AcDbRotatedDimension
1001
ACAD
1000
DSTYLE
1002
{
1070
   144
1040
2.0
1002
}
  0
TEXT
  5
375
330
1F
100
AcDbEntity
  8
LC-007-004-----0
 62
     7
370
    35
100
AcDbText
 10
349.014074
 20
733.363173
 30
0.0
 40
35.0
  1
Ausschnitt Unterbau 1:20
 41
0.7
  7
LCTX0-400-0-0pDIN-Schrift
 72
     1
 11
620.559824
 21
733.363173
 31
0.0
100
AcDbText
  0
INSERT
  5
3A5
330
1F
100
AcDbEntity
  8
LC-008-005-----0
 62
     7
370
    25
100
AcDbBlockReference
  2
*X325
 10
0.0
 20
0.0
 30
0.0
  0
DIMENSION
  5
3A7
330
1F
100
AcDbEntity
  8
LC-006-003-----0
 62
     7
370
    25
100
AcDbDimension
  2
*D26
 10
448.559824
 20
899.113173
 30
0.0
 11
490.300598
 21
915.358859
 31
0.0
 70
   164
 71
     5
 42
16.0
  3
LC-DIM-R-0025-02-02
100
AcDbRadialDimension
 15
454.873456
 25
904.026223
 35
0.0
 40
1.0
1001
ACAD
1000
DSTYLE
1002
{
1070
   144
1040
2.0
1002
}
  0
DIMENSION
  5
3B0
330
1F
100
AcDbEntity
  8
LC-006-003-----0
 62
     7
370
    25
100
AcDbDimension
  2
*D27
 10
1231.390798
 20
2700.0
 30
0.0
 11
871.390798
 21
2730.0
 31
0.0
 70
   160
 71
     5
 42
720.0
  3
LC-DIM-L-0025-00-02
100
AcDbAlignedDimension
 13
511.390798
 23
2600.03
 33
0.0
 14
1231.390798
 24
2600.03
 34
0.0
100
AcDbRotatedDimension
  0
DIMENSION
  5
3BD
330
1F
100
AcDbEntity
  8
LC-006-003-----0
 62
     7
370
    25
100
AcDbDimension
  2
*D28
 10
1266.390798
 20
2700.0
 30
0.0
 11
1295.898692
 21
2730.0
 31
0.0
 70
   160
 71
     5
 42
35.0
  3
LC-DIM-L-0025-00-02
100
AcDbAlignedDimension
 13
1231.390798
 23
2590.03
 33
0.0
 14
1266.390798
 24
2590.03
 34
0.0
100
AcDbRotatedDimension
  0
DIMENSION
  5
3CC
330
1F
100
AcDbEntity
  8
LC-006-003-----0
 62
     7
370
    25
100
AcDbDimension
  2
*D29
 10
511.390798
 20
2700.0
 30
0.0
 11
468.536521
 21
2730.0
 31
0.0
 70
   160
 71
     5
 42
35.0
  3
LC-DIM-L-0025-00-02
100
AcDbAlignedDimension
 13
476.390798
 23
2590.03
 33
0.0
 14
511.390798
 24
2590.03
 34
0.0
100
AcDbRotatedDimension
  0
TEXT
  5
3DB
330
1F
100
AcDbEntity
  8
LC-007-004-----0
 62
     7
370
    18
100
AcDbText
 10
1703.710806
 20
558.852586
 30
0.0
 40
17.5
  1
Werkstoff:
 41
0.8
  7
LCTX0-400-0-0pDIN-Schrift
100
AcDbText
  0
TEXT
  5
3DC
330
1F
100
AcDbEntity
  8
LC-007-004-----0
 62
     7
370
    25
100
AcDbText
 10
1810.177796
 20
555.102586
 30
0.0
 40
25.0
  1
 Cristalite
 41
0.8
  7
LCTX0-400-0-0pDIN-Schrift
100
AcDbText
  0
ENDSEC
  0
SECTION
  2
OBJECTS
  0
DICTIONARY
  5
C
330
0
100
AcDbDictionary
281
     1
  3
ACAD_GROUP
350
D
  3
ACAD_LAYOUT
350
1A
  3
ACAD_MLINESTYLE
350
17
  3
ACAD_PLOTSETTINGS
350
19
  3
ACAD_PLOTSTYLENAME
350
E
  0
DICTIONARY
  5
D
102
{ACAD_REACTORS
330
C
102
}
330
C
100
AcDbDictionary
281
     1
  3
LCGROUP1343
350
3E5
  3
LCGROUP19
350
3DD
  3
LCGROUP3030
350
3DF
  3
LCGROUP3234
350
3E3
  3
LCGROUP3580
350
3DE
  3
LCGROUP3759
350
3E2
  3
LCGROUP3790
350
3E4
  3
LCGROUP3943
350
3E0
  3
LCGROUP447
350
3E1
  0
DICTIONARY
  5
1A
102
{ACAD_REACTORS
330
C
102
}
330
C
100
AcDbDictionary
281
     1
  3
Layout1
350
1E
  3
Layout2
350
26
  3
Model
350
22
  0
DICTIONARY
  5
17
102
{ACAD_REACTORS
330
C
102
}
330
C
100
AcDbDictionary
281
     1
  3
Standard
350
18
  0
DICTIONARY
  5
19
102
{ACAD_REACTORS
330
C
102
}
330
C
100
AcDbDictionary
281
     1
  0
ACDBDICTIONARYWDFLT
  5
E
102
{ACAD_REACTORS
330
C
102
}
330
C
100
AcDbDictionary
281
     1
  3
Normal
350
F
100
AcDbDictionaryWithDefault
340
F
  0
GROUP
  5
3E5
102
{ACAD_REACTORS
330
D
102
}
330
D
100
AcDbGroup
300
GRP1343
 70
     1
 71
     1
340
104
340
106
340
10D
340
113
340
114
340
1AA
340
1AB
340
1AC
340
1AD
340
1AE
340
1AF
340
1C2
340
1D5
340
1D6
340
1D7
340
1D8
340
1D9
340
1E7
340
1F5
340
1F6
340
1F7
340
1F8
340
1F9
340
1FA
340
1FB
340
1FC
340
1FD
340
1FE
340
1FF
340
200
340
201
340
202
340
203
340
204
340
205
340
206
340
207
340
208
340
209
340
20A
340
20B
340
21E
340
21F
340
264
340
265
  0
GROUP
  5
3DD
102
{ACAD_REACTORS
330
D
102
}
330
D
100
AcDbGroup
300
GRP19
 70
     1
 71
     1
340
108
340
10A
340
10B
340
10C
  0
GROUP
  5
3DF
102
{ACAD_REACTORS
330
D
102
}
330
D
100
AcDbGroup
300
GRP3030
 70
     1
 71
     1
340
230
340
231
340
232
340
233
340
234
340
235
340
236
340
237
340
238
340
239
340
23A
340
23B
340
23C
340
23D
340
23E
340
240
  0
GROUP
  5
3E3
102
{ACAD_REACTORS
330
D
102
}
330
D
100
AcDbGroup
300
GRP3234
 70
     1
 71
     1
340
266
340
267
340
268
340
269
340
26A
340
26B
340
26C
340
26D
340
26E
340
26F
340
270
340
271
340
272
340
273
340
274
340
275
340
276
340
277
340
278
340
279
340
27A
340
27B
340
27C
340
27D
340
27E
340
27F
340
280
340
281
340
282
340
283
340
284
340
285
340
286
340
287
340
297
340
298
340
299
340
29A
340
29B
340
29C
340
29D
340
29E
340
29F
340
2A0
340
2A1
340
2A2
340
2A3
340
2A4
340
2A5
340
2A6
340
2A7
340
2A8
340
2A9
340
2AA
340
2AB
340
2AC
340
2AD
340
2AE
340
2AF
340
2B0
340
2B1
340
2B2
340
2B3
340
2B4
340
2B5
340
2B6
340
2B7
340
2B8
340
2B9
340
2BA
340
2BB
340
2BC
340
2BD
340
2BE
340
2BF
340
2C0
340
2C1
340
2C2
340
2C3
340
2C4
340
2C5
340
2C6
340
2C7
340
2C8
340
2C9
340
2CA
340
2CB
340
2CC
340
2CD
340
2CE
340
2CF
340
2D0
340
2D1
340
2D2
340
2D3
340
2D4
340
2D5
340
2D6
340
2D7
340
2D8
340
2D9
340
2DA
340
2DB
  0
GROUP
  5
3DE
102
{ACAD_REACTORS
330
D
102
}
330
D
100
AcDbGroup
300
GRP3580
 70
     1
 71
     1
340
2DC
340
2DD
340
2DE
340
2DF
340
2E0
340
2E1
340
2E2
340
2E3
340
2E4
340
2E5
340
2E6
340
2E7
340
2E8
340
2E9
340
2EA
340
2EB
340
2EC
340
2ED
340
2EE
340
2EF
340
2F0
340
2F1
340
2F2
340
2F3
340
2F4
340
2F5
340
2F6
340
2F7
340
2F8
340
2F9
340
2FA
340
2FB
340
2FC
340
2FD
340
2FE
340
2FF
340
300
340
301
340
302
340
303
  0
GROUP
  5
3E2
102
{ACAD_REACTORS
330
D
102
}
330
D
100
AcDbGroup
300
Gruppe 4945
 70
     1
 71
     1
340
304
340
305
340
306
  0
GROUP
  5
3E4
102
{ACAD_REACTORS
330
D
102
}
330
D
100
AcDbGroup
300
Gruppe 3790
 70
     1
 71
     1
340
109
340
314
340
315
340
316
340
317
340
318
340
319
340
31A
340
31B
340
31C
340
32B
  0
GROUP
  5
3E0
102
{ACAD_REACTORS
330
D
102
}
330
D
100
AcDbGroup
300
GRP3943
 70
     1
 71
     1
340
10F
340
110
340
111
340
112
340
357
340
358
340
359
340
35A
  0
GROUP
  5
3E1
102
{ACAD_REACTORS
330
D
102
}
330
D
100
AcDbGroup
300
GRP447
 70
     1
 71
     1
340
115
340
116
340
117
340
118
340
119
340
11A
340
12C
340
13E
340
13F
340
140
340
141
340
142
340
14F
340
15C
340
15D
340
15E
340
15F
340
166
340
167
340
168
340
169
340
16A
340
16B
340
16C
340
16D
340
16E
340
16F
340
170
340
171
340
172
340
173
340
174
340
175
340
176
340
177
340
178
340
179
340
17A
340
17B
340
17C
340
17D
340
17E
340
17F
340
180
340
181
340
182
340
183
340
184
340
1A9
340
20C
  0
LAYOUT
  5
1E
102
{ACAD_REACTORS
330
1A
102
}
330
1A
100
AcDbPlotSettings
  1

  2

  4

  6

 40
0.0
 41
0.0
 42
0.0
 43
0.0
 44
0.0
 45
0.0
 46
0.0
 47
0.0
 48
0.0
 49
0.0
140
0.0
141
0.0
142
1.0
143
1.0
 70
   688
 72
     0
 73
     0
 74
     5
  7

 75
    16
 76
     0
 77
     2
 78
   300
147
1.0
148
0.0
149
0.0
100
AcDbLayout
  1
Layout1
 70
     1
 71
     1
 10
0.0
 20
0.0
 11
2100.0
 21
2970.0
 12
0.0
 22
0.0
 32
0.0
 14
0.0
 24
0.0
 34
0.0
 15
2100.0
 25
2970.0
 35
0.0
146
0.0
 13
0.0
 23
0.0
 33
0.0
 16
1.0
 26
0.0
 36
0.0
 17
0.0
 27
1.0
 37
0.0
 76
     0
330
1B
  0
LAYOUT
  5
26
102
{ACAD_REACTORS
330
1A
102
}
330
1A
100
AcDbPlotSettings
  1

  2

  4

  6

 40
0.0
 41
0.0
 42
0.0
 43
0.0
 44
0.0
 45
0.0
 46
0.0
 47
0.0
 48
0.0
 49
0.0
140
0.0
141
0.0
142
1.0
143
1.0
 70
   688
 72
     0
 73
     0
 74
     5
  7

 75
    16
 76
     0
 77
     2
 78
   300
147
1.0
148
0.0
149
0.0
100
AcDbLayout
  1
Layout2
 70
     1
 71
     2
 10
0.0
 20
0.0
 11
0.0
 21
0.0
 12
0.0
 22
0.0
 32
0.0
 14
0.0
 24
0.0
 34
0.0
 15
0.0
 25
0.0
 35
0.0
146
0.0
 13
0.0
 23
0.0
 33
0.0
 16
1.0
 26
0.0
 36
0.0
 17
0.0
 27
1.0
 37
0.0
 76
     0
330
23
  0
LAYOUT
  5
22
102
{ACAD_REACTORS
330
1A
102
}
330
1A
100
AcDbPlotSettings
  1

  2

  4

  6

 40
0.0
 41
0.0
 42
0.0
 43
0.0
 44
0.0
 45
0.0
 46
0.0
 47
0.0
 48
0.0
 49
0.0
140
0.0
141
0.0
142
1.0
143
1.0
 70
  1776
 72
     0
 73
     0
 74
     0
  7

 75
     0
 76
     0
 77
     2
 78
   300
147
1.0
148
0.0
149
0.0
100
AcDbLayout
  1
Model
 70
     1
 71
     0
 10
0.0
 20
0.0
 11
2100.0
 21
2970.0
 12
0.0
 22
0.0
 32
0.0
 14
0.0
 24
0.0
 34
0.0
 15
2100.0
 25
2970.0
 35
0.0
146
0.0
 13
0.0
 23
0.0
 33
0.0
 16
1.0
 26
0.0
 36
0.0
 17
0.0
 27
1.0
 37
0.0
 76
     0
330
1F
  0
MLINESTYLE
  5
18
102
{ACAD_REACTORS
330
17
102
}
330
17
100
AcDbMlineStyle
  2
Standard
 70
     0
  3

 62
   256
 51
90.0
 52
90.0
 71
     2
 49
0.5
 62
   256
  6
BYLAYER
 49
-0.5
 62
   256
  6
BYLAYER
  0
ACDBPLACEHOLDER
  5
F
102
{ACAD_REACTORS
330
E
102
}
330
E
  0
ENDSEC
  0
EOF
